  0
SECTION
  2
HEADER
  9
$ACADVER
  1
AC1014
  9
$ACADMAINTVER
 70
     9
  9
$DWGCODEPAGE
  3
ANSI_932
  9
$INSBASE
 10
0.0
 20
0.0
 30
0.0
  9
$EXTMIN
 10
-181.3000009999999
 20
-52.500003054481
 30
-0.00000001
  9
$EXTMAX
 10
36.07938891878179
 20
34.90569188877056
 30
0.00000001
  9
$LIMMIN
 10
-193.2269806945005
 20
-81.94180891199506
  9
$LIMMAX
 10
48.7100153649419
 20
56.53896808917415
  9
$ORTHOMODE
 70
     0
  9
$REGENMODE
 70
     1
  9
$FILLMODE
 70
     1
  9
$QTEXTMODE
 70
     0
  9
$MIRRTEXT
 70
     0
  9
$DRAGMODE
 70
     2
  9
$LTSCALE
 40
1.0
  9
$OSMODE
 70
    55
  9
$ATTMODE
 70
     1
  9
$TEXTSIZE
 40
2.5
  9
$TRACEWID
 40
1.0
  9
$TEXTSTYLE
  7
STANDARD
  9
$CLAYER
  8
AM_0
  9
$CELTYPE
  6
BYLAYER
  9
$CECOLOR
 62
   256
  9
$CELTSCALE
 40
1.0
  9
$DELOBJ
 70
     1
  9
$DISPSILH
 70
     0
  9
$DIMSCALE
 40
1.0
  9
$DIMASZ
 40
2.5
  9
$DIMEXO
 40
1.0
  9
$DIMDLI
 40
12.0
  9
$DIMRND
 40
0.0
  9
$DIMDLE
 40
0.0
  9
$DIMEXE
 40
1.0
  9
$DIMTP
 40
0.1
  9
$DIMTM
 40
0.1
  9
$DIMTXT
 40
3.2
  9
$DIMCEN
 40
0.0
  9
$DIMTSZ
 40
0.0
  9
$DIMTOL
 70
     0
  9
$DIMLIM
 70
     0
  9
$DIMTIH
 70
     0
  9
$DIMTOH
 70
     0
  9
$DIMSE1
 70
     0
  9
$DIMSE2
 70
     0
  9
$DIMTAD
 70
     3
  9
$DIMZIN
 70
     8
  9
$DIMBLK
  1
OPEN30
  9
$DIMASO
 70
     1
  9
$DIMSHO
 70
     1
  9
$DIMPOST
  1

  9
$DIMAPOST
  1
"
  9
$DIMALT
 70
     0
  9
$DIMALTD
 70
     2
  9
$DIMALTF
 40
0.0393701
  9
$DIMLFAC
 40
1.0
  9
$DIMTOFL
 70
     1
  9
$DIMTVP
 40
0.0
  9
$DIMTIX
 70
     0
  9
$DIMSOXD
 70
     0
  9
$DIMSAH
 70
     0
  9
$DIMBLK1
  1

  9
$DIMBLK2
  1

  9
$DIMSTYLE
  2
AM_JIS
  9
$DIMCLRD
 70
   256
  9
$DIMCLRE
 70
   256
  9
$DIMCLRT
 70
     2
  9
$DIMTFAC
 40
0.71
  9
$DIMGAP
 40
1.5
  9
$DIMJUST
 70
     0
  9
$DIMSD1
 70
     0
  9
$DIMSD2
 70
     0
  9
$DIMTOLJ
 70
     0
  9
$DIMTZIN
 70
     0
  9
$DIMALTZ
 70
     0
  9
$DIMALTTZ
 70
     0
  9
$DIMFIT
 70
     3
  9
$DIMUPT
 70
     0
  9
$DIMUNIT
 70
     2
  9
$DIMDEC
 70
     3
  9
$DIMTDEC
 70
     3
  9
$DIMALTU
 70
     2
  9
$DIMALTTD
 70
     2
  9
$DIMTXSTY
  7
ASAMI
  9
$DIMAUNIT
 70
     0
  9
$LUNITS
 70
     2
  9
$LUPREC
 70
     2
  9
$SKETCHINC
 40
1.0
  9
$FILLETRAD
 40
2.5
  9
$AUNITS
 70
     0
  9
$AUPREC
 70
     0
  9
$MENU
  1
.
  9
$ELEVATION
 40
0.0
  9
$PELEVATION
 40
0.0
  9
$THICKNESS
 40
0.0
  9
$LIMCHECK
 70
     0
  9
$BLIPMODE
 70
     0
  9
$CHAMFERA
 40
0.25
  9
$CHAMFERB
 40
0.25
  9
$CHAMFERC
 40
20.0
  9
$CHAMFERD
 40
0.0
  9
$SKPOLY
 70
     0
  9
$TDCREATE
 40
2452800.443498622
  9
$TDUPDATE
 40
2453151.685397118
  9
$TDINDWG
 40
0.0597374306
  9
$TDUSRTIMER
 40
0.0597374306
  9
$USRTIMER
 70
     1
  9
$ANGBASE
 50
0.0
  9
$ANGDIR
 70
     0
  9
$PDMODE
 70
     3
  9
$PDSIZE
 40
0.0
  9
$PLINEWID
 40
0.0
  9
$COORDS
 70
     1
  9
$SPLFRAME
 70
     0
  9
$SPLINETYPE
 70
     6
  9
$SPLINESEGS
 70
     8
  9
$ATTDIA
 70
     1
  9
$ATTREQ
 70
     1
  9
$HANDLING
 70
 12289
  9
$HANDSEED
  5
2DFD
  9
$SURFTAB1
 70
     6
  9
$SURFTAB2
 70
     6
  9
$SURFTYPE
 70
     6
  9
$SURFU
 70
     6
  9
$SURFV
 70
     6
  9
$UCSNAME
  2

  9
$UCSORG
 10
0.0
 20
0.0
 30
0.0
  9
$UCSXDIR
 10
1.0
 20
0.0000000000000027
 30
0.0
  9
$UCSYDIR
 10
-0.0000000000000027
 20
1.0
 30
0.0
  9
$PUCSNAME
  2

  9
$PUCSORG
 10
0.0
 20
0.0
 30
0.0
  9
$PUCSXDIR
 10
1.0
 20
0.0
 30
0.0
  9
$PUCSYDIR
 10
0.0
 20
1.0
 30
0.0
  9
$USERI1
 70
     0
  9
$USERI2
 70
     0
  9
$USERI3
 70
     0
  9
$USERI4
 70
     0
  9
$USERI5
 70
     0
  9
$USERR1
 40
0.0
  9
$USERR2
 40
0.0
  9
$USERR3
 40
0.0
  9
$USERR4
 40
0.0
  9
$USERR5
 40
0.0
  9
$WORLDVIEW
 70
     1
  9
$SHADEDGE
 70
     3
  9
$SHADEDIF
 70
    70
  9
$TILEMODE
 70
     1
  9
$MAXACTVP
 70
    64
  9
$PINSBASE
 10
0.0
 20
0.0
 30
0.0
  9
$PLIMCHECK
 70
     0
  9
$PEXTMIN
 10
1.000000000000000E+20
 20
1.000000000000000E+20
 30
1.000000000000000E+20
  9
$PEXTMAX
 10
-1.000000000000000E+20
 20
-1.000000000000000E+20
 30
-1.000000000000000E+20
  9
$PLIMMIN
 10
0.0
 20
0.0
  9
$PLIMMAX
 10
841.0
 20
594.0
  9
$UNITMODE
 70
     0
  9
$VISRETAIN
 70
     1
  9
$PLINEGEN
 70
     0
  9
$PSLTSCALE
 70
     0
  9
$TREEDEPTH
 70
  3020
  9
$PICKSTYLE
 70
     0
  9
$CMLSTYLE
  2
STANDARD
  9
$CMLJUST
 70
     0
  9
$CMLSCALE
 40
20.0
  9
$PROXYGRAPHICS
 70
     1
  9
$MEASUREMENT
 70
     1
  0
ENDSEC
  0
SECTION
  2
CLASSES
  0
CLASS
  1
ACDBDICTIONARYWDFLT
  2
AcDbDictionaryWithDefault
  3
AutoCAD 2000
 90
        0
280
     0
281
     0
  0
CLASS
  1
ACDBPLACEHOLDER
  2
AcDbPlaceHolder
  3
AutoCAD 2000
 90
        0
280
     0
281
     0
  0
CLASS
  1
LAYOUT
  2
AcDbLayout
  3
AutoCAD 2000
 90
        0
280
     0
281
     0
  0
CLASS
  1
AMGSETTINGSOBJ
  2
AmgSettingsObj
  3
"AcadM|Product Description: AutoCAD Mechanical 2000|Company: Autodesk"
 90
        0
280
     0
281
     0
  0
CLASS
  1
ACME_DOCUMENT
  2
AcMeDbDoc
  3
AcMeServices
 90
        0
280
     0
281
     0
  0
CLASS
  1
ACMESCOPE
  2
AcMeScope
  3
AcMeServices
 90
        0
280
     0
281
     0
  0
CLASS
  1
ACMECOMMANDHISTORY
  2
AcMeCommandHistory
  3
AcMeServices
 90
        0
280
     0
281
     0
  0
CLASS
  1
DICTIONARYVAR
  2
AcDbDictionaryVar
  3
AutoCAD 2000
 90
        0
280
     0
281
     0
  0
CLASS
  1
ACIMSYSVARMAN
  2
AcImSysVarManager
  3
AcMeServices
 90
        0
280
     0
281
     0
  0
CLASS
  1
ACIMREALSYSVAR
  2
AcImRealSysVar
  3
AcMeServices
 90
        0
280
     0
281
     0
  0
CLASS
  1
ACIMINTSYSVAR
  2
AcImIntSysVar
  3
AcMeServices
 90
        0
280
     0
281
     0
  0
CLASS
  1
ACMEDRAWINGMAN
  2
AcMeDrawingMan
  3
AcMeServices
 90
        0
280
     0
281
     0
  0
CLASS
  1
ACMEVIEW
  2
AcMeView
  3
AcMeServices
 90
        0
280
     0
281
     0
  0
CLASS
  1
ACDBENTITYCACHE
  2
AcMeEntityCache
  3
AcMeServices
 90
        0
280
     0
281
     0
  0
CLASS
  1
GSMANAGER
  2
AcMeGSManager
  3
AcMeServices
 90
        0
280
     0
281
     0
  0
CLASS
  1
AmdtInternalReactor
  2
AmdtInternalReactor
  3
AcMeServices
 90
        0
280
     0
281
     0
  0
CLASS
  1
ACMESTATEMGR
  2
AcMeStateMgr
  3
AcMeServices
 90
        0
280
     0
281
     0
  0
CLASS
  1
ACME_DATABASE
  2
AcMeDbDatabase
  3
AcMeServices
 90
        0
280
     0
281
     0
  0
CLASS
  1
ACRFINSADJUSTERMGR
  2
AcRfInsAdjusterMgr
  3
AcMeServices
 90
        0
280
     0
281
     0
  0
CLASS
  1
ACMDATADICTIONARY
  2
AcmDataDictionary
  3
"AcmSymBB|Product Description: AutoCAD Mechanical 2000|Company: Autodesk"
 90
        0
280
     0
281
     0
  0
CLASS
  1
ACMDATAENTRYBLOCK
  2
AcmDataEntryBlock
  3
"AcmSymBB|Product Description: AutoCAD Mechanical 2000|Company: Autodesk"
 90
        0
280
     0
281
     0
  0
CLASS
  1
AMGOBJPROPCFG
  2
AmgObjPropCfg
  3
"AmgLay|Product Description: AutoCAD Mechanical 2000|Company: Autodesk"
 90
        1
280
     0
281
     0
  0
CLASS
  1
ACAMGFILTERDAT
  2
AcAmgFilterDat
  3
"AcadM|Product Description: AutoCAD Mechanical 2000|Company: Autodesk"
 90
        0
280
     0
281
     0
  0
CLASS
  1
LAYER_INDEX
  2
AcDbLayerIndex
  3
AutoCAD 2000
 90
        0
280
     0
281
     0
  0
CLASS
  1
IDBUFFER
  2
AcDbIdBuffer
  3
AutoCAD 2000
 90
        0
280
     0
281
     0
  0
CLASS
  1
ACIMSTRSYSVAR
  2
AcImStrSysVar
  3
AcMeServices
 90
        0
280
     0
281
     0
  0
CLASS
  1
ACMSTANDARDJIS
  2
AcmStandardJIS
  3
"AcmSymBB|Product Description: AutoCAD Mechanical 2000|Company: Autodesk"
 90
        0
280
     0
281
     0
  0
CLASS
  1
ACMSURFSTANDARDJIS
  2
AcmSurfTextStdJIS
  3
"AcmSymBB|Product Description: AutoCAD Mechanical 2000|Company: Autodesk"
 90
        0
280
     0
281
     0
  0
CLASS
  1
ACMFCFSTANDARDJIS
  2
AcmFCFStdJIS
  3
"AcmSymBB|Product Description: AutoCAD Mechanical 2000|Company: Autodesk"
 90
        0
280
     0
281
     0
  0
CLASS
  1
ACMWELDSTANDARDJIS
  2
AcmWeldingStdJIS
  3
"AcmSymBB|Product Description: AutoCAD Mechanical 2000|Company: Autodesk"
 90
        0
280
     0
281
     0
  0
CLASS
  1
ACMIDSTANDARDJIS
  2
AcmIdStdJIS
  3
"AcmSymBB|Product Description: AutoCAD Mechanical 2000|Company: Autodesk"
 90
        0
280
     0
281
     0
  0
CLASS
  1
ACMDATUMSTANDARDJIS
  2
AcmDatumStdJIS
  3
"AcmSymBB|Product Description: AutoCAD Mechanical 2000|Company: Autodesk"
 90
        0
280
     0
281
     0
  0
CLASS
  1
ACMBOMSTANDARDJIS
  2
AcmBOMStdJIS
  3
"AcmSymBB|Product Description: AutoCAD Mechanical 2000|Company: Autodesk"
 90
        0
280
     0
281
     0
  0
CLASS
  1
ACMSTANDARDANSI
  2
AcmStandardANSI
  3
"AcmSymBB|Product Description: AutoCAD Mechanical 2000|Company: Autodesk"
 90
        0
280
     0
281
     0
  0
CLASS
  1
ACMSURFSTANDARDANSI
  2
AcmSurfTextStdANSI
  3
"AcmSymBB|Product Description: AutoCAD Mechanical 2000|Company: Autodesk"
 90
        0
280
     0
281
     0
  0
CLASS
  1
ACMFCFSTANDARDANSI
  2
AcmFCFStdANSI
  3
"AcmSymBB|Product Description: AutoCAD Mechanical 2000|Company: Autodesk"
 90
        0
280
     0
281
     0
  0
CLASS
  1
ACMWELDSTANDARDANSI
  2
AcmWeldingStdANSI
  3
"AcmSymBB|Product Description: AutoCAD Mechanical 2000|Company: Autodesk"
 90
        0
280
     0
281
     0
  0
CLASS
  1
ACMIDSTANDARDANSI
  2
AcmIdStdANSI
  3
"AcmSymBB|Product Description: AutoCAD Mechanical 2000|Company: Autodesk"
 90
        0
280
     0
281
     0
  0
CLASS
  1
ACMDATUMSTANDARDANSI
  2
AcmDatumStdANSI
  3
"AcmSymBB|Product Description: AutoCAD Mechanical 2000|Company: Autodesk"
 90
        0
280
     0
281
     0
  0
CLASS
  1
ACMBOMSTANDARDANSI
  2
AcmBOMStdANSI
  3
"AcmSymBB|Product Description: AutoCAD Mechanical 2000|Company: Autodesk"
 90
        0
280
     0
281
     0
  0
CLASS
  1
ACMSTANDARDBSI
  2
AcmStandardBSI
  3
"AcmSymBB|Product Description: AutoCAD Mechanical 2000|Company: Autodesk"
 90
        0
280
     0
281
     0
  0
CLASS
  1
ACMSURFSTANDARDBSI
  2
AcmSurfTextStdBSI
  3
"AcmSymBB|Product Description: AutoCAD Mechanical 2000|Company: Autodesk"
 90
        0
280
     0
281
     0
  0
CLASS
  1
ACMFCFSTANDARDBSI
  2
AcmFCFStdBSI
  3
"AcmSymBB|Product Description: AutoCAD Mechanical 2000|Company: Autodesk"
 90
        0
280
     0
281
     0
  0
CLASS
  1
ACMWELDSTANDARDBSI
  2
AcmWeldingStdBSI
  3
"AcmSymBB|Product Description: AutoCAD Mechanical 2000|Company: Autodesk"
 90
        0
280
     0
281
     0
  0
CLASS
  1
ACMIDSTANDARDBSI
  2
AcmIdStdBSI
  3
"AcmSymBB|Product Description: AutoCAD Mechanical 2000|Company: Autodesk"
 90
        0
280
     0
281
     0
  0
CLASS
  1
ACMDATUMSTANDARDBSI
  2
AcmDatumStdBSI
  3
"AcmSymBB|Product Description: AutoCAD Mechanical 2000|Company: Autodesk"
 90
        0
280
     0
281
     0
  0
CLASS
  1
ACMBOMSTANDARDBSI
  2
AcmBOMStdBSI
  3
"AcmSymBB|Product Description: AutoCAD Mechanical 2000|Company: Autodesk"
 90
        0
280
     0
281
     0
  0
CLASS
  1
LONG_TRANSACTION
  2
AcDbLongTransaction
  3
AutoCAD 2000
 90
        0
280
     0
281
     0
  0
CLASS
  1
LWPOLYLINE
  2
AcDbPolyline
  3
AutoCAD 2000
 90
        0
280
     0
281
     1
  0
CLASS
  1
HATCH
  2
AcDbHatch
  3
AutoCAD 2000
 90
        0
280
     0
281
     1
  0
CLASS
  1
XRECORD
  2
AcDbXrecord
  3
AutoCAD 2000
 90
        0
280
     0
281
     0
  0
ENDSEC
  0
SECTION
  2
TABLES
  0
TABLE
  2
VPORT
  5
8
330
0
100
AcDbSymbolTable
 70
     3
  0
VPORT
  5
2DC7
330
8
100
AcDbSymbolTableRecord
100
AcDbViewportTableRecord
  2
*ACTIVE
 70
     0
 10
0.0
 20
0.0
 11
1.0
 21
1.0
 12
-68.5521048132593
 22
-8.792279498310847
 13
0.0
 23
0.0
 14
2.5
 24
2.5
 15
10.0
 25
10.0
 16
0.0
 26
0.0
 36
1.0
 17
0.0
 27
0.0
 37
0.0
 40
144.7254009145561
 41
1.56570841889117
 42
50.0
 43
0.0
 44
0.0
 50
0.0
 51
0.0
 71
     0
 72
   100
 73
     1
 74
     1
 75
     0
 76
     0
 77
     0
 78
     0
  0
ENDTAB
  0
TABLE
  2
LTYPE
  5
5
330
0
100
AcDbSymbolTable
 70
    10
  0
LTYPE
  5
14
330
5
100
AcDbSymbolTableRecord
100
AcDbLinetypeTableRecord
  2
BYBLOCK
 70
     0
  3

 72
    65
 73
     0
 40
0.0
  0
LTYPE
  5
15
330
5
100
AcDbSymbolTableRecord
100
AcDbLinetypeTableRecord
  2
BYLAYER
 70
     0
  3

 72
    65
 73
     0
 40
0.0
  0
LTYPE
  5
16
330
5
100
AcDbSymbolTableRecord
100
AcDbLinetypeTableRecord
  2
CONTINUOUS
 70
     0
  3
Solid line
 72
    65
 73
     0
 40
0.0
  0
LTYPE
  5
4B
330
5
100
AcDbSymbolTableRecord
100
AcDbLinetypeTableRecord
  2
AM_ISO02W050
 70
     0
  3
__ __ __ __ __ __ __ __ __ __ __ __ __ __ __
 72
    65
 73
     2
 40
7.5
 49
6.0
 74
     0
 49
-1.5
 74
     0
  0
LTYPE
  5
4C
330
5
100
AcDbSymbolTableRecord
100
AcDbLinetypeTableRecord
  2
AM_ISO08W050
 70
     0
  3
____ . ____ . ____ . ____ . ____ . ____ . ____
 72
    65
 73
     4
 40
18.0
 49
12.0
 74
     0
 49
-1.5
 74
     0
 49
3.0
 74
     0
 49
-1.5
 74
     0
  0
LTYPE
  5
4D
330
5
100
AcDbSymbolTableRecord
100
AcDbLinetypeTableRecord
  2
AM_ISO09W050
 70
     0
  3
_____ . . _____ . . _____ . . ____ .. ____
 72
    65
 73
     6
 40
22.5
 49
12.0
 74
     0
 49
-1.5
 74
     0
 49
3.0
 74
     0
 49
-1.5
 74
     0
 49
3.0
 74
     0
 49
-1.5
 74
     0
  0
LTYPE
  5
4E
330
5
100
AcDbSymbolTableRecord
100
AcDbLinetypeTableRecord
  2
AMCONSTR
 70
     0
  3
_______________________
 72
    65
 73
     2
 40
9999.0
 49
9999.0
 74
     0
 49
0.0
 74
     0
  0
LTYPE
  5
4F
330
5
100
AcDbSymbolTableRecord
100
AcDbLinetypeTableRecord
  2
AM_ISO02W050X2
 70
     0
  3
 _ _ _ _ _ _ _ _ _ _ _ _
 72
    65
 73
     2
 40
3.75
 49
3.0
 74
     0
 49
-0.75
 74
     0
  0
LTYPE
  5
50
330
5
100
AcDbSymbolTableRecord
100
AcDbLinetypeTableRecord
  2
AM_ISO08W050X2
 70
     0
  3
__ . __ . __ . __ . __ . __
 72
    65
 73
     4
 40
9.0
 49
6.0
 74
     0
 49
-0.75
 74
     0
 49
1.5
 74
     0
 49
-0.75
 74
     0
  0
LTYPE
  5
53
330
5
100
AcDbSymbolTableRecord
100
AcDbLinetypeTableRecord
  2
AMZIGZAG
 70
     0
  3
/\/-/\/-/\/-/\/-/\/-/\/
 72
    65
 73
     2
 40
11.00009999999999
 49
0.0001
 74
     4
 75
   135
340
52
 46
0.04
 50
0.0
 44
0.0
 45
0.0
 49
-11.0
 74
     0
  0
LTYPE
  5
166
330
5
100
AcDbSymbolTableRecord
100
AcDbLinetypeTableRecord
  2
ACJISTGL
 70
     0
  3
_ _ _ _ _
 72
    65
 73
     2
 40
3.0
 49
2.0
 74
     0
 49
-1.0
 74
     0
  0
LTYPE
  5
26A
330
5
100
AcDbSymbolTableRecord
100
AcDbLinetypeTableRecord
  2
ACJISTGB
 70
     0
  3
__ . . __ . .
 72
    65
 73
     6
 40
9.0
 49
4.0
 74
     0
 49
-1.0
 74
     0
 49
1.0
 74
     0
 49
-1.0
 74
     0
 49
1.0
 74
     0
 49
-1.0
 74
     0
  0
ENDTAB
  0
TABLE
  2
LAYER
  5
2
330
0
100
AcDbSymbolTable
 70
     8
  0
LAYER
  5
10
330
2
100
AcDbSymbolTableRecord
100
AcDbLayerTableRecord
  2
0
 70
     0
 62
     7
  6
CONTINUOUS
  0
LAYER
  5
3F9
330
2
100
AcDbSymbolTableRecord
100
AcDbLayerTableRecord
  2
AM_0
 70
     0
 62
     7
  6
CONTINUOUS
  0
LAYER
  5
C7C
330
2
100
AcDbSymbolTableRecord
100
AcDbLayerTableRecord
  2
AM_7
 70
     0
 62
     4
  6
AM_ISO08W050
  0
LAYER
  5
C97
330
2
100
AcDbSymbolTableRecord
100
AcDbLayerTableRecord
  2
AM_11
 70
     0
 62
     3
  6
AM_ISO09W050
  0
LAYER
  5
CC5
330
2
100
AcDbSymbolTableRecord
100
AcDbLayerTableRecord
  2
AM_5
 70
     0
 62
     3
  6
CONTINUOUS
  0
LAYER
  5
CC7
330
2
100
AcDbSymbolTableRecord
100
AcDbLayerTableRecord
  2
DEFPOINTS
 70
     0
 62
     7
  6
CONTINUOUS
  0
LAYER
  5
19BC
330
2
100
AcDbSymbolTableRecord
100
AcDbLayerTableRecord
  2
AM_6
 70
     0
 62
     2
  6
CONTINUOUS
  0
LAYER
  5
2C3F
330
2
100
AcDbSymbolTableRecord
100
AcDbLayerTableRecord
  2
AM_CL
 70
     0
 62
     1
  6
AMCONSTR
  0
ENDTAB
  0
TABLE
  2
STYLE
  5
3
330
0
100
AcDbSymbolTable
 70
     5
  0
STYLE
  5
11
330
3
100
AcDbSymbolTableRecord
100
AcDbTextStyleTableRecord
  2
STANDARD
 70
     0
 40
0.0
 41
1.0
 50
0.0
 71
     0
 42
2.5
  3
simplex.shx
  4
EXTFONT.SHX
  0
STYLE
  5
52
330
3
100
AcDbSymbolTableRecord
100
AcDbTextStyleTableRecord
  2

 70
     1
 40
0.0
 41
1.0
 50
0.0
 71
     0
 42
2.5
  3
ltypeshp.shx
  4

  0
STYLE
  5
6B
330
3
100
AcDbSymbolTableRecord
100
AcDbTextStyleTableRecord
  2
ASAMI
 70
     0
 40
0.0
 41
1.0
 50
0.0
 71
     0
 42
2.5
  3
simplex.shx
  4
EXTFONT.SHX
  0
STYLE
  5
262
330
3
100
AcDbSymbolTableRecord
100
AcDbTextStyleTableRecord
  2
ACJISTS
 70
     0
 40
1.0
 41
1.0
 50
0.0
 71
     0
 42
2.5
  3
simplex.shx
  4
bigfont.shx
  0
STYLE
  5
269
330
3
100
AcDbSymbolTableRecord
100
AcDbTextStyleTableRecord
  2
ACJISGDT
 70
     0
 40
0.0
 41
1.0
 50
0.0
 71
     0
 42
2.5
  3
amgdtans.shx
  4

  0
ENDTAB
  0
TABLE
  2
VIEW
  5
6
330
0
100
AcDbSymbolTable
 70
     0
  0
ENDTAB
  0
TABLE
  2
UCS
  5
7
330
0
100
AcDbSymbolTable
 70
     0
  0
ENDTAB
  0
TABLE
  2
APPID
  5
9
330
0
100
AcDbSymbolTable
 70
    16
  0
APPID
  5
12
330
9
100
AcDbSymbolTableRecord
100
AcDbRegAppTableRecord
  2
ACAD
 70
     0
  0
APPID
  5
30
330
9
100
AcDbSymbolTableRecord
100
AcDbRegAppTableRecord
  2
MCAD_NO_VIS
 70
     0
  0
APPID
  5
31
330
9
100
AcDbSymbolTableRecord
100
AcDbRegAppTableRecord
  2
ACAD_TEMP_GRAPHIC
 70
     0
  0
APPID
  5
2C2
330
9
100
AcDbSymbolTableRecord
100
AcDbRegAppTableRecord
  2
GENIUS_GENDTOL_13
 70
     0
  0
APPID
  5
339
330
9
100
AcDbSymbolTableRecord
100
AcDbRegAppTableRecord
  2
GENIUS_GENODEF_13
 70
     0
  0
APPID
  5
33A
330
9
100
AcDbSymbolTableRecord
100
AcDbRegAppTableRecord
  2
GENIUS_GENOBJ-N-RSBK_13
 70
     0
  0
APPID
  5
33B
330
9
100
AcDbSymbolTableRecord
100
AcDbRegAppTableRecord
  2
GENIUS_GENOBJ-N-LIB_13
 70
     0
  0
APPID
  5
33C
330
9
100
AcDbSymbolTableRecord
100
AcDbRegAppTableRecord
  2
GENIUS_GENSCALE_13
 70
     0
  0
APPID
  5
378
330
9
100
AcDbSymbolTableRecord
100
AcDbRegAppTableRecord
  2
GENIUS_GENDIMSH_14
 70
     0
  0
APPID
  5
C82
330
9
100
AcDbSymbolTableRecord
100
AcDbRegAppTableRecord
  2
GENIUS_GENOBJ-N-CRS_13
 70
     0
  0
APPID
  5
C83
330
9
100
AcDbSymbolTableRecord
100
AcDbRegAppTableRecord
  2
GENIUS_GENOENT_13
 70
     0
  0
APPID
  5
C84
330
9
100
AcDbSymbolTableRecord
100
AcDbRegAppTableRecord
  2
GENIUS_GENOREF_13
 70
     0
  0
APPID
  5
C85
330
9
100
AcDbSymbolTableRecord
100
AcDbRegAppTableRecord
  2
GENIUS_GENOLIS_13
 70
     0
  0
APPID
  5
CA0
330
9
100
AcDbSymbolTableRecord
100
AcDbRegAppTableRecord
  2
GENIUS_GENOBJ-N-CEN_13
 70
     0
  0
APPID
  5
1E1E
330
9
100
AcDbSymbolTableRecord
100
AcDbRegAppTableRecord
  2
GENIUS_GENFIL_13
 70
     0
  0
APPID
  5
1E1F
330
9
100
AcDbSymbolTableRecord
100
AcDbRegAppTableRecord
  2
GENIUS_GENOBJ-N-CHA_13
 70
     0
  0
ENDTAB
  0
TABLE
  2
DIMSTYLE
  5
A
330
0
100
AcDbSymbolTable
 70
     9
  0
DIMSTYLE
105
58
330
A
100
AcDbSymbolTableRecord
100
AcDbDimStyleTableRecord
  2
AM_JIS
 70
     0
  3

  4
"
  5
OPEN30
  6

  7

 40
1.0
 41
2.5
 42
1.0
 43
12.0
 44
1.0
 45
0.0
 46
0.0
 47
0.1
 48
0.1
140
3.2
141
0.0
142
0.0
143
0.0393701
144
1.0
145
0.0
146
0.71
147
1.5
 71
     0
 72
     0
 73
     0
 74
     0
 75
     0
 76
     0
 77
     3
 78
     8
170
     0
171
     2
172
     1
173
     0
174
     0
175
     0
176
   256
177
   256
178
     2
270
     2
271
     3
272
     3
273
     2
274
     2
340
6B
275
     0
280
     0
281
     0
282
     0
283
     0
284
     0
285
     0
286
     0
287
     3
288
     0
  0
DIMSTYLE
105
5F
330
A
100
AcDbSymbolTableRecord
100
AcDbDimStyleTableRecord
  2
AM_JIS$3
 70
     0
  3

  4
"
  5
OPEN30
  6

  7

 40
1.0
 41
2.5
 42
1.0
 43
10.0
 44
1.0
 45
0.0
 46
0.0
 47
0.1
 48
0.1
140
3.2
141
0.0
142
0.0
143
0.0393701
144
1.0
145
0.0
146
0.71
147
1.5
 71
     0
 72
     0
 73
     0
 74
     1
 75
     0
 76
     0
 77
     3
 78
     8
170
     0
171
     2
172
     0
173
     0
174
     0
175
     0
176
   256
177
   256
178
     2
270
     2
271
     2
272
     3
273
     2
274
     2
340
6B
275
     0
280
     0
281
     0
282
     0
283
     0
284
     0
285
     0
286
     0
287
     0
288
     1
  0
DIMSTYLE
105
60
330
A
100
AcDbSymbolTableRecord
100
AcDbDimStyleTableRecord
  2
AM_JIS$4
 70
     0
  3

  4
"
  5
OPEN30
  6

  7

 40
1.0
 41
2.5
 42
1.0
 43
10.0
 44
1.0
 45
0.0
 46
0.0
 47
0.1
 48
0.1
140
3.2
141
0.0
142
0.0
143
0.0393701
144
1.0
145
0.0
146
0.71
147
1.5
 71
     0
 72
     0
 73
     0
 74
     1
 75
     0
 76
     0
 77
     3
 78
     8
170
     0
171
     2
172
     0
173
     0
174
     0
175
     0
176
   256
177
   256
178
     2
270
     2
271
     2
272
     3
273
     2
274
     2
340
6B
275
     0
280
     0
281
     0
282
     0
283
     0
284
     0
285
     0
286
     0
287
     0
288
     1
  0
DIMSTYLE
105
61
330
A
100
AcDbSymbolTableRecord
100
AcDbDimStyleTableRecord
  2
AM_JIS$6
 70
     0
  3

  4
"
  5
OPEN30
  6

  7

 40
1.0
 41
2.5
 42
1.0
 43
10.0
 44
1.0
 45
0.0
 46
0.0
 47
0.1
 48
0.1
140
3.2
141
0.0
142
0.0
143
0.0393701
144
1.0
145
0.0
146
0.71
147
1.5
 71
     0
 72
     0
 73
     0
 74
     0
 75
     0
 76
     0
 77
     0
 78
     8
170
     0
171
     2
172
     1
173
     0
174
     0
175
     0
176
   256
177
   256
178
     2
270
     2
271
     2
272
     2
273
     2
274
     2
340
6B
275
     0
280
     0
281
     0
282
     0
283
     0
284
     0
285
     0
286
     0
287
     3
288
     0
  0
DIMSTYLE
105
62
330
A
100
AcDbSymbolTableRecord
100
AcDbDimStyleTableRecord
  2
AM_JIS$7
 70
     0
  3

  4
"
  5
OPEN30
  6

  7

 40
1.0
 41
2.5
 42
1.0
 43
10.0
 44
1.0
 45
0.0
 46
0.0
 47
0.1
 48
0.1
140
3.2
141
0.0
142
0.0
143
0.0393701
144
1.0
145
0.0
146
0.71
147
1.5
 71
     0
 72
     0
 73
     0
 74
     0
 75
     0
 76
     0
 77
     3
 78
     8
170
     0
171
     2
172
     1
173
     0
174
     0
175
     0
176
   256
177
   256
178
     2
270
     2
271
     2
272
     3
273
     2
274
     2
340
6B
275
     0
280
     0
281
     0
282
     0
283
     0
284
     0
285
     0
286
     0
287
     3
288
     0
  0
DIMSTYLE
105
63
330
A
100
AcDbSymbolTableRecord
100
AcDbDimStyleTableRecord
  2
AM_JIS$SF
 70
     0
  3

  4
"
  5
OPEN30
  6

  7

 40
1.0
 41
2.5
 42
1.0
 43
10.0
 44
1.0
 45
0.0
 46
0.0
 47
0.1
 48
0.1
140
3.2
141
0.0
142
0.0
143
0.0393701
144
1.0
145
0.0
146
0.71
147
1.5
 71
     0
 72
     0
 73
     0
 74
     0
 75
     1
 76
     1
 77
     3
 78
     8
170
     0
171
     2
172
     1
173
     0
174
     0
175
     0
176
   256
177
   256
178
     2
270
     2
271
     2
272
     2
273
     2
274
     2
340
6B
275
     0
280
     0
281
     0
282
     0
283
     0
284
     0
285
     0
286
     0
287
     3
288
     0
  0
DIMSTYLE
105
68
330
A
100
AcDbSymbolTableRecord
100
AcDbDimStyleTableRecord
  2
AM_JIS$SH
 70
     0
  3

  4
"
  5

  6
GENAXEH
  7
OPEN30
 40
1.0
 41
2.5
 42
1.0
 43
10.0
 44
1.0
 45
0.0
 46
0.0
 47
0.1
 48
0.1
140
3.2
141
0.0
142
0.0
143
0.0393701
144
2.0
145
0.0
146
0.71
147
1.5
 71
     0
 72
     0
 73
     0
 74
     0
 75
     1
 76
     1
 77
     3
 78
     8
170
     0
171
     2
172
     1
173
     1
174
     0
175
     0
176
   256
177
   256
178
     2
270
     2
271
     2
272
     2
273
     2
274
     2
340
6B
275
     0
280
     0
281
     0
282
     0
283
     0
284
     0
285
     0
286
     0
287
     3
288
     0
  0
DIMSTYLE
105
B34
102
{ACAD_REACTORS
330
2C96
102
}
330
A
100
AcDbSymbolTableRecord
100
AcDbDimStyleTableRecord
  2
AM_JIS$2
 70
     0
  3

  4
"
  5
OPEN30
  6

  7

 40
1.0
 41
2.5
 42
1.0
 43
12.0
 44
1.0
 45
0.0
 46
0.0
 47
0.1
 48
0.1
140
3.2
141
0.0
142
0.0
143
0.0393701
144
1.0
145
0.0
146
0.71
147
1.5
 71
     0
 72
     0
 73
     0
 74
     0
 75
     0
 76
     0
 77
     3
 78
     8
170
     0
171
     2
172
     1
173
     0
174
     0
175
     0
176
   256
177
   256
178
     2
270
     2
271
     3
272
     3
273
     2
274
     2
340
6B
275
     0
280
     0
281
     0
282
     0
283
     0
284
     0
285
     0
286
     0
287
     3
288
     0
  0
DIMSTYLE
105
BA5
102
{ACAD_REACTORS
330
CC6
330
DF5
330
1FB6
330
2216
102
}
330
A
100
AcDbSymbolTableRecord
100
AcDbDimStyleTableRecord
  2
AM_JIS$0
 70
     0
  3

  4
"
  5
OPEN30
  6

  7

 40
1.0
 41
2.5
 42
0.0
 43
10.0
 44
1.0
 45
0.0
 46
0.0
 47
0.1
 48
0.1000000001
140
3.799999999999999
141
0.0
142
0.0
143
0.0393701
144
1.0
145
0.0
146
0.71
147
1.5
 71
     0
 72
     0
 73
     0
 74
     0
 75
     0
 76
     0
 77
     3
 78
     1
170
     0
171
     2
172
     1
173
     0
174
     0
175
     0
176
     3
177
     3
178
     2
270
     2
271
     2
272
     2
273
     2
274
     2
340
11
275
     1
280
     0
281
     0
282
     0
283
     0
284
     8
285
     0
286
     0
287
     0
288
     0
  0
ENDTAB
  0
TABLE
  2
BLOCK_RECORD
  5
1
330
0
100
AcDbSymbolTable
 70
    10
  0
BLOCK_RECORD
  5
1F
102
{ACAD_XDICTIONARY
360
74
102
}
330
1
100
AcDbSymbolTableRecord
100
AcDbBlockTableRecord
  2
*MODEL_SPACE
  0
BLOCK_RECORD
  5
101
102
{ACAD_XDICTIONARY
360
2DF0
102
}
330
1
100
AcDbSymbolTableRecord
100
AcDbBlockTableRecord
  2
*PAPER_SPACE
  0
BLOCK_RECORD
  5
59
330
1
100
AcDbSymbolTableRecord
100
AcDbBlockTableRecord
  2
_OPEN30
  0
BLOCK_RECORD
  5
64
330
1
100
AcDbSymbolTableRecord
100
AcDbBlockTableRecord
  2
GENAXEH
  0
BLOCK_RECORD
  5
CC8
330
1
100
AcDbSymbolTableRecord
100
AcDbBlockTableRecord
  2
*D5
  0
BLOCK_RECORD
  5
DF6
330
1
100
AcDbSymbolTableRecord
100
AcDbBlockTableRecord
  2
*D6
  0
BLOCK_RECORD
  5
1FB7
330
1
100
AcDbSymbolTableRecord
100
AcDbBlockTableRecord
  2
*D7
  0
BLOCK_RECORD
  5
2217
330
1
100
AcDbSymbolTableRecord
100
AcDbBlockTableRecord
  2
*D8
  0
BLOCK_RECORD
  5
2C97
330
1
100
AcDbSymbolTableRecord
100
AcDbBlockTableRecord
  2
*D9
  0
ENDTAB
  0
ENDSEC
  0
SECTION
  2
BLOCKS
  0
BLOCK
  5
20
330
1F
100
AcDbEntity
  8
0
100
AcDbBlockBegin
  2
*MODEL_SPACE
 70
     0
 10
0.0
 20
0.0
 30
0.0
  3
*MODEL_SPACE
  1

  0
ENDBLK
  5
21
330
1F
100
AcDbEntity
  8
0
100
AcDbBlockEnd
  0
BLOCK
  5
103
330
101
100
AcDbEntity
 67
     1
  8
0
100
AcDbBlockBegin
  2
*PAPER_SPACE
 70
     0
 10
0.0
 20
0.0
 30
0.0
  3
*PAPER_SPACE
  1

  0
ENDBLK
  5
104
330
101
100
AcDbEntity
 67
     1
  8
0
100
AcDbBlockEnd
  0
BLOCK
  5
5D
330
59
100
AcDbEntity
  8
0
100
AcDbBlockBegin
  2
_OPEN30
 70
     0
 10
0.0
 20
0.0
 30
0.0
  3
_OPEN30
  1

  0
LINE
  5
5A
330
59
100
AcDbEntity
  8
0
 62
     0
100
AcDbLine
 10
-1.0
 20
0.26794919
 30
0.0
 11
0.0
 21
0.0
 31
0.0
  0
LINE
  5
5B
330
59
100
AcDbEntity
  8
0
 62
     0
100
AcDbLine
 10
0.0
 20
0.0
 30
0.0
 11
-1.0
 21
-0.26794919
 31
0.0
  0
LINE
  5
5C
330
59
100
AcDbEntity
  8
0
 62
     0
100
AcDbLine
 10
0.0
 20
0.0
 30
0.0
 11
-1.0
 21
0.0
 31
0.0
  0
ENDBLK
  5
5E
330
59
100
AcDbEntity
  8
0
100
AcDbBlockEnd
  0
BLOCK
  5
66
330
64
100
AcDbEntity
  8
0
100
AcDbBlockBegin
  2
GENAXEH
 70
     0
 10
0.0
 20
0.0
 30
0.0
  3
GENAXEH
  1

  0
LINE
  5
65
330
64
100
AcDbEntity
  8
0
100
AcDbLine
 10
-1.0
 20
0.0
 30
0.0
 11
1.0
 21
0.0
 31
0.0
  0
ENDBLK
  5
67
330
64
100
AcDbEntity
  8
0
100
AcDbBlockEnd
  0
BLOCK
  5
CD2
330
CC8
100
AcDbEntity
  8
0
100
AcDbBlockBegin
  2
*D5
 70
     1
 10
0.0
 20
0.0
 30
0.0
  3
*D5
  1

  0
LINE
  5
2C61
330
CC8
100
AcDbEntity
  8
AM_5
 62
     3
100
AcDbLine
 10
-159.9999694824266
 20
-5.625045776360263
 30
0.0
 11
-159.9999694824266
 21
-31.00000305448094
 31
0.0
  0
LINE
  5
2C62
330
CC8
100
AcDbEntity
  8
AM_5
 62
     3
100
AcDbLine
 10
-2.000000000000001
 20
-5.700000482694397
 30
0.0
 11
-2.000000000000003
 21
-31.00000305448094
 31
0.0
  0
LINE
  5
2C63
330
CC8
100
AcDbEntity
  8
AM_5
 62
     3
100
AcDbLine
 10
-157.4999694824265
 20
-30.00000305448095
 30
0.0
 11
-4.500000000000003
 21
-30.00000305448095
 31
0.0
  0
INSERT
  5
2C64
330
CC8
100
AcDbEntity
  8
AM_5
 62
     3
100
AcDbBlockReference
  2
_OPEN30
 10
-159.9999694824266
 20
-30.00000305448095
 30
0.0
 41
2.5
 42
2.5
 43
2.5
 50
180.0
  0
INSERT
  5
2C65
330
CC8
100
AcDbEntity
  8
AM_5
 62
     3
100
AcDbBlockReference
  2
_OPEN30
 10
-2.000000000000003
 20
-30.00000305448095
 30
0.0
 41
2.5
 42
2.5
 43
2.5
  0
MTEXT
  5
2C66
330
CC8
100
AcDbEntity
  8
AM_5
 62
     2
100
AcDbMText
 10
-80.9999847412133
 20
-26.60000305448095
 30
0.0
 40
3.799999999999999
 41
0.0
 71
     5
 72
     1
  1
158
1001
ACAD
1000
MTEXTBEGIN
1070
    73
1070
     1
1070
    44
1040
1.0
1070
    74
1070
     0
1000
MTEXTEND
  0
POINT
  5
2C67
330
CC8
100
AcDbEntity
  8
DEFPOINTS
 62
     0
100
AcDbPoint
 10
-159.9999694824266
 20
-5.625045776360263
 30
0.0
  0
POINT
  5
2C68
330
CC8
100
AcDbEntity
  8
DEFPOINTS
 62
     0
100
AcDbPoint
 10
-2.000000000000001
 20
-5.700000482694397
 30
0.0
  0
POINT
  5
2C69
330
CC8
100
AcDbEntity
  8
DEFPOINTS
 62
     0
100
AcDbPoint
 10
-2.000000000000003
 20
-30.00000305448095
 30
0.0
  0
ENDBLK
  5
CD3
330
CC8
100
AcDbEntity
  8
0
100
AcDbBlockEnd
  0
BLOCK
  5
E00
330
DF6
100
AcDbEntity
  8
0
100
AcDbBlockBegin
  2
*D6
 70
     1
 10
0.0
 20
0.0
 30
0.0
  3
*D6
  1

  0
LINE
  5
2C58
330
DF6
100
AcDbEntity
  8
AM_5
 62
     3
100
AcDbLine
 10
-97.99999999999997
 20
-6.000000000000307
 30
0.0
 11
-97.99999999999997
 21
-21.00000305448088
 31
0.0
  0
LINE
  5
2C59
330
DF6
100
AcDbEntity
  8
AM_5
 62
     3
100
AcDbLine
 10
-2.000000000000001
 20
-5.700000482694397
 30
0.0
 11
-2.000000000000002
 21
-21.00000305448088
 31
0.0
  0
LINE
  5
2C5A
330
DF6
100
AcDbEntity
  8
AM_5
 62
     3
100
AcDbLine
 10
-95.49999999999995
 20
-20.00000305448088
 30
0.0
 11
-4.500000000000002
 21
-20.00000305448088
 31
0.0
  0
INSERT
  5
2C5B
330
DF6
100
AcDbEntity
  8
AM_5
 62
     3
100
AcDbBlockReference
  2
_OPEN30
 10
-97.99999999999997
 20
-20.00000305448088
 30
0.0
 41
2.5
 42
2.5
 43
2.5
 50
180.0
  0
INSERT
  5
2C5C
330
DF6
100
AcDbEntity
  8
AM_5
 62
     3
100
AcDbBlockReference
  2
_OPEN30
 10
-2.000000000000002
 20
-20.00000305448088
 30
0.0
 41
2.5
 42
2.5
 43
2.5
  0
MTEXT
  5
2C5D
330
DF6
100
AcDbEntity
  8
AM_5
 62
     2
100
AcDbMText
 10
-49.99999999999998
 20
-16.60000305448088
 30
0.0
 40
3.799999999999999
 41
0.0
 71
     5
 72
     1
  1
96
1001
ACAD
1000
MTEXTBEGIN
1070
    73
1070
     1
1070
    44
1040
1.0
1070
    74
1070
     0
1000
MTEXTEND
  0
POINT
  5
2C5E
330
DF6
100
AcDbEntity
  8
DEFPOINTS
 62
     0
100
AcDbPoint
 10
-97.99999999999997
 20
-6.000000000000307
 30
0.0
  0
POINT
  5
2C5F
330
DF6
100
AcDbEntity
  8
DEFPOINTS
 62
     0
100
AcDbPoint
 10
-2.000000000000001
 20
-5.700000482694397
 30
0.0
  0
POINT
  5
2C60
330
DF6
100
AcDbEntity
  8
DEFPOINTS
 62
     0
100
AcDbPoint
 10
-2.000000000000002
 20
-20.00000305448088
 30
0.0
  0
ENDBLK
  5
E01
330
DF6
100
AcDbEntity
  8
0
100
AcDbBlockEnd
  0
BLOCK
  5
1FC3
330
1FB7
100
AcDbEntity
  8
0
100
AcDbBlockBegin
  2
*D7
 70
     1
 10
0.0
 20
0.0
 30
0.0
  3
*D7
  1

  0
LINE
  5
2C7E
330
1FB7
100
AcDbEntity
  8
AM_5
 62
     3
100
AcDbLine
 10
-2.000000000000001
 20
-5.700000482694397
 30
0.0
 11
16.5559210248581
 21
-5.700000482694402
 31
0.0
  0
LINE
  5
2C7F
330
1FB7
100
AcDbEntity
  8
AM_5
 62
     3
100
AcDbLine
 10
-1.999999999999898
 20
5.699999517305585
 30
0.0
 11
16.5559210248581
 21
5.699999517305581
 31
0.0
  0
LINE
  5
2C80
330
1FB7
100
AcDbEntity
  8
AM_5
 62
     3
100
AcDbLine
 10
15.5559210248581
 20
-8.200000482694402
 30
0.0
 11
15.5559210248581
 21
-10.7000004826944
 31
0.0
  0
LINE
  5
2C81
330
1FB7
100
AcDbEntity
  8
AM_5
 62
     3
100
AcDbLine
 10
15.5559210248581
 20
8.199999517305581
 30
0.0
 11
15.5559210248581
 21
27.45238046968653
 31
0.0
  0
LINE
  5
2C82
330
1FB7
100
AcDbEntity
  8
AM_5
 62
     3
100
AcDbLine
 10
15.5559210248581
 20
-5.700000482694402
 30
0.0
 11
15.5559210248581
 21
5.699999517305581
 31
0.0
  0
INSERT
  5
2C83
330
1FB7
100
AcDbEntity
  8
AM_5
 62
     3
100
AcDbBlockReference
  2
_OPEN30
 10
15.5559210248581
 20
-5.700000482694402
 30
0.0
 41
2.5
 42
2.5
 43
2.5
 50
90.0
  0
INSERT
  5
2C84
330
1FB7
100
AcDbEntity
  8
AM_5
 62
     3
100
AcDbBlockReference
  2
_OPEN30
 10
15.5559210248581
 20
5.699999517305581
 30
0.0
 41
2.5
 42
2.5
 43
2.5
 50
270.0
  0
MTEXT
  5
2C85
330
1FB7
100
AcDbEntity
  8
AM_5
 62
     2
100
AcDbMText
 10
12.1559210248581
 20
19.07618999349606
 30
0.0
 40
3.799999999999999
 41
0.0
 71
     5
 72
     1
  1
%%c11.4
 11
0.0000000000000001
 21
1.0
 31
0.0
1001
ACAD
1000
MTEXTBEGIN
1070
    73
1070
     1
1070
    44
1040
1.0
1070
    74
1070
     0
1000
MTEXTEND
  0
POINT
  5
2C86
330
1FB7
100
AcDbEntity
  8
DEFPOINTS
 62
     0
100
AcDbPoint
 10
-2.000000000000001
 20
-5.700000482694397
 30
0.0
  0
POINT
  5
2C87
330
1FB7
100
AcDbEntity
  8
DEFPOINTS
 62
     0
100
AcDbPoint
 10
-1.999999999999898
 20
5.699999517305585
 30
0.0
  0
POINT
  5
2C88
330
1FB7
100
AcDbEntity
  8
DEFPOINTS
 62
     0
100
AcDbPoint
 10
15.5559210248581
 20
5.699999517305581
 30
0.0
  0
ENDBLK
  5
1FC4
330
1FB7
100
AcDbEntity
  8
0
100
AcDbBlockEnd
  0
BLOCK
  5
2221
330
2217
100
AcDbEntity
  8
0
100
AcDbBlockBegin
  2
*D8
 70
     1
 10
0.0
 20
0.0
 30
0.0
  3
*D8
  1

  0
LINE
  5
2C6A
330
2217
100
AcDbEntity
  8
AM_5
 62
     3
100
AcDbLine
 10
-159.7499999999999
 20
5.999999999999261
 30
0.0
 11
-177.0000009999999
 21
5.999999999999213
 31
0.0
  0
LINE
  5
2C6B
330
2217
100
AcDbEntity
  8
AM_5
 62
     3
100
AcDbLine
 10
-159.7499999999999
 20
-6.000000000000736
 30
0.0
 11
-177.0000009999998
 21
-6.000000000000785
 31
0.0
  0
LINE
  5
2C6C
330
2217
100
AcDbEntity
  8
AM_5
 62
     3
100
AcDbLine
 10
-176.0000009999999
 20
3.499999999999215
 30
0.0
 11
-176.0000009999999
 21
-3.500000000000782
 31
0.0
  0
INSERT
  5
2C6D
330
2217
100
AcDbEntity
  8
AM_5
 62
     3
100
AcDbBlockReference
  2
_OPEN30
 10
-176.0000009999999
 20
5.999999999999215
 30
0.0
 41
2.5
 42
2.5
 43
2.5
 50
90.00000000000017
  0
INSERT
  5
2C6E
330
2217
100
AcDbEntity
  8
AM_5
 62
     3
100
AcDbBlockReference
  2
_OPEN30
 10
-176.0000009999998
 20
-6.000000000000782
 30
0.0
 41
2.5
 42
2.5
 43
2.5
 50
270.0000000000001
  0
MTEXT
  5
2C6F
330
2217
100
AcDbEntity
  8
AM_5
 62
     2
100
AcDbMText
 10
-179.4000009999999
 20
-0.0000000000007861
 30
0.0
 40
3.799999999999999
 41
0.0
 71
     5
 72
     1
  1
%%c12
 11
-0.0000000000000028
 21
1.0
 31
0.0
1001
ACAD
1000
MTEXTBEGIN
1070
    73
1070
     1
1070
    44
1040
1.0
1070
    74
1070
     0
1000
MTEXTEND
  0
POINT
  5
2C70
330
2217
100
AcDbEntity
  8
DEFPOINTS
 62
     0
100
AcDbPoint
 10
-159.7499999999999
 20
5.999999999999758
 30
0.0
  0
POINT
  5
2C71
330
2217
100
AcDbEntity
  8
DEFPOINTS
 62
     0
100
AcDbPoint
 10
-159.7499999999999
 20
-6.000000000000239
 30
0.0
  0
POINT
  5
2C72
330
2217
100
AcDbEntity
  8
DEFPOINTS
 62
     0
100
AcDbPoint
 10
-176.0000009999999
 20
-6.000000000000235
 30
0.0
  0
ENDBLK
  5
2222
330
2217
100
AcDbEntity
  8
0
100
AcDbBlockEnd
  0
BLOCK
  5
2CA5
330
2C97
100
AcDbEntity
  8
0
100
AcDbBlockBegin
  2
*D9
 70
     1
 10
0.0
 20
0.0
 30
0.0
  3
*D9
  1

  0
LINE
  5
2DF2
330
2C97
100
AcDbEntity
  8
AM_5
100
AcDbLine
 10
0.3420199396268013
 20
-0.9396926949262445
 30
0.0
 11
12.70462847671108
 21
-34.90570340532073
 31
0.0
  0
LINE
  5
2DF3
330
2C97
100
AcDbEntity
  8
AM_5
100
AcDbLine
 10
0.3420207914425672
 20
0.9396923848904165
 30
0.0
 11
12.70466011814919
 21
34.90569188877056
 31
0.0
  0
ARC
  5
2DF4
330
2C97
100
AcDbEntity
  8
AM_5
100
AcDbCircle
 10
0.0000000000000502
 20
-0.0000000000000184
 30
0.0
 40
36.14587076582638
100
AcDbArc
 50
293.9635942559431
 51
66.03635380637958
  0
INSERT
  5
2DF5
330
2C97
100
AcDbEntity
  8
AM_5
100
AcDbBlockReference
  2
_OPEN30
 10
12.36260853708433
 20
-33.9660107103945
 30
0.0
 41
2.5
 42
2.5
 43
2.5
 50
201.9817909179154
  0
INSERT
  5
2DF6
330
2C97
100
AcDbEntity
  8
AM_5
100
AcDbBlockReference
  2
_OPEN30
 10
12.36263932670668
 20
33.96599950388015
 30
0.0
 41
2.5
 42
2.5
 43
2.5
 50
158.0181571444072
  0
MTEXT
  5
2DF7
330
2C97
100
AcDbEntity
  8
AM_5
 62
     2
100
AcDbMText
 10
33.04587076582271
 20
-0.0000163828172955
 30
0.0
 40
3.2
 41
0.0
 71
     5
 72
     1
  1
140°
  7
ASAMI
 11
-0.0000000000000028
 21
1.0
 31
0.0
  0
POINT
  5
2DF8
330
2C97
100
AcDbEntity
  8
DEFPOINTS
 62
     0
100
AcDbPoint
 10
33.18972835177781
 20
14.3166303771181
 30
0.0
  0
POINT
  5
2DF9
330
2C97
100
AcDbEntity
  8
DEFPOINTS
 62
     0
100
AcDbPoint
 10
0.0000000000000568
 20
-0.0000000000000001
 30
0.0
  0
POINT
  5
2DFA
330
2C97
100
AcDbEntity
  8
DEFPOINTS
 62
     0
100
AcDbPoint
 10
0.0000000000000462
 20
-0.0000000000000075
 30
0.0
  0
POINT
  5
2DFB
330
2C97
100
AcDbEntity
  8
DEFPOINTS
 62
     0
100
AcDbPoint
 10
-0.6556848755425384
 20
1.801480604883394
 30
0.0
  0
POINT
  5
2DFC
330
2C97
100
AcDbEntity
  8
DEFPOINTS
 62
     0
100
AcDbPoint
 10
-0.6556992300417002
 20
-1.80151496243851
 30
0.0
  0
ENDBLK
  5
2CA6
330
2C97
100
AcDbEntity
  8
0
100
AcDbBlockEnd
  0
ENDSEC
  0
SECTION
  2
ENTITIES
  0
LINE
  5
C9F
330
1F
100
AcDbEntity
  8
AM_7
100
AcDbLine
 10
-161.9999999999999
 20
-0.0000000000002408
 30
0.0
 11
1.555920024858115
 21
0.0000000000000023
 31
0.0
1001
GENIUS_GENODEF_13
1002
{
1000
HIER
1070
     0
1002
}
1002
{
1000
MANEDIT
1070
     0
1002
}
1002
{
1000
NOSEL
1070
     0
1002
}
1002
{
1000
BEHIND
1070
     0
1002
}
1002
{
1000
REACTOR
1002
}
1001
GENIUS_GENOBJ-N-CEN_13
1002
{
1000
OWNER
1000
GEN
1002
}
  0
DIMENSION
  5
CC6
330
1F
100
AcDbEntity
  8
AM_5
100
AcDbDimension
  2
*D5
 10
-2.000000000000003
 20
-30.00000305448095
 30
0.0
 11
-80.9999847412133
 21
-26.60000305448095
 31
0.0
 70
    32
  1
<>
  3
AM_JIS$0
100
AcDbAlignedDimension
 13
-159.9999694824266
 23
-5.625045776360263
 33
0.0
 14
-2.000000000000001
 24
-5.700000482694397
 34
0.0
 50
0.0000000000001132
100
AcDbRotatedDimension
1001
GENIUS_GENDTOL_13
1000

1000
h7
1000

1040
0.0
1001
ACAD
1000
DSTYLE
1002
{
1070
   271
1070
     0
1002
}
  0
DIMENSION
  5
DF5
330
1F
100
AcDbEntity
  8
AM_5
100
AcDbDimension
  2
*D6
 10
-2.000000000000002
 20
-20.00000305448088
 30
0.0
 11
-49.99999999999998
 21
-16.60000305448088
 31
0.0
 70
    32
  1
<>
  3
AM_JIS$0
100
AcDbAlignedDimension
 13
-97.99999999999997
 23
-6.000000000000307
 33
0.0
 14
-2.000000000000001
 24
-5.700000482694397
 34
0.0
 50
0.0000000000001527
100
AcDbRotatedDimension
1001
GENIUS_GENDTOL_13
1000

1000
h7
1000

1040
0.0
1001
ACAD
1000
DSTYLE
1002
{
1070
   271
1070
     0
1002
}
  0
TEXT
  5
19BD
330
1F
100
AcDbEntity
  8
AM_6
100
AcDbText
 10
-101.8142551967122
 20
-52.500003054481
 30
0.0
 40
5.0
  1
MDW114LHK
 50
0.0000000000001527
 72
     4
 11
-81.09996948242654
 21
-50.00000305448095
 31
0.0
100
AcDbText
  0
LINE
  5
1E25
330
1F
100
AcDbEntity
  8
AM_0
100
AcDbLine
 10
-97.99999999999995
 20
-6.000000000000306
 30
0.0
 11
-97.48037982751402
 21
-5.69999715353921
 31
0.0
  0
LINE
  5
1E26
330
1F
100
AcDbEntity
  8
AM_0
100
AcDbLine
 10
-97.48038392168087
 20
5.699999517306916
 30
0.0
 11
-98.00001924044691
 21
6.000011108476925
 31
0.0
  0
DIMENSION
  5
1FB6
330
1F
100
AcDbEntity
  8
AM_5
100
AcDbDimension
  2
*D7
 10
15.5559210248581
 20
5.699999517305581
 30
0.0
 11
15.5559210248581
 21
19.07618999349606
 31
0.0
 70
   160
  1
%%c<>
  3
AM_JIS$0
100
AcDbAlignedDimension
 13
-2.000000000000001
 23
-5.700000482694397
 33
0.0
 14
-1.999999999999898
 24
5.699999517305585
 34
0.0
 50
89.99999999999969
100
AcDbRotatedDimension
1001
ACAD
1000
DSTYLE
1002
{
1070
   271
1070
     1
1002
}
1001
GENIUS_GENDTOL_13
1000

1000
h7
1000

1040
0.0
  0
LINE
  5
1FD9
330
1F
100
AcDbEntity
  8
AM_0
100
AcDbLine
 10
-97.48037982751403
 20
-5.699997153539208
 30
0.0
 11
-97.48038392168087
 21
5.699999517306918
 31
0.0
  0
LINE
  5
21D7
330
1F
100
AcDbEntity
  8
AM_0
 48
0.5
100
AcDbLine
 10
-97.99999999999997
 20
-6.000002054481138
 30
0.0
 11
-97.99999999999993
 21
6.000044433908648
 31
0.0
  0
LINE
  5
21D8
330
1F
100
AcDbEntity
  8
AM_0
 48
0.5
100
AcDbLine
 10
-159.7499999999999
 20
5.999999999999758
 30
0.0
 11
-97.99999999999993
 21
5.999999999999691
 31
0.0
1001
GENIUS_GENODEF_13
1002
{
1000
HIER
1070
     0
1002
}
1002
{
1000
MANEDIT
1070
     0
1002
}
1002
{
1000
NOSEL
1070
     0
1002
}
1002
{
1000
BEHIND
1070
     0
1002
}
1002
{
1000
REACTOR
1002
}
1001
GENIUS_GENOBJ-N-CEN_13
1002
{
1000
OWNER
1000
GEN
1002
}
  0
LINE
  5
21D9
330
1F
100
AcDbEntity
  8
AM_0
 48
0.5
100
AcDbLine
 10
-159.7499999999999
 20
-6.000000000000239
 30
0.0
 11
-97.99999999999997
 21
-6.000000000000307
 31
0.0
1001
GENIUS_GENODEF_13
1002
{
1000
HIER
1070
     0
1002
}
1002
{
1000
MANEDIT
1070
     0
1002
}
1002
{
1000
NOSEL
1070
     0
1002
}
1002
{
1000
BEHIND
1070
     0
1002
}
1002
{
1000
REACTOR
1002
}
1001
GENIUS_GENOBJ-N-CEN_13
1002
{
1000
OWNER
1000
GEN
1002
}
  0
LINE
  5
21DA
330
1F
100
AcDbEntity
  8
AM_0
 48
0.5
100
AcDbLine
 10
-159.9999999999999
 20
5.62499999999976
 30
0.0
 11
-159.7499999999999
 21
5.999999999999758
 31
0.0
1001
GENIUS_GENFIL_13
1070
     0
1040
0.25
1040
0.25
1040
20.0
1040
0.0
1002
{
1002
}
1001
GENIUS_GENODEF_13
1002
{
1000
HIER
1070
     0
1002
}
1002
{
1000
MANEDIT
1070
     0
1002
}
1002
{
1000
NOSEL
1070
     0
1002
}
1002
{
1000
BEHIND
1070
     0
1002
}
1002
{
1000
REACTOR
1002
}
1001
GENIUS_GENOBJ-N-CHA_13
1002
{
1000
OWNER
1000
GEN
1002
}
  0
LINE
  5
21DB
330
1F
100
AcDbEntity
  8
AM_0
 48
0.5
100
AcDbLine
 10
-159.9999999999999
 20
-5.625000000000238
 30
0.0
 11
-159.7499999999999
 21
-6.000000000000239
 31
0.0
1001
GENIUS_GENFIL_13
1070
     0
1040
0.25
1040
0.25
1040
20.0
1040
0.0
1002
{
1002
}
1001
GENIUS_GENODEF_13
1002
{
1000
HIER
1070
     0
1002
}
1002
{
1000
MANEDIT
1070
     0
1002
}
1002
{
1000
NOSEL
1070
     0
1002
}
1002
{
1000
BEHIND
1070
     0
1002
}
1002
{
1000
REACTOR
1002
}
1001
GENIUS_GENOBJ-N-CHA_13
1002
{
1000
OWNER
1000
GEN
1002
}
  0
LINE
  5
21DC
330
1F
100
AcDbEntity
  8
AM_0
100
AcDbLine
 10
-159.7499999999999
 20
-6.000000000000239
 30
0.0
 11
-159.7499999999999
 21
5.999999999999758
 31
0.0
  0
LINE
  5
21DD
330
1F
100
AcDbEntity
  8
AM_0
 48
0.5
100
AcDbLine
 10
-159.9999999999999
 20
-5.625000000000238
 30
0.0
 11
-159.9999999999999
 21
5.62499999999976
 31
0.0
  0
DIMENSION
  5
2216
330
1F
100
AcDbEntity
  8
AM_5
100
AcDbDimension
  2
*D8
 10
-176.0000009999999
 20
-6.000000000000235
 30
0.0
 11
-179.4000009999999
 21
-0.0000000000002641
 31
0.0
 70
    32
  1
%%c<>
 51
359.9999999999998
  3
AM_JIS$0
100
AcDbAlignedDimension
 13
-159.7499999999999
 23
5.999999999999758
 33
0.0
 14
-159.7499999999999
 24
-6.000000000000239
 34
0.0
 50
269.9999999999999
100
AcDbRotatedDimension
1001
ACAD
1000
DSTYLE
1002
{
1070
   271
1070
     0
1002
}
1001
GENIUS_GENDTOL_13
1000

1000
h7
1000

1040
0.0
  0
ELLIPSE
  5
282D
330
1F
100
AcDbEntity
  8
AM_0
 48
0.5
100
AcDbEllipse
 10
7.071702167240754
 20
6.181507110595838
 30
0.0
 11
8.904306174127103
 21
0.0000000000008784
 31
0.0
210
0.0
220
0.0
230
1.0
 40
0.9899999999999973
 41
3.323896559076802
 42
3.661579236128986
  0
LINE
  5
282E
330
1F
100
AcDbEntity
  8
AM_0
 48
0.5
100
AcDbLine
 10
-1.685054213912378
 20
4.583352406819962
 30
0.0
 11
-1.999999999999898
 21
5.699999517305585
 31
0.0
  0
LINE
  5
282F
330
1F
100
AcDbEntity
  8
AM_0
 48
0.5
100
AcDbLine
 10
0.0000000000000462
 20
-0.0000000000000075
 30
0.0
 11
-0.6556848755425384
 21
1.801480604883394
 31
0.0
  0
ELLIPSE
  5
2830
330
1F
100
AcDbEntity
  8
AM_0
 48
0.5
100
AcDbEllipse
 10
7.071702167240873
 20
-6.181516647338346
 30
0.0
 11
-8.904306174127102
 21
0.0000000000012877
 31
0.0
210
0.0
220
0.0
230
1.0
 40
0.989999999999997
 41
-0.5199833380394914
 42
-0.1823047399519406
  0
LINE
  5
2831
330
1F
100
AcDbEntity
  8
AM_0
 48
0.5
100
AcDbLine
 10
-1.685047791863569
 20
-4.583330154419194
 30
0.0
 11
-2.000000000000001
 21
-5.700000482694397
 31
0.0
  0
LINE
  5
2832
330
1F
100
AcDbEntity
  8
AM_0
 48
0.5
100
AcDbLine
 10
0.0000000000000568
 20
-0.0000000000000001
 30
0.0
 11
-0.6556992300417002
 21
-1.80151496243851
 31
0.0
  0
LINE
  5
2BD4
330
1F
100
AcDbEntity
  8
AM_0
100
AcDbLine
 10
-91.54735378612
 20
-5.700000482693103
 30
0.0
 11
-97.48038559377766
 21
-5.700000482693058
 31
0.0
  0
LINE
  5
2BD5
330
1F
100
AcDbEntity
  8
AM_0
100
AcDbLine
 10
-88.9875496259696
 20
5.699999517306865
 30
0.0
 11
-97.48038392168087
 21
5.699999517306928
 31
0.0
  0
LINE
  5
2BD6
330
1F
100
AcDbEntity
  8
AM_0
 48
0.5
100
AcDbLine
 10
-5.948917167560255
 20
5.699999517305648
 30
0.0
 11
-1.999999999999898
 21
5.699999517305585
 31
0.0
  0
LINE
  5
2BD7
330
1F
100
AcDbEntity
  8
AM_0
 48
0.5
100
AcDbLine
 10
0.0000000000000568
 20
-0.0000000000000368
 30
0.0
 11
-3.566858292653006
 21
2.217557369775157
 31
0.0
  0
LINE
  5
2BD8
330
1F
100
AcDbEntity
  8
AM_0
 48
0.5
100
AcDbLine
 10
-5.948917167560437
 20
-5.700000482694352
 30
0.0
 11
-1.999999999999988
 21
-5.700000482694407
 31
0.0
  0
LINE
  5
2BD9
330
1F
100
AcDbEntity
  8
AM_11
 48
0.5
100
AcDbLine
 10
-23.80727936543586
 20
5.699999517305934
 30
0.0
 11
-5.948917167560255
 21
5.699999517305648
 31
0.0
  0
LINE
  5
2BDA
330
1F
100
AcDbEntity
  8
AM_11
 48
0.5
100
AcDbLine
 10
-23.80727936543604
 20
-5.700000482694067
 30
0.0
 11
-5.948917167560437
 21
-5.700000482694352
 31
0.0
  0
LINE
  5
2BDB
330
1F
100
AcDbEntity
  8
AM_11
 48
0.5
100
AcDbLine
 10
-57.55680586743739
 20
-5.700000482693644
 30
0.0
 11
-39.69844366956404
 21
-5.700810271138185
 31
0.0
  0
LINE
  5
2BDC
330
1F
100
AcDbEntity
  8
AM_11
 48
0.5
100
AcDbLine
 10
-55.24199027022647
 20
5.700809305750711
 30
0.0
 11
-43.84546817724856
 21
5.699999517306255
 31
0.0
  0
LINE
  5
2BDD
330
1F
100
AcDbEntity
  8
AM_0
 48
0.5
100
AcDbLine
 10
-43.84548355855089
 20
5.699999517306255
 30
0.0
 11
-23.80727936543586
 21
5.699999517305934
 31
0.0
  0
LINE
  5
2BDE
330
1F
100
AcDbEntity
  8
AM_0
 48
0.5
100
AcDbLine
 10
-39.69844366956403
 20
-5.700000482693927
 30
0.0
 11
-23.80727936543604
 21
-5.700000482694067
 31
0.0
  0
SPLINE
  5
2BDF
330
1F
100
AcDbEntity
  8
AM_0
100
AcDbSpline
210
0.0
220
0.0
230
1.0
 70
     8
 71
     3
 72
    23
 73
    19
 74
     0
 42
0.0000000001
 43
0.0000000001
 40
16.03460024169435
 40
16.03460024169435
 40
16.03460024169435
 40
16.03460024169435
 40
16.35212704903564
 40
17.38177054169784
 40
18.41822485651776
 40
19.46214173629503
 40
20.51396345435107
 40
21.57393551351153
 40
22.64208202342361
 40
23.7182574881101
 40
24.80209208578934
 40
25.89306333925047
 40
26.99048218457928
 40
28.09348763352352
 40
29.20111863782268
 40
30.31232390128032
 40
31.42594612798585
 40
32.5407912310448
 40
32.5407912310486
 40
32.5407912310486
 40
32.5407912310486
 10
-55.24199027022647
 20
5.700809305750713
 30
0.0
 10
-55.14459228455511
 20
5.681567109518518
 30
0.0
 10
-54.73177682306406
 20
5.597772760762025
 30
0.0
 10
-54.00459794192972
 20
5.433590523003495
 30
0.0
 10
-53.06289938721731
 20
5.189453330936022
 30
0.0
 10
-52.122075526417
 20
4.915327957794279
 30
0.0
 10
-51.18207076549656
 20
4.612800901419498
 30
0.0
 10
-50.24285174202121
 20
4.283558756923645
 30
0.0
 10
-49.30436417138238
 20
3.929483611250409
 30
0.0
 10
-48.36654270087263
 20
3.552636092932893
 30
0.0
 10
-47.42933404010776
 20
3.155150267495722
 30
0.0
 10
-46.49266304967103
 20
2.739339012340841
 30
0.0
 10
-45.55645382285309
 20
2.307619202133778
 30
0.0
 10
-44.6206439827034
 20
1.862473044794678
 30
0.0
 10
-43.68515523114917
 20
1.406489004268185
 30
0.0
 10
-42.74990092211978
 20
0.9423296928150469
 30
0.0
 10
-41.81480489951343
 20
0.472684787955225
 30
0.0
 10
-41.19157499541951
 20
0.1578135591646965
 30
0.0
 10
-40.87979008473321
 20
0.0002894342970764
 30
0.0
  0
SPLINE
  5
2BE0
330
1F
100
AcDbEntity
  8
AM_0
100
AcDbSpline
210
0.0
220
0.0
230
1.0
 70
     8
 71
     3
 72
    11
 73
     7
 74
     0
 42
0.0000000001
 43
0.0000000001
 40
11.27226913003534
 40
11.27226913003534
 40
11.27226913003534
 40
11.2722691300354
 40
12.28301561507924
 40
13.29510212255852
 40
14.30984805882082
 40
15.18258238371378
 40
15.18258238371378
 40
15.18258238371378
 40
15.18258238371378
 10
-57.55680586743962
 20
-5.700000482693646
 30
0.0
 10
-57.87147963416678
 20
-5.672103026284455
 30
0.0
 10
-58.50023363305972
 20
-5.604564498464691
 30
0.0
 10
-59.44011786296549
 20
-5.46832258223698
 30
0.0
 10
-60.33208456988575
 20
-5.305596551646488
 30
0.0
 10
-60.90895627852647
 20
-5.180504208894237
 30
0.0
 10
-61.174795188275
 20
-5.118712046749633
 30
0.0
  0
SPLINE
  5
2BE1
330
1F
100
AcDbEntity
  8
AM_0
100
AcDbSpline
210
0.0
220
0.0
230
1.0
 70
     8
 71
     3
 72
    17
 73
    13
 74
     0
 42
0.0000000001
 43
0.0000000001
 40
1.580019955310467
 40
1.580019955310467
 40
1.580019955310467
 40
1.580019955310467
 40
2.030549285115227
 40
3.082371838836284
 40
4.126290986361125
 40
5.162752068350215
 40
6.192395305374981
 40
7.216039564037012
 40
8.234688489606833
 40
9.249433870634691
 40
10.26152376260694
 40
11.27226744710342
 40
11.27226744710342
 40
11.27226744710342
 40
11.27226744710352
 10
-48.62692811914307
 20
-4.206768328258838
 30
0.0
 10
-48.76105792588588
 20
-4.250094542346686
 30
0.0
 10
-49.20909654295127
 20
-4.392101996062715
 30
0.0
 10
-49.97400957120917
 20
-4.614845768331161
 30
0.0
 10
-50.92146751372156
 20
-4.864289244289175
 30
0.0
 10
-51.86918629051846
 20
-5.083267497159607
 30
0.0
 10
-52.81694849145888
 20
-5.271045148753272
 30
0.0
 10
-53.76481394939248
 20
-5.426256295364148
 30
0.0
 10
-54.71274489263065
 20
-5.548015215417182
 30
0.0
 10
-55.66073486163748
 20
-5.635532870369393
 30
0.0
 10
-56.60876050039508
 20
-5.688245898912269
 30
0.0
 10
-57.24093098891561
 20
-5.70000051530935
 30
0.0
 10
-57.55680586743957
 20
-5.700000482693646
 30
0.0
  0
SPLINE
  5
2BE2
330
1F
100
AcDbEntity
  8
AM_0
 48
0.5
100
AcDbSpline
210
0.0
220
0.0
230
1.0
 70
     8
 71
     3
 72
    17
 73
    13
 74
     0
 42
0.0000000001
 43
0.0000000001
 40
0.0
 40
0.0
 40
0.0
 40
0.0
 40
1.010743614677189
 40
2.022833924044153
 40
3.037578959561199
 40
4.056212747067873
 40
5.079857613375832
 40
6.109500119648989
 40
7.14596120163808
 40
8.18989512056258
 40
9.241717674284874
 40
9.693948937866434
 40
9.693948937866434
 40
9.693948937866434
 40
9.693948937866434
 10
-5.948917167560255
 20
5.699999517305648
 30
0.0
 10
-6.264792107737004
 20
5.69661059937689
 30
0.0
 10
-6.896962853578478
 20
5.689828248192585
 30
0.0
 10
-7.844987713776171
 20
5.635100496353956
 30
0.0
 10
-8.792973544340656
 20
5.548130674449188
 30
0.0
 10
-9.740900418254115
 20
5.426226019457076
 30
0.0
 10
-10.68875704598211
 20
5.271039838314298
 30
0.0
 10
-11.63653185039293
 20
5.083291629695487
 30
0.0
 10
-12.58421211075579
 20
4.864189990910044
 30
0.0
 10
-13.5318346008689
 20
4.615209970617732
 30
0.0
 10
-14.29678018535516
 20
4.390916608538541
 30
0.0
 10
-14.74600108215105
 20
4.250701002442253
 30
0.0
 10
-14.88083309437011
 20
4.207781944060647
 30
0.0
  0
SPLINE
  5
2BE3
330
1F
100
AcDbEntity
  8
AM_0
 48
0.5
100
AcDbSpline
210
0.0
220
0.0
230
1.0
 70
     8
 71
     3
 72
    16
 73
    12
 74
     0
 42
0.0000000001
 43
0.0000000001
 40
0.0
 40
0.0
 40
0.0
 40
0.0
 40
1.010743614677189
 40
2.022833924044153
 40
3.037578959561199
 40
4.056212747067873
 40
5.079857613375832
 40
6.109500119648989
 40
7.14596120163808
 40
8.18989512056258
 40
8.545190612624931
 40
8.545190612624931
 40
8.545190612624931
 40
8.545190612624931
 10
-5.948917167560255
 20
5.699999517305648
 30
0.0
 10
-6.264774547146847
 20
5.69996526515484
 30
0.0
 10
-6.896971016266099
 20
5.688269363923545
 30
0.0
 10
-7.844985511510041
 20
5.635519572825035
 30
0.0
 10
-8.792974166618776
 20
5.548017882533264
 30
0.0
 10
-9.740900141027498
 20
5.426256138089653
 30
0.0
 10
-10.6887575321444
 20
5.271032874365478
 30
0.0
 10
-11.63653016995602
 20
5.083289092455277
 30
0.0
 10
-12.58421840565302
 20
4.864207346887743
 30
0.0
 10
-13.3210899328604
 20
4.670528211008496
 30
0.0
 10
-13.74227063177718
 20
4.551410746966777
 30
0.0
 10
-13.84907970477314
 20
4.520671620815953
 30
0.0
  0
SPLINE
  5
2BE4
330
1F
100
AcDbEntity
  8
AM_0
 48
0.5
100
AcDbSpline
210
0.0
220
0.0
230
1.0
 70
     8
 71
     3
 72
    25
 73
    21
 74
     0
 42
0.0000000001
 43
0.0000000001
 40
6.846175049578289
 40
6.846175049578289
 40
6.846175049578289
 40
6.846175049578289
 40
7.604337694224321
 40
8.711974558287883
 40
9.814980593243754
 40
10.91239053451967
 40
12.0033633515982
 40
13.08720139956839
 40
14.16337181880432
 40
15.23152222380919
 40
16.29148850140128
 40
17.34331105512262
 40
18.38723020264746
 40
19.42369128463655
 40
20.45333379090873
 40
21.47697865721768
 40
22.49561244472435
 40
23.5103574802404
 40
24.52244778960836
 40
25.53320666051913
 40
25.53320666051913
 40
25.53320666051913
 40
25.53320666051913
 10
-7.054553698455062
 20
1.031736834355442
 30
0.0
 10
-7.269912676177272
 20
1.131818696942767
 30
0.0
 10
-7.80035334333681
 20
1.377113550450535
 30
0.0
 10
-8.646663991173829
 20
1.762314772372569
 30
0.0
 10
-9.593652058557486
 20
2.182483853450273
 30
0.0
 10
-10.54068775058609
 20
2.589228647978827
 30
0.0
 10
-11.48777920406119
 20
2.980048260222636
 30
0.0
 10
-12.43493697191883
 20
3.35253152928308
 30
0.0
 10
-13.3821698123933
 20
3.704381388045991
 30
0.0
 10
-14.32948211067375
 20
4.03343546445681
 30
0.0
 10
-15.27688553521749
 20
4.337645949910196
 30
0.0
 10
-16.2243788031272
 20
4.615147414279722
 30
0.0
 10
-17.1719687200482
 20
4.864208251333225
 30
0.0
 10
-18.1196519418921
 20
5.083287062381716
 30
0.0
 10
-19.06742476652928
 20
5.271041051057014
 30
0.0
 10
-20.01528192004944
 20
5.426225696834887
 30
0.0
 10
-20.96320865417586
 20
5.548130761079401
 30
0.0
 10
-21.91119452179388
 20
5.635100470565642
 30
0.0
 10
-22.85922413423627
 20
5.68982853992427
 30
0.0
 10
-23.49139965425413
 20
5.696610679512506
 30
0.0
 10
-23.80727936543586
 20
5.699999517305934
 30
0.0
  0
SPLINE
  5
2BE5
330
1F
100
AcDbEntity
  8
AM_0
100
AcDbSpline
210
0.0
220
0.0
230
1.0
 70
     8
 71
     3
 72
    46
 73
    42
 74
     0
 42
0.0000000001
 43
0.0000000001
 40
0.0
 40
0.0
 40
0.0
 40
0.0
 40
1.348332046947657
 40
2.024828967632895
 40
2.703918159304097
 40
3.386347665078124
 40
4.072776489761952
 40
4.763750544421347
 40
5.459696642770596
 40
6.160921452191754
 40
6.867565637253344
 40
7.579665907256596
 40
8.297112853413899
 40
9.019671552060676
 40
9.746986763446127
 40
10.47859339096366
 40
11.21393074760089
 40
11.95235532364328
 40
12.69315551794651
 40
13.43556823304427
 40
14.1787950170388
 40
14.92202180103393
 40
15.66443451613169
 40
16.40523471043432
 40
17.14365928647669
 40
17.87899664311455
 40
18.61060327063121
 40
19.3379184820169
 40
20.06048192311554
 40
20.77792886927283
 40
21.49002913927608
 40
22.19667332433747
 40
22.89788836015233
 40
23.59383445850158
 40
24.28480851316097
 40
24.97123685067576
 40
25.65366676154838
 40
26.33276604526152
 40
27.00926273560555
 40
27.68398960851751
 40
28.357818684969
 40
28.357818684969
 40
28.357818684969
 40
28.357818684969
 10
-3.295089500323868
 20
-5.700000482694396
 30
0.0
 10
-3.927290865667705
 20
-5.687015442079177
 30
0.0
 10
-4.876685816876605
 20
-5.667515433573771
 30
0.0
 10
-6.139137684939072
 20
-5.547457463548194
 30
0.0
 10
-7.087074389674581
 20
-5.426407092926669
 30
0.0
 10
-8.034930068387886
 20
-5.270998979376766
 30
0.0
 10
-8.982702224102565
 20
-5.083299640874573
 30
0.0
 10
-9.930385987927186
 20
-4.86420644016307
 30
0.0
 10
-10.87797977263384
 20
-4.615146630365348
 30
0.0
 10
-11.82547936109549
 20
-4.337649475582334
 30
0.0
 10
-12.77288664713655
 20
-4.033436116075996
 30
0.0
 10
-13.72019908251953
 20
-3.704382438239265
 30
0.0
 10
-14.66743188632549
 20
-3.352532472554554
 30
0.0
 10
-15.61458966229524
 20
-2.980049228378154
 30
0.0
 10
-16.56168112042789
 20
-2.589229624748889
 30
0.0
 10
-17.50871678540125
 20
-2.182484770115507
 30
0.0
 10
-18.45570495708388
 20
-1.762315922504582
 30
0.0
 10
-19.40265485205999
 20
-1.33130734150596
 30
0.0
 10
-20.34957651069797
 20
-0.8921116323821198
 30
0.0
 10
-21.296478583189
 20
-0.4474295400166656
 30
0.0
 10
-22.24337269585402
 20
-0.0000004827846233
 30
0.0
 10
-23.19026680831103
 20
0.4474285749911359
 30
0.0
 10
-24.13716888142603
 20
0.8921106657262374
 30
0.0
 10
-25.08409053778333
 20
1.331306380808293
 30
0.0
 10
-26.03104044121626
 20
1.762314939710049
 30
0.0
 10
-26.97802858154183
 20
2.182483869253935
 30
0.0
 10
-27.92506436264104
 20
2.589228420460714
 30
0.0
 10
-28.8721574501624
 20
2.980049996092967
 30
0.0
 10
-29.81931890633033
 20
3.352529856070272
 30
0.0
 10
-30.76655339985444
 20
3.704381625921115
 30
0.0
 10
-31.71386581318128
 20
4.033435401668826
 30
0.0
 10
-32.66126920738085
 20
4.337645965714363
 30
0.0
 10
-33.60876248284758
 20
4.615147413143295
 30
0.0
 10
-34.55635239953996
 20
4.864208240377595
 30
0.0
 10
-35.50403561489499
 20
5.08328710686169
 30
0.0
 10
-36.45180846545822
 20
5.271040885568548
 30
0.0
 10
-37.39967019345959
 20
5.426227074339552
 30
0.0
 10
-38.34760201371759
 20
5.548129617019587
 30
0.0
 10
-39.29559248205601
 20
5.635100662306887
 30
0.0
 10
-40.24361736174324
 20
5.689828206814607
 30
0.0
 10
-40.87578810499134
 20
5.696610585590751
 30
0.0
 10
-41.19166304387215
 20
5.699999517306212
 30
0.0
  0
SPLINE
  5
2BE6
330
1F
100
AcDbEntity
  8
AM_0
100
AcDbSpline
210
0.0
220
0.0
230
1.0
 70
     8
 71
     3
 72
    55
 73
    51
 74
     0
 42
0.0000000001
 43
0.0000000001
 40
0.0
 40
0.0
 40
0.0
 40
0.0
 40
1.010743684496582
 40
2.022833576467832
 40
3.037578957496688
 40
4.056212745003489
 40
5.079857003664532
 40
6.109500240690281
 40
7.145961322679372
 40
8.189895241603872
 40
9.241717795325891
 40
10.30168407291828
 40
11.36983447792315
 40
12.44600489715814
 40
13.52984294512926
 40
14.62081576220742
 40
15.7182257034828
 40
16.82123173843959
 40
17.92886860250316
 40
19.0400688939571
 40
20.15368796660465
 40
21.26852814259644
 40
22.38336992938901
 40
23.49698739941135
 40
24.6081876908653
 40
25.71582455492886
 40
26.81883757994213
 40
27.91624752121713
 40
29.00722033829659
 40
30.09105838626677
 40
31.16722880550176
 40
32.23537921050758
 40
33.29534548809967
 40
34.347168041821
 40
35.39108718934584
 40
36.42754827133493
 40
37.45720575381954
 40
38.48085062012849
 40
39.49948440763516
 40
40.51422944315121
 40
41.52631975251916
 40
42.53706336719636
 40
43.54780698187354
 40
44.55989729124051
 40
45.57464232675757
 40
46.59327611426424
 40
47.6169209805722
 40
48.64656348684535
 40
49.68302456883444
 40
50.58557219878025
 40
50.58557219878025
 40
50.58557219878025
 40
50.58557219878025
 10
-5.948917167560437
 20
-5.700000482694353
 30
0.0
 10
-6.26479205025173
 20
-5.696609120785292
 30
0.0
 10
-6.896962528753454
 20
-5.689821880019094
 30
0.0
 10
-7.844988187619206
 20
-5.63510909980944
 30
0.0
 10
-8.792973378844068
 20
-5.548130071848849
 30
0.0
 10
-9.740899899092637
 20
-5.426225656100568
 30
0.0
 10
-10.68875828955043
 20
-5.271047891120315
 30
0.0
 10
-11.63652985109068
 20
-5.0832868276997
 30
0.0
 10
-12.58421775396723
 20
-4.864207291285635
 30
0.0
 10
-13.53181359410363
 20
-4.615150820137605
 30
0.0
 10
-14.47931091664519
 20
-4.337646605879704
 30
0.0
 10
-15.42671444434228
 20
-4.033436513778855
 30
0.0
 10
-16.37402671453047
 20
-3.704382330453988
 30
0.0
 10
-17.32125956311777
 20
-3.352532501781761
 30
0.0
 10
-18.26841732688901
 20
-2.980049220345421
 30
0.0
 10
-19.21550878858988
 20
-2.589229627380893
 30
0.0
 10
-20.16254445159282
 20
-2.182484767674022
 30
0.0
 10
-21.10953262758847
 20
-1.762315929666871
 30
0.0
 10
-22.05648250720496
 20
-1.331307315162896
 30
0.0
 10
-23.00340422320841
 20
-0.8921117309779889
 30
0.0
 10
-23.95030608100366
 20
-0.4474291710701484
 30
0.0
 10
-24.89720145231165
 20
-0.0000016457011049
 30
0.0
 10
-25.84409257285172
 20
0.4474339336422351
 30
0.0
 10
-26.79099760445559
 20
0.8921095686664061
 30
0.0
 10
-27.73791815147149
 20
1.331306482271342
 30
0.0
 10
-28.68486971948914
 20
1.762316738726028
 30
0.0
 10
-29.631861824046
 20
2.182481990938536
 30
0.0
 10
-30.57889898172144
 20
2.589228913407783
 30
0.0
 10
-31.5259905801508
 20
2.980048189457914
 30
0.0
 10
-32.473148309458
 20
3.352531549226088
 30
0.0
 10
-33.4203811604708
 20
3.704381378413003
 30
0.0
 10
-34.36769345478778
 20
4.033435483056054
 30
0.0
 10
-35.31509688470245
 20
4.337645885783389
 30
0.0
 10
-36.26259013524859
 20
4.615147649682634
 30
0.0
 10
-37.2101801155992
 20
4.864207382849054
 30
0.0
 10
-38.15786766693271
 20
5.083291324676991
 30
0.0
 10
-39.10564599587957
 20
5.271030943177763
 30
0.0
 10
-40.05350751779365
 20
5.426256738956681
 30
0.0
 10
-41.00143431905005
 20
5.548016652754616
 30
0.0
 10
-41.94942016896384
 20
5.635523872667011
 30
0.0
 10
-42.8974450240168
 20
5.688253441274171
 30
0.0
 10
-43.84549071134104
 20
5.705868645374438
 30
0.0
 10
-44.79353639727034
 20
5.688253441246581
 30
0.0
 10
-45.74156125651618
 20
5.635523872777855
 30
0.0
 10
-46.689547090993
 20
5.548016652337113
 30
0.0
 10
-47.63747395012633
 20
5.426256740525862
 30
0.0
 10
-48.58533063345351
 20
5.271031694028409
 30
0.0
 10
-49.53310522851449
 20
5.083293244213253
 30
0.0
 10
-50.43770348353412
 20
4.874152406779291
 30
0.0
 10
-51.02461713324861
 20
4.721205735214635
 30
0.0
 10
-51.29691085891453
 20
4.646667360973217
 30
0.0
  0
SPLINE
  5
2BE7
330
1F
100
AcDbEntity
  8
AM_0
100
AcDbSpline
210
0.0
220
0.0
230
1.0
 70
     8
 71
     3
 72
    11
 73
     7
 74
     0
 42
0.0000000001
 43
0.0000000001
 40
11.27226913003534
 40
11.27226913003534
 40
11.27226913003534
 40
11.2722691300354
 40
12.28301561507924
 40
13.29510212255852
 40
14.30984805882082
 40
15.18258238371378
 40
15.18258238371378
 40
15.18258238371378
 40
15.18258238371378
 10
-23.80727936543601
 20
-5.700000482694068
 30
0.0
 10
-24.12195313216317
 20
-5.67210302628488
 30
0.0
 10
-24.75070713105614
 20
-5.604564498465115
 30
0.0
 10
-25.69059136096191
 20
-5.468322582237404
 30
0.0
 10
-26.58255806788215
 20
-5.305596551646915
 30
0.0
 10
-27.15942977652288
 20
-5.180504208894661
 30
0.0
 10
-27.4252686862714
 20
-5.118712046750056
 30
0.0
  0
SPLINE
  5
2BE8
330
1F
100
AcDbEntity
  8
AM_0
100
AcDbSpline
210
0.0
220
0.0
230
1.0
 70
     8
 71
     3
 72
    22
 73
    18
 74
     0
 42
0.0000000001
 43
0.0000000001
 40
17.17441611292
 40
17.17441611292
 40
17.17441611292
 40
17.17441611292
 40
17.38177636558528
 40
18.41823744757437
 40
19.46215659509824
 40
20.51397914882054
 40
21.57394542641293
 40
22.64209583141747
 40
23.71826625065247
 40
24.80210429862395
 40
25.8930771157021
 40
26.99048705697709
 40
28.09349309193389
 40
29.20112995599786
 40
30.31233024745139
 40
31.42594771747373
 40
32.5407895042663
 40
32.54078950426994
 40
32.54078950426994
 40
32.54078950426994
 10
-27.42568329056817
 20
-5.118641737293643
 30
0.0
 10
-27.48916443883935
 20
-5.105446796359731
 30
0.0
 10
-27.86969925365077
 20
-5.025074968888675
 30
0.0
 10
-28.56681759133388
 20
-4.863918994182962
 30
0.0
 10
-29.51440743618459
 20
-4.614858545465959
 30
0.0
 10
-30.46190072361921
 20
-4.337356975858909
 30
0.0
 10
-31.40930414288726
 20
-4.033146518966671
 30
0.0
 10
-32.35661644253467
 20
-3.704092434670806
 30
0.0
 10
-33.30384928287737
 20
-3.352242578592
 30
0.0
 10
-34.25100704986969
 20
-2.979759306737776
 30
0.0
 10
-35.19809850697324
 20
-2.588939703035936
 30
0.0
 10
-36.14513418524458
 20
-2.182194876892054
 30
0.0
 10
-37.092122304382
 20
-1.76202591454236
 30
0.0
 10
-38.03907239735194
 20
-1.331017766443248
 30
0.0
 10
-38.98599285804281
 20
-0.8918206448323632
 30
0.0
 10
-39.93289771425774
 20
-0.4471446333395995
 30
0.0
 10
-40.5640437076786
 20
-0.148909864955309
 30
0.0
 10
-40.8797900847374
 20
0.0002894342991244
 30
0.0
  0
SPLINE
  5
2BE9
330
1F
100
AcDbEntity
  8
AM_0
100
AcDbSpline
210
0.0
220
0.0
230
1.0
 70
     8
 71
     3
 72
    17
 73
    13
 74
     0
 42
0.0000000001
 43
0.0000000001
 40
1.580019955310467
 40
1.580019955310467
 40
1.580019955310467
 40
1.580019955310467
 40
2.030549285115227
 40
3.082371838836284
 40
4.126290986361125
 40
5.162752068350215
 40
6.192395305374981
 40
7.216039564037012
 40
8.234688489606833
 40
9.249433870634691
 40
10.26152376260694
 40
11.27226744710342
 40
11.27226744710342
 40
11.27226744710342
 40
11.27226744710352
 10
-14.87740161713945
 20
-4.206768328259264
 30
0.0
 10
-15.01153142388227
 20
-4.250094542347111
 30
0.0
 10
-15.45957004094767
 20
-4.392101996063138
 30
0.0
 10
-16.22448306920557
 20
-4.61484576833159
 30
0.0
 10
-17.17194101171797
 20
-4.864289244289598
 30
0.0
 10
-18.11965978851486
 20
-5.083267497160033
 30
0.0
 10
-19.06742198945528
 20
-5.271045148753695
 30
0.0
 10
-20.01528744738889
 20
-5.426256295364573
 30
0.0
 10
-20.96321839062707
 20
-5.548015215417606
 30
0.0
 10
-21.91120835963389
 20
-5.635532870369821
 30
0.0
 10
-22.85923399839149
 20
-5.688245898912693
 30
0.0
 10
-23.49140448691199
 20
-5.700000515309774
 30
0.0
 10
-23.80727936543596
 20
-5.700000482694068
 30
0.0
  0
ELLIPSE
  5
2BEA
330
1F
100
AcDbEntity
  8
AM_0
 48
0.5
100
AcDbEllipse
 10
2.724860412701673
 20
6.843200200899229
 30
0.0
 11
-0.000000000000677
 21
11.48803510665876
 31
0.0
210
0.0
220
0.0
230
1.0
 40
0.9868421052631568
 41
2.101163880028917
 42
2.509284810223809
  0
ELLIPSE
  5
2BEB
330
1F
100
AcDbEntity
  8
AM_0
 48
0.5
100
AcDbEllipse
 10
4.951980812176215
 20
-1.267031961576013
 30
0.0
 11
8.959034962013067
 21
0.9107003641408427
 31
0.0
210
0.0
220
0.0
230
0.9999999999999996
 40
0.7153627830369427
 41
3.180103715831412
 42
3.754774053220724
  0
ELLIPSE
  5
2BEC
330
1F
100
AcDbEntity
  8
AM_0
 48
0.5
100
AcDbEllipse
 10
-11.69578288233444
 20
15.50273527397479
 30
0.0
 11
0.0059489103673273
 21
19.51410075794854
 31
0.0
210
0.0
220
0.0
230
1.0
 40
0.9868457197586545
 41
3.687428343108661
 42
3.794608868144434
  0
ELLIPSE
  5
2BED
330
1F
100
AcDbEntity
  8
AM_0
 48
0.5
100
AcDbEllipse
 10
-2.097797015306341
 20
-1.485504111507084
 30
0.0
 11
-0.810064843913824
 21
0.4781661870767266
 31
0.0
210
0.0
220
0.0
230
1.0
 40
0.5032665885249651
 41
4.491567931652804
 42
7.635008272982313
  0
ELLIPSE
  5
2BEE
330
1F
100
AcDbEntity
  8
AM_0
 48
0.5
100
AcDbEllipse
 10
-2.097797015306341
 20
-1.485504111507084
 30
0.0
 11
-0.1614257683416565
 21
0.9358056936981498
 31
0.0
210
0.0
220
0.0
230
1.0
 40
0.4938051871248734
 41
1.808820773739903
 42
4.944162663451878
  0
ELLIPSE
  5
2BEF
330
1F
100
AcDbEntity
  8
AM_0
 48
0.5
100
AcDbEllipse
 10
-1.699030517026425
 20
-5.832030519296562
 30
0.0
 11
6.000302889968315
 21
2.704400307265628
 31
0.0
210
0.0
220
0.0
230
1.0
 40
0.617472304269821
 41
1.429748375168048
 42
1.673504801923952
  0
SPLINE
  5
2BF0
330
1F
100
AcDbEntity
  8
AM_0
 48
0.5
100
AcDbSpline
210
0.0
220
0.0
230
1.0
 70
     8
 71
     3
 72
    10
 73
     6
 74
     0
 42
0.0000000001
 43
0.0000000001
 40
0.0
 40
0.0
 40
0.0
 40
0.0
 40
2.69986029516136
 40
4.147722969032201
 40
6.285750005020438
 40
6.285750005020438
 40
6.285750005020438
 40
6.285750005020438
 10
-7.054402130023762
 20
1.031669134004774
 30
0.0
 10
-6.379673128456319
 20
0.5020997452295209
 30
0.0
 10
-5.343105057623565
 20
-0.3114635052305184
 30
0.0
 10
-2.891760814799217
 20
0.0823967167429142
 30
0.0
 10
-3.353420237466369
 20
1.408970059814038
 30
0.0
 10
-3.566858292653005
 20
2.217557369775157
 30
0.0
  0
LINE
  5
2BF1
330
1F
100
AcDbEntity
  8
AM_11
 48
0.5
100
AcDbLine
 10
-88.9875496259696
 20
5.699999517306865
 30
0.0
 11
-77.59514023579747
 21
5.699999517306681
 31
0.0
  0
LINE
  5
2BF2
330
1F
100
AcDbEntity
  8
AM_11
 48
0.5
100
AcDbLine
 10
-91.54735378612
 20
-5.700000482693103
 30
0.0
 11
-77.59514023579765
 21
-5.700000482693321
 31
0.0
  0
LINE
  5
2BF3
330
1F
100
AcDbEntity
  8
AM_0
 48
0.5
100
AcDbLine
 10
-80.57849337376742
 20
2.888083738192528
 30
0.0
 11
-93.99999999999993
 21
-0.2524513602400797
 31
0.0
  0
SPLINE
  5
2BF4
330
1F
100
AcDbEntity
  8
AM_0
100
AcDbSpline
210
0.0
220
0.0
230
1.0
 70
     8
 71
     3
 72
    13
 73
     9
 74
     0
 42
0.0000000001
 43
0.0000000001
 40
16.03460056234195
 40
16.03460056234195
 40
16.03460056234195
 40
16.03460056234195
 40
16.35212717791071
 40
17.38177067057215
 40
18.41822498539278
 40
19.46214186516937
 40
20.5139635832251
 40
21.34083983469381
 40
21.34083983469381
 40
21.34083983469381
 40
21.34083983469381
 10
-92.32462674826583
 20
-5.700000482693095
 30
0.0
 10
-90.77001432389693
 20
-5.664352546581639
 30
0.0
 10
-90.35719852080955
 20
-5.597485193330165
 30
0.0
 10
-89.63002003607163
 20
-5.433301038705478
 30
0.0
 10
-88.68832136285071
 20
-5.189164523571978
 30
0.0
 10
-87.74749753414489
 20
-4.915038967105076
 30
0.0
 10
-86.87692599045496
 20
-4.63485804490008
 30
0.0
 10
-86.32151667626258
 20
-4.441933540520593
 30
0.0
 10
-86.07786193892792
 20
-4.354729906612657
 30
0.0
  0
SPLINE
  5
2BF5
330
1F
100
AcDbEntity
  8
AM_0
100
AcDbSpline
210
0.0
220
0.0
230
1.0
 70
     8
 71
     3
 72
    23
 73
    19
 74
     0
 42
0.0000000001
 43
0.0000000001
 40
16.03460024169435
 40
16.03460024169435
 40
16.03460024169435
 40
16.03460024169435
 40
16.35212704903564
 40
17.38177054169784
 40
18.41822485651776
 40
19.46214173629503
 40
20.51396345435107
 40
21.57393551351153
 40
22.64208202342361
 40
23.7182574881101
 40
24.80209208578934
 40
25.89306333925047
 40
26.99048218457928
 40
28.09348763352352
 40
29.20111863782268
 40
30.31232390128032
 40
31.42594612798585
 40
32.5407912310448
 40
32.5407912310486
 40
32.5407912310486
 40
32.5407912310486
 10
-88.99164694747303
 20
5.700809305751135
 30
0.0
 10
-88.89424896180166
 20
5.681567109518938
 30
0.0
 10
-88.48143350031064
 20
5.597772760762445
 30
0.0
 10
-87.75425461917627
 20
5.433590523003915
 30
0.0
 10
-86.81255606446388
 20
5.189453330936443
 30
0.0
 10
-85.87173220366357
 20
4.915327957794699
 30
0.0
 10
-84.93172744274311
 20
4.612800901419916
 30
0.0
 10
-83.99250841926777
 20
4.28355875692407
 30
0.0
 10
-83.05402084862892
 20
3.929483611250832
 30
0.0
 10
-82.11619937811919
 20
3.552636092933313
 30
0.0
 10
-81.17899071735429
 20
3.155150267496142
 30
0.0
 10
-80.24231972691756
 20
2.739339012341264
 30
0.0
 10
-79.30611050009966
 20
2.307619202134199
 30
0.0
 10
-78.37030065995
 20
1.862473044795099
 30
0.0
 10
-77.43481190839577
 20
1.406489004268606
 30
0.0
 10
-76.49955759936634
 20
0.942329692815468
 30
0.0
 10
-75.56446157675998
 20
0.4726847879556462
 30
0.0
 10
-74.94123167266607
 20
0.1578135591651177
 30
0.0
 10
-74.62944676197976
 20
0.0002894342974977
 30
0.0
  0
ELLIPSE
  5
2BF6
330
1F
100
AcDbEntity
  8
AM_0
 48
0.5
100
AcDbEllipse
 10
-92.55733187799036
 20
-3.737235568361226
 30
0.0
 11
0.8024317598619447
 21
1.432255063032461
 31
0.0
210
0.0
220
0.0
230
1.0
 40
0.8421371502956846
 41
0.174671265562955
 42
2.066617121403089
  0
ELLIPSE
  5
2BF7
330
1F
100
AcDbEntity
  8
AM_0
 48
0.5
100
AcDbEllipse
 10
-92.12713863489749
 20
-3.800000482693127
 30
0.0
 11
-1.279901969967745
 21
1.500313569842293
 31
0.0
210
0.0
220
0.0
230
1.0
 40
0.9191967932933305
 41
0.9185120452382108
 42
2.393477380602692
  0
SPLINE
  5
2BF8
330
1F
100
AcDbEntity
  8
AM_0
 48
0.5
100
AcDbSpline
210
0.0
220
0.0
230
1.0
 70
     8
 71
     3
 72
    22
 73
    18
 74
     0
 42
0.0000000001
 43
0.0000000001
 40
0.0
 40
0.0
 40
0.0
 40
0.0
 40
1.010743684496582
 40
2.022833993863546
 40
3.037578683882831
 40
4.056212471389632
 40
5.079857945358201
 40
6.109499720892564
 40
7.145961650132166
 40
8.189873411961459
 40
9.241710626092514
 40
10.30166235592959
 40
11.36982472628033
 40
12.44598212828784
 40
13.52983440361964
 40
14.62080578343036
 40
14.90544694398022
 40
14.90544694398022
 40
14.90544694398022
 40
14.90544694398022
 10
-77.59514738835544
 20
-5.700000482693321
 30
0.0
 10
-77.91102233140499
 20
-5.696610133960504
 30
0.0
 10
-78.5431930611471
 20
-5.689824919496201
 30
0.0
 10
-79.49121772666003
 20
-5.635096898411853
 30
0.0
 10
-80.43920394370513
 20
-5.548132513680294
 30
0.0
 10
-81.38713096799939
 20
-5.426227985553767
 30
0.0
 10
-82.3349867768063
 20
-5.271035743163174
 30
0.0
 10
-83.28276148181034
 20
-5.083290462663526
 30
0.0
 10
-84.23044119474823
 20
-4.864205706935885
 30
0.0
 10
-85.17803243219633
 20
-4.615140588479247
 30
0.0
 10
-86.12552665970097
 20
-4.337650228255217
 30
0.0
 10
-87.07292882877387
 20
-4.033423463853583
 30
0.0
 10
-88.02024504667803
 20
-3.704396229270412
 30
0.0
 10
-88.96747460186777
 20
-3.352524577486513
 30
0.0
 10
-89.91463523957298
 20
-2.980050090234829
 30
0.0
 10
-90.62649265058706
 20
-2.686313656787896
 30
0.0
 10
-91.02316444124438
 20
-2.518423353333284
 30
0.0
 10
-91.97672111859267
 20
-2.20933795971369
 30
0.0
  0
SPLINE
  5
2BF9
330
1F
100
AcDbEntity
  8
AM_0
 48
0.5
100
AcDbSpline
210
0.0
220
0.0
230
1.0
 70
     8
 71
     3
 72
    26
 73
    22
 74
     0
 42
0.0000000001
 43
0.0000000001
 40
0.0
 40
0.0
 40
0.0
 40
0.0
 40
0.6738291229976858
 40
1.34855571764586
 40
2.025052638331105
 40
2.7041418300023
 40
3.386571335776987
 40
4.073000160460178
 40
4.763974215119558
 40
5.459920313469455
 40
6.161135349283505
 40
6.867779534345081
 40
7.579884616450838
 40
8.297322010138517
 40
9.01989019369366
 40
9.747205405079087
 40
10.47881203259601
 40
11.21414938923388
 40
11.95257396527625
 40
12.69337415957888
 40
13.41285713964268
 40
13.41285713964268
 40
13.41285713964268
 40
13.41285713964268
 10
-74.94131972111889
 20
-5.700000482693366
 30
0.0
 10
-75.25719460384816
 20
-5.696609120932086
 30
0.0
 10
-75.88936508242624
 20
-5.689821880461632
 30
0.0
 10
-76.83739074072055
 20
-5.635109098029656
 30
0.0
 10
-77.78537593412588
 20
-5.548130078548833
 30
0.0
 10
-78.73330244617815
 20
-5.426225630925615
 30
0.0
 10
-79.68116086745745
 20
-5.27104798580803
 30
0.0
 10
-80.62893231294721
 20
-5.083286471075441
 30
0.0
 10
-81.57661615213713
 20
-4.864209676373314
 30
0.0
 10
-82.5242059218444
 20
-4.615148163816773
 30
0.0
 10
-83.47169938187501
 20
-4.337647318477698
 30
0.0
 10
-84.41910433013559
 20
-4.033434328699104
 30
0.0
 10
-85.36641684088936
 20
-3.704387611634691
 30
0.0
 10
-86.31364764745391
 20
-3.352525621441835
 30
0.0
 10
-87.26080941495796
 20
-2.980053084809044
 30
0.0
 10
-88.2079041898622
 20
-2.589229516130976
 30
0.0
 10
-89.15493903226041
 20
-2.182483012778749
 30
0.0
 10
-90.18139989352798
 20
-1.843939471979729
 30
0.0
 10
-91.13185781520311
 20
-1.478912251716561
 30
0.0
 10
-92.10135474060633
 20
-1.015143083981764
 30
0.0
 10
-92.81701722107998
 20
-0.7293475868754751
 30
0.0
 10
-93.99999999999993
 20
-0.2524513602400797
 30
0.0
  0
SPLINE
  5
2BFA
330
1F
100
AcDbEntity
  8
AM_0
100
AcDbSpline
210
0.0
220
0.0
230
1.0
 70
     8
 71
     3
 72
    22
 73
    18
 74
     0
 42
0.0000000001
 43
0.0000000001
 40
17.17441611292
 40
17.17441611292
 40
17.17441611292
 40
17.17441611292
 40
17.38177636558528
 40
18.41823744757437
 40
19.46215659509824
 40
20.51397914882054
 40
21.57394542641293
 40
22.64209583141747
 40
23.71826625065247
 40
24.80210429862395
 40
25.8930771157021
 40
26.99048705697709
 40
28.09349309193389
 40
29.20112995599786
 40
30.31233024745139
 40
31.42594771747373
 40
32.5407895042663
 40
32.54078950426994
 40
32.54078950426994
 40
32.54078950426994
 10
-61.17520979257176
 20
-5.118641737293219
 30
0.0
 10
-61.23869094084295
 20
-5.105446796359308
 30
0.0
 10
-61.61922575565438
 20
-5.025074968888248
 30
0.0
 10
-62.31634409333749
 20
-4.863918994182535
 30
0.0
 10
-63.2639339381882
 20
-4.614858545465533
 30
0.0
 10
-64.21142722562283
 20
-4.337356975858486
 30
0.0
 10
-65.15883064489087
 20
-4.033146518966248
 30
0.0
 10
-66.10614294453829
 20
-3.70409243467038
 30
0.0
 10
-67.053375784881
 20
-3.352242578591574
 30
0.0
 10
-68.00053355187332
 20
-2.979759306737351
 30
0.0
 10
-68.94762500897684
 20
-2.588939703035511
 30
0.0
 10
-69.89466068724818
 20
-2.182194876891629
 30
0.0
 10
-70.84164880638557
 20
-1.762025914541935
 30
0.0
 10
-71.78859889935552
 20
-1.331017766442823
 30
0.0
 10
-72.73551936004643
 20
-0.8918206448319384
 30
0.0
 10
-73.68242421626135
 20
-0.4471446333391746
 30
0.0
 10
-74.31357020968221
 20
-0.1489098649548842
 30
0.0
 10
-74.62931658674101
 20
0.0002894342995492
 30
0.0
  0
SPLINE
  5
2BFB
330
1F
100
AcDbEntity
  8
AM_0
100
AcDbSpline
210
0.0
220
0.0
230
1.0
 70
     8
 71
     3
 72
    46
 73
    42
 74
     0
 42
0.0000000001
 43
0.0000000001
 40
0.0
 40
0.0
 40
0.0
 40
0.0
 40
1.348332046947654
 40
2.024828967632893
 40
2.703918159304094
 40
3.386347665078122
 40
4.072776489761951
 40
4.763750544421345
 40
5.459696642770595
 40
6.160921452191748
 40
6.867565637253344
 40
7.579665907256597
 40
8.297112853413899
 40
9.019671552060666
 40
9.746986763446125
 40
10.47859339096365
 40
11.21393074760088
 40
11.95235532364327
 40
12.69315551794651
 40
13.43556823304427
 40
14.1787950170388
 40
14.92202180103393
 40
15.66443451613169
 40
16.40523471043432
 40
17.14365928647669
 40
17.87899664311455
 40
18.61060327063121
 40
19.33791848201689
 40
20.06048192311554
 40
20.77792886927282
 40
21.49002913927608
 40
22.19667332433747
 40
22.89788836015233
 40
23.59383445850157
 40
24.28480851316097
 40
24.97123685067575
 40
25.65366676154837
 40
26.33276604526151
 40
27.00926273560554
 40
27.68398960851752
 40
28.35781868496899
 40
28.35781868496899
 40
28.35781868496899
 40
28.35781868496899
 10
-37.04461600232747
 20
-5.700000482693973
 30
0.0
 10
-37.6768173676713
 20
-5.687015442078751
 30
0.0
 10
-38.6262123188802
 20
-5.667515433573343
 30
0.0
 10
-39.88866418694266
 20
-5.547457463547769
 30
0.0
 10
-40.83660089167818
 20
-5.426407092926246
 30
0.0
 10
-41.78445657039148
 20
-5.270998979376339
 30
0.0
 10
-42.73222872610618
 20
-5.083299640874148
 30
0.0
 10
-43.6799124899308
 20
-4.864206440162643
 30
0.0
 10
-44.62750627463742
 20
-4.615146630364922
 30
0.0
 10
-45.5750058630991
 20
-4.337649475581905
 30
0.0
 10
-46.52241314914015
 20
-4.033436116075574
 30
0.0
 10
-47.46972558452312
 20
-3.70438243823884
 30
0.0
 10
-48.41695838832911
 20
-3.352532472554132
 30
0.0
 10
-49.36411616429883
 20
-2.980049228377722
 30
0.0
 10
-50.3112076224315
 20
-2.589229624748474
 30
0.0
 10
-51.25824328740488
 20
-2.182484770115074
 30
0.0
 10
-52.20523145908747
 20
-1.762315922504163
 30
0.0
 10
-53.15218135406356
 20
-1.331307341505529
 30
0.0
 10
-54.09910301270154
 20
-0.8921116323816985
 30
0.0
 10
-55.0460050851926
 20
-0.4474295400162405
 30
0.0
 10
-55.99289919785764
 20
-0.0000004827841971
 30
0.0
 10
-56.93979331031464
 20
0.4474285749915596
 30
0.0
 10
-57.88669538342965
 20
0.8921106657266623
 30
0.0
 10
-58.83361703978697
 20
1.331306380808719
 30
0.0
 10
-59.78056694321987
 20
1.762314939710471
 30
0.0
 10
-60.72755508354543
 20
2.182483869254362
 30
0.0
 10
-61.67459086464464
 20
2.589228420461138
 30
0.0
 10
-62.621683952166
 20
2.98004999609339
 30
0.0
 10
-63.56884540833394
 20
3.352529856070697
 30
0.0
 10
-64.51607990185803
 20
3.704381625921538
 30
0.0
 10
-65.46339231518487
 20
4.033435401669251
 30
0.0
 10
-66.41079570938446
 20
4.337645965714785
 30
0.0
 10
-67.3582889848512
 20
4.615147413143724
 30
0.0
 10
-68.30587890154359
 20
4.864208240378023
 30
0.0
 10
-69.25356211689861
 20
5.083287106862111
 30
0.0
 10
-70.20133496746185
 20
5.271040885568972
 30
0.0
 10
-71.14919669546321
 20
5.426227074339974
 30
0.0
 10
-72.0971285157212
 20
5.548129617020015
 30
0.0
 10
-73.04511898405962
 20
5.63510066230731
 30
0.0
 10
-73.99314386374688
 20
5.689828206815031
 30
0.0
 10
-74.62531460699496
 20
5.696610585591177
 30
0.0
 10
-74.94118954587576
 20
5.699999517306637
 30
0.0
  0
SPLINE
  5
2BFC
330
1F
100
AcDbEntity
  8
AM_0
100
AcDbSpline
210
0.0
220
0.0
230
1.0
 70
     8
 71
     3
 72
    55
 73
    51
 74
     0
 42
0.0000000001
 43
0.0000000001
 40
0.0
 40
0.0
 40
0.0
 40
0.0
 40
1.010743684496582
 40
2.022833576467832
 40
3.037578957496688
 40
4.056212745003489
 40
5.079857003664532
 40
6.109500240690281
 40
7.145961322679372
 40
8.189895241603872
 40
9.241717795325891
 40
10.30168407291828
 40
11.36983447792315
 40
12.44600489715814
 40
13.52984294512926
 40
14.62081576220742
 40
15.7182257034828
 40
16.82123173843959
 40
17.92886860250316
 40
19.0400688939571
 40
20.15368796660465
 40
21.26852814259644
 40
22.38336992938901
 40
23.49698739941135
 40
24.6081876908653
 40
25.71582455492886
 40
26.81883757994213
 40
27.91624752121713
 40
29.00722033829659
 40
30.09105838626677
 40
31.16722880550176
 40
32.23537921050758
 40
33.29534548809967
 40
34.347168041821
 40
35.39108718934584
 40
36.42754827133493
 40
37.45720575381954
 40
38.48085062012849
 40
39.49948440763516
 40
40.51422944315121
 40
41.52631975251916
 40
42.53706336719636
 40
43.54780698187354
 40
44.55989729124051
 40
45.57464232675757
 40
46.59327611426424
 40
47.6169209805722
 40
48.64656348684535
 40
49.68302456883444
 40
50.58557219878025
 40
50.58557219878025
 40
50.58557219878025
 40
50.58557219878025
 10
-39.69844366956403
 20
-5.700000482693929
 30
0.0
 10
-40.01431855225533
 20
-5.696609120784865
 30
0.0
 10
-40.64648903075705
 20
-5.689821880018666
 30
0.0
 10
-41.5945146896228
 20
-5.635109099809016
 30
0.0
 10
-42.54249988084767
 20
-5.548130071848424
 30
0.0
 10
-43.49042640109624
 20
-5.426225656100144
 30
0.0
 10
-44.43828479155405
 20
-5.271047891119891
 30
0.0
 10
-45.38605635309429
 20
-5.083286827699276
 30
0.0
 10
-46.33374425597082
 20
-4.864207291285208
 30
0.0
 10
-47.28134009610722
 20
-4.615150820137178
 30
0.0
 10
-48.22883741864881
 20
-4.337646605879278
 30
0.0
 10
-49.17624094634587
 20
-4.03343651377843
 30
0.0
 10
-50.12355321653407
 20
-3.704382330453564
 30
0.0
 10
-51.07078606512136
 20
-3.352532501781336
 30
0.0
 10
-52.01794382889262
 20
-2.980049220344998
 30
0.0
 10
-52.96503529059349
 20
-2.589229627380468
 30
0.0
 10
-53.91207095359645
 20
-2.182484767673596
 30
0.0
 10
-54.85905912959206
 20
-1.762315929666446
 30
0.0
 10
-55.80600900920856
 20
-1.331307315162471
 30
0.0
 10
-56.75293072521201
 20
-0.892111730977564
 30
0.0
 10
-57.69983258300726
 20
-0.4474291710697236
 30
0.0
 10
-58.64672795431527
 20
-0.0000016457006801
 30
0.0
 10
-59.59361907485532
 20
0.44743393364266
 30
0.0
 10
-60.54052410645922
 20
0.892109568666831
 30
0.0
 10
-61.48744465347512
 20
1.331306482271767
 30
0.0
 10
-62.43439622149275
 20
1.762316738726453
 30
0.0
 10
-63.38138832604959
 20
2.18248199093896
 30
0.0
 10
-64.32842548372502
 20
2.589228913408207
 30
0.0
 10
-65.27551708215437
 20
2.98004818945834
 30
0.0
 10
-66.2226748114616
 20
3.352531549226514
 30
0.0
 10
-67.16990766247438
 20
3.704381378413427
 30
0.0
 10
-68.11721995679137
 20
4.033435483056478
 30
0.0
 10
-69.06462338670606
 20
4.337645885783815
 30
0.0
 10
-70.01211663725219
 20
4.615147649683061
 30
0.0
 10
-70.95970661760282
 20
4.864207382849483
 30
0.0
 10
-71.90739416893634
 20
5.083291324677413
 30
0.0
 10
-72.8551724978832
 20
5.271030943178186
 30
0.0
 10
-73.80303401979728
 20
5.426256738957103
 30
0.0
 10
-74.75096082105368
 20
5.548016652755038
 30
0.0
 10
-75.69894667096746
 20
5.635523872667436
 30
0.0
 10
-76.64697152602042
 20
5.688253441274597
 30
0.0
 10
-77.59501721334463
 20
5.70586864537486
 30
0.0
 10
-78.54306289927396
 20
5.688253441247004
 30
0.0
 10
-79.49108775851979
 20
5.635523872778279
 30
0.0
 10
-80.43907359299662
 20
5.548016652337538
 30
0.0
 10
-81.38700045212996
 20
5.426256740526287
 30
0.0
 10
-82.33485713545711
 20
5.271031694028836
 30
0.0
 10
-83.28263173051807
 20
5.08329324421368
 30
0.0
 10
-84.18722998553771
 20
4.874152406779715
 30
0.0
 10
-84.77414363525221
 20
4.721205735215058
 30
0.0
 10
-85.04643736091813
 20
4.646667360973641
 30
0.0
  0
LINE
  5
2BFD
330
1F
100
AcDbEntity
  8
AM_0
100
AcDbLine
 10
-77.59514023579747
 20
5.699999517306681
 30
0.0
 11
-55.24199027022647
 21
5.700809305750711
 31
0.0
  0
LINE
  5
2BFE
330
1F
100
AcDbEntity
  8
AM_0
 48
0.5
100
AcDbLine
 10
-77.59514738838827
 20
-5.700000482693245
 30
0.0
 11
-57.55680586744128
 21
-5.700000482693497
 31
0.0
  0
DIMENSION
  5
2C96
330
1F
100
AcDbEntity
  8
AM_5
100
AcDbDimension
  2
*D9
 10
-0.6556992300417002
 20
-1.80151496243851
 30
0.0
 11
33.04587076582271
 21
-0.0000163828173969
 31
0.0
 70
    34
  1
<>
 51
359.9999999999998
  3
AM_JIS$2
100
AcDb2LineAngularDimension
 13
0.0000000000000462
 23
-0.0000000000000075
 33
0.0
 14
-0.6556848755425384
 24
1.801480604883394
 34
0.0
 15
0.0000000000000568
 25
-0.0000000000000001
 35
0.0
 16
33.18972835177781
 26
14.3166303771181
 36
0.0
1001
GENIUS_GENDTOL_13
1000

1000
h7
1000

1040
0.0
1001
ACAD
1000
DSTYLE
1002
{
1070
   271
1070
     0
1002
}
  0
ELLIPSE
  5
2D93
330
1F
100
AcDbEntity
  8
AM_11
 48
0.5
100
AcDbEllipse
 10
-156.2534427026573
 20
23.85166937466857
 30
0.0
 11
-26.63799285888635
 21
0.0000000000003979
 31
0.0
210
0.0
220
0.0
230
1.0
 40
0.9900000000000002
 41
1.429681313187787
 42
2.011520147323597
  0
ELLIPSE
  5
2D94
330
1F
100
AcDbEntity
  8
AM_11
 48
0.5
100
AcDbEllipse
 10
-156.2534427026579
 20
-23.85156472567302
 30
0.0
 11
-26.63799285888627
 21
0.0000000000015277
 31
0.0
210
0.0
220
0.0
230
1.0
 40
0.9900000000000032
 41
4.271664206181728
 42
4.853503993991846
  0
ELLIPSE
  5
2D95
330
1F
100
AcDbEntity
  8
AM_11
 48
0.5
100
AcDbEllipse
 10
-133.5261229292478
 20
23.85164740650095
 30
0.0
 11
-26.63799285888635
 21
0.0000000000003979
 31
0.0
210
0.0
220
0.0
230
1.0
 40
0.9900000000000002
 41
1.130070686340306
 42
2.011520147323597
  0
ELLIPSE
  5
2D96
330
1F
100
AcDbEntity
  8
AM_11
 48
0.5
100
AcDbEllipse
 10
-133.5261229292484
 20
-23.85158669384063
 30
0.0
 11
-26.63799285888627
 21
0.0000000000015277
 31
0.0
210
0.0
220
0.0
230
1.0
 40
0.9900000000000032
 41
4.271664206181728
 42
5.153113667165039
  0
ELLIPSE
  5
2D97
330
1F
100
AcDbEntity
  8
AM_11
 48
0.5
100
AcDbEllipse
 10
-110.7988031558383
 20
23.85162543833334
 30
0.0
 11
-26.63799285888635
 21
0.0000000000003979
 31
0.0
210
0.0
220
0.0
230
1.0
 40
0.9900000000000002
 41
1.130070686340306
 42
2.011520147323597
  0
ELLIPSE
  5
2D98
330
1F
100
AcDbEntity
  8
AM_11
 48
0.5
100
AcDbEllipse
 10
-110.798803155839
 20
-23.85160866200825
 30
0.0
 11
-26.63799285888627
 21
0.0000000000015277
 31
0.0
210
0.0
220
0.0
230
1.0
 40
0.9900000000000032
 41
4.271664206181728
 42
5.153113667165039
  0
ELLIPSE
  5
2D99
330
1F
100
AcDbEntity
  8
AM_11
 48
0.5
100
AcDbEllipse
 10
-88.07157747494287
 20
-23.85158669384036
 30
0.0
 11
-26.63799285888627
 21
0.0000000000015277
 31
0.0
210
0.0
220
0.0
230
1.0
 40
0.9900000000000032
 41
4.271664206181728
 42
5.153113667165039
  0
ELLIPSE
  5
2D9A
330
1F
100
AcDbEntity
  8
AM_11
 48
0.5
100
AcDbEllipse
 10
-88.07157747494224
 20
23.85164740650123
 30
0.0
 11
-26.63799285888635
 21
0.0000000000003979
 31
0.0
210
0.0
220
0.0
230
1.0
 40
0.9900000000000002
 41
1.130070686340306
 42
2.011520147323597
  0
ELLIPSE
  5
2D9B
330
1F
100
AcDbEntity
  8
AM_11
 48
0.5
100
AcDbEllipse
 10
-42.61698497426158
 20
-23.85160866200783
 30
0.0
 11
-26.63799285888627
 21
0.0000000000015277
 31
0.0
210
0.0
220
0.0
230
1.0
 40
0.9900000000000032
 41
4.271664206181728
 42
5.153113667165039
  0
ELLIPSE
  5
2D9C
330
1F
100
AcDbEntity
  8
AM_11
 48
0.5
100
AcDbEllipse
 10
-42.61698497426094
 20
23.85162543833375
 30
0.0
 11
-26.63799285888635
 21
0.0000000000003979
 31
0.0
210
0.0
220
0.0
230
1.0
 40
0.9900000000000002
 41
1.130070686340306
 42
2.011520147323597
  0
ELLIPSE
  5
2D9D
330
1F
100
AcDbEntity
  8
AM_11
 48
0.5
100
AcDbEllipse
 10
-65.34425770153342
 20
-23.85160866200797
 30
0.0
 11
-26.63799285888627
 21
0.0000000000015277
 31
0.0
210
0.0
220
0.0
230
1.0
 40
0.9900000000000032
 41
4.271664206181728
 42
5.153113667165039
  0
ELLIPSE
  5
2D9E
330
1F
100
AcDbEntity
  8
AM_11
 48
0.5
100
AcDbEllipse
 10
-65.34425770153278
 20
23.85162543833362
 30
0.0
 11
-26.63799285888635
 21
0.0000000000003979
 31
0.0
210
0.0
220
0.0
230
1.0
 40
0.9900000000000002
 41
1.130070686340306
 42
2.011520147323597
  0
ELLIPSE
  5
2D9F
330
1F
100
AcDbEntity
  8
AM_11
 48
0.5
100
AcDbEllipse
 10
-19.88971224698821
 20
23.85162543833346
 30
0.0
 11
-26.63799285888635
 21
0.0000000000011491
 31
0.0
210
0.0
220
0.0
230
1.0
 40
0.9899999999999995
 41
1.130070686340335
 42
2.011520147323624
  0
ELLIPSE
  5
2DA0
330
1F
100
AcDbEntity
  8
AM_11
 48
0.5
100
AcDbEllipse
 10
-19.88971224698886
 20
-23.85160866200812
 30
0.0
 11
-26.63799285888632
 21
0.0000000000017761
 31
0.0
210
0.0
220
0.0
230
1.0
 40
0.9900000000000009
 41
4.271664206181739
 42
5.153113667165048
  0
ELLIPSE
  5
2DA1
330
1F
100
AcDbEntity
  8
AM_11
 48
0.5
100
AcDbEllipse
 10
2.837560480284537
 20
23.85162543833314
 30
0.0
 11
-26.63799285888681
 21
0.0000000000250272
 31
0.0
210
0.0
220
0.0
230
1.0
 40
0.9899999999999861
 41
1.130070686341231
 42
1.291800737381917
  0
VIEWPORT
  5
110
330
101
100
AcDbEntity
 67
     1
  8
0
100
AcDbViewport
 10
420.5
 20
297.0
 30
0.0
 40
948.9782706766916
 41
628.452
 68
     1
 69
     1
1001
ACAD
1000
MVIEW
1002
{
1070
    16
1010
0.0
1020
0.0
1030
0.0
1010
0.0
1020
0.0
1030
1.0
1040
0.0
1040
628.452
1040
420.5
1040
297.0
1040
50.0
1040
0.0
1040
0.0
1070
     0
1070
   100
1070
     1
1070
     1
1070
     0
1070
     0
1070
     0
1070
     0
1040
0.0
1040
0.0
1040
0.0
1040
10.0
1040
10.0
1040
10.0
1040
10.0
1070
     0
1002
{
1002
}
1002
}
  0
ENDSEC
  0
SECTION
  2
OBJECTS
  0
DICTIONARY
  5
C
330
0
100
AcDbDictionary
  3
ACAD_GROUP
350
D
  3
ACAD_LAYOUT
350
1A
  3
ACAD_MLINESTYLE
350
17
  3
ACAD_PLOTSETTINGS
350
19
  3
ACAD_PLOTSTYLENAME
350
E
  3
ACDBVARIABLEDICTIONARY
350
34
  3
ACMDICTIONARY
350
43
  3
AMG
350
2B
  3
AMGSNAPSETTINGS
350
6E
  3
DWGPROPS
350
2DBB
  3
ACDBHEADERROUNDTRIPXREC
350
2DC8
  0
DICTIONARY
  5
74
330
1F
100
AcDbDictionary
280
     1
  3
ACAD_INDEX
360
2DBD
  3
ACAD_LAYOUTSELFREF
360
2DEB
  0
DICTIONARY
  5
2DF0
330
101
100
AcDbDictionary
280
     1
  3
ACAD_LAYOUTSELFREF
360
2DF1
  0
DICTIONARY
  5
D
102
{ACAD_REACTORS
330
C
102
}
330
C
100
AcDbDictionary
  0
DICTIONARY
  5
1A
102
{ACAD_REACTORS
330
C
102
}
330
C
100
AcDbDictionary
  0
DICTIONARY
  5
17
102
{ACAD_REACTORS
330
C
102
}
330
C
100
AcDbDictionary
  3
STANDARD
350
18
  0
DICTIONARY
  5
19
102
{ACAD_REACTORS
330
C
102
}
330
C
100
AcDbDictionary
  0
ACDBDICTIONARYWDFLT
  5
E
102
{ACAD_REACTORS
330
C
102
}
330
C
100
AcDbDictionary
281
     1
  3
Normal
350
F
100
AcDbDictionaryWithDefault
340
F
  0
DICTIONARY
  5
34
102
{ACAD_REACTORS
330
C
102
}
330
C
100
AcDbDictionary
  3
INDEXCTL
350
35
  3
SORTENTS
350
B5E
  0
DICTIONARY
  5
43
102
{ACAD_REACTORS
330
C
102
}
330
C
100
AcDbDictionary
  3
ACMSTDDICTIONARY
350
260
  0
DICTIONARY
  5
2B
102
{ACAD_REACTORS
330
C
102
}
330
C
100
AcDbDictionary
  3
ACMGSETTINGS
350
2C
  0
DICTIONARY
  5
6E
102
{ACAD_REACTORS
330
C
102
}
330
C
100
AcDbDictionary
  0
XRECORD
  5
2DBB
102
{ACAD_REACTORS
330
C
102
}
330
C
100
AcDbXrecord
  1
DWGPROPS COOKIE
  2

  3

  4

  6

  7

  8

  9

300
AmdtFileType=82
301
=
302
=
303
=
304
=
305
=
306
=
307
=
308
=
309
=
 40
0.0595777430555556
 41
2452800.443498622
 42
2452948.655035798
  1

 90
        1
  0
DICTIONARY
  5
2DC8
102
{ACAD_REACTORS
330
C
102
}
330
C
100
AcDbDictionary
  3
TSTACKALIGN
350
2DC9
  3
TSTACKSIZE
350
2DCA
  3
HYPERLINKBASE
350
2DCB
  3
STYLESHEET
350
2DCC
  3
LAYOUTDICT
350
2DCD
  3
PLOTSETDICT
350
2DCE
  3
PLOTSTYLNAMDICT
350
2DCF
  3
LWETCUNION
350
2DD0
  3
INSUNITS
350
2DD1
  3
CEPSNTYPE
350
2DD2
  3
FINGERPRINTGUID
350
2DD3
  3
VERSIONGUID
350
2DD4
  3
PSVPSCALE
350
2DD5
  3
DIMSTYLEDATA
350
2DD6
  3
PUCSORTHOREF
350
2DD7
  3
PUCSORTHOVIEW
350
2DD8
  3
PUCSBASE
350
2DD9
  3
PUCSORGTOP
350
2DDA
  3
PUCSORGBOTTOM
350
2DDB
  3
PUCSORGLEFT
350
2DDC
  3
PUCSORGRIGHT
350
2DDD
  3
PUCSORGFRONT
350
2DDE
  3
PUCSORGBACK
350
2DDF
  3
UCSORTHOREF
350
2DE0
  3
UCSORTHOVIEW
350
2DE1
  3
UCSBASE
350
2DE2
  3
UCSORGTOP
350
2DE3
  3
UCSORGBOTTOM
350
2DE4
  3
UCSORGLEFT
350
2DE5
  3
UCSORGRIGHT
350
2DE6
  3
UCSORGFRONT
350
2DE7
  3
UCSORGBACK
350
2DE8
  0
DICTIONARY
  5
2DBD
102
{ACAD_REACTORS
330
74
102
}
330
74
100
AcDbDictionary
  3
*A1
350
2DBE
  0
XRECORD
  5
2DEB
102
{ACAD_REACTORS
330
74
102
}
330
74
100
AcDbXrecord
340
1F
  0
XRECORD
  5
2DF1
102
{ACAD_REACTORS
330
2DF0
102
}
330
2DF0
100
AcDbXrecord
340
101
  0
MLINESTYLE
  5
18
102
{ACAD_REACTORS
330
17
102
}
330
17
100
AcDbMlineStyle
  2
STANDARD
 70
     0
  3

 62
   256
 51
90.0
 52
90.0
 71
     2
 49
0.5
 62
   256
  6
BYLAYER
 49
-0.5
 62
   256
  6
BYLAYER
  0
ACDBPLACEHOLDER
  5
F
102
{ACAD_REACTORS
330
E
102
}
330
E
100
AcDbPlaceHolder
280
     0
  0
DICTIONARYVAR
  5
35
102
{ACAD_REACTORS
330
34
102
}
330
34
100
DictionaryVariables
280
     0
  1
1
  0
DICTIONARYVAR
  5
B5E
102
{ACAD_REACTORS
330
34
102
}
330
34
100
DictionaryVariables
280
     0
  1
96
  0
DICTIONARY
  5
260
102
{ACAD_REACTORS
330
43
102
}
330
43
100
AcDbDictionary
  0
DICTIONARY
  5
2C
102
{ACAD_REACTORS
330
2B
102
}
330
2B
100
AcDbDictionary
  3
DWGSETTINGS
350
2D
  0
XRECORD
  5
2DC9
102
{ACAD_REACTORS
330
2DC8
102
}
330
2DC8
100
AcDbXrecord
 90
        1
  0
XRECORD
  5
2DCA
102
{ACAD_REACTORS
330
2DC8
102
}
330
2DC8
100
AcDbXrecord
 90
       70
  0
XRECORD
  5
2DCB
102
{ACAD_REACTORS
330
2DC8
102
}
330
2DC8
100
AcDbXrecord
  1

  0
XRECORD
  5
2DCC
102
{ACAD_REACTORS
330
2DC8
102
}
330
2DC8
100
AcDbXrecord
  1
ASAMI.ctb
  0
XRECORD
  5
2DCD
102
{ACAD_REACTORS
330
2DC8
102
}
330
2DC8
100
AcDbXrecord
340
1A
  0
XRECORD
  5
2DCE
102
{ACAD_REACTORS
330
2DC8
102
}
330
2DC8
100
AcDbXrecord
340
19
  0
XRECORD
  5
2DCF
102
{ACAD_REACTORS
330
2DC8
102
}
330
2DC8
100
AcDbXrecord
340
E
  0
XRECORD
  5
2DD0
102
{ACAD_REACTORS
330
2DC8
102
}
330
2DC8
100
AcDbXrecord
 90
    10781
  0
XRECORD
  5
2DD1
102
{ACAD_REACTORS
330
2DC8
102
}
330
2DC8
100
AcDbXrecord
 90
        4
  0
XRECORD
  5
2DD2
102
{ACAD_REACTORS
330
2DC8
102
}
330
2DC8
100
AcDbXrecord
 90
        0
  0
XRECORD
  5
2DD3
102
{ACAD_REACTORS
330
2DC8
102
}
330
2DC8
100
AcDbXrecord
  1
{AFB28963-8C59-40AE-9337-C84526B81ACE}
  0
XRECORD
  5
2DD4
102
{ACAD_REACTORS
330
2DC8
102
}
330
2DC8
100
AcDbXrecord
  1
{A021084E-020A-44DF-9E2C-0085A5D5F545}
  0
XRECORD
  5
2DD5
102
{ACAD_REACTORS
330
2DC8
102
}
330
2DC8
100
AcDbXrecord
 40
0.0
  0
XRECORD
  5
2DD6
102
{ACAD_REACTORS
330
2DC8
102
}
330
2DC8
100
AcDbXrecord
1000
DSTYLE
1002
{
1070
    79
 70
     2
1070
   341
340
59
1070
   342
340
59
1070
   371
 70
    -1
1070
   372
 70
    -1
1002
}
  0
XRECORD
  5
2DD7
102
{ACAD_REACTORS
330
2DC8
102
}
330
2DC8
100
AcDbXrecord
340
0
  0
XRECORD
  5
2DD8
102
{ACAD_REACTORS
330
2DC8
102
}
330
2DC8
100
AcDbXrecord
 70
     0
  0
XRECORD
  5
2DD9
102
{ACAD_REACTORS
330
2DC8
102
}
330
2DC8
100
AcDbXrecord
340
0
  0
XRECORD
  5
2DDA
102
{ACAD_REACTORS
330
2DC8
102
}
330
2DC8
100
AcDbXrecord
 10
0.0
 20
0.0
 30
0.0
  0
XRECORD
  5
2DDB
102
{ACAD_REACTORS
330
2DC8
102
}
330
2DC8
100
AcDbXrecord
 10
0.0
 20
0.0
 30
0.0
  0
XRECORD
  5
2DDC
102
{ACAD_REACTORS
330
2DC8
102
}
330
2DC8
100
AcDbXrecord
 10
0.0
 20
0.0
 30
0.0
  0
XRECORD
  5
2DDD
102
{ACAD_REACTORS
330
2DC8
102
}
330
2DC8
100
AcDbXrecord
 10
0.0
 20
0.0
 30
0.0
  0
XRECORD
  5
2DDE
102
{ACAD_REACTORS
330
2DC8
102
}
330
2DC8
100
AcDbXrecord
 10
0.0
 20
0.0
 30
0.0
  0
XRECORD
  5
2DDF
102
{ACAD_REACTORS
330
2DC8
102
}
330
2DC8
100
AcDbXrecord
 10
0.0
 20
0.0
 30
0.0
  0
XRECORD
  5
2DE0
102
{ACAD_REACTORS
330
2DC8
102
}
330
2DC8
100
AcDbXrecord
340
0
  0
XRECORD
  5
2DE1
102
{ACAD_REACTORS
330
2DC8
102
}
330
2DC8
100
AcDbXrecord
 70
     0
  0
XRECORD
  5
2DE2
102
{ACAD_REACTORS
330
2DC8
102
}
330
2DC8
100
AcDbXrecord
340
0
  0
XRECORD
  5
2DE3
102
{ACAD_REACTORS
330
2DC8
102
}
330
2DC8
100
AcDbXrecord
 10
0.0
 20
0.0
 30
0.0
  0
XRECORD
  5
2DE4
102
{ACAD_REACTORS
330
2DC8
102
}
330
2DC8
100
AcDbXrecord
 10
0.0
 20
0.0
 30
0.0
  0
XRECORD
  5
2DE5
102
{ACAD_REACTORS
330
2DC8
102
}
330
2DC8
100
AcDbXrecord
 10
0.0
 20
0.0
 30
0.0
  0
XRECORD
  5
2DE6
102
{ACAD_REACTORS
330
2DC8
102
}
330
2DC8
100
AcDbXrecord
 10
0.0
 20
0.0
 30
0.0
  0
XRECORD
  5
2DE7
102
{ACAD_REACTORS
330
2DC8
102
}
330
2DC8
100
AcDbXrecord
 10
0.0
 20
0.0
 30
0.0
  0
XRECORD
  5
2DE8
102
{ACAD_REACTORS
330
2DC8
102
}
330
2DC8
100
AcDbXrecord
 10
0.0
 20
0.0
 30
0.0
  0
LAYER_INDEX
  5
2DBE
102
{ACAD_REACTORS
330
2DBD
102
}
330
2DBD
100
AcDbIndex
 40
2453151.685397118
100
AcDbLayerIndex
  8
0
360
2DBF
 90
        0
  8
AM_0
360
2DC0
 90
       53
  8
AM_7
360
2DC1
 90
        1
  8
AM_11
360
2DC2
 90
       21
  8
AM_5
360
2DC3
 90
        5
  8
Defpoints
360
2DC4
 90
        0
  8
AM_6
360
2DC5
 90
        1
  8
AM_CL
360
2DC6
 90
        0
  0
XRECORD
  5
2D
102
{ACAD_REACTORS
330
2C
102
}
330
2C
100
AcDbXrecord
  1
VERSION
140
15.0
  1
PRODUCT
  2
AutoCAD Mechanical 2000
  0
IDBUFFER
  5
2DBF
330
0
100
AcDbIdBuffer
  0
IDBUFFER
  5
2DC0
330
0
100
AcDbIdBuffer
330
2BFA
330
2BFB
330
2BFC
330
2BFD
330
2BFE
330
1E25
330
1E26
330
1FD9
330
21D7
330
21D8
330
21D9
330
21DA
330
21DB
330
21DC
330
21DD
330
282D
330
282E
330
282F
330
2830
330
2831
330
2832
330
2BD4
330
2BD5
330
2BD6
330
2BD7
330
2BD8
330
2BDD
330
2BDE
330
2BDF
330
2BE0
330
2BE1
330
2BE2
330
2BE3
330
2BE4
330
2BE5
330
2BE6
330
2BE7
330
2BE8
330
2BE9
330
2BEA
330
2BEB
330
2BEC
330
2BED
330
2BEE
330
2BEF
330
2BF0
330
2BF3
330
2BF4
330
2BF5
330
2BF6
330
2BF7
330
2BF8
330
2BF9
  0
IDBUFFER
  5
2DC1
330
0
100
AcDbIdBuffer
330
C9F
  0
IDBUFFER
  5
2DC2
330
0
100
AcDbIdBuffer
330
2D9D
330
2D9E
330
2D9F
330
2DA0
330
2DA1
330
2BD9
330
2BDA
330
2BDB
330
2BDC
330
2BF1
330
2BF2
330
2D93
330
2D94
330
2D95
330
2D96
330
2D97
330
2D98
330
2D99
330
2D9A
330
2D9B
330
2D9C
  0
IDBUFFER
  5
2DC3
330
0
100
AcDbIdBuffer
330
CC6
330
DF5
330
1FB6
330
2216
330
2C96
  0
IDBUFFER
  5
2DC4
330
0
100
AcDbIdBuffer
  0
IDBUFFER
  5
2DC5
330
0
100
AcDbIdBuffer
330
19BD
  0
IDBUFFER
  5
2DC6
330
0
100
AcDbIdBuffer
  0
ENDSEC
  0
EOF
