  0
SECTION
  2
HEADER
  9
$ACADVER
  1
AC1014
  9
$ACADMAINTVER
 70
     9
  9
$DWGCODEPAGE
  3
ANSI_932
  9
$INSBASE
 10
0.0
 20
0.0
 30
0.0
  9
$EXTMIN
 10
-136.150001
 20
-29.25000099999954
 30
-0.00000001
  9
$EXTMAX
 10
15.43921670627629
 20
15.02002385095941
 30
0.00000001
  9
$LIMMIN
 10
-156.1444050923396
 20
-44.51020785580943
  9
$LIMMAX
 10
20.31336096277607
 20
28.16015358894219
  9
$ORTHOMODE
 70
     0
  9
$REGENMODE
 70
     1
  9
$FILLMODE
 70
     1
  9
$QTEXTMODE
 70
     0
  9
$MIRRTEXT
 70
     0
  9
$DRAGMODE
 70
     2
  9
$LTSCALE
 40
1.0
  9
$OSMODE
 70
    55
  9
$ATTMODE
 70
     1
  9
$TEXTSIZE
 40
2.5
  9
$TRACEWID
 40
1.0
  9
$TEXTSTYLE
  7
STANDARD
  9
$CLAYER
  8
AM_0
  9
$CELTYPE
  6
BYLAYER
  9
$CECOLOR
 62
   256
  9
$CELTSCALE
 40
1.0
  9
$DELOBJ
 70
     1
  9
$DISPSILH
 70
     0
  9
$DIMSCALE
 40
0.5
  9
$DIMASZ
 40
2.5
  9
$DIMEXO
 40
1.0
  9
$DIMDLI
 40
12.0
  9
$DIMRND
 40
0.0
  9
$DIMDLE
 40
0.0
  9
$DIMEXE
 40
1.0
  9
$DIMTP
 40
0.1
  9
$DIMTM
 40
0.1
  9
$DIMTXT
 40
3.2
  9
$DIMCEN
 40
0.0
  9
$DIMTSZ
 40
0.0
  9
$DIMTOL
 70
     0
  9
$DIMLIM
 70
     0
  9
$DIMTIH
 70
     0
  9
$DIMTOH
 70
     0
  9
$DIMSE1
 70
     0
  9
$DIMSE2
 70
     0
  9
$DIMTAD
 70
     3
  9
$DIMZIN
 70
     8
  9
$DIMBLK
  1
OPEN30
  9
$DIMASO
 70
     1
  9
$DIMSHO
 70
     1
  9
$DIMPOST
  1

  9
$DIMAPOST
  1
"
  9
$DIMALT
 70
     0
  9
$DIMALTD
 70
     2
  9
$DIMALTF
 40
0.0393701
  9
$DIMLFAC
 40
1.0
  9
$DIMTOFL
 70
     1
  9
$DIMTVP
 40
0.0
  9
$DIMTIX
 70
     0
  9
$DIMSOXD
 70
     0
  9
$DIMSAH
 70
     0
  9
$DIMBLK1
  1

  9
$DIMBLK2
  1

  9
$DIMSTYLE
  2
AM_JIS
  9
$DIMCLRD
 70
   256
  9
$DIMCLRE
 70
   256
  9
$DIMCLRT
 70
     2
  9
$DIMTFAC
 40
0.71
  9
$DIMGAP
 40
1.5
  9
$DIMJUST
 70
     0
  9
$DIMSD1
 70
     0
  9
$DIMSD2
 70
     0
  9
$DIMTOLJ
 70
     0
  9
$DIMTZIN
 70
     0
  9
$DIMALTZ
 70
     0
  9
$DIMALTTZ
 70
     0
  9
$DIMFIT
 70
     3
  9
$DIMUPT
 70
     0
  9
$DIMUNIT
 70
     2
  9
$DIMDEC
 70
     3
  9
$DIMTDEC
 70
     3
  9
$DIMALTU
 70
     2
  9
$DIMALTTD
 70
     2
  9
$DIMTXSTY
  7
ASAMI
  9
$DIMAUNIT
 70
     0
  9
$LUNITS
 70
     2
  9
$LUPREC
 70
     2
  9
$SKETCHINC
 40
1.0
  9
$FILLETRAD
 40
2.5
  9
$AUNITS
 70
     0
  9
$AUPREC
 70
     0
  9
$MENU
  1
.
  9
$ELEVATION
 40
0.0
  9
$PELEVATION
 40
0.0
  9
$THICKNESS
 40
0.0
  9
$LIMCHECK
 70
     0
  9
$BLIPMODE
 70
     0
  9
$CHAMFERA
 40
0.5
  9
$CHAMFERB
 40
0.5
  9
$CHAMFERC
 40
20.0
  9
$CHAMFERD
 40
0.0
  9
$SKPOLY
 70
     0
  9
$TDCREATE
 40
2452800.443498622
  9
$TDUPDATE
 40
2453151.574482222
  9
$TDINDWG
 40
0.0713217708
  9
$TDUSRTIMER
 40
0.0713217708
  9
$USRTIMER
 70
     1
  9
$ANGBASE
 50
0.0
  9
$ANGDIR
 70
     0
  9
$PDMODE
 70
     0
  9
$PDSIZE
 40
0.0
  9
$PLINEWID
 40
0.0
  9
$COORDS
 70
     1
  9
$SPLFRAME
 70
     0
  9
$SPLINETYPE
 70
     6
  9
$SPLINESEGS
 70
     8
  9
$ATTDIA
 70
     1
  9
$ATTREQ
 70
     1
  9
$HANDLING
 70
 12289
  9
$HANDSEED
  5
377A
  9
$SURFTAB1
 70
     6
  9
$SURFTAB2
 70
     6
  9
$SURFTYPE
 70
     6
  9
$SURFU
 70
     6
  9
$SURFV
 70
     6
  9
$UCSNAME
  2

  9
$UCSORG
 10
0.0
 20
0.0
 30
0.0
  9
$UCSXDIR
 10
1.0
 20
0.0000000000000027
 30
0.0
  9
$UCSYDIR
 10
-0.0000000000000027
 20
1.0
 30
0.0
  9
$PUCSNAME
  2

  9
$PUCSORG
 10
0.0
 20
0.0
 30
0.0
  9
$PUCSXDIR
 10
1.0
 20
0.0
 30
0.0
  9
$PUCSYDIR
 10
0.0
 20
1.0
 30
0.0
  9
$USERI1
 70
     0
  9
$USERI2
 70
     0
  9
$USERI3
 70
     0
  9
$USERI4
 70
     0
  9
$USERI5
 70
     0
  9
$USERR1
 40
0.0
  9
$USERR2
 40
0.0
  9
$USERR3
 40
0.0
  9
$USERR4
 40
0.0
  9
$USERR5
 40
0.0
  9
$WORLDVIEW
 70
     1
  9
$SHADEDGE
 70
     3
  9
$SHADEDIF
 70
    70
  9
$TILEMODE
 70
     1
  9
$MAXACTVP
 70
    64
  9
$PINSBASE
 10
0.0
 20
0.0
 30
0.0
  9
$PLIMCHECK
 70
     0
  9
$PEXTMIN
 10
1.000000000000000E+20
 20
1.000000000000000E+20
 30
1.000000000000000E+20
  9
$PEXTMAX
 10
-1.000000000000000E+20
 20
-1.000000000000000E+20
 30
-1.000000000000000E+20
  9
$PLIMMIN
 10
0.0
 20
0.0
  9
$PLIMMAX
 10
841.0
 20
594.0
  9
$UNITMODE
 70
     0
  9
$VISRETAIN
 70
     1
  9
$PLINEGEN
 70
     0
  9
$PSLTSCALE
 70
     0
  9
$TREEDEPTH
 70
  3020
  9
$PICKSTYLE
 70
     0
  9
$CMLSTYLE
  2
STANDARD
  9
$CMLJUST
 70
     0
  9
$CMLSCALE
 40
20.0
  9
$PROXYGRAPHICS
 70
     1
  9
$MEASUREMENT
 70
     1
  0
ENDSEC
  0
SECTION
  2
CLASSES
  0
CLASS
  1
ACDBDICTIONARYWDFLT
  2
AcDbDictionaryWithDefault
  3
AutoCAD 2000
 90
        0
280
     0
281
     0
  0
CLASS
  1
ACDBPLACEHOLDER
  2
AcDbPlaceHolder
  3
AutoCAD 2000
 90
        0
280
     0
281
     0
  0
CLASS
  1
LAYOUT
  2
AcDbLayout
  3
AutoCAD 2000
 90
        0
280
     0
281
     0
  0
CLASS
  1
AMGSETTINGSOBJ
  2
AmgSettingsObj
  3
"AcadM|Product Description: AutoCAD Mechanical 2000|Company: Autodesk"
 90
        0
280
     0
281
     0
  0
CLASS
  1
ACME_DOCUMENT
  2
AcMeDbDoc
  3
AcMeServices
 90
        0
280
     0
281
     0
  0
CLASS
  1
ACMESCOPE
  2
AcMeScope
  3
AcMeServices
 90
        0
280
     0
281
     0
  0
CLASS
  1
ACMECOMMANDHISTORY
  2
AcMeCommandHistory
  3
AcMeServices
 90
        0
280
     0
281
     0
  0
CLASS
  1
DICTIONARYVAR
  2
AcDbDictionaryVar
  3
AutoCAD 2000
 90
        0
280
     0
281
     0
  0
CLASS
  1
ACIMSYSVARMAN
  2
AcImSysVarManager
  3
AcMeServices
 90
        0
280
     0
281
     0
  0
CLASS
  1
ACIMREALSYSVAR
  2
AcImRealSysVar
  3
AcMeServices
 90
        0
280
     0
281
     0
  0
CLASS
  1
ACIMINTSYSVAR
  2
AcImIntSysVar
  3
AcMeServices
 90
        0
280
     0
281
     0
  0
CLASS
  1
ACMEDRAWINGMAN
  2
AcMeDrawingMan
  3
AcMeServices
 90
        0
280
     0
281
     0
  0
CLASS
  1
ACMEVIEW
  2
AcMeView
  3
AcMeServices
 90
        0
280
     0
281
     0
  0
CLASS
  1
ACDBENTITYCACHE
  2
AcMeEntityCache
  3
AcMeServices
 90
        0
280
     0
281
     0
  0
CLASS
  1
GSMANAGER
  2
AcMeGSManager
  3
AcMeServices
 90
        0
280
     0
281
     0
  0
CLASS
  1
AmdtInternalReactor
  2
AmdtInternalReactor
  3
AcMeServices
 90
        0
280
     0
281
     0
  0
CLASS
  1
ACMESTATEMGR
  2
AcMeStateMgr
  3
AcMeServices
 90
        0
280
     0
281
     0
  0
CLASS
  1
ACME_DATABASE
  2
AcMeDbDatabase
  3
AcMeServices
 90
        0
280
     0
281
     0
  0
CLASS
  1
ACRFINSADJUSTERMGR
  2
AcRfInsAdjusterMgr
  3
AcMeServices
 90
        0
280
     0
281
     0
  0
CLASS
  1
ACMDATADICTIONARY
  2
AcmDataDictionary
  3
"AcmSymBB|Product Description: AutoCAD Mechanical 2000|Company: Autodesk"
 90
        0
280
     0
281
     0
  0
CLASS
  1
ACMDATAENTRYBLOCK
  2
AcmDataEntryBlock
  3
"AcmSymBB|Product Description: AutoCAD Mechanical 2000|Company: Autodesk"
 90
        0
280
     0
281
     0
  0
CLASS
  1
AMGOBJPROPCFG
  2
AmgObjPropCfg
  3
"AmgLay|Product Description: AutoCAD Mechanical 2000|Company: Autodesk"
 90
        1
280
     0
281
     0
  0
CLASS
  1
ACAMGFILTERDAT
  2
AcAmgFilterDat
  3
"AcadM|Product Description: AutoCAD Mechanical 2000|Company: Autodesk"
 90
        0
280
     0
281
     0
  0
CLASS
  1
LAYER_INDEX
  2
AcDbLayerIndex
  3
AutoCAD 2000
 90
        0
280
     0
281
     0
  0
CLASS
  1
IDBUFFER
  2
AcDbIdBuffer
  3
AutoCAD 2000
 90
        0
280
     0
281
     0
  0
CLASS
  1
ACIMSTRSYSVAR
  2
AcImStrSysVar
  3
AcMeServices
 90
        0
280
     0
281
     0
  0
CLASS
  1
ACMSTANDARDJIS
  2
AcmStandardJIS
  3
"AcmSymBB|Product Description: AutoCAD Mechanical 2000|Company: Autodesk"
 90
        0
280
     0
281
     0
  0
CLASS
  1
ACMSURFSTANDARDJIS
  2
AcmSurfTextStdJIS
  3
"AcmSymBB|Product Description: AutoCAD Mechanical 2000|Company: Autodesk"
 90
        0
280
     0
281
     0
  0
CLASS
  1
ACMFCFSTANDARDJIS
  2
AcmFCFStdJIS
  3
"AcmSymBB|Product Description: AutoCAD Mechanical 2000|Company: Autodesk"
 90
        0
280
     0
281
     0
  0
CLASS
  1
ACMWELDSTANDARDJIS
  2
AcmWeldingStdJIS
  3
"AcmSymBB|Product Description: AutoCAD Mechanical 2000|Company: Autodesk"
 90
        0
280
     0
281
     0
  0
CLASS
  1
ACMIDSTANDARDJIS
  2
AcmIdStdJIS
  3
"AcmSymBB|Product Description: AutoCAD Mechanical 2000|Company: Autodesk"
 90
        0
280
     0
281
     0
  0
CLASS
  1
ACMDATUMSTANDARDJIS
  2
AcmDatumStdJIS
  3
"AcmSymBB|Product Description: AutoCAD Mechanical 2000|Company: Autodesk"
 90
        0
280
     0
281
     0
  0
CLASS
  1
ACMBOMSTANDARDJIS
  2
AcmBOMStdJIS
  3
"AcmSymBB|Product Description: AutoCAD Mechanical 2000|Company: Autodesk"
 90
        0
280
     0
281
     0
  0
CLASS
  1
ACMSTANDARDANSI
  2
AcmStandardANSI
  3
"AcmSymBB|Product Description: AutoCAD Mechanical 2000|Company: Autodesk"
 90
        0
280
     0
281
     0
  0
CLASS
  1
ACMSURFSTANDARDANSI
  2
AcmSurfTextStdANSI
  3
"AcmSymBB|Product Description: AutoCAD Mechanical 2000|Company: Autodesk"
 90
        0
280
     0
281
     0
  0
CLASS
  1
ACMFCFSTANDARDANSI
  2
AcmFCFStdANSI
  3
"AcmSymBB|Product Description: AutoCAD Mechanical 2000|Company: Autodesk"
 90
        0
280
     0
281
     0
  0
CLASS
  1
ACMWELDSTANDARDANSI
  2
AcmWeldingStdANSI
  3
"AcmSymBB|Product Description: AutoCAD Mechanical 2000|Company: Autodesk"
 90
        0
280
     0
281
     0
  0
CLASS
  1
ACMIDSTANDARDANSI
  2
AcmIdStdANSI
  3
"AcmSymBB|Product Description: AutoCAD Mechanical 2000|Company: Autodesk"
 90
        0
280
     0
281
     0
  0
CLASS
  1
ACMDATUMSTANDARDANSI
  2
AcmDatumStdANSI
  3
"AcmSymBB|Product Description: AutoCAD Mechanical 2000|Company: Autodesk"
 90
        0
280
     0
281
     0
  0
CLASS
  1
ACMBOMSTANDARDANSI
  2
AcmBOMStdANSI
  3
"AcmSymBB|Product Description: AutoCAD Mechanical 2000|Company: Autodesk"
 90
        0
280
     0
281
     0
  0
CLASS
  1
ACMSTANDARDBSI
  2
AcmStandardBSI
  3
"AcmSymBB|Product Description: AutoCAD Mechanical 2000|Company: Autodesk"
 90
        0
280
     0
281
     0
  0
CLASS
  1
ACMSURFSTANDARDBSI
  2
AcmSurfTextStdBSI
  3
"AcmSymBB|Product Description: AutoCAD Mechanical 2000|Company: Autodesk"
 90
        0
280
     0
281
     0
  0
CLASS
  1
ACMFCFSTANDARDBSI
  2
AcmFCFStdBSI
  3
"AcmSymBB|Product Description: AutoCAD Mechanical 2000|Company: Autodesk"
 90
        0
280
     0
281
     0
  0
CLASS
  1
ACMWELDSTANDARDBSI
  2
AcmWeldingStdBSI
  3
"AcmSymBB|Product Description: AutoCAD Mechanical 2000|Company: Autodesk"
 90
        0
280
     0
281
     0
  0
CLASS
  1
ACMIDSTANDARDBSI
  2
AcmIdStdBSI
  3
"AcmSymBB|Product Description: AutoCAD Mechanical 2000|Company: Autodesk"
 90
        0
280
     0
281
     0
  0
CLASS
  1
ACMDATUMSTANDARDBSI
  2
AcmDatumStdBSI
  3
"AcmSymBB|Product Description: AutoCAD Mechanical 2000|Company: Autodesk"
 90
        0
280
     0
281
     0
  0
CLASS
  1
ACMBOMSTANDARDBSI
  2
AcmBOMStdBSI
  3
"AcmSymBB|Product Description: AutoCAD Mechanical 2000|Company: Autodesk"
 90
        0
280
     0
281
     0
  0
CLASS
  1
LONG_TRANSACTION
  2
AcDbLongTransaction
  3
AutoCAD 2000
 90
        0
280
     0
281
     0
  0
CLASS
  1
LWPOLYLINE
  2
AcDbPolyline
  3
AutoCAD 2000
 90
        0
280
     0
281
     1
  0
CLASS
  1
HATCH
  2
AcDbHatch
  3
AutoCAD 2000
 90
        0
280
     0
281
     1
  0
CLASS
  1
XRECORD
  2
AcDbXrecord
  3
AutoCAD 2000
 90
        0
280
     0
281
     0
  0
ENDSEC
  0
SECTION
  2
TABLES
  0
TABLE
  2
VPORT
  5
8
330
0
100
AcDbSymbolTable
 70
     3
  0
VPORT
  5
374F
330
8
100
AcDbSymbolTableRecord
100
AcDbViewportTableRecord
  2
*ACTIVE
 70
     0
 10
0.0
 20
0.0
 11
1.0
 21
1.0
 12
-57.52615564614288
 22
-7.116064023858001
 13
0.0
 23
0.0
 14
2.5
 24
2.5
 15
10.0
 25
10.0
 16
0.0
 26
0.0
 36
1.0
 17
0.0
 27
0.0
 37
0.0
 40
100.9238338214634
 41
1.56570841889117
 42
50.0
 43
0.0
 44
0.0
 50
0.0
 51
0.0
 71
     0
 72
   100
 73
     1
 74
     1
 75
     0
 76
     0
 77
     0
 78
     0
  0
ENDTAB
  0
TABLE
  2
LTYPE
  5
5
330
0
100
AcDbSymbolTable
 70
    10
  0
LTYPE
  5
14
330
5
100
AcDbSymbolTableRecord
100
AcDbLinetypeTableRecord
  2
BYBLOCK
 70
     0
  3

 72
    65
 73
     0
 40
0.0
  0
LTYPE
  5
15
330
5
100
AcDbSymbolTableRecord
100
AcDbLinetypeTableRecord
  2
BYLAYER
 70
     0
  3

 72
    65
 73
     0
 40
0.0
  0
LTYPE
  5
16
330
5
100
AcDbSymbolTableRecord
100
AcDbLinetypeTableRecord
  2
CONTINUOUS
 70
     0
  3
Solid line
 72
    65
 73
     0
 40
0.0
  0
LTYPE
  5
4B
330
5
100
AcDbSymbolTableRecord
100
AcDbLinetypeTableRecord
  2
AM_ISO02W050
 70
     0
  3
__ __ __ __ __ __ __ __ __ __ __ __ __ __ __
 72
    65
 73
     2
 40
7.5
 49
6.0
 74
     0
 49
-1.5
 74
     0
  0
LTYPE
  5
4C
330
5
100
AcDbSymbolTableRecord
100
AcDbLinetypeTableRecord
  2
AM_ISO08W050
 70
     0
  3
____ . ____ . ____ . ____ . ____ . ____ . ____
 72
    65
 73
     4
 40
18.0
 49
12.0
 74
     0
 49
-1.5
 74
     0
 49
3.0
 74
     0
 49
-1.5
 74
     0
  0
LTYPE
  5
4D
330
5
100
AcDbSymbolTableRecord
100
AcDbLinetypeTableRecord
  2
AM_ISO09W050
 70
     0
  3
_____ . . _____ . . _____ . . ____ .. ____
 72
    65
 73
     6
 40
22.5
 49
12.0
 74
     0
 49
-1.5
 74
     0
 49
3.0
 74
     0
 49
-1.5
 74
     0
 49
3.0
 74
     0
 49
-1.5
 74
     0
  0
LTYPE
  5
4E
330
5
100
AcDbSymbolTableRecord
100
AcDbLinetypeTableRecord
  2
AMCONSTR
 70
     0
  3
_______________________
 72
    65
 73
     2
 40
9999.0
 49
9999.0
 74
     0
 49
0.0
 74
     0
  0
LTYPE
  5
4F
330
5
100
AcDbSymbolTableRecord
100
AcDbLinetypeTableRecord
  2
AM_ISO02W050X2
 70
     0
  3
 _ _ _ _ _ _ _ _ _ _ _ _
 72
    65
 73
     2
 40
3.75
 49
3.0
 74
     0
 49
-0.75
 74
     0
  0
LTYPE
  5
50
330
5
100
AcDbSymbolTableRecord
100
AcDbLinetypeTableRecord
  2
AM_ISO08W050X2
 70
     0
  3
__ . __ . __ . __ . __ . __
 72
    65
 73
     4
 40
9.0
 49
6.0
 74
     0
 49
-0.75
 74
     0
 49
1.5
 74
     0
 49
-0.75
 74
     0
  0
LTYPE
  5
53
330
5
100
AcDbSymbolTableRecord
100
AcDbLinetypeTableRecord
  2
AMZIGZAG
 70
     0
  3
/\/-/\/-/\/-/\/-/\/-/\/
 72
    65
 73
     2
 40
11.00009999999999
 49
0.0001
 74
     4
 75
   135
340
52
 46
0.04
 50
0.0
 44
0.0
 45
0.0
 49
-11.0
 74
     0
  0
LTYPE
  5
166
330
5
100
AcDbSymbolTableRecord
100
AcDbLinetypeTableRecord
  2
ACJISTGL
 70
     0
  3
_ _ _ _ _
 72
    65
 73
     2
 40
3.0
 49
2.0
 74
     0
 49
-1.0
 74
     0
  0
LTYPE
  5
26A
330
5
100
AcDbSymbolTableRecord
100
AcDbLinetypeTableRecord
  2
ACJISTGB
 70
     0
  3
__ . . __ . .
 72
    65
 73
     6
 40
9.0
 49
4.0
 74
     0
 49
-1.0
 74
     0
 49
1.0
 74
     0
 49
-1.0
 74
     0
 49
1.0
 74
     0
 49
-1.0
 74
     0
  0
ENDTAB
  0
TABLE
  2
LAYER
  5
2
330
0
100
AcDbSymbolTable
 70
     8
  0
LAYER
  5
10
330
2
100
AcDbSymbolTableRecord
100
AcDbLayerTableRecord
  2
0
 70
     0
 62
     7
  6
CONTINUOUS
  0
LAYER
  5
3F9
330
2
100
AcDbSymbolTableRecord
100
AcDbLayerTableRecord
  2
AM_0
 70
     0
 62
     7
  6
CONTINUOUS
  0
LAYER
  5
C7C
330
2
100
AcDbSymbolTableRecord
100
AcDbLayerTableRecord
  2
AM_7
 70
     0
 62
     4
  6
AM_ISO08W050
  0
LAYER
  5
C97
330
2
100
AcDbSymbolTableRecord
100
AcDbLayerTableRecord
  2
AM_11
 70
     0
 62
     3
  6
AM_ISO09W050
  0
LAYER
  5
CC5
330
2
100
AcDbSymbolTableRecord
100
AcDbLayerTableRecord
  2
AM_5
 70
     0
 62
     3
  6
CONTINUOUS
  0
LAYER
  5
CC7
330
2
100
AcDbSymbolTableRecord
100
AcDbLayerTableRecord
  2
DEFPOINTS
 70
     0
 62
     7
  6
CONTINUOUS
  0
LAYER
  5
19BC
330
2
100
AcDbSymbolTableRecord
100
AcDbLayerTableRecord
  2
AM_6
 70
     0
 62
     2
  6
CONTINUOUS
  0
LAYER
  5
36DE
330
2
100
AcDbSymbolTableRecord
100
AcDbLayerTableRecord
  2
AM_CL
 70
     0
 62
     1
  6
AMCONSTR
  0
ENDTAB
  0
TABLE
  2
STYLE
  5
3
330
0
100
AcDbSymbolTable
 70
     5
  0
STYLE
  5
11
330
3
100
AcDbSymbolTableRecord
100
AcDbTextStyleTableRecord
  2
STANDARD
 70
     0
 40
0.0
 41
1.0
 50
0.0
 71
     0
 42
2.5
  3
simplex.shx
  4
EXTFONT.SHX
  0
STYLE
  5
52
330
3
100
AcDbSymbolTableRecord
100
AcDbTextStyleTableRecord
  2

 70
     1
 40
0.0
 41
1.0
 50
0.0
 71
     0
 42
2.5
  3
ltypeshp.shx
  4

  0
STYLE
  5
6B
330
3
100
AcDbSymbolTableRecord
100
AcDbTextStyleTableRecord
  2
ASAMI
 70
     0
 40
0.0
 41
1.0
 50
0.0
 71
     0
 42
2.5
  3
simplex.shx
  4
EXTFONT.SHX
  0
STYLE
  5
262
330
3
100
AcDbSymbolTableRecord
100
AcDbTextStyleTableRecord
  2
ACJISTS
 70
     0
 40
1.0
 41
1.0
 50
0.0
 71
     0
 42
2.5
  3
simplex.shx
  4
bigfont.shx
  0
STYLE
  5
269
330
3
100
AcDbSymbolTableRecord
100
AcDbTextStyleTableRecord
  2
ACJISGDT
 70
     0
 40
0.0
 41
1.0
 50
0.0
 71
     0
 42
2.5
  3
amgdtans.shx
  4

  0
ENDTAB
  0
TABLE
  2
VIEW
  5
6
330
0
100
AcDbSymbolTable
 70
     0
  0
ENDTAB
  0
TABLE
  2
UCS
  5
7
330
0
100
AcDbSymbolTable
 70
     0
  0
ENDTAB
  0
TABLE
  2
APPID
  5
9
330
0
100
AcDbSymbolTable
 70
    16
  0
APPID
  5
12
330
9
100
AcDbSymbolTableRecord
100
AcDbRegAppTableRecord
  2
ACAD
 70
     0
  0
APPID
  5
30
330
9
100
AcDbSymbolTableRecord
100
AcDbRegAppTableRecord
  2
MCAD_NO_VIS
 70
     0
  0
APPID
  5
31
330
9
100
AcDbSymbolTableRecord
100
AcDbRegAppTableRecord
  2
ACAD_TEMP_GRAPHIC
 70
     0
  0
APPID
  5
2C2
330
9
100
AcDbSymbolTableRecord
100
AcDbRegAppTableRecord
  2
GENIUS_GENDTOL_13
 70
     0
  0
APPID
  5
339
330
9
100
AcDbSymbolTableRecord
100
AcDbRegAppTableRecord
  2
GENIUS_GENODEF_13
 70
     0
  0
APPID
  5
33A
330
9
100
AcDbSymbolTableRecord
100
AcDbRegAppTableRecord
  2
GENIUS_GENOBJ-N-RSBK_13
 70
     0
  0
APPID
  5
33B
330
9
100
AcDbSymbolTableRecord
100
AcDbRegAppTableRecord
  2
GENIUS_GENOBJ-N-LIB_13
 70
     0
  0
APPID
  5
33C
330
9
100
AcDbSymbolTableRecord
100
AcDbRegAppTableRecord
  2
GENIUS_GENSCALE_13
 70
     0
  0
APPID
  5
378
330
9
100
AcDbSymbolTableRecord
100
AcDbRegAppTableRecord
  2
GENIUS_GENDIMSH_14
 70
     0
  0
APPID
  5
C82
330
9
100
AcDbSymbolTableRecord
100
AcDbRegAppTableRecord
  2
GENIUS_GENOBJ-N-CRS_13
 70
     0
  0
APPID
  5
C83
330
9
100
AcDbSymbolTableRecord
100
AcDbRegAppTableRecord
  2
GENIUS_GENOENT_13
 70
     0
  0
APPID
  5
C84
330
9
100
AcDbSymbolTableRecord
100
AcDbRegAppTableRecord
  2
GENIUS_GENOREF_13
 70
     0
  0
APPID
  5
C85
330
9
100
AcDbSymbolTableRecord
100
AcDbRegAppTableRecord
  2
GENIUS_GENOLIS_13
 70
     0
  0
APPID
  5
CA0
330
9
100
AcDbSymbolTableRecord
100
AcDbRegAppTableRecord
  2
GENIUS_GENOBJ-N-CEN_13
 70
     0
  0
APPID
  5
2796
330
9
100
AcDbSymbolTableRecord
100
AcDbRegAppTableRecord
  2
GENIUS_GENFIL_13
 70
     0
  0
APPID
  5
2797
330
9
100
AcDbSymbolTableRecord
100
AcDbRegAppTableRecord
  2
GENIUS_GENOBJ-N-CHA_13
 70
     0
  0
ENDTAB
  0
TABLE
  2
DIMSTYLE
  5
A
330
0
100
AcDbSymbolTable
 70
     9
  0
DIMSTYLE
105
58
330
A
100
AcDbSymbolTableRecord
100
AcDbDimStyleTableRecord
  2
AM_JIS
 70
     0
  3

  4
"
  5
OPEN30
  6

  7

 40
0.5
 41
2.5
 42
1.0
 43
12.0
 44
1.0
 45
0.0
 46
0.0
 47
0.1
 48
0.1
140
3.2
141
0.0
142
0.0
143
0.0393701
144
1.0
145
0.0
146
0.71
147
1.5
 71
     0
 72
     0
 73
     0
 74
     0
 75
     0
 76
     0
 77
     3
 78
     8
170
     0
171
     2
172
     1
173
     0
174
     0
175
     0
176
   256
177
   256
178
     2
270
     2
271
     3
272
     3
273
     2
274
     2
340
6B
275
     0
280
     0
281
     0
282
     0
283
     0
284
     0
285
     0
286
     0
287
     3
288
     0
  0
DIMSTYLE
105
5F
330
A
100
AcDbSymbolTableRecord
100
AcDbDimStyleTableRecord
  2
AM_JIS$3
 70
     0
  3

  4
"
  5
OPEN30
  6

  7

 40
0.5
 41
2.5
 42
1.0
 43
10.0
 44
1.0
 45
0.0
 46
0.0
 47
0.1
 48
0.1
140
3.2
141
0.0
142
0.0
143
0.0393701
144
1.0
145
0.0
146
0.71
147
1.5
 71
     0
 72
     0
 73
     0
 74
     1
 75
     0
 76
     0
 77
     3
 78
     8
170
     0
171
     2
172
     0
173
     0
174
     0
175
     0
176
   256
177
   256
178
     2
270
     2
271
     2
272
     3
273
     2
274
     2
340
6B
275
     0
280
     0
281
     0
282
     0
283
     0
284
     0
285
     0
286
     0
287
     0
288
     1
  0
DIMSTYLE
105
60
330
A
100
AcDbSymbolTableRecord
100
AcDbDimStyleTableRecord
  2
AM_JIS$4
 70
     0
  3

  4
"
  5
OPEN30
  6

  7

 40
0.5
 41
2.5
 42
1.0
 43
10.0
 44
1.0
 45
0.0
 46
0.0
 47
0.1
 48
0.1
140
3.2
141
0.0
142
0.0
143
0.0393701
144
1.0
145
0.0
146
0.71
147
1.5
 71
     0
 72
     0
 73
     0
 74
     1
 75
     0
 76
     0
 77
     3
 78
     8
170
     0
171
     2
172
     0
173
     0
174
     0
175
     0
176
   256
177
   256
178
     2
270
     2
271
     2
272
     3
273
     2
274
     2
340
6B
275
     0
280
     0
281
     0
282
     0
283
     0
284
     0
285
     0
286
     0
287
     0
288
     1
  0
DIMSTYLE
105
61
330
A
100
AcDbSymbolTableRecord
100
AcDbDimStyleTableRecord
  2
AM_JIS$6
 70
     0
  3

  4
"
  5
OPEN30
  6

  7

 40
0.5
 41
2.5
 42
1.0
 43
10.0
 44
1.0
 45
0.0
 46
0.0
 47
0.1
 48
0.1
140
3.2
141
0.0
142
0.0
143
0.0393701
144
1.0
145
0.0
146
0.71
147
1.5
 71
     0
 72
     0
 73
     0
 74
     0
 75
     0
 76
     0
 77
     0
 78
     8
170
     0
171
     2
172
     1
173
     0
174
     0
175
     0
176
   256
177
   256
178
     2
270
     2
271
     2
272
     2
273
     2
274
     2
340
6B
275
     0
280
     0
281
     0
282
     0
283
     0
284
     0
285
     0
286
     0
287
     3
288
     0
  0
DIMSTYLE
105
62
330
A
100
AcDbSymbolTableRecord
100
AcDbDimStyleTableRecord
  2
AM_JIS$7
 70
     0
  3

  4
"
  5
OPEN30
  6

  7

 40
0.5
 41
2.5
 42
1.0
 43
10.0
 44
1.0
 45
0.0
 46
0.0
 47
0.1
 48
0.1
140
3.2
141
0.0
142
0.0
143
0.0393701
144
1.0
145
0.0
146
0.71
147
1.5
 71
     0
 72
     0
 73
     0
 74
     0
 75
     0
 76
     0
 77
     3
 78
     8
170
     0
171
     2
172
     1
173
     0
174
     0
175
     0
176
   256
177
   256
178
     2
270
     2
271
     2
272
     3
273
     2
274
     2
340
6B
275
     0
280
     0
281
     0
282
     0
283
     0
284
     0
285
     0
286
     0
287
     3
288
     0
  0
DIMSTYLE
105
63
330
A
100
AcDbSymbolTableRecord
100
AcDbDimStyleTableRecord
  2
AM_JIS$SF
 70
     0
  3

  4
"
  5
OPEN30
  6

  7

 40
0.5
 41
2.5
 42
1.0
 43
10.0
 44
1.0
 45
0.0
 46
0.0
 47
0.1
 48
0.1
140
3.2
141
0.0
142
0.0
143
0.0393701
144
1.0
145
0.0
146
0.71
147
1.5
 71
     0
 72
     0
 73
     0
 74
     0
 75
     1
 76
     1
 77
     3
 78
     8
170
     0
171
     2
172
     1
173
     0
174
     0
175
     0
176
   256
177
   256
178
     2
270
     2
271
     2
272
     2
273
     2
274
     2
340
6B
275
     0
280
     0
281
     0
282
     0
283
     0
284
     0
285
     0
286
     0
287
     3
288
     0
  0
DIMSTYLE
105
68
330
A
100
AcDbSymbolTableRecord
100
AcDbDimStyleTableRecord
  2
AM_JIS$SH
 70
     0
  3

  4
"
  5

  6
GENAXEH
  7
OPEN30
 40
0.5
 41
2.5
 42
1.0
 43
10.0
 44
1.0
 45
0.0
 46
0.0
 47
0.1
 48
0.1
140
3.2
141
0.0
142
0.0
143
0.0393701
144
2.0
145
0.0
146
0.71
147
1.5
 71
     0
 72
     0
 73
     0
 74
     0
 75
     1
 76
     1
 77
     3
 78
     8
170
     0
171
     2
172
     1
173
     1
174
     0
175
     0
176
   256
177
   256
178
     2
270
     2
271
     2
272
     2
273
     2
274
     2
340
6B
275
     0
280
     0
281
     0
282
     0
283
     0
284
     0
285
     0
286
     0
287
     3
288
     0
  0
DIMSTYLE
105
B34
102
{ACAD_REACTORS
330
2C81
102
}
330
A
100
AcDbSymbolTableRecord
100
AcDbDimStyleTableRecord
  2
AM_JIS$2
 70
     0
  3

  4
"
  5
OPEN30
  6

  7

 40
0.5
 41
2.5
 42
1.0
 43
12.0
 44
1.0
 45
0.0
 46
0.0
 47
0.1
 48
0.1
140
3.2
141
0.0
142
0.0
143
0.0393701
144
1.0
145
0.0
146
0.71
147
1.5
 71
     0
 72
     0
 73
     0
 74
     0
 75
     0
 76
     0
 77
     3
 78
     8
170
     0
171
     2
172
     1
173
     0
174
     0
175
     0
176
   256
177
   256
178
     2
270
     2
271
     3
272
     3
273
     2
274
     2
340
6B
275
     0
280
     0
281
     0
282
     0
283
     0
284
     0
285
     0
286
     0
287
     3
288
     0
  0
DIMSTYLE
105
BA5
102
{ACAD_REACTORS
330
CC6
330
2069
330
2D60
330
324F
102
}
330
A
100
AcDbSymbolTableRecord
100
AcDbDimStyleTableRecord
  2
AM_JIS$0
 70
     0
  3

  4
"
  5
OPEN30
  6

  7

 40
0.5
 41
2.5
 42
0.0
 43
10.0
 44
1.0
 45
0.0
 46
0.0
 47
0.1
 48
0.1000000001
140
3.799999999999999
141
0.0
142
0.0
143
0.0393701
144
1.0
145
0.0
146
0.71
147
1.5
 71
     0
 72
     0
 73
     0
 74
     0
 75
     0
 76
     0
 77
     3
 78
     1
170
     0
171
     2
172
     1
173
     0
174
     0
175
     0
176
     3
177
     3
178
     2
270
     2
271
     2
272
     2
273
     2
274
     2
340
11
275
     1
280
     0
281
     0
282
     0
283
     0
284
     8
285
     0
286
     0
287
     0
288
     0
  0
ENDTAB
  0
TABLE
  2
BLOCK_RECORD
  5
1
330
0
100
AcDbSymbolTable
 70
    10
  0
BLOCK_RECORD
  5
1F
102
{ACAD_XDICTIONARY
360
74
102
}
330
1
100
AcDbSymbolTableRecord
100
AcDbBlockTableRecord
  2
*MODEL_SPACE
  0
BLOCK_RECORD
  5
101
102
{ACAD_XDICTIONARY
360
3778
102
}
330
1
100
AcDbSymbolTableRecord
100
AcDbBlockTableRecord
  2
*PAPER_SPACE
  0
BLOCK_RECORD
  5
59
330
1
100
AcDbSymbolTableRecord
100
AcDbBlockTableRecord
  2
_OPEN30
  0
BLOCK_RECORD
  5
64
330
1
100
AcDbSymbolTableRecord
100
AcDbBlockTableRecord
  2
GENAXEH
  0
BLOCK_RECORD
  5
CC8
330
1
100
AcDbSymbolTableRecord
100
AcDbBlockTableRecord
  2
*D5
  0
BLOCK_RECORD
  5
206A
330
1
100
AcDbSymbolTableRecord
100
AcDbBlockTableRecord
  2
*D6
  0
BLOCK_RECORD
  5
2C82
330
1
100
AcDbSymbolTableRecord
100
AcDbBlockTableRecord
  2
*D7
  0
BLOCK_RECORD
  5
2D61
330
1
100
AcDbSymbolTableRecord
100
AcDbBlockTableRecord
  2
*D8
  0
BLOCK_RECORD
  5
3250
330
1
100
AcDbSymbolTableRecord
100
AcDbBlockTableRecord
  2
*D9
  0
ENDTAB
  0
ENDSEC
  0
SECTION
  2
BLOCKS
  0
BLOCK
  5
20
330
1F
100
AcDbEntity
  8
0
100
AcDbBlockBegin
  2
*MODEL_SPACE
 70
     0
 10
0.0
 20
0.0
 30
0.0
  3
*MODEL_SPACE
  1

  0
ENDBLK
  5
21
330
1F
100
AcDbEntity
  8
0
100
AcDbBlockEnd
  0
BLOCK
  5
103
330
101
100
AcDbEntity
 67
     1
  8
0
100
AcDbBlockBegin
  2
*PAPER_SPACE
 70
     0
 10
0.0
 20
0.0
 30
0.0
  3
*PAPER_SPACE
  1

  0
ENDBLK
  5
104
330
101
100
AcDbEntity
 67
     1
  8
0
100
AcDbBlockEnd
  0
BLOCK
  5
5D
330
59
100
AcDbEntity
  8
0
100
AcDbBlockBegin
  2
_OPEN30
 70
     0
 10
0.0
 20
0.0
 30
0.0
  3
_OPEN30
  1

  0
LINE
  5
5A
330
59
100
AcDbEntity
  8
0
 62
     0
100
AcDbLine
 10
-1.0
 20
0.26794919
 30
0.0
 11
0.0
 21
0.0
 31
0.0
  0
LINE
  5
5B
330
59
100
AcDbEntity
  8
0
 62
     0
100
AcDbLine
 10
0.0
 20
0.0
 30
0.0
 11
-1.0
 21
-0.26794919
 31
0.0
  0
LINE
  5
5C
330
59
100
AcDbEntity
  8
0
 62
     0
100
AcDbLine
 10
0.0
 20
0.0
 30
0.0
 11
-1.0
 21
0.0
 31
0.0
  0
ENDBLK
  5
5E
330
59
100
AcDbEntity
  8
0
100
AcDbBlockEnd
  0
BLOCK
  5
66
330
64
100
AcDbEntity
  8
0
100
AcDbBlockBegin
  2
GENAXEH
 70
     0
 10
0.0
 20
0.0
 30
0.0
  3
GENAXEH
  1

  0
LINE
  5
65
330
64
100
AcDbEntity
  8
0
100
AcDbLine
 10
-1.0
 20
0.0
 30
0.0
 11
1.0
 21
0.0
 31
0.0
  0
ENDBLK
  5
67
330
64
100
AcDbEntity
  8
0
100
AcDbBlockEnd
  0
BLOCK
  5
CD2
330
CC8
100
AcDbEntity
  8
0
100
AcDbBlockBegin
  2
*D5
 70
     1
 10
0.0
 20
0.0
 30
0.0
  3
*D5
  1

  0
LINE
  5
36FB
330
CC8
100
AcDbEntity
  8
AM_5
 62
     3
100
AcDbLine
 10
-124.0
 20
-5.499999999999359
 30
0.0
 11
-124.0
 21
-18.50000099999951
 31
0.0
  0
LINE
  5
36FC
330
CC8
100
AcDbEntity
  8
AM_5
 62
     3
100
AcDbLine
 10
-2.000000000000172
 20
-5.700011867134699
 30
0.0
 11
-2.000000000000173
 21
-18.50000099999951
 31
0.0
  0
LINE
  5
36FD
330
CC8
100
AcDbEntity
  8
AM_5
 62
     3
100
AcDbLine
 10
-122.75
 20
-18.00000099999951
 30
0.0
 11
-3.250000000000173
 21
-18.00000099999951
 31
0.0
  0
INSERT
  5
36FE
330
CC8
100
AcDbEntity
  8
AM_5
 62
     3
100
AcDbBlockReference
  2
_OPEN30
 10
-124.0
 20
-18.00000099999951
 30
0.0
 41
1.25
 42
1.25
 43
1.25
 50
180.0
  0
INSERT
  5
36FF
330
CC8
100
AcDbEntity
  8
AM_5
 62
     3
100
AcDbBlockReference
  2
_OPEN30
 10
-2.000000000000173
 20
-18.00000099999951
 30
0.0
 41
1.25
 42
1.25
 43
1.25
  0
MTEXT
  5
3700
330
CC8
100
AcDbEntity
  8
AM_5
 62
     2
100
AcDbMText
 10
-63.0000000000001
 20
-16.30000099999951
 30
0.0
 40
1.9
 41
0.0
 71
     5
 72
     1
  1
122
1001
ACAD
1000
MTEXTBEGIN
1070
    73
1070
     1
1070
    44
1040
1.0
1070
    74
1070
     0
1000
MTEXTEND
  0
POINT
  5
3701
330
CC8
100
AcDbEntity
  8
DEFPOINTS
 62
     0
100
AcDbPoint
 10
-124.0
 20
-5.499999999999359
 30
0.0
  0
POINT
  5
3702
330
CC8
100
AcDbEntity
  8
DEFPOINTS
 62
     0
100
AcDbPoint
 10
-2.000000000000172
 20
-5.700011867134699
 30
0.0
  0
POINT
  5
3703
330
CC8
100
AcDbEntity
  8
DEFPOINTS
 62
     0
100
AcDbPoint
 10
-2.000000000000173
 20
-18.00000099999951
 30
0.0
  0
ENDBLK
  5
CD3
330
CC8
100
AcDbEntity
  8
0
100
AcDbBlockEnd
  0
BLOCK
  5
2074
330
206A
100
AcDbEntity
  8
0
100
AcDbBlockBegin
  2
*D6
 70
     1
 10
0.0
 20
0.0
 30
0.0
  3
*D6
  1

  0
LINE
  5
3718
330
206A
100
AcDbEntity
  8
AM_5
 62
     3
100
AcDbLine
 10
-62.00000000000011
 20
-5.999999999999633
 30
0.0
 11
-62.00000000000009
 21
-13.50000099999965
 31
0.0
  0
LINE
  5
3719
330
206A
100
AcDbEntity
  8
AM_5
 62
     3
100
AcDbLine
 10
-2.000000000000156
 20
-5.700011867134705
 30
0.0
 11
-2.000000000000134
 21
-13.50000099999947
 31
0.0
  0
LINE
  5
371A
330
206A
100
AcDbEntity
  8
AM_5
 62
     3
100
AcDbLine
 10
-60.75000000000009
 20
-13.00000099999965
 30
0.0
 11
-3.250000000000135
 21
-13.00000099999948
 31
0.0
  0
INSERT
  5
371B
330
206A
100
AcDbEntity
  8
AM_5
 62
     3
100
AcDbBlockReference
  2
_OPEN30
 10
-62.00000000000009
 20
-13.00000099999965
 30
0.0
 41
1.25
 42
1.25
 43
1.25
 50
180.0000000000001
  0
INSERT
  5
371C
330
206A
100
AcDbEntity
  8
AM_5
 62
     3
100
AcDbBlockReference
  2
_OPEN30
 10
-2.000000000000135
 20
-13.00000099999947
 30
0.0
 41
1.25
 42
1.25
 43
1.25
 50
0.0000000000001527
  0
MTEXT
  5
371D
330
206A
100
AcDbEntity
  8
AM_5
 62
     2
100
AcDbMText
 10
-32.00000000000011
 20
-11.30000099999956
 30
0.0
 40
1.9
 41
0.0
 71
     5
 72
     1
  1
60
1001
ACAD
1000
MTEXTBEGIN
1070
    73
1070
     1
1070
    44
1040
1.0
1070
    74
1070
     0
1000
MTEXTEND
  0
POINT
  5
371E
330
206A
100
AcDbEntity
  8
DEFPOINTS
 62
     0
100
AcDbPoint
 10
-62.00000000000013
 20
-5.999999999999452
 30
0.0
  0
POINT
  5
371F
330
206A
100
AcDbEntity
  8
DEFPOINTS
 62
     0
100
AcDbPoint
 10
-2.000000000000172
 20
-5.700011867134699
 30
0.0
  0
POINT
  5
3720
330
206A
100
AcDbEntity
  8
DEFPOINTS
 62
     0
100
AcDbPoint
 10
-2.000000000000173
 20
-13.00000099999947
 30
0.0
  0
ENDBLK
  5
2075
330
206A
100
AcDbEntity
  8
0
100
AcDbBlockEnd
  0
BLOCK
  5
2C90
330
2C82
100
AcDbEntity
  8
0
100
AcDbBlockBegin
  2
*D7
 70
     1
 10
0.0
 20
0.0
 30
0.0
  3
*D7
  1

  0
LINE
  5
370D
330
2C82
100
AcDbEntity
  8
AM_5
100
AcDbLine
 10
0.1710100704080526
 20
-0.4698463108496587
 30
0.0
 11
5.466845961922108
 21
-15.02003596082515
 31
0.0
  0
LINE
  5
370E
330
2C82
100
AcDbEntity
  8
AM_5
100
AcDbLine
 10
0.1710111111829662
 20
0.4698459320372653
 30
0.0
 11
5.466879233390397
 21
15.02002385095941
 31
0.0
  0
ARC
  5
370F
330
2C82
100
AcDbEntity
  8
AM_5
100
AcDbCircle
 10
-0.0000000000000178
 20
-0.0000000000000007
 30
0.0
 40
15.48398839576234
100
AcDbArc
 50
294.6266622332644
 51
65.37321084856539
  0
INSERT
  5
3710
330
2C82
100
AcDbEntity
  8
AM_5
100
AcDbBlockReference
  2
_OPEN30
 10
5.295835891514039
 20
-14.5501896499755
 30
0.0
 41
1.25
 42
1.25
 43
1.25
 50
202.3133310401254
  0
INSERT
  5
3711
330
2C82
100
AcDbEntity
  8
AM_5
100
AcDbBlockReference
  2
_OPEN30
 10
5.295868122207415
 20
14.55017791892215
 30
0.0
 41
1.25
 42
1.25
 43
1.25
 50
157.6865420417043
  0
MTEXT
  5
3712
330
2C82
100
AcDbEntity
  8
AM_5
 62
     2
100
AcDbMText
 10
13.93398839575377
 20
-0.0000154328671903
 30
0.0
 40
1.6
 41
0.0
 71
     5
 72
     1
  1
140°
  7
ASAMI
 11
0.0000011075699751
 21
0.9999999999993868
 31
0.0
1001
ACAD
1000
MTEXTBEGIN
1070
    73
1070
     1
1070
    44
1040
1.0
1070
    74
1070
     0
1000
MTEXTEND
  0
POINT
  5
3713
330
2C82
100
AcDbEntity
  8
DEFPOINTS
 62
     0
100
AcDbPoint
 10
14.21764300986629
 20
-6.132905011827785
 30
0.0
  0
POINT
  5
3714
330
2C82
100
AcDbEntity
  8
DEFPOINTS
 62
     0
100
AcDbPoint
 10
-0.0000000000000158
 20
0.000000000000005
 30
0.0
  0
POINT
  5
3715
330
2C82
100
AcDbEntity
  8
DEFPOINTS
 62
     0
100
AcDbPoint
 10
-0.0000000000000156
 20
-0.0000000000000069
 30
0.0
  0
POINT
  5
3716
330
2C82
100
AcDbEntity
  8
DEFPOINTS
 62
     0
100
AcDbPoint
 10
-0.6288636867983483
 20
1.727788793750294
 30
0.0
  0
POINT
  5
3717
330
2C82
100
AcDbEntity
  8
DEFPOINTS
 62
     0
100
AcDbPoint
 10
-0.6288762571457464
 20
-1.727811421905664
 30
0.0
  0
ENDBLK
  5
2C91
330
2C82
100
AcDbEntity
  8
0
100
AcDbBlockEnd
  0
BLOCK
  5
2D6B
330
2D61
100
AcDbEntity
  8
0
100
AcDbBlockBegin
  2
*D8
 70
     1
 10
0.0
 20
0.0
 30
0.0
  3
*D8
  1

  0
LINE
  5
3721
330
2D61
100
AcDbEntity
  8
AM_5
 62
     3
100
AcDbLine
 10
-2.000000001295833
 20
5.699999999999981
 30
0.0
 11
9.819921038860968
 21
5.699958510236021
 31
0.0
  0
LINE
  5
3722
330
2D61
100
AcDbEntity
  8
AM_5
 62
     3
100
AcDbLine
 10
-2.000000000000156
 20
-5.700011867134705
 30
0.0
 11
9.81988102304361
 21
-5.700053356758199
 31
0.0
  0
LINE
  5
3723
330
2D61
100
AcDbEntity
  8
AM_5
 62
     3
100
AcDbLine
 10
9.319916651169343
 20
4.449960265321604
 30
0.0
 11
9.319885410741395
 21
-4.450051601688018
 31
0.0
  0
INSERT
  5
3724
330
2D61
100
AcDbEntity
  8
AM_5
 62
     3
100
AcDbBlockReference
  2
_OPEN30
 10
9.319921038864046
 20
5.699960265313903
 30
0.0
 41
1.25
 42
1.25
 43
1.25
 50
89.99979888288931
  0
INSERT
  5
3725
330
2D61
100
AcDbEntity
  8
AM_5
 62
     3
100
AcDbBlockReference
  2
_OPEN30
 10
9.31988102304669
 20
-5.700051601680317
 30
0.0
 41
1.25
 42
1.25
 43
1.25
 50
269.9997988828893
  0
MTEXT
  5
3726
330
2D61
100
AcDbEntity
  8
AM_5
 62
     2
100
AcDbMText
 10
7.619901030965841
 20
-0.0000397009184099
 30
0.0
 40
1.9
 41
0.0
 71
     5
 72
     1
  1
%%c11.4
 11
0.0000035101557632
 21
0.9999999999938395
 31
0.0
1001
ACAD
1000
MTEXTBEGIN
1070
    73
1070
     1
1070
    44
1040
1.0
1070
    74
1070
     0
1000
MTEXTEND
  0
POINT
  5
3727
330
2D61
100
AcDbEntity
  8
DEFPOINTS
 62
     0
100
AcDbPoint
 10
-2.000000001295817
 20
5.699999999999988
 30
0.0
  0
POINT
  5
3728
330
2D61
100
AcDbEntity
  8
DEFPOINTS
 62
     0
100
AcDbPoint
 10
-2.000000000000173
 20
-5.700011867134699
 30
0.0
  0
POINT
  5
3729
330
2D61
100
AcDbEntity
  8
DEFPOINTS
 62
     0
100
AcDbPoint
 10
9.319881023046676
 20
-5.700051601680344
 30
0.0
  0
ENDBLK
  5
2D6C
330
2D61
100
AcDbEntity
  8
0
100
AcDbBlockEnd
  0
BLOCK
  5
325A
330
3250
100
AcDbEntity
  8
0
100
AcDbBlockBegin
  2
*D9
 70
     1
 10
0.0
 20
0.0
 30
0.0
  3
*D9
  1

  0
LINE
  5
3704
330
3250
100
AcDbEntity
  8
AM_5
 62
     3
100
AcDbLine
 10
-123.5
 20
-5.999999999999936
 30
0.0
 11
-134.000001
 21
-5.999999999999982
 31
0.0
  0
LINE
  5
3705
330
3250
100
AcDbEntity
  8
AM_5
 62
     3
100
AcDbLine
 10
-123.5
 20
6.000000000000097
 30
0.0
 11
-134.000001
 21
6.000000000000051
 31
0.0
  0
LINE
  5
3706
330
3250
100
AcDbEntity
  8
AM_5
 62
     3
100
AcDbLine
 10
-133.500001
 20
-4.74999999999998
 30
0.0
 11
-133.500001
 21
4.750000000000053
 31
0.0
  0
INSERT
  5
3707
330
3250
100
AcDbEntity
  8
AM_5
 62
     3
100
AcDbBlockReference
  2
_OPEN30
 10
-133.500001
 20
-5.99999999999998
 30
0.0
 41
1.25
 42
1.25
 43
1.25
 50
270.0000000000002
  0
INSERT
  5
3708
330
3250
100
AcDbEntity
  8
AM_5
 62
     3
100
AcDbBlockReference
  2
_OPEN30
 10
-133.500001
 20
6.000000000000053
 30
0.0
 41
1.25
 42
1.25
 43
1.25
 50
90.00000000000026
  0
MTEXT
  5
3709
330
3250
100
AcDbEntity
  8
AM_5
 62
     2
100
AcDbMText
 10
-135.200001
 20
0.0000129000659571
 30
0.0
 40
1.9
 41
0.0
 71
     5
 72
     1
  1
%%c12
 11
-0.0000000000000046
 21
1.0
 31
0.0
1001
ACAD
1000
MTEXTBEGIN
1070
    73
1070
     1
1070
    44
1040
1.0
1070
    74
1070
     0
1000
MTEXTEND
  0
POINT
  5
370A
330
3250
100
AcDbEntity
  8
DEFPOINTS
 62
     0
100
AcDbPoint
 10
-123.5
 20
-5.99999999999936
 30
0.0
  0
POINT
  5
370B
330
3250
100
AcDbEntity
  8
DEFPOINTS
 62
     0
100
AcDbPoint
 10
-123.4999999999999
 20
6.000000000000673
 30
0.0
  0
POINT
  5
370C
330
3250
100
AcDbEntity
  8
DEFPOINTS
 62
     0
100
AcDbPoint
 10
-133.500001
 20
6.000000000000675
 30
0.0
  0
ENDBLK
  5
325B
330
3250
100
AcDbEntity
  8
0
100
AcDbBlockEnd
  0
ENDSEC
  0
SECTION
  2
ENTITIES
  0
LINE
  5
C1D
330
1F
100
AcDbEntity
  8
AM_0
 48
0.5
100
AcDbLine
 10
-0.0000000000000156
 20
-0.0000000000000069
 30
0.0
 11
-0.6911274181645214
 21
1.898856991151313
 31
0.0
  0
LINE
  5
C20
330
1F
100
AcDbEntity
  8
AM_0
 48
0.5
100
AcDbLine
 10
-0.0000000000000156
 20
-0.0000000000000069
 30
0.0
 11
-0.6911412331007707
 21
-1.898881859718106
 31
0.0
  0
DIMENSION
  5
CC6
330
1F
100
AcDbEntity
  8
AM_5
100
AcDbDimension
  2
*D5
 10
-2.000000000000173
 20
-18.00000099999951
 30
0.0
 11
-63.0000000000001
 21
-16.30000099999951
 31
0.0
 70
    32
  1
<>
  3
AM_JIS$0
100
AcDbAlignedDimension
 13
-124.0
 23
-5.499999999999359
 33
0.0
 14
-2.000000000000172
 24
-5.700011867134699
 34
0.0
 50
0.0000000000001132
100
AcDbRotatedDimension
1001
GENIUS_GENDTOL_13
1000

1000
h7
1000

1040
0.0
1001
ACAD
1000
DSTYLE
1002
{
1070
   271
1070
     0
1002
}
  0
TEXT
  5
19BD
330
1F
100
AcDbEntity
  8
AM_6
100
AcDbText
 10
-73.77380952380956
 20
-29.25000099999954
 30
0.0
 40
2.5
  1
MDW114MHK
 50
0.0000000000001527
 72
     4
 11
-63.00000000000004
 21
-28.00000099999951
 31
0.0
100
AcDbText
  0
DIMENSION
  5
2069
330
1F
100
AcDbEntity
  8
AM_5
100
AcDbDimension
  2
*D6
 10
-2.000000000000173
 20
-13.00000099999947
 30
0.0
 11
-32.00000000000015
 21
-11.30000099999947
 31
0.0
 70
    32
  1
<>
 51
359.9999999999998
  3
AM_JIS$0
100
AcDbAlignedDimension
 13
-62.00000000000013
 23
-5.999999999999452
 33
0.0
 14
-2.000000000000172
 24
-5.700011867134699
 34
0.0
 50
0.0000000000001527
100
AcDbRotatedDimension
1001
ACAD
1000
DSTYLE
1002
{
1070
   271
1070
     0
1070
   174
1070
     1
1002
}
1001
GENIUS_GENDTOL_13
1000

1000
h7
1000

1040
0.0
  0
LINE
  5
23EF
330
1F
100
AcDbEntity
  8
AM_7
100
AcDbLine
 10
-126.5
 20
0.0000000000006583
 30
0.0
 11
2.31990003107253
 21
-0.0000000000000121
 31
0.0
1001
GENIUS_GENODEF_13
1002
{
1000
HIER
1070
     0
1002
}
1002
{
1000
MANEDIT
1070
     0
1002
}
1002
{
1000
NOSEL
1070
     0
1002
}
1002
{
1000
BEHIND
1070
     0
1002
}
1002
{
1000
REACTOR
1002
}
1001
GENIUS_GENOBJ-N-CEN_13
1002
{
1000
OWNER
1000
GEN
1002
}
  0
ELLIPSE
  5
24B7
330
1F
100
AcDbEntity
  8
AM_11
 48
0.5
100
AcDbEllipse
 10
-18.90505084822882
 20
21.92422160965422
 30
0.0
 11
-25.30609321594203
 21
0.0000000000001926
 31
0.0
210
0.0
220
0.0
230
1.0
 40
0.9578947368421056
 41
1.130070686340284
 42
2.011520147323574
  0
ELLIPSE
  5
24B8
330
1F
100
AcDbEntity
  8
AM_11
 48
0.5
100
AcDbEllipse
 10
-18.90505084823002
 20
-21.92420569470018
 30
0.0
 11
-25.306093215942
 21
0.0000000000001139
 31
0.0
210
0.0
220
0.0
230
1.0
 40
0.9578947368421054
 41
4.271664206181664
 42
5.153113667164971
  0
ELLIPSE
  5
24B9
330
1F
100
AcDbEntity
  8
AM_11
 48
0.5
100
AcDbEllipse
 10
2.685858242680293
 20
21.92422160965365
 30
0.0
 11
-25.30609321594198
 21
0.0000000000019795
 31
0.0
210
0.0
220
0.0
230
1.0
 40
0.9578947368421141
 41
1.130070686340349
 42
1.291800737381041
  0
ELLIPSE
  5
24BE
330
1F
100
AcDbEntity
  8
AM_0
 48
0.5
100
AcDbEllipse
 10
8.112677985322388
 20
6.861476995223885
 30
0.0
 11
8.923049457853185
 21
4.746715063030587
 31
0.0
210
0.0
220
0.0
230
1.0
 40
0.881062575869514
 41
2.787798752473538
 42
3.169290432513448
  0
ELLIPSE
  5
24C7
330
1F
100
AcDbEntity
  8
AM_11
 48
0.5
100
AcDbEllipse
 10
-83.67777812095001
 20
21.92422160965587
 30
0.0
 11
-25.30609321594203
 21
0.0000000000005635
 31
0.0
210
0.0
220
0.0
230
1.0
 40
0.9578947368421056
 41
1.130070686340301
 42
2.011520147323591
  0
ELLIPSE
  5
24C8
330
1F
100
AcDbEntity
  8
AM_11
 48
0.5
100
AcDbEllipse
 10
-83.67777812095125
 20
-21.92420569469852
 30
0.0
 11
25.306093215942
 21
0.000000000000423
 31
0.0
210
0.0
220
0.0
230
1.0
 40
0.957894736842107
 41
1.13007155259185
 42
2.011521013575156
  0
ELLIPSE
  5
24D4
330
1F
100
AcDbEntity
  8
AM_11
 48
0.5
100
AcDbEllipse
 10
-62.08686903004093
 20
21.92422160965534
 30
0.0
 11
-25.30609321594207
 21
0.0000000000001476
 31
0.0
210
0.0
220
0.0
230
1.0
 40
0.9578947368421051
 41
1.130070686340283
 42
2.011520147323574
  0
ELLIPSE
  5
24D5
330
1F
100
AcDbEntity
  8
AM_11
 48
0.5
100
AcDbEllipse
 10
-62.08686903004214
 20
-21.92420569469905
 30
0.0
 11
-25.30609321594196
 21
0.0000000000004567
 31
0.0
210
0.0
220
0.0
230
1.0
 40
0.9578947368421083
 41
4.271664206181676
 42
5.153113667164986
  0
ELLIPSE
  5
24E6
330
1F
100
AcDbEntity
  8
AM_11
 48
0.5
100
AcDbEllipse
 10
-40.49595993913911
 20
-21.92420569469963
 30
0.0
 11
-25.30609321594199
 21
0.0000000000006871
 31
0.0
210
0.0
220
0.0
230
1.0
 40
0.9578947368421058
 41
4.271664206181685
 42
5.153113667164993
  0
ELLIPSE
  5
24E7
330
1F
100
AcDbEntity
  8
AM_11
 48
0.5
100
AcDbEllipse
 10
-40.4959599391379
 20
21.92422160965477
 30
0.0
 11
25.30609321594204
 21
0.0000000000000409
 31
0.0
210
0.0
220
0.0
230
1.0
 40
0.9578947368421051
 41
4.271663339930067
 42
5.153112800913361
  0
LINE
  5
2572
330
1F
100
AcDbEntity
  8
AM_0
100
AcDbLine
 10
-61.48037669218582
 20
5.69999534335675
 30
0.0
 11
-61.48041509952415
 21
-5.700017517842971
 31
0.0
  0
ELLIPSE
  5
2BF3
330
1F
100
AcDbEntity
  8
AM_11
 48
0.5
100
AcDbEllipse
 10
-105.2686872118502
 20
21.9242216096552
 30
0.0
 11
-25.30609321594207
 21
0.0000000000001476
 31
0.0
210
0.0
220
0.0
230
1.0
 40
0.9578947368421051
 41
1.130070686340283
 42
2.011520147323574
  0
ELLIPSE
  5
2BF5
330
1F
100
AcDbEntity
  8
AM_11
 48
0.5
100
AcDbEllipse
 10
-105.2686872118514
 20
-21.9242056946992
 30
0.0
 11
-25.30609321594196
 21
0.0000000000004567
 31
0.0
210
0.0
220
0.0
230
1.0
 40
0.9578947368421083
 41
4.271664206181676
 42
5.153113667164986
  0
LINE
  5
2C0E
330
1F
100
AcDbEntity
  8
AM_0
 48
0.5
100
AcDbLine
 10
-62.00000000000013
 20
-5.999999999999452
 30
0.0
 11
-62.00000000000013
 21
6.000000000000543
 31
0.0
  0
ELLIPSE
  5
2C72
330
1F
100
AcDbEntity
  8
AM_0
 48
0.5
100
AcDbEllipse
 10
8.11267798532231
 20
-6.861476995223975
 30
0.0
 11
8.906467373807679
 21
-4.777201807748571
 31
0.0
210
0.0
220
0.0
230
-1.0
 40
0.8865390934601007
 41
2.790918318021922
 42
3.165246863909731
  0
LINE
  5
2C73
330
1F
100
AcDbEntity
  8
AM_0
 48
0.5
100
AcDbLine
 10
-1.706668176775011
 20
-5.087508301370093
 30
0.0
 11
-2.000000000000172
 21
-5.700011867134699
 31
0.0
  0
DIMENSION
  5
2C81
330
1F
100
AcDbEntity
  8
AM_5
100
AcDbDimension
  2
*D7
 10
-0.6288762571457463
 20
-1.727811421905664
 30
0.0
 11
13.93398839575377
 21
-0.0000154328672315
 31
0.0
 70
    34
  1
<>
 51
359.9999999999998
  3
AM_JIS$2
100
AcDb2LineAngularDimension
 13
-0.0000000000000156
 23
-0.0000000000000069
 33
0.0
 14
-0.6288636867983481
 24
1.727788793750294
 34
0.0
 15
-0.0000000000000158
 25
0.000000000000005
 35
0.0
 16
14.21764300986629
 26
-6.132905011827785
 36
0.0
1001
ACAD
1000
DSTYLE
1002
{
1070
   179
1070
     3
1002
}
1001
GENIUS_GENDTOL_13
1000

1000
h7
1000

1040
0.0
  0
DIMENSION
  5
2D60
330
1F
100
AcDbEntity
  8
AM_5
100
AcDbDimension
  2
*D8
 10
9.319881023046676
 20
-5.700051601680344
 30
0.0
 11
7.619901030965841
 21
-0.000039700918432
 31
0.0
 70
    32
  1
%%c<>
 51
359.9999999999998
  3
AM_JIS$0
100
AcDbAlignedDimension
 13
-2.000000001295817
 23
5.699999999999987
 33
0.0
 14
-2.000000000000172
 24
-5.700011867134699
 34
0.0
 50
89.99979888288933
100
AcDbRotatedDimension
1001
ACAD
1000
DSTYLE
1002
{
1070
   271
1070
     1
1002
}
1001
GENIUS_GENDTOL_13
1000

1000
h7
1000

1040
0.0
  0
LINE
  5
2FB7
330
1F
100
AcDbEntity
  8
AM_0
100
AcDbLine
 10
-62.00000000000013
 20
6.000000000000543
 30
0.0
 11
-61.48037669218581
 21
5.699995343356738
 31
0.0
  0
LINE
  5
2FB9
330
1F
100
AcDbEntity
  8
AM_0
100
AcDbLine
 10
-62.00000000000011
 20
-5.999999999999633
 30
0.0
 11
-61.48041509952414
 21
-5.700017517842966
 31
0.0
  0
LINE
  5
324C
330
1F
100
AcDbEntity
  8
AM_0
100
AcDbLine
 10
-123.5
 20
-5.99999999999936
 30
0.0
 11
-61.99999999999981
 21
-5.999999999999451
 31
0.0
  0
DIMENSION
  5
324F
330
1F
100
AcDbEntity
  8
AM_5
100
AcDbDimension
  2
*D9
 10
-133.500001
 20
6.000000000000675
 30
0.0
 11
-133.500001
 21
0.0000129000665904
 31
0.0
 70
   160
  1
%%c<>
 51
359.9999999999997
  3
AM_JIS$0
100
AcDbAlignedDimension
 13
-123.5
 23
-5.99999999999936
 33
0.0
 14
-123.4999999999999
 24
6.000000000000673
 34
0.0
 50
270.0
100
AcDbRotatedDimension
1001
ACAD
1000
DSTYLE
1002
{
1070
   271
1070
     0
1002
}
1001
GENIUS_GENDTOL_13
1000

1000
h7
1000

1040
0.0
  0
LINE
  5
325C
330
1F
100
AcDbEntity
  8
AM_0
 48
0.5
100
AcDbLine
 10
-123.5
 20
-5.999999999999392
 30
0.0
 11
-123.4999999999999
 21
5.999990914632275
 31
0.0
  0
LINE
  5
325D
330
1F
100
AcDbEntity
  8
AM_0
 48
0.5
100
AcDbLine
 10
-124.0
 20
-5.499999999999359
 30
0.0
 11
-124.0
 21
5.500000000000639
 31
0.0
  0
LINE
  5
325E
330
1F
100
AcDbEntity
  8
AM_0
100
AcDbLine
 10
-62.00000000000013
 20
6.000000000000543
 30
0.0
 11
-123.5
 21
6.000000000000638
 31
0.0
  0
LINE
  5
3273
330
1F
100
AcDbEntity
  8
AM_0
 48
0.5
100
AcDbLine
 10
-123.5
 20
-5.99999999999936
 30
0.0
 11
-124.0
 21
-5.499999999999359
 31
0.0
1001
GENIUS_GENFIL_13
1070
     0
1040
0.5
1040
0.5
1040
20.0
1040
0.0
1002
{
1002
}
1001
GENIUS_GENODEF_13
1002
{
1000
HIER
1070
     0
1002
}
1002
{
1000
MANEDIT
1070
     0
1002
}
1002
{
1000
NOSEL
1070
     0
1002
}
1002
{
1000
BEHIND
1070
     0
1002
}
1002
{
1000
REACTOR
1002
}
1001
GENIUS_GENOBJ-N-CHA_13
1002
{
1000
OWNER
1000
GEN
1002
}
  0
LINE
  5
327F
330
1F
100
AcDbEntity
  8
AM_0
 48
0.5
100
AcDbLine
 10
-123.5
 20
6.000000000000638
 30
0.0
 11
-124.0
 21
5.500000000000639
 31
0.0
1001
GENIUS_GENFIL_13
1070
     0
1040
0.5
1040
0.5
1040
20.0
1040
0.0
1002
{
1002
}
1001
GENIUS_GENODEF_13
1002
{
1000
HIER
1070
     0
1002
}
1002
{
1000
MANEDIT
1070
     0
1002
}
1002
{
1000
NOSEL
1070
     0
1002
}
1002
{
1000
BEHIND
1070
     0
1002
}
1002
{
1000
REACTOR
1002
}
1001
GENIUS_GENOBJ-N-CHA_13
1002
{
1000
OWNER
1000
GEN
1002
}
  0
ELLIPSE
  5
3281
330
1F
100
AcDbEntity
  8
AM_11
 48
0.5
100
AcDbEllipse
 10
-126.8595410461822
 20
-21.92420569469927
 30
0.0
 11
-25.30609321594196
 21
0.0000000000004567
 31
0.0
210
0.0
220
0.0
230
1.0
 40
0.9578947368421083
 41
4.271664206181676
 42
4.599148993739767
  0
ELLIPSE
  5
3282
330
1F
100
AcDbEntity
  8
AM_11
 48
0.5
100
AcDbEllipse
 10
-126.8595410461809
 20
21.92422160965512
 30
0.0
 11
-25.30609321594207
 21
0.0000000000001476
 31
0.0
210
0.0
220
0.0
230
1.0
 40
0.9578947368421051
 41
1.684036313439791
 42
2.011520147323574
  0
LINE
  5
364D
330
1F
100
AcDbEntity
  8
AM_0
 48
0.5
100
AcDbLine
 10
-1.706668176774939
 20
5.132530498727377
 30
0.0
 11
-2.000000001295818
 21
5.699999999999987
 31
0.0
  0
LINE
  5
364E
330
1F
100
AcDbEntity
  8
AM_0
 48
0.5
100
AcDbLine
 10
-5.455319556496685
 20
5.700000000000118
 30
0.0
 11
-2.000000001295818
 21
5.699999999999987
 31
0.0
  0
SPLINE
  5
364F
330
1F
100
AcDbEntity
  8
AM_0
 48
0.5
100
AcDbSpline
210
0.0
220
0.0
230
1.0
 70
     8
 71
     3
 72
    26
 73
    22
 74
     0
 42
0.0000000001
 43
0.0000000001
 40
0.0
 40
0.0
 40
0.0
 40
0.0
 40
0.8422864037471089
 40
1.685694647057321
 40
2.531315797913884
 40
3.380177287502886
 40
4.233214169721234
 40
5.09125020057522
 40
5.954967768899448
 40
6.824900391836836
 40
7.701419186604396
 40
8.584724417931369
 40
9.47485577056355
 40
10.37165251267315
 40
11.27486274211709
 40
12.18400675634887
 40
13.09851504074504
 40
14.01768673654235
 40
14.94071745659532
 40
15.8667176994736
 40
16.76607142455336
 40
16.76607142455336
 40
16.76607142455336
 40
16.76607142455336
 10
-40.98857006659884
 20
-5.700289916991317
 30
0.0
 10
-41.31393276631854
 20
-5.696898555230039
 30
0.0
 10
-41.96509151568172
 20
-5.690111314759572
 30
0.0
 10
-42.94159266993946
 20
-5.635398532327576
 30
0.0
 10
-43.91805214387935
 20
-5.548419512846735
 30
0.0
 10
-44.89445117387603
 20
-5.426515065223497
 30
0.0
 10
-45.87078006788241
 20
-5.271337420105894
 30
0.0
 10
-46.84701937363958
 20
-5.083575905373286
 30
0.0
 10
-47.82316844169898
 20
-4.86449911067114
 30
0.0
 10
-48.79922061474544
 20
-4.615437598114585
 30
0.0
 10
-49.77517358529714
 20
-4.337936752775477
 30
0.0
 10
-50.75103538548345
 20
-4.033723762996878
 30
0.0
 10
-51.72680197165183
 20
-3.704677045932433
 30
0.0
 10
-52.70248439951246
 20
-3.352815055739565
 30
0.0
 10
-53.67809571461172
 20
-2.980342519106756
 30
0.0
 10
-54.65363802487932
 20
-2.589518950428662
 30
0.0
 10
-55.62911860247054
 20
-2.18277244707643
 30
0.0
 10
-56.60455536093833
 20
-1.762612547158582
 30
0.0
 10
-57.57993218010748
 20
-1.331569626488388
 30
0.0
 10
-58.54528976022013
 20
-0.8970345229498486
 30
0.0
 10
-59.18487547757452
 20
-0.6051107923081191
 30
0.0
 10
-59.50000000000013
 20
-0.4612796783431299
 30
0.0
  0
LINE
  5
3650
330
1F
100
AcDbEntity
  8
AM_0
 48
0.5
100
AcDbLine
 10
-47.36961167708108
 20
2.736341579216087
 30
0.0
 11
-59.49999263260359
 21
-0.4612760543809705
 31
0.0
  0
LINE
  5
3651
330
1F
100
AcDbEntity
  8
AM_0
 48
0.5
100
AcDbLine
 10
-61.48038421223313
 20
-5.699999685057193
 30
0.0
 11
-57.49887638448176
 21
-5.699999988311367
 31
0.0
  0
ELLIPSE
  5
3652
330
1F
100
AcDbEntity
  8
AM_0
 48
0.5
100
AcDbEllipse
 10
-57.56879609624911
 20
-3.800289916990767
 30
0.0
 11
-1.628120617797615
 21
1.095022440777913
 31
0.0
210
0.0
220
0.0
230
1.0
 40
0.9535127335110418
 41
0.6255614138979811
 42
2.177191644410518
  0
ELLIPSE
  5
3653
330
1F
100
AcDbEntity
  8
AM_0
 48
0.5
100
AcDbEllipse
 10
-58.05197940159075
 20
-3.858179092405709
 30
0.0
 11
1.402489263663569
 21
0.368375066969499
 31
0.0
210
0.0
220
0.0
230
1.0
 40
0.9861433705944136
 41
1.027521897789315
 42
2.855768080051126
  0
LINE
  5
3654
330
1F
100
AcDbEntity
  8
AM_0
 48
0.5
100
AcDbLine
 10
-56.22914134051466
 20
5.700089466425117
 30
0.0
 11
-61.48037669218581
 21
5.699995343356739
 31
0.0
  0
LINE
  5
3655
330
1F
100
AcDbEntity
  8
AM_0
 48
0.5
100
AcDbLine
 10
-0.0000000000000156
 20
-0.0000000000000069
 30
0.0
 11
-2.847476700022569
 21
2.188627450949931
 31
0.0
  0
LINE
  5
3656
330
1F
100
AcDbEntity
  8
AM_0
 48
0.5
100
AcDbLine
 10
-5.455319555201345
 20
-5.699999410621845
 30
0.0
 11
-2.000000000000172
 21
-5.700011867134699
 31
0.0
  0
LINE
  5
3657
330
1F
100
AcDbEntity
  8
AM_11
 48
0.5
100
AcDbLine
 10
-56.22899045802049
 20
5.700000000000282
 30
0.0
 11
-44.49015524723153
 21
5.70000000000022
 31
0.0
  0
LINE
  5
3658
330
1F
100
AcDbEntity
  8
AM_11
 48
0.5
100
AcDbLine
 10
-57.49887638448176
 20
-5.699999988311367
 30
0.0
 11
-44.4895378336481
 21
-5.700289916991219
 31
0.0
  0
LINE
  5
3659
330
1F
100
AcDbEntity
  8
AM_0
 48
0.5
100
AcDbLine
 10
-44.49017109053634
 20
5.700000589379515
 30
0.0
 11
-23.85008677277002
 21
5.700000000000755
 31
0.0
  0
LINE
  5
365A
330
1F
100
AcDbEntity
  8
AM_0
 48
0.5
100
AcDbLine
 10
-43.56855069640508
 20
-5.699999410620742
 30
0.0
 11
-23.85009067168499
 21
-5.69999999999989
 31
0.0
  0
LINE
  5
365B
330
1F
100
AcDbEntity
  8
AM_11
 48
0.5
100
AcDbLine
 10
-23.85008677277002
 20
5.700000000000755
 30
0.0
 11
-5.455319556496687
 21
5.700000000000119
 31
0.0
  0
LINE
  5
365C
330
1F
100
AcDbEntity
  8
AM_11
 48
0.5
100
AcDbLine
 10
-23.85009067168499
 20
-5.69999999999989
 30
0.0
 11
-5.455319555201345
 21
-5.699999410621845
 31
0.0
  0
SPLINE
  5
365D
330
1F
100
AcDbEntity
  8
AM_0
100
AcDbSpline
210
0.0
220
0.0
230
1.0
 70
     8
 71
     3
 72
    46
 73
    42
 74
     0
 42
0.0000000001
 43
0.0000000001
 40
0.0
 40
0.0
 40
0.0
 40
0.0
 40
1.685415058684571
 40
2.531036209541119
 40
3.379897699130121
 40
4.232934581347655
 40
5.090970612202441
 40
5.954688180526682
 40
6.824620803463246
 40
7.701151815239689
 40
8.584457046566678
 40
9.474582384070741
 40
10.37139106676737
 40
11.27458944007583
 40
12.18373345430765
 40
13.09824173870457
 40
14.01741343450111
 40
14.9404441545541
 40
15.86644439743314
 40
16.79446029130534
 40
17.7234937712985
 40
18.65252725129241
 40
19.58054314516461
 40
20.50654338804289
 40
21.42957410809586
 40
22.34874580389317
 40
23.26325408828901
 40
24.17239810252111
 40
25.07560240389441
 40
25.97241108659103
 40
26.8625364240951
 40
27.74584165542183
 40
28.62236045019041
 40
29.49229307312697
 40
30.35601064145121
 40
31.21404606334468
 40
32.06708345193547
 40
32.91595755657689
 40
33.76157841950693
 40
34.60498701064689
 40
35.44727335621125
 40
35.44727335621125
 40
35.44727335621125
 40
35.44727335621125
 10
-2.721779848143018
 20
-5.699999410621947
 30
0.0
 10
-3.37297041200634
 20
-5.687014370006706
 30
0.0
 10
-4.350881988123345
 20
-5.66751436150128
 30
0.0
 10
-5.651253655885854
 20
-5.547456391475687
 30
0.0
 10
-6.627663184719645
 20
-5.426406020854142
 30
0.0
 10
-7.603989253782576
 20
-5.270997907304219
 30
0.0
 10
-8.580229291097472
 20
-5.083298568802006
 30
0.0
 10
-9.556378281527811
 20
-4.864205368090485
 30
0.0
 10
-10.53243459017071
 20
-4.615145558292748
 30
0.0
 10
-11.50839387323082
 20
-4.337648403509709
 30
0.0
 10
-12.48425808141671
 20
-4.033435044003354
 30
0.0
 10
-13.46002458995037
 20
-3.704381366166602
 30
0.0
 10
-14.4357090750428
 20
-3.352531400481873
 30
0.0
 10
-15.41131627871568
 20
-2.980048156305454
 30
0.0
 10
-16.38685517258709
 20
-2.589228552676171
 30
0.0
 10
-17.36233659746077
 20
-2.182483698042769
 30
0.0
 10
-18.33776910250526
 20
-1.762314850431828
 30
0.0
 10
-19.31316218114001
 20
-1.331306269433182
 30
0.0
 10
-20.28852617531217
 20
-0.8921105603093277
 30
0.0
 10
-21.2638699950355
 20
-0.4474284679438546
 30
0.0
 10
-22.23920561584652
 20
0.0000005892882071
 30
0.0
 10
-23.21454123644325
 20
0.4474296470639857
 30
0.0
 10
-24.18988505680928
 20
0.8921117377991036
 30
0.0
 10
-25.16524904863228
 20
1.331307452881181
 30
0.0
 10
-26.14064213597784
 20
1.762316011782952
 30
0.0
 10
-27.11607460872344
 20
2.182484941326862
 30
0.0
 10
-28.09155615321095
 20
2.589229492533655
 30
0.0
 10
-29.06709672541243
 20
2.980051068165927
 30
0.0
 10
-30.04270771982424
 20
3.35253092814325
 30
0.0
 10
-31.01839394538827
 20
3.704382697994111
 30
0.0
 10
-31.9941604312033
 20
4.033436473741844
 30
0.0
 10
-32.97002063064988
 20
4.337647037787396
 30
0.0
 10
-33.94597341109398
 20
4.615148485216348
 30
0.0
 10
-34.92202573554051
 20
4.864209312450665
 30
0.0
 10
-35.89817416102709
 20
5.083288178934775
 30
0.0
 10
-36.87441491406143
 20
5.271041957641656
 30
0.0
 10
-37.85074721411267
 20
5.426228146412677
 30
0.0
 10
-38.82715171175569
 20
5.548130689092737
 30
0.0
 10
-39.80361661906981
 20
5.635101734380047
 30
0.0
 10
-40.78011697133374
 20
5.689829278887795
 30
0.0
 10
-41.43127599331676
 20
5.69661165766395
 30
0.0
 10
-41.75663875087457
 20
5.700000589379419
 30
0.0
  0
SPLINE
  5
365E
330
1F
100
AcDbEntity
  8
AM_0
100
AcDbSpline
210
0.0
220
0.0
230
1.0
 70
     8
 71
     3
 72
    22
 73
    18
 74
     0
 42
0.0000000001
 43
0.0000000001
 40
17.17441611292
 40
17.17441611292
 40
17.17441611292
 40
17.17441611292
 40
17.38177636558528
 40
18.41823744757437
 40
19.46215659509824
 40
20.51397914882054
 40
21.57394542641293
 40
22.64209583141747
 40
23.71826625065247
 40
24.80210429862395
 40
25.8930771157021
 40
26.99048705697709
 40
28.09349309193389
 40
29.20112995599786
 40
30.31233024745139
 40
31.42594771747373
 40
32.5407895042663
 40
32.54078950426994
 40
32.54078950426994
 40
32.54078950426994
 10
-27.57717535662906
 20
-5.118640665220716
 30
0.0
 10
-27.64256326466517
 20
-5.105445724286804
 30
0.0
 10
-28.03452806292515
 20
-5.025073896815738
 30
0.0
 10
-28.752585486209
 20
-4.863917922110009
 30
0.0
 10
-29.72863773665595
 20
-4.614857473392987
 30
0.0
 10
-30.70459052942744
 20
-4.337355903785916
 30
0.0
 10
-31.68045075469546
 20
-4.033145446893659
 30
0.0
 10
-32.6562171234165
 20
-3.704091362597774
 30
0.0
 10
-33.63190164614313
 20
-3.352241506518952
 30
0.0
 10
-34.60750884056892
 20
-2.979758234664708
 30
0.0
 10
-35.58304773338035
 20
-2.58893863096285
 30
0.0
 10
-36.55852917195138
 20
-2.182193804818952
 30
0.0
 10
-37.53396162287244
 20
-1.762024842469237
 30
0.0
 10
-38.50935490544803
 20
-1.331016694370105
 30
0.0
 10
-39.48471766569078
 20
-0.891819572759203
 30
0.0
 10
-40.46006435275172
 20
-0.44714356126642
 30
0.0
 10
-41.11016784487608
 20
-0.1489087928821172
 30
0.0
 10
-41.43539817904797
 20
0.0002905063723225
 30
0.0
  0
SPLINE
  5
365F
330
1F
100
AcDbEntity
  8
AM_0
 48
0.5
100
AcDbSpline
210
0.0
220
0.0
230
1.0
 70
     8
 71
     3
 72
    10
 73
     6
 74
     0
 42
0.0000000001
 43
0.0000000001
 40
0.0
 40
0.0
 40
0.0
 40
0.0
 40
2.69986029516136
 40
4.147722969032201
 40
6.285750005020438
 40
6.285750005020438
 40
6.285750005020438
 40
6.285750005020438
 10
-6.594009560493112
 20
1.031670206077305
 30
0.0
 10
-5.899013973530621
 20
0.502100817302038
 30
0.0
 10
-4.831310891046493
 20
-0.311462433158022
 30
0.0
 10
-2.306336528107997
 20
0.0823977888153624
 30
0.0
 10
-2.781862644056704
 20
1.408971131886496
 30
0.0
 10
-2.847476700022569
 20
2.188627450949931
 30
0.0
  0
SPLINE
  5
3660
330
1F
100
AcDbEntity
  8
AM_0
 48
0.5
100
AcDbSpline
210
0.0
220
0.0
230
1.0
 70
     8
 71
     3
 72
    17
 73
    13
 74
     0
 42
0.0000000001
 43
0.0000000001
 40
0.0
 40
0.0
 40
0.0
 40
0.0
 40
1.010743614677189
 40
2.022833924044153
 40
3.037578959561199
 40
4.056212747067873
 40
5.079857613375832
 40
6.109500119648989
 40
7.14596120163808
 40
8.18989512056258
 40
9.241717674284874
 40
9.693948937866434
 40
9.693948937866434
 40
9.693948937866434
 40
9.693948937866434
 10
-5.455319556496685
 20
5.700000000000118
 30
0.0
 10
-5.780682315389366
 20
5.696611082071367
 30
0.0
 10
-6.431841340043664
 20
5.689828730887072
 30
0.0
 10
-7.408341672232641
 20
5.635100979048465
 30
0.0
 10
-8.384801802469763
 20
5.548131157143711
 30
0.0
 10
-9.361201205196739
 20
5.426226502151617
 30
0.0
 10
-10.33752825177957
 20
5.271040321008859
 30
0.0
 10
-11.31377101734853
 20
5.083292112390064
 30
0.0
 10
-12.28991639908493
 20
4.86419047360464
 30
0.0
 10
-13.26600227534796
 20
4.61521045331235
 30
0.0
 10
-14.05392424735359
 20
4.390917091233176
 30
0.0
 10
-14.51663822603126
 20
4.250701485136895
 30
0.0
 10
-14.65552013751844
 20
4.207782426755291
 30
0.0
  0
SPLINE
  5
3661
330
1F
100
AcDbEntity
  8
AM_0
100
AcDbSpline
210
0.0
220
0.0
230
1.0
 70
     8
 71
     3
 72
    23
 73
    19
 74
     0
 42
0.0000000001
 43
0.0000000001
 40
16.03460024169435
 40
16.03460024169435
 40
16.03460024169435
 40
16.03460024169435
 40
16.35212704903564
 40
17.38177054169784
 40
18.41822485651776
 40
19.46214173629503
 40
20.51396345435107
 40
21.57393551351153
 40
22.64208202342361
 40
23.7182574881101
 40
24.80209208578934
 40
25.89306333925047
 40
26.99048218457928
 40
28.09348763352352
 40
29.20111863782268
 40
30.31232390128032
 40
31.42594612798585
 40
32.5407912310448
 40
32.5407912310486
 40
32.5407912310486
 40
32.5407912310486
 10
-56.22899045802049
 20
5.700000000000279
 30
0.0
 10
-56.12866696508718
 20
5.680757803768088
 30
0.0
 10
-55.70345191830593
 20
5.596963455011588
 30
0.0
 10
-54.95443103414849
 20
5.432781217253041
 30
0.0
 10
-53.98444702834218
 20
5.188644025185547
 30
0.0
 10
-53.01536398930538
 20
4.914518652043791
 30
0.0
 10
-52.04712465314855
 20
4.611991595668985
 30
0.0
 10
-51.07969465534173
 20
4.282749451173119
 30
0.0
 10
-50.11301808074964
 20
3.928674305499863
 30
0.0
 10
-49.1470276136898
 20
3.551826787182328
 30
0.0
 10
-48.18166836311441
 20
3.154340961745138
 30
0.0
 10
-47.21686293267188
 20
2.738529706590239
 30
0.0
 10
-46.25253313567112
 20
2.306809896383156
 30
0.0
 10
-45.28861472156821
 20
1.861663739044039
 30
0.0
 10
-44.32502704048022
 20
1.405679698517529
 30
0.0
 10
-43.3616808437803
 20
0.9415203870643713
 30
0.0
 10
-42.3984976878942
 20
0.4718754822045308
 30
0.0
 10
-41.75654805774326
 20
0.1570042534139898
 30
0.0
 10
-41.43539817904368
 20
-0.0005198714536363
 30
0.0
  0
SPLINE
  5
3662
330
1F
100
AcDbEntity
  8
AM_0
 48
0.5
100
AcDbSpline
210
0.0
220
0.0
230
1.0
 70
     8
 71
     3
 72
    25
 73
    21
 74
     0
 42
0.0000000001
 43
0.0000000001
 40
6.846175049578289
 40
6.846175049578289
 40
6.846175049578289
 40
6.846175049578289
 40
7.604337694224321
 40
8.711974558287883
 40
9.814980593243754
 40
10.91239053451967
 40
12.0033633515982
 40
13.08720139956839
 40
14.16337181880432
 40
15.23152222380919
 40
16.29148850140128
 40
17.34331105512262
 40
18.38723020264746
 40
19.42369128463655
 40
20.45333379090873
 40
21.47697865721768
 40
22.49561244472435
 40
23.5103574802404
 40
24.52244778960836
 40
25.53320666051913
 40
25.53320666051913
 40
25.53320666051913
 40
25.53320666051913
 10
-6.594165681529307
 20
1.031737906427973
 30
0.0
 10
-6.815993317190428
 20
1.131819769015302
 30
0.0
 10
-7.362366634425818
 20
1.37711462252308
 30
0.0
 10
-8.234097602087972
 20
1.762315844445131
 30
0.0
 10
-9.209529999700725
 20
2.182484925522852
 30
0.0
 10
-10.18501145244226
 20
2.589229720051427
 30
0.0
 10
-11.16055034151624
 20
2.980049332295257
 30
0.0
 10
-12.13615753683335
 20
3.352532601355719
 30
0.0
 10
-13.11184205969568
 20
3.704382460118646
 30
0.0
 10
-14.08760842700873
 20
4.033436536529484
 30
0.0
 10
-15.06346865771092
 20
4.337647021982891
 30
0.0
 10
-16.03942143037103
 20
4.615148486352435
 30
0.0
 10
-17.01547375505302
 20
4.864209323405951
 30
0.0
 10
-17.99162218722336
 20
5.083288134454461
 30
0.0
 10
-18.96786291355295
 20
5.271042123129785
 30
0.0
 10
-19.94419050172096
 20
5.42622676890767
 30
0.0
 10
-20.92058976046215
 20
5.548131833152204
 30
0.0
 10
-21.89704992886576
 20
5.635101542638459
 30
0.0
 10
-22.87355515604086
 20
5.68982961199711
 30
0.0
 10
-23.52471909827171
 20
5.696611751585358
 30
0.0
 10
-23.85008677277002
 20
5.700000000000755
 30
0.0
  0
SPLINE
  5
3663
330
1F
100
AcDbEntity
  8
AM_0
100
AcDbSpline
210
0.0
220
0.0
230
1.0
 70
     8
 71
     3
 72
    17
 73
    13
 74
     0
 42
0.0000000001
 43
0.0000000001
 40
1.580019955310467
 40
1.580019955310467
 40
1.580019955310467
 40
1.580019955310467
 40
2.030549285115227
 40
3.082371838836284
 40
4.126290986361125
 40
5.162752068350215
 40
6.192395305374981
 40
7.216039564037012
 40
8.234688489606833
 40
9.249433870634691
 40
10.26152376260694
 40
11.27226744710342
 40
11.27226744710342
 40
11.27226744710342
 40
11.27226744710352
 10
-14.65198558898014
 20
-4.206767256186582
 30
0.0
 10
-14.79014420310498
 20
-4.250093470274426
 30
0.0
 10
-15.2516403903533
 20
-4.392100923990444
 30
0.0
 10
-16.03952882825119
 20
-4.614844696258877
 30
0.0
 10
-17.01544521445809
 20
-4.864288172216873
 30
0.0
 10
-17.99163026953242
 20
-5.083266425087288
 30
0.0
 10
-18.96786005306518
 20
-5.27104407668093
 30
0.0
 10
-19.94419619508324
 20
-5.426255223291788
 30
0.0
 10
-20.92059978936375
 20
-5.548014143344802
 30
0.0
 10
-21.89706418234807
 20
-5.635531798297003
 30
0.0
 10
-22.87356531648228
 20
-5.68824482683985
 30
0.0
 10
-23.52472407608656
 20
-5.699999443236928
 30
0.0
 10
-23.850090671685
 20
-5.699999999999891
 30
0.0
  0
SPLINE
  5
3664
330
1F
100
AcDbEntity
  8
AM_0
100
AcDbSpline
210
0.0
220
0.0
230
1.0
 70
     8
 71
     3
 72
    11
 73
     7
 74
     0
 42
0.0000000001
 43
0.0000000001
 40
11.27226913003534
 40
11.27226913003534
 40
11.27226913003534
 40
11.2722691300354
 40
12.28301561507924
 40
13.29510212255852
 40
14.30984805882082
 40
15.18258238371378
 40
15.18258238371378
 40
15.18258238371378
 40
15.18258238371378
 10
-23.85009067168505
 20
-5.699999999999891
 30
0.0
 10
-24.17421227771524
 20
-5.672101954212013
 30
0.0
 10
-24.82185192785699
 20
-5.604563426392235
 30
0.0
 10
-25.78996711265369
 20
-5.468321510164511
 30
0.0
 10
-26.70872549355468
 20
-5.305595479573999
 30
0.0
 10
-27.30292448428644
 20
-5.180503136821737
 30
0.0
 10
-27.57674829901644
 20
-5.118710974677131
 30
0.0
  0
SPLINE
  5
3665
330
1F
100
AcDbEntity
  8
AM_0
 48
0.5
100
AcDbSpline
210
0.0
220
0.0
230
1.0
 70
     8
 71
     3
 72
    22
 73
    18
 74
     0
 42
0.0000000001
 43
0.0000000001
 40
0.0
 40
0.0
 40
0.0
 40
0.0
 40
1.010743684496582
 40
2.022833993863546
 40
3.037578683882831
 40
4.056212471389632
 40
5.079857945358201
 40
6.109499720892564
 40
7.145961650132166
 40
8.189873411961459
 40
9.241710626092514
 40
10.30166235592959
 40
11.36982472628033
 40
12.44598212828784
 40
13.52983440361964
 40
14.62080578343036
 40
14.90544694398022
 40
14.90544694398022
 40
14.90544694398022
 40
14.90544694398022
 10
-43.72194679483707
 20
-5.699999999999782
 30
0.0
 10
-44.04747253550897
 20
-5.696899568258404
 30
0.0
 10
-44.69863154358032
 20
-5.690114353794085
 30
0.0
 10
-45.67513167523684
 20
-5.635386332709721
 30
0.0
 10
-46.65159220356314
 20
-5.54842194797814
 30
0.0
 10
-47.62799176118788
 20
-5.426517419851598
 30
0.0
 10
-48.60431796425199
 20
-5.271325177460989
 30
0.0
 10
-49.5805606274283
 20
-5.083579896961317
 30
0.0
 10
-50.55670544529692
 20
-4.864495141233662
 30
0.0
 10
-51.53275913017024
 20
-4.615430022777003
 30
0.0
 10
-52.50871289124825
 20
-4.33793966255295
 30
0.0
 10
-53.48457182876948
 20
-4.033712898151297
 30
0.0
 10
-54.46034223343851
 20
-3.704685663568104
 30
0.0
 10
-55.43602337233725
 20
-3.35281401178419
 30
0.0
 10
-56.41163352370231
 20
-2.980339524532488
 30
0.0
 10
-57.1448727324099
 20
-2.686603091085538
 30
0.0
 10
-57.55345920688919
 20
-2.51871278763092
 30
0.0
 10
-57.63794130327689
 20
-2.483826676971945
 30
0.0
  0
SPLINE
  5
3666
330
1F
100
AcDbEntity
  8
AM_0
100
AcDbSpline
210
0.0
220
0.0
230
1.0
 70
     8
 71
     3
 72
    13
 73
     9
 74
     0
 42
0.0000000001
 43
0.0000000001
 40
16.03460056234195
 40
16.03460056234195
 40
16.03460056234195
 40
16.03460056234195
 40
16.35212717791071
 40
17.38177067057215
 40
18.41822498539278
 40
19.46214186516937
 40
20.5139635832251
 40
21.34083983469381
 40
21.34083983469381
 40
21.34083983469381
 40
21.34083983469381
 10
-57.49887488262101
 20
-5.699999999999708
 30
0.0
 10
-57.29270531312334
 20
-5.681566677337539
 30
0.0
 10
-56.86748991448538
 20
-5.597774627627818
 30
0.0
 10
-56.11846943863077
 20
-5.433590473003145
 30
0.0
 10
-55.14848531075635
 20
-5.189453957869667
 30
0.0
 10
-54.17940230477805
 20
-4.915328401402779
 30
0.0
 10
-53.28268172570988
 20
-4.635147479197801
 30
0.0
 10
-52.71058978742819
 20
-4.442222974818323
 30
0.0
 10
-52.45961648289153
 20
-4.355019340910395
 30
0.0
  0
ELLIPSE
  5
3667
330
1F
100
AcDbEntity
  8
AM_0
 48
0.5
100
AcDbEllipse
 10
-10.02962330164686
 20
9.663299959189883
 30
0.0
 11
11.68780988660204
 21
10.78279933926854
 31
0.0
210
0.0
220
0.0
230
1.0
 40
0.8754734741706627
 41
4.652859745646956
 42
4.763927265064822
  0
ELLIPSE
  5
3668
330
1F
100
AcDbEntity
  8
AM_0
 48
0.5
100
AcDbEllipse
 10
-6.584425756287628
 20
5.815077632570249
 30
0.0
 11
0.0000000000021795
 21
8.855797363631388
 31
0.0
210
0.0
220
0.0
230
1.0
 40
0.9736842105263251
 41
3.517054509082922
 42
3.681821570856421
  0
ELLIPSE
  5
3669
330
1F
100
AcDbEntity
  8
AM_0
 48
0.5
100
AcDbEllipse
 10
-1.72617521901427
 20
-1.483479820661285
 30
0.0
 11
-0.1679688850363304
 21
0.9351894920984161
 31
0.0
210
0.0
220
0.0
230
0.9999999999999998
 40
0.5069183721870258
 41
1.800782708259402
 42
4.936124597971379
  0
ELLIPSE
  5
366A
330
1F
100
AcDbEntity
  8
AM_0
 48
0.5
100
AcDbEllipse
 10
-1.726258474564586
 20
-1.485501462929475
 30
0.0
 11
-0.838499301834777
 21
0.4711495143783309
 31
0.0
210
0.0
220
0.0
230
1.0
 40
0.4958475077066652
 41
4.474526134576896
 42
7.617966475906408
  0
ELLIPSE
  5
366B
330
1F
100
AcDbEntity
  8
AM_0
 48
0.5
100
AcDbEllipse
 10
3.478989073259342
 20
6.843201272971565
 30
0.0
 11
-11.67739832270259
 21
0.0000000000023084
 31
0.0
210
0.0
220
0.0
230
1.0
 40
0.9837837837837842
 41
0.530367553234258
 42
0.938488483429149
  0
ELLIPSE
  5
366C
330
1F
100
AcDbEntity
  8
AM_0
 48
0.5
100
AcDbEllipse
 10
5.800170036675707
 20
-1.52226893477682
 30
0.0
 11
-8.668984687280763
 21
4.107315503518343
 31
0.0
210
0.0
220
0.0
230
1.0
 40
0.8869696744236657
 41
0.594214139446005
 42
0.9904019607542004
  0
SPLINE
  5
366D
330
1F
100
AcDbEntity
  8
AM_0
100
AcDbSpline
210
0.0
220
0.0
230
1.0
 70
     8
 71
     3
 72
    55
 73
    51
 74
     0
 42
0.0000000001
 43
0.0000000001
 40
0.0
 40
0.0
 40
0.0
 40
0.0
 40
1.010743684496582
 40
2.022833576467832
 40
3.037578957496688
 40
4.056212745003489
 40
5.079857003664532
 40
6.109500240690281
 40
7.145961322679372
 40
8.189895241603872
 40
9.241717795325891
 40
10.30168407291828
 40
11.36983447792315
 40
12.44600489715814
 40
13.52984294512926
 40
14.62081576220742
 40
15.7182257034828
 40
16.82123173843959
 40
17.92886860250316
 40
19.0400688939571
 40
20.15368796660465
 40
21.26852814259644
 40
22.38336992938901
 40
23.49698739941135
 40
24.6081876908653
 40
25.71582455492886
 40
26.81883757994213
 40
27.91624752121713
 40
29.00722033829659
 40
30.09105838626677
 40
31.16722880550176
 40
32.23537921050758
 40
33.29534548809967
 40
34.347168041821
 40
35.39108718934584
 40
36.42754827133493
 40
37.45720575381954
 40
38.48085062012849
 40
39.49948440763516
 40
40.51422944315121
 40
41.52631975251916
 40
42.53706336719636
 40
43.54780698187354
 40
44.55989729124051
 40
45.57464232675757
 40
46.59327611426424
 40
47.6169209805722
 40
48.64656348684535
 40
49.68302456883444
 40
50.58557219878025
 40
50.58557219878025
 40
50.58557219878025
 40
50.58557219878025
 10
-5.455319555201343
 20
-5.699999410621845
 30
0.0
 10
-5.780682254881901
 20
-5.696608048712779
 30
0.0
 10
-6.431841004166459
 20
-5.689820807946572
 30
0.0
 10
-7.408342159012791
 20
-5.635108027736897
 30
0.0
 10
-8.384801630706681
 20
-5.548128999776285
 30
0.0
 10
-9.361200669145864
 20
-5.426224584027989
 30
0.0
 10
-10.33752953140496
 20
-5.271046819047721
 30
0.0
 10
-11.31376895669842
 20
-5.083285755627085
 30
0.0
 10
-12.28992221050385
 20
-4.864206219213
 30
0.0
 10
-13.26598063631468
 20
-4.61514974806495
 30
0.0
 10
-14.24193758539411
 20
-4.337645533807028
 30
0.0
 10
-15.21779792234803
 20
-4.03343544170616
 30
0.0
 10
-16.19356426072502
 20
-3.704381258381274
 30
0.0
 10
-17.16924879194386
 20
-3.35253142970903
 30
0.0
 10
-18.14485598305183
 20
-2.98004814827267
 30
0.0
 10
-19.12039488059864
 20
-2.589228555308123
 30
0.0
 10
-20.09587630344269
 20
-2.182483695601233
 30
0.0
 10
-21.07130881292978
 20
-1.762314857594063
 30
0.0
 10
-22.04670187574355
 20
-1.331306243090069
 30
0.0
 10
-23.02206592900425
 20
-0.8921106589051436
 30
0.0
 10
-23.99740952758305
 20
-0.4474280989972843
 30
0.0
 10
-24.97274644484242
 20
-0.0000005736282223
 30
0.0
 10
-25.94807898365512
 20
0.4474350057151365
 30
0.0
 10
-26.92342585137306
 20
0.8921106407393256
 30
0.0
 10
-27.89878870053377
 20
1.331307554344281
 30
0.0
 10
-28.87418350246258
 20
1.762317810798987
 30
0.0
 10
-29.84962005851162
 20
2.182483063011511
 30
0.0
 10
-30.82510302092305
 20
2.589229985480777
 30
0.0
 10
-31.80064205930525
 20
2.980049261530929
 30
0.0
 10
-32.776249214914
 20
3.352532621299124
 30
0.0
 10
-33.7519337486312
 20
3.704382450486054
 30
0.0
 10
-34.7277001118617
 20
4.033436555129124
 30
0.0
 10
-35.70356034809616
 20
4.33764695785648
 30
0.0
 10
-36.67951310287115
 20
4.61514872175574
 30
0.0
 10
-37.65556549288796
 20
4.864208454922176
 30
0.0
 10
-38.63171838459122
 20
5.083292396750128
 30
0.0
 10
-39.60796478056136
 20
5.271032015250922
 30
0.0
 10
-40.58429686833512
 20
5.42625781102986
 30
0.0
 10
-41.56069619622265
 20
5.548017724827816
 30
0.0
 10
-42.53715634639026
 20
5.635524944740229
 30
0.0
 10
-43.51365667328
 20
5.688254513347404
 30
0.0
 10
-44.4901784581722
 20
5.705869717447692
 30
0.0
 10
-45.46670024162758
 20
5.688254513319852
 30
0.0
 10
-46.44320057283612
 20
5.635524944851151
 30
0.0
 10
-47.41966070710308
 20
5.548017724410423
 30
0.0
 10
-48.396060094606
 20
5.426257812599192
 30
0.0
 10
-49.37238719845798
 20
5.271032766101757
 30
0.0
 10
-50.34862974838893
 20
5.083294316286623
 30
0.0
 10
-51.28039908652638
 20
4.874153478852675
 30
0.0
 10
-51.88494164440084
 20
4.721206807288032
 30
0.0
 10
-52.1654141559659
 20
4.646668433046619
 30
0.0
  0
VIEWPORT
  5
110
330
101
100
AcDbEntity
 67
     1
  8
0
100
AcDbViewport
 10
420.5
 20
297.0
 30
0.0
 40
948.9782706766916
 41
628.452
 68
     1
 69
     1
1001
ACAD
1000
MVIEW
1002
{
1070
    16
1010
0.0
1020
0.0
1030
0.0
1010
0.0
1020
0.0
1030
1.0
1040
0.0
1040
628.452
1040
420.5
1040
297.0
1040
50.0
1040
0.0
1040
0.0
1070
     0
1070
   100
1070
     1
1070
     1
1070
     0
1070
     0
1070
     0
1070
     0
1040
0.0
1040
0.0
1040
0.0
1040
10.0
1040
10.0
1040
10.0
1040
10.0
1070
     0
1002
{
1002
}
1002
}
  0
ENDSEC
  0
SECTION
  2
OBJECTS
  0
DICTIONARY
  5
C
330
0
100
AcDbDictionary
  3
ACAD_GROUP
350
D
  3
ACAD_LAYOUT
350
1A
  3
ACAD_MLINESTYLE
350
17
  3
ACAD_PLOTSETTINGS
350
19
  3
ACAD_PLOTSTYLENAME
350
E
  3
ACDBVARIABLEDICTIONARY
350
34
  3
ACMDICTIONARY
350
43
  3
AMG
350
2B
  3
AMGSNAPSETTINGS
350
6E
  3
DWGPROPS
350
3743
  3
ACDBHEADERROUNDTRIPXREC
350
3750
  0
DICTIONARY
  5
74
330
1F
100
AcDbDictionary
280
     1
  3
ACAD_INDEX
360
3745
  3
ACAD_LAYOUTSELFREF
360
3773
  0
DICTIONARY
  5
3778
330
101
100
AcDbDictionary
280
     1
  3
ACAD_LAYOUTSELFREF
360
3779
  0
DICTIONARY
  5
D
102
{ACAD_REACTORS
330
C
102
}
330
C
100
AcDbDictionary
  0
DICTIONARY
  5
1A
102
{ACAD_REACTORS
330
C
102
}
330
C
100
AcDbDictionary
  0
DICTIONARY
  5
17
102
{ACAD_REACTORS
330
C
102
}
330
C
100
AcDbDictionary
  3
STANDARD
350
18
  0
DICTIONARY
  5
19
102
{ACAD_REACTORS
330
C
102
}
330
C
100
AcDbDictionary
  0
ACDBDICTIONARYWDFLT
  5
E
102
{ACAD_REACTORS
330
C
102
}
330
C
100
AcDbDictionary
281
     1
  3
Normal
350
F
100
AcDbDictionaryWithDefault
340
F
  0
DICTIONARY
  5
34
102
{ACAD_REACTORS
330
C
102
}
330
C
100
AcDbDictionary
  3
INDEXCTL
350
35
  3
SORTENTS
350
B5E
  0
DICTIONARY
  5
43
102
{ACAD_REACTORS
330
C
102
}
330
C
100
AcDbDictionary
  3
ACMSTDDICTIONARY
350
260
  0
DICTIONARY
  5
2B
102
{ACAD_REACTORS
330
C
102
}
330
C
100
AcDbDictionary
  3
ACMGSETTINGS
350
2C
  0
DICTIONARY
  5
6E
102
{ACAD_REACTORS
330
C
102
}
330
C
100
AcDbDictionary
  0
XRECORD
  5
3743
102
{ACAD_REACTORS
330
C
102
}
330
C
100
AcDbXrecord
  1
DWGPROPS COOKIE
  2

  3

  4

  6

  7

  8

  9

300
AmdtFileType=82
301
=
302
=
303
=
304
=
305
=
306
=
307
=
308
=
309
=
 40
0.0712324305555556
 41
2452800.443498622
 42
2452946.628364433
  1

 90
        1
  0
DICTIONARY
  5
3750
102
{ACAD_REACTORS
330
C
102
}
330
C
100
AcDbDictionary
  3
TSTACKALIGN
350
3751
  3
TSTACKSIZE
350
3752
  3
HYPERLINKBASE
350
3753
  3
STYLESHEET
350
3754
  3
LAYOUTDICT
350
3755
  3
PLOTSETDICT
350
3756
  3
PLOTSTYLNAMDICT
350
3757
  3
LWETCUNION
350
3758
  3
INSUNITS
350
3759
  3
CEPSNTYPE
350
375A
  3
FINGERPRINTGUID
350
375B
  3
VERSIONGUID
350
375C
  3
PSVPSCALE
350
375D
  3
DIMSTYLEDATA
350
375E
  3
PUCSORTHOREF
350
375F
  3
PUCSORTHOVIEW
350
3760
  3
PUCSBASE
350
3761
  3
PUCSORGTOP
350
3762
  3
PUCSORGBOTTOM
350
3763
  3
PUCSORGLEFT
350
3764
  3
PUCSORGRIGHT
350
3765
  3
PUCSORGFRONT
350
3766
  3
PUCSORGBACK
350
3767
  3
UCSORTHOREF
350
3768
  3
UCSORTHOVIEW
350
3769
  3
UCSBASE
350
376A
  3
UCSORGTOP
350
376B
  3
UCSORGBOTTOM
350
376C
  3
UCSORGLEFT
350
376D
  3
UCSORGRIGHT
350
376E
  3
UCSORGFRONT
350
376F
  3
UCSORGBACK
350
3770
  0
DICTIONARY
  5
3745
102
{ACAD_REACTORS
330
74
102
}
330
74
100
AcDbDictionary
  3
*A1
350
3746
  0
XRECORD
  5
3773
102
{ACAD_REACTORS
330
74
102
}
330
74
100
AcDbXrecord
340
1F
  0
XRECORD
  5
3779
102
{ACAD_REACTORS
330
3778
102
}
330
3778
100
AcDbXrecord
340
101
  0
MLINESTYLE
  5
18
102
{ACAD_REACTORS
330
17
102
}
330
17
100
AcDbMlineStyle
  2
STANDARD
 70
     0
  3

 62
   256
 51
90.0
 52
90.0
 71
     2
 49
0.5
 62
   256
  6
BYLAYER
 49
-0.5
 62
   256
  6
BYLAYER
  0
ACDBPLACEHOLDER
  5
F
102
{ACAD_REACTORS
330
E
102
}
330
E
100
AcDbPlaceHolder
280
     0
  0
DICTIONARYVAR
  5
35
102
{ACAD_REACTORS
330
34
102
}
330
34
100
DictionaryVariables
280
     0
  1
1
  0
DICTIONARYVAR
  5
B5E
102
{ACAD_REACTORS
330
34
102
}
330
34
100
DictionaryVariables
280
     0
  1
96
  0
DICTIONARY
  5
260
102
{ACAD_REACTORS
330
43
102
}
330
43
100
AcDbDictionary
  0
DICTIONARY
  5
2C
102
{ACAD_REACTORS
330
2B
102
}
330
2B
100
AcDbDictionary
  3
DWGSETTINGS
350
2D
  0
XRECORD
  5
3751
102
{ACAD_REACTORS
330
3750
102
}
330
3750
100
AcDbXrecord
 90
        1
  0
XRECORD
  5
3752
102
{ACAD_REACTORS
330
3750
102
}
330
3750
100
AcDbXrecord
 90
       70
  0
XRECORD
  5
3753
102
{ACAD_REACTORS
330
3750
102
}
330
3750
100
AcDbXrecord
  1

  0
XRECORD
  5
3754
102
{ACAD_REACTORS
330
3750
102
}
330
3750
100
AcDbXrecord
  1
ASAMI.ctb
  0
XRECORD
  5
3755
102
{ACAD_REACTORS
330
3750
102
}
330
3750
100
AcDbXrecord
340
1A
  0
XRECORD
  5
3756
102
{ACAD_REACTORS
330
3750
102
}
330
3750
100
AcDbXrecord
340
19
  0
XRECORD
  5
3757
102
{ACAD_REACTORS
330
3750
102
}
330
3750
100
AcDbXrecord
340
E
  0
XRECORD
  5
3758
102
{ACAD_REACTORS
330
3750
102
}
330
3750
100
AcDbXrecord
 90
    10781
  0
XRECORD
  5
3759
102
{ACAD_REACTORS
330
3750
102
}
330
3750
100
AcDbXrecord
 90
        4
  0
XRECORD
  5
375A
102
{ACAD_REACTORS
330
3750
102
}
330
3750
100
AcDbXrecord
 90
        0
  0
XRECORD
  5
375B
102
{ACAD_REACTORS
330
3750
102
}
330
3750
100
AcDbXrecord
  1
{AFB28963-8C59-40AE-9337-C84526B81ACE}
  0
XRECORD
  5
375C
102
{ACAD_REACTORS
330
3750
102
}
330
3750
100
AcDbXrecord
  1
{4DFFD33C-7216-411B-9699-6037E6FEF7BC}
  0
XRECORD
  5
375D
102
{ACAD_REACTORS
330
3750
102
}
330
3750
100
AcDbXrecord
 40
0.0
  0
XRECORD
  5
375E
102
{ACAD_REACTORS
330
3750
102
}
330
3750
100
AcDbXrecord
1000
DSTYLE
1002
{
1070
    79
 70
     2
1070
   341
340
59
1070
   342
340
59
1070
   371
 70
    -1
1070
   372
 70
    -1
1002
}
  0
XRECORD
  5
375F
102
{ACAD_REACTORS
330
3750
102
}
330
3750
100
AcDbXrecord
340
0
  0
XRECORD
  5
3760
102
{ACAD_REACTORS
330
3750
102
}
330
3750
100
AcDbXrecord
 70
     0
  0
XRECORD
  5
3761
102
{ACAD_REACTORS
330
3750
102
}
330
3750
100
AcDbXrecord
340
0
  0
XRECORD
  5
3762
102
{ACAD_REACTORS
330
3750
102
}
330
3750
100
AcDbXrecord
 10
0.0
 20
0.0
 30
0.0
  0
XRECORD
  5
3763
102
{ACAD_REACTORS
330
3750
102
}
330
3750
100
AcDbXrecord
 10
0.0
 20
0.0
 30
0.0
  0
XRECORD
  5
3764
102
{ACAD_REACTORS
330
3750
102
}
330
3750
100
AcDbXrecord
 10
0.0
 20
0.0
 30
0.0
  0
XRECORD
  5
3765
102
{ACAD_REACTORS
330
3750
102
}
330
3750
100
AcDbXrecord
 10
0.0
 20
0.0
 30
0.0
  0
XRECORD
  5
3766
102
{ACAD_REACTORS
330
3750
102
}
330
3750
100
AcDbXrecord
 10
0.0
 20
0.0
 30
0.0
  0
XRECORD
  5
3767
102
{ACAD_REACTORS
330
3750
102
}
330
3750
100
AcDbXrecord
 10
0.0
 20
0.0
 30
0.0
  0
XRECORD
  5
3768
102
{ACAD_REACTORS
330
3750
102
}
330
3750
100
AcDbXrecord
340
0
  0
XRECORD
  5
3769
102
{ACAD_REACTORS
330
3750
102
}
330
3750
100
AcDbXrecord
 70
     0
  0
XRECORD
  5
376A
102
{ACAD_REACTORS
330
3750
102
}
330
3750
100
AcDbXrecord
340
0
  0
XRECORD
  5
376B
102
{ACAD_REACTORS
330
3750
102
}
330
3750
100
AcDbXrecord
 10
0.0
 20
0.0
 30
0.0
  0
XRECORD
  5
376C
102
{ACAD_REACTORS
330
3750
102
}
330
3750
100
AcDbXrecord
 10
0.0
 20
0.0
 30
0.0
  0
XRECORD
  5
376D
102
{ACAD_REACTORS
330
3750
102
}
330
3750
100
AcDbXrecord
 10
0.0
 20
0.0
 30
0.0
  0
XRECORD
  5
376E
102
{ACAD_REACTORS
330
3750
102
}
330
3750
100
AcDbXrecord
 10
0.0
 20
0.0
 30
0.0
  0
XRECORD
  5
376F
102
{ACAD_REACTORS
330
3750
102
}
330
3750
100
AcDbXrecord
 10
0.0
 20
0.0
 30
0.0
  0
XRECORD
  5
3770
102
{ACAD_REACTORS
330
3750
102
}
330
3750
100
AcDbXrecord
 10
0.0
 20
0.0
 30
0.0
  0
LAYER_INDEX
  5
3746
102
{ACAD_REACTORS
330
3745
102
}
330
3745
100
AcDbIndex
 40
2453151.574482222
100
AcDbLayerIndex
  8
0
360
3747
 90
        0
  8
AM_0
360
3748
 90
       44
  8
AM_7
360
3749
 90
        1
  8
AM_11
360
374A
 90
       17
  8
AM_5
360
374B
 90
        5
  8
Defpoints
360
374C
 90
        0
  8
AM_6
360
374D
 90
        1
  8
AM_CL
360
374E
 90
        0
  0
XRECORD
  5
2D
102
{ACAD_REACTORS
330
2C
102
}
330
2C
100
AcDbXrecord
  1
VERSION
140
15.0
  1
PRODUCT
  2
AutoCAD Mechanical 2000
  0
IDBUFFER
  5
3747
330
0
100
AcDbIdBuffer
  0
IDBUFFER
  5
3748
330
0
100
AcDbIdBuffer
330
364E
330
364F
330
3650
330
3651
330
3652
330
3653
330
3654
330
3655
330
3656
330
3659
330
365A
330
365D
330
365E
330
365F
330
3660
330
3661
330
3662
330
3663
330
3664
330
3665
330
3666
330
3667
330
3668
330
3669
330
366A
330
366B
330
366C
330
366D
330
C1D
330
C20
330
24BE
330
2572
330
2C0E
330
2C72
330
2C73
330
2FB7
330
2FB9
330
324C
330
325C
330
325D
330
325E
330
3273
330
327F
330
364D
  0
IDBUFFER
  5
3749
330
0
100
AcDbIdBuffer
330
23EF
  0
IDBUFFER
  5
374A
330
0
100
AcDbIdBuffer
330
365C
330
24B7
330
24B8
330
24B9
330
24C7
330
24C8
330
24D4
330
24D5
330
24E6
330
24E7
330
2BF3
330
2BF5
330
3281
330
3282
330
3657
330
3658
330
365B
  0
IDBUFFER
  5
374B
330
0
100
AcDbIdBuffer
330
CC6
330
2069
330
2C81
330
2D60
330
324F
  0
IDBUFFER
  5
374C
330
0
100
AcDbIdBuffer
  0
IDBUFFER
  5
374D
330
0
100
AcDbIdBuffer
330
19BD
  0
IDBUFFER
  5
374E
330
0
100
AcDbIdBuffer
  0
ENDSEC
  0
EOF
