  0
SECTION
  2
HEADER
  9
$ACADVER
  1
AC1014
  9
$ACADMAINTVER
 70
     9
  9
$DWGCODEPAGE
  3
ANSI_932
  9
$INSBASE
 10
0.0
 20
0.0
 30
0.0
  9
$EXTMIN
 10
-181.3000009999996
 20
-52.500003054481
 30
-0.00000001
  9
$EXTMAX
 10
25.03213015903705
 20
24.46219447292548
 30
0.00000001
  9
$LIMMIN
 10
-193.2269806945005
 20
-81.94180891199506
  9
$LIMMAX
 10
48.7100153649419
 20
56.53896808917415
  9
$ORTHOMODE
 70
     0
  9
$REGENMODE
 70
     1
  9
$FILLMODE
 70
     1
  9
$QTEXTMODE
 70
     0
  9
$MIRRTEXT
 70
     0
  9
$DRAGMODE
 70
     2
  9
$LTSCALE
 40
1.0
  9
$OSMODE
 70
    55
  9
$ATTMODE
 70
     1
  9
$TEXTSIZE
 40
2.5
  9
$TRACEWID
 40
1.0
  9
$TEXTSTYLE
  7
STANDARD
  9
$CLAYER
  8
AM_0
  9
$CELTYPE
  6
BYLAYER
  9
$CECOLOR
 62
   256
  9
$CELTSCALE
 40
1.0
  9
$DELOBJ
 70
     1
  9
$DISPSILH
 70
     0
  9
$DIMSCALE
 40
1.0
  9
$DIMASZ
 40
2.5
  9
$DIMEXO
 40
1.0
  9
$DIMDLI
 40
12.0
  9
$DIMRND
 40
0.0
  9
$DIMDLE
 40
0.0
  9
$DIMEXE
 40
1.0
  9
$DIMTP
 40
0.1
  9
$DIMTM
 40
0.1
  9
$DIMTXT
 40
3.2
  9
$DIMCEN
 40
0.0
  9
$DIMTSZ
 40
0.0
  9
$DIMTOL
 70
     0
  9
$DIMLIM
 70
     0
  9
$DIMTIH
 70
     0
  9
$DIMTOH
 70
     0
  9
$DIMSE1
 70
     0
  9
$DIMSE2
 70
     0
  9
$DIMTAD
 70
     3
  9
$DIMZIN
 70
     8
  9
$DIMBLK
  1
OPEN30
  9
$DIMASO
 70
     1
  9
$DIMSHO
 70
     1
  9
$DIMPOST
  1

  9
$DIMAPOST
  1
"
  9
$DIMALT
 70
     0
  9
$DIMALTD
 70
     2
  9
$DIMALTF
 40
0.0393701
  9
$DIMLFAC
 40
1.0
  9
$DIMTOFL
 70
     1
  9
$DIMTVP
 40
0.0
  9
$DIMTIX
 70
     0
  9
$DIMSOXD
 70
     0
  9
$DIMSAH
 70
     0
  9
$DIMBLK1
  1

  9
$DIMBLK2
  1

  9
$DIMSTYLE
  2
AM_JIS
  9
$DIMCLRD
 70
   256
  9
$DIMCLRE
 70
   256
  9
$DIMCLRT
 70
     2
  9
$DIMTFAC
 40
0.71
  9
$DIMGAP
 40
1.5
  9
$DIMJUST
 70
     0
  9
$DIMSD1
 70
     0
  9
$DIMSD2
 70
     0
  9
$DIMTOLJ
 70
     0
  9
$DIMTZIN
 70
     0
  9
$DIMALTZ
 70
     0
  9
$DIMALTTZ
 70
     0
  9
$DIMFIT
 70
     3
  9
$DIMUPT
 70
     0
  9
$DIMUNIT
 70
     2
  9
$DIMDEC
 70
     3
  9
$DIMTDEC
 70
     3
  9
$DIMALTU
 70
     2
  9
$DIMALTTD
 70
     2
  9
$DIMTXSTY
  7
ASAMI
  9
$DIMAUNIT
 70
     0
  9
$LUNITS
 70
     2
  9
$LUPREC
 70
     2
  9
$SKETCHINC
 40
1.0
  9
$FILLETRAD
 40
2.5
  9
$AUNITS
 70
     0
  9
$AUPREC
 70
     0
  9
$MENU
  1
.
  9
$ELEVATION
 40
0.0
  9
$PELEVATION
 40
0.0
  9
$THICKNESS
 40
0.0
  9
$LIMCHECK
 70
     0
  9
$BLIPMODE
 70
     0
  9
$CHAMFERA
 40
0.25
  9
$CHAMFERB
 40
0.25
  9
$CHAMFERC
 40
20.0
  9
$CHAMFERD
 40
0.0
  9
$SKPOLY
 70
     0
  9
$TDCREATE
 40
2452800.443498622
  9
$TDUPDATE
 40
2453151.665207233
  9
$TDINDWG
 40
0.0717297917
  9
$TDUSRTIMER
 40
0.0717297917
  9
$USRTIMER
 70
     1
  9
$ANGBASE
 50
0.0
  9
$ANGDIR
 70
     0
  9
$PDMODE
 70
     3
  9
$PDSIZE
 40
0.0
  9
$PLINEWID
 40
0.0
  9
$COORDS
 70
     1
  9
$SPLFRAME
 70
     0
  9
$SPLINETYPE
 70
     6
  9
$SPLINESEGS
 70
     8
  9
$ATTDIA
 70
     1
  9
$ATTREQ
 70
     1
  9
$HANDLING
 70
 12289
  9
$HANDSEED
  5
3441
  9
$SURFTAB1
 70
     6
  9
$SURFTAB2
 70
     6
  9
$SURFTYPE
 70
     6
  9
$SURFU
 70
     6
  9
$SURFV
 70
     6
  9
$UCSNAME
  2

  9
$UCSORG
 10
0.0
 20
0.0
 30
0.0
  9
$UCSXDIR
 10
1.0
 20
0.0000000000000027
 30
0.0
  9
$UCSYDIR
 10
-0.0000000000000027
 20
1.0
 30
0.0
  9
$PUCSNAME
  2

  9
$PUCSORG
 10
0.0
 20
0.0
 30
0.0
  9
$PUCSXDIR
 10
1.0
 20
0.0
 30
0.0
  9
$PUCSYDIR
 10
0.0
 20
1.0
 30
0.0
  9
$USERI1
 70
     0
  9
$USERI2
 70
     0
  9
$USERI3
 70
     0
  9
$USERI4
 70
     0
  9
$USERI5
 70
     0
  9
$USERR1
 40
0.0
  9
$USERR2
 40
0.0
  9
$USERR3
 40
0.0
  9
$USERR4
 40
0.0
  9
$USERR5
 40
0.0
  9
$WORLDVIEW
 70
     1
  9
$SHADEDGE
 70
     3
  9
$SHADEDIF
 70
    70
  9
$TILEMODE
 70
     1
  9
$MAXACTVP
 70
    64
  9
$PINSBASE
 10
0.0
 20
0.0
 30
0.0
  9
$PLIMCHECK
 70
     0
  9
$PEXTMIN
 10
1.000000000000000E+20
 20
1.000000000000000E+20
 30
1.000000000000000E+20
  9
$PEXTMAX
 10
-1.000000000000000E+20
 20
-1.000000000000000E+20
 30
-1.000000000000000E+20
  9
$PLIMMIN
 10
0.0
 20
0.0
  9
$PLIMMAX
 10
841.0
 20
594.0
  9
$UNITMODE
 70
     0
  9
$VISRETAIN
 70
     1
  9
$PLINEGEN
 70
     0
  9
$PSLTSCALE
 70
     0
  9
$TREEDEPTH
 70
  3020
  9
$PICKSTYLE
 70
     0
  9
$CMLSTYLE
  2
STANDARD
  9
$CMLJUST
 70
     0
  9
$CMLSCALE
 40
20.0
  9
$PROXYGRAPHICS
 70
     1
  9
$MEASUREMENT
 70
     1
  0
ENDSEC
  0
SECTION
  2
CLASSES
  0
CLASS
  1
ACDBDICTIONARYWDFLT
  2
AcDbDictionaryWithDefault
  3
AutoCAD 2000
 90
        0
280
     0
281
     0
  0
CLASS
  1
ACDBPLACEHOLDER
  2
AcDbPlaceHolder
  3
AutoCAD 2000
 90
        0
280
     0
281
     0
  0
CLASS
  1
LAYOUT
  2
AcDbLayout
  3
AutoCAD 2000
 90
        0
280
     0
281
     0
  0
CLASS
  1
AMGSETTINGSOBJ
  2
AmgSettingsObj
  3
"AcadM|Product Description: AutoCAD Mechanical 2000|Company: Autodesk"
 90
        0
280
     0
281
     0
  0
CLASS
  1
ACME_DOCUMENT
  2
AcMeDbDoc
  3
AcMeServices
 90
        0
280
     0
281
     0
  0
CLASS
  1
ACMESCOPE
  2
AcMeScope
  3
AcMeServices
 90
        0
280
     0
281
     0
  0
CLASS
  1
ACMECOMMANDHISTORY
  2
AcMeCommandHistory
  3
AcMeServices
 90
        0
280
     0
281
     0
  0
CLASS
  1
DICTIONARYVAR
  2
AcDbDictionaryVar
  3
AutoCAD 2000
 90
        0
280
     0
281
     0
  0
CLASS
  1
ACIMSYSVARMAN
  2
AcImSysVarManager
  3
AcMeServices
 90
        0
280
     0
281
     0
  0
CLASS
  1
ACIMREALSYSVAR
  2
AcImRealSysVar
  3
AcMeServices
 90
        0
280
     0
281
     0
  0
CLASS
  1
ACIMINTSYSVAR
  2
AcImIntSysVar
  3
AcMeServices
 90
        0
280
     0
281
     0
  0
CLASS
  1
ACMEDRAWINGMAN
  2
AcMeDrawingMan
  3
AcMeServices
 90
        0
280
     0
281
     0
  0
CLASS
  1
ACMEVIEW
  2
AcMeView
  3
AcMeServices
 90
        0
280
     0
281
     0
  0
CLASS
  1
ACDBENTITYCACHE
  2
AcMeEntityCache
  3
AcMeServices
 90
        0
280
     0
281
     0
  0
CLASS
  1
GSMANAGER
  2
AcMeGSManager
  3
AcMeServices
 90
        0
280
     0
281
     0
  0
CLASS
  1
AmdtInternalReactor
  2
AmdtInternalReactor
  3
AcMeServices
 90
        0
280
     0
281
     0
  0
CLASS
  1
ACMESTATEMGR
  2
AcMeStateMgr
  3
AcMeServices
 90
        0
280
     0
281
     0
  0
CLASS
  1
ACME_DATABASE
  2
AcMeDbDatabase
  3
AcMeServices
 90
        0
280
     0
281
     0
  0
CLASS
  1
ACRFINSADJUSTERMGR
  2
AcRfInsAdjusterMgr
  3
AcMeServices
 90
        0
280
     0
281
     0
  0
CLASS
  1
ACMDATADICTIONARY
  2
AcmDataDictionary
  3
"AcmSymBB|Product Description: AutoCAD Mechanical 2000|Company: Autodesk"
 90
        0
280
     0
281
     0
  0
CLASS
  1
ACMDATAENTRYBLOCK
  2
AcmDataEntryBlock
  3
"AcmSymBB|Product Description: AutoCAD Mechanical 2000|Company: Autodesk"
 90
        0
280
     0
281
     0
  0
CLASS
  1
AMGOBJPROPCFG
  2
AmgObjPropCfg
  3
"AmgLay|Product Description: AutoCAD Mechanical 2000|Company: Autodesk"
 90
        1
280
     0
281
     0
  0
CLASS
  1
ACAMGFILTERDAT
  2
AcAmgFilterDat
  3
"AcadM|Product Description: AutoCAD Mechanical 2000|Company: Autodesk"
 90
        0
280
     0
281
     0
  0
CLASS
  1
LAYER_INDEX
  2
AcDbLayerIndex
  3
AutoCAD 2000
 90
        0
280
     0
281
     0
  0
CLASS
  1
IDBUFFER
  2
AcDbIdBuffer
  3
AutoCAD 2000
 90
        0
280
     0
281
     0
  0
CLASS
  1
ACIMSTRSYSVAR
  2
AcImStrSysVar
  3
AcMeServices
 90
        0
280
     0
281
     0
  0
CLASS
  1
ACMSTANDARDJIS
  2
AcmStandardJIS
  3
"AcmSymBB|Product Description: AutoCAD Mechanical 2000|Company: Autodesk"
 90
        0
280
     0
281
     0
  0
CLASS
  1
ACMSURFSTANDARDJIS
  2
AcmSurfTextStdJIS
  3
"AcmSymBB|Product Description: AutoCAD Mechanical 2000|Company: Autodesk"
 90
        0
280
     0
281
     0
  0
CLASS
  1
ACMFCFSTANDARDJIS
  2
AcmFCFStdJIS
  3
"AcmSymBB|Product Description: AutoCAD Mechanical 2000|Company: Autodesk"
 90
        0
280
     0
281
     0
  0
CLASS
  1
ACMWELDSTANDARDJIS
  2
AcmWeldingStdJIS
  3
"AcmSymBB|Product Description: AutoCAD Mechanical 2000|Company: Autodesk"
 90
        0
280
     0
281
     0
  0
CLASS
  1
ACMIDSTANDARDJIS
  2
AcmIdStdJIS
  3
"AcmSymBB|Product Description: AutoCAD Mechanical 2000|Company: Autodesk"
 90
        0
280
     0
281
     0
  0
CLASS
  1
ACMDATUMSTANDARDJIS
  2
AcmDatumStdJIS
  3
"AcmSymBB|Product Description: AutoCAD Mechanical 2000|Company: Autodesk"
 90
        0
280
     0
281
     0
  0
CLASS
  1
ACMBOMSTANDARDJIS
  2
AcmBOMStdJIS
  3
"AcmSymBB|Product Description: AutoCAD Mechanical 2000|Company: Autodesk"
 90
        0
280
     0
281
     0
  0
CLASS
  1
ACMSTANDARDANSI
  2
AcmStandardANSI
  3
"AcmSymBB|Product Description: AutoCAD Mechanical 2000|Company: Autodesk"
 90
        0
280
     0
281
     0
  0
CLASS
  1
ACMSURFSTANDARDANSI
  2
AcmSurfTextStdANSI
  3
"AcmSymBB|Product Description: AutoCAD Mechanical 2000|Company: Autodesk"
 90
        0
280
     0
281
     0
  0
CLASS
  1
ACMFCFSTANDARDANSI
  2
AcmFCFStdANSI
  3
"AcmSymBB|Product Description: AutoCAD Mechanical 2000|Company: Autodesk"
 90
        0
280
     0
281
     0
  0
CLASS
  1
ACMWELDSTANDARDANSI
  2
AcmWeldingStdANSI
  3
"AcmSymBB|Product Description: AutoCAD Mechanical 2000|Company: Autodesk"
 90
        0
280
     0
281
     0
  0
CLASS
  1
ACMIDSTANDARDANSI
  2
AcmIdStdANSI
  3
"AcmSymBB|Product Description: AutoCAD Mechanical 2000|Company: Autodesk"
 90
        0
280
     0
281
     0
  0
CLASS
  1
ACMDATUMSTANDARDANSI
  2
AcmDatumStdANSI
  3
"AcmSymBB|Product Description: AutoCAD Mechanical 2000|Company: Autodesk"
 90
        0
280
     0
281
     0
  0
CLASS
  1
ACMBOMSTANDARDANSI
  2
AcmBOMStdANSI
  3
"AcmSymBB|Product Description: AutoCAD Mechanical 2000|Company: Autodesk"
 90
        0
280
     0
281
     0
  0
CLASS
  1
ACMSTANDARDBSI
  2
AcmStandardBSI
  3
"AcmSymBB|Product Description: AutoCAD Mechanical 2000|Company: Autodesk"
 90
        0
280
     0
281
     0
  0
CLASS
  1
ACMSURFSTANDARDBSI
  2
AcmSurfTextStdBSI
  3
"AcmSymBB|Product Description: AutoCAD Mechanical 2000|Company: Autodesk"
 90
        0
280
     0
281
     0
  0
CLASS
  1
ACMFCFSTANDARDBSI
  2
AcmFCFStdBSI
  3
"AcmSymBB|Product Description: AutoCAD Mechanical 2000|Company: Autodesk"
 90
        0
280
     0
281
     0
  0
CLASS
  1
ACMWELDSTANDARDBSI
  2
AcmWeldingStdBSI
  3
"AcmSymBB|Product Description: AutoCAD Mechanical 2000|Company: Autodesk"
 90
        0
280
     0
281
     0
  0
CLASS
  1
ACMIDSTANDARDBSI
  2
AcmIdStdBSI
  3
"AcmSymBB|Product Description: AutoCAD Mechanical 2000|Company: Autodesk"
 90
        0
280
     0
281
     0
  0
CLASS
  1
ACMDATUMSTANDARDBSI
  2
AcmDatumStdBSI
  3
"AcmSymBB|Product Description: AutoCAD Mechanical 2000|Company: Autodesk"
 90
        0
280
     0
281
     0
  0
CLASS
  1
ACMBOMSTANDARDBSI
  2
AcmBOMStdBSI
  3
"AcmSymBB|Product Description: AutoCAD Mechanical 2000|Company: Autodesk"
 90
        0
280
     0
281
     0
  0
CLASS
  1
LONG_TRANSACTION
  2
AcDbLongTransaction
  3
AutoCAD 2000
 90
        0
280
     0
281
     0
  0
CLASS
  1
LWPOLYLINE
  2
AcDbPolyline
  3
AutoCAD 2000
 90
        0
280
     0
281
     1
  0
CLASS
  1
HATCH
  2
AcDbHatch
  3
AutoCAD 2000
 90
        0
280
     0
281
     1
  0
CLASS
  1
XRECORD
  2
AcDbXrecord
  3
AutoCAD 2000
 90
        0
280
     0
281
     0
  0
ENDSEC
  0
SECTION
  2
TABLES
  0
TABLE
  2
VPORT
  5
8
330
0
100
AcDbSymbolTable
 70
     3
  0
VPORT
  5
340B
330
8
100
AcDbSymbolTableRecord
100
AcDbViewportTableRecord
  2
*ACTIVE
 70
     0
 10
0.0
 20
0.0
 11
1.0
 21
1.0
 12
-74.31396065865377
 22
-14.01679307152238
 13
0.0
 23
0.0
 14
2.5
 24
2.5
 15
10.0
 25
10.0
 16
0.0
 26
0.0
 36
1.0
 17
0.0
 27
0.0
 37
0.0
 40
137.330044708512
 41
1.56570841889117
 42
50.0
 43
0.0
 44
0.0
 50
0.0
 51
0.0
 71
     0
 72
   100
 73
     1
 74
     1
 75
     0
 76
     0
 77
     0
 78
     0
  0
ENDTAB
  0
TABLE
  2
LTYPE
  5
5
330
0
100
AcDbSymbolTable
 70
    10
  0
LTYPE
  5
14
330
5
100
AcDbSymbolTableRecord
100
AcDbLinetypeTableRecord
  2
BYBLOCK
 70
     0
  3

 72
    65
 73
     0
 40
0.0
  0
LTYPE
  5
15
330
5
100
AcDbSymbolTableRecord
100
AcDbLinetypeTableRecord
  2
BYLAYER
 70
     0
  3

 72
    65
 73
     0
 40
0.0
  0
LTYPE
  5
16
330
5
100
AcDbSymbolTableRecord
100
AcDbLinetypeTableRecord
  2
CONTINUOUS
 70
     0
  3
Solid line
 72
    65
 73
     0
 40
0.0
  0
LTYPE
  5
4B
330
5
100
AcDbSymbolTableRecord
100
AcDbLinetypeTableRecord
  2
AM_ISO02W050
 70
     0
  3
__ __ __ __ __ __ __ __ __ __ __ __ __ __ __
 72
    65
 73
     2
 40
7.5
 49
6.0
 74
     0
 49
-1.5
 74
     0
  0
LTYPE
  5
4C
330
5
100
AcDbSymbolTableRecord
100
AcDbLinetypeTableRecord
  2
AM_ISO08W050
 70
     0
  3
____ . ____ . ____ . ____ . ____ . ____ . ____
 72
    65
 73
     4
 40
18.0
 49
12.0
 74
     0
 49
-1.5
 74
     0
 49
3.0
 74
     0
 49
-1.5
 74
     0
  0
LTYPE
  5
4D
330
5
100
AcDbSymbolTableRecord
100
AcDbLinetypeTableRecord
  2
AM_ISO09W050
 70
     0
  3
_____ . . _____ . . _____ . . ____ .. ____
 72
    65
 73
     6
 40
22.5
 49
12.0
 74
     0
 49
-1.5
 74
     0
 49
3.0
 74
     0
 49
-1.5
 74
     0
 49
3.0
 74
     0
 49
-1.5
 74
     0
  0
LTYPE
  5
4E
330
5
100
AcDbSymbolTableRecord
100
AcDbLinetypeTableRecord
  2
AMCONSTR
 70
     0
  3
_______________________
 72
    65
 73
     2
 40
9999.0
 49
9999.0
 74
     0
 49
0.0
 74
     0
  0
LTYPE
  5
4F
330
5
100
AcDbSymbolTableRecord
100
AcDbLinetypeTableRecord
  2
AM_ISO02W050X2
 70
     0
  3
 _ _ _ _ _ _ _ _ _ _ _ _
 72
    65
 73
     2
 40
3.75
 49
3.0
 74
     0
 49
-0.75
 74
     0
  0
LTYPE
  5
50
330
5
100
AcDbSymbolTableRecord
100
AcDbLinetypeTableRecord
  2
AM_ISO08W050X2
 70
     0
  3
__ . __ . __ . __ . __ . __
 72
    65
 73
     4
 40
9.0
 49
6.0
 74
     0
 49
-0.75
 74
     0
 49
1.5
 74
     0
 49
-0.75
 74
     0
  0
LTYPE
  5
53
330
5
100
AcDbSymbolTableRecord
100
AcDbLinetypeTableRecord
  2
AMZIGZAG
 70
     0
  3
/\/-/\/-/\/-/\/-/\/-/\/
 72
    65
 73
     2
 40
11.00009999999999
 49
0.0001
 74
     4
 75
   135
340
52
 46
0.04
 50
0.0
 44
0.0
 45
0.0
 49
-11.0
 74
     0
  0
LTYPE
  5
166
330
5
100
AcDbSymbolTableRecord
100
AcDbLinetypeTableRecord
  2
ACJISTGL
 70
     0
  3
_ _ _ _ _
 72
    65
 73
     2
 40
3.0
 49
2.0
 74
     0
 49
-1.0
 74
     0
  0
LTYPE
  5
26A
330
5
100
AcDbSymbolTableRecord
100
AcDbLinetypeTableRecord
  2
ACJISTGB
 70
     0
  3
__ . . __ . .
 72
    65
 73
     6
 40
9.0
 49
4.0
 74
     0
 49
-1.0
 74
     0
 49
1.0
 74
     0
 49
-1.0
 74
     0
 49
1.0
 74
     0
 49
-1.0
 74
     0
  0
ENDTAB
  0
TABLE
  2
LAYER
  5
2
330
0
100
AcDbSymbolTable
 70
     8
  0
LAYER
  5
10
330
2
100
AcDbSymbolTableRecord
100
AcDbLayerTableRecord
  2
0
 70
     0
 62
     7
  6
CONTINUOUS
  0
LAYER
  5
3F9
330
2
100
AcDbSymbolTableRecord
100
AcDbLayerTableRecord
  2
AM_0
 70
     0
 62
     7
  6
CONTINUOUS
  0
LAYER
  5
C7C
330
2
100
AcDbSymbolTableRecord
100
AcDbLayerTableRecord
  2
AM_7
 70
     0
 62
     4
  6
AM_ISO08W050
  0
LAYER
  5
C97
330
2
100
AcDbSymbolTableRecord
100
AcDbLayerTableRecord
  2
AM_11
 70
     0
 62
     3
  6
AM_ISO09W050
  0
LAYER
  5
CC5
330
2
100
AcDbSymbolTableRecord
100
AcDbLayerTableRecord
  2
AM_5
 70
     0
 62
     3
  6
CONTINUOUS
  0
LAYER
  5
CC7
330
2
100
AcDbSymbolTableRecord
100
AcDbLayerTableRecord
  2
DEFPOINTS
 70
     0
 62
     7
  6
CONTINUOUS
  0
LAYER
  5
19BC
330
2
100
AcDbSymbolTableRecord
100
AcDbLayerTableRecord
  2
AM_6
 70
     0
 62
     2
  6
CONTINUOUS
  0
LAYER
  5
326B
330
2
100
AcDbSymbolTableRecord
100
AcDbLayerTableRecord
  2
AM_CL
 70
     0
 62
     1
  6
AMCONSTR
  0
ENDTAB
  0
TABLE
  2
STYLE
  5
3
330
0
100
AcDbSymbolTable
 70
     5
  0
STYLE
  5
11
330
3
100
AcDbSymbolTableRecord
100
AcDbTextStyleTableRecord
  2
STANDARD
 70
     0
 40
0.0
 41
1.0
 50
0.0
 71
     0
 42
2.5
  3
simplex.shx
  4
EXTFONT.SHX
  0
STYLE
  5
52
330
3
100
AcDbSymbolTableRecord
100
AcDbTextStyleTableRecord
  2

 70
     1
 40
0.0
 41
1.0
 50
0.0
 71
     0
 42
2.5
  3
ltypeshp.shx
  4

  0
STYLE
  5
6B
330
3
100
AcDbSymbolTableRecord
100
AcDbTextStyleTableRecord
  2
ASAMI
 70
     0
 40
0.0
 41
1.0
 50
0.0
 71
     0
 42
2.5
  3
simplex.shx
  4
EXTFONT.SHX
  0
STYLE
  5
262
330
3
100
AcDbSymbolTableRecord
100
AcDbTextStyleTableRecord
  2
ACJISTS
 70
     0
 40
1.0
 41
1.0
 50
0.0
 71
     0
 42
2.5
  3
simplex.shx
  4
bigfont.shx
  0
STYLE
  5
269
330
3
100
AcDbSymbolTableRecord
100
AcDbTextStyleTableRecord
  2
ACJISGDT
 70
     0
 40
0.0
 41
1.0
 50
0.0
 71
     0
 42
2.5
  3
amgdtans.shx
  4

  0
ENDTAB
  0
TABLE
  2
VIEW
  5
6
330
0
100
AcDbSymbolTable
 70
     0
  0
ENDTAB
  0
TABLE
  2
UCS
  5
7
330
0
100
AcDbSymbolTable
 70
     0
  0
ENDTAB
  0
TABLE
  2
APPID
  5
9
330
0
100
AcDbSymbolTable
 70
    16
  0
APPID
  5
12
330
9
100
AcDbSymbolTableRecord
100
AcDbRegAppTableRecord
  2
ACAD
 70
     0
  0
APPID
  5
30
330
9
100
AcDbSymbolTableRecord
100
AcDbRegAppTableRecord
  2
MCAD_NO_VIS
 70
     0
  0
APPID
  5
31
330
9
100
AcDbSymbolTableRecord
100
AcDbRegAppTableRecord
  2
ACAD_TEMP_GRAPHIC
 70
     0
  0
APPID
  5
2C2
330
9
100
AcDbSymbolTableRecord
100
AcDbRegAppTableRecord
  2
GENIUS_GENDTOL_13
 70
     0
  0
APPID
  5
339
330
9
100
AcDbSymbolTableRecord
100
AcDbRegAppTableRecord
  2
GENIUS_GENODEF_13
 70
     0
  0
APPID
  5
33A
330
9
100
AcDbSymbolTableRecord
100
AcDbRegAppTableRecord
  2
GENIUS_GENOBJ-N-RSBK_13
 70
     0
  0
APPID
  5
33B
330
9
100
AcDbSymbolTableRecord
100
AcDbRegAppTableRecord
  2
GENIUS_GENOBJ-N-LIB_13
 70
     0
  0
APPID
  5
33C
330
9
100
AcDbSymbolTableRecord
100
AcDbRegAppTableRecord
  2
GENIUS_GENSCALE_13
 70
     0
  0
APPID
  5
378
330
9
100
AcDbSymbolTableRecord
100
AcDbRegAppTableRecord
  2
GENIUS_GENDIMSH_14
 70
     0
  0
APPID
  5
C82
330
9
100
AcDbSymbolTableRecord
100
AcDbRegAppTableRecord
  2
GENIUS_GENOBJ-N-CRS_13
 70
     0
  0
APPID
  5
C83
330
9
100
AcDbSymbolTableRecord
100
AcDbRegAppTableRecord
  2
GENIUS_GENOENT_13
 70
     0
  0
APPID
  5
C84
330
9
100
AcDbSymbolTableRecord
100
AcDbRegAppTableRecord
  2
GENIUS_GENOREF_13
 70
     0
  0
APPID
  5
C85
330
9
100
AcDbSymbolTableRecord
100
AcDbRegAppTableRecord
  2
GENIUS_GENOLIS_13
 70
     0
  0
APPID
  5
CA0
330
9
100
AcDbSymbolTableRecord
100
AcDbRegAppTableRecord
  2
GENIUS_GENOBJ-N-CEN_13
 70
     0
  0
APPID
  5
1E1E
330
9
100
AcDbSymbolTableRecord
100
AcDbRegAppTableRecord
  2
GENIUS_GENFIL_13
 70
     0
  0
APPID
  5
1E1F
330
9
100
AcDbSymbolTableRecord
100
AcDbRegAppTableRecord
  2
GENIUS_GENOBJ-N-CHA_13
 70
     0
  0
ENDTAB
  0
TABLE
  2
DIMSTYLE
  5
A
330
0
100
AcDbSymbolTable
 70
     9
  0
DIMSTYLE
105
58
330
A
100
AcDbSymbolTableRecord
100
AcDbDimStyleTableRecord
  2
AM_JIS
 70
     0
  3

  4
"
  5
OPEN30
  6

  7

 40
1.0
 41
2.5
 42
1.0
 43
12.0
 44
1.0
 45
0.0
 46
0.0
 47
0.1
 48
0.1
140
3.2
141
0.0
142
0.0
143
0.0393701
144
1.0
145
0.0
146
0.71
147
1.5
 71
     0
 72
     0
 73
     0
 74
     0
 75
     0
 76
     0
 77
     3
 78
     8
170
     0
171
     2
172
     1
173
     0
174
     0
175
     0
176
   256
177
   256
178
     2
270
     2
271
     3
272
     3
273
     2
274
     2
340
6B
275
     0
280
     0
281
     0
282
     0
283
     0
284
     0
285
     0
286
     0
287
     3
288
     0
  0
DIMSTYLE
105
5F
330
A
100
AcDbSymbolTableRecord
100
AcDbDimStyleTableRecord
  2
AM_JIS$3
 70
     0
  3

  4
"
  5
OPEN30
  6

  7

 40
1.0
 41
2.5
 42
1.0
 43
10.0
 44
1.0
 45
0.0
 46
0.0
 47
0.1
 48
0.1
140
3.2
141
0.0
142
0.0
143
0.0393701
144
1.0
145
0.0
146
0.71
147
1.5
 71
     0
 72
     0
 73
     0
 74
     1
 75
     0
 76
     0
 77
     3
 78
     8
170
     0
171
     2
172
     0
173
     0
174
     0
175
     0
176
   256
177
   256
178
     2
270
     2
271
     2
272
     3
273
     2
274
     2
340
6B
275
     0
280
     0
281
     0
282
     0
283
     0
284
     0
285
     0
286
     0
287
     0
288
     1
  0
DIMSTYLE
105
60
330
A
100
AcDbSymbolTableRecord
100
AcDbDimStyleTableRecord
  2
AM_JIS$4
 70
     0
  3

  4
"
  5
OPEN30
  6

  7

 40
1.0
 41
2.5
 42
1.0
 43
10.0
 44
1.0
 45
0.0
 46
0.0
 47
0.1
 48
0.1
140
3.2
141
0.0
142
0.0
143
0.0393701
144
1.0
145
0.0
146
0.71
147
1.5
 71
     0
 72
     0
 73
     0
 74
     1
 75
     0
 76
     0
 77
     3
 78
     8
170
     0
171
     2
172
     0
173
     0
174
     0
175
     0
176
   256
177
   256
178
     2
270
     2
271
     2
272
     3
273
     2
274
     2
340
6B
275
     0
280
     0
281
     0
282
     0
283
     0
284
     0
285
     0
286
     0
287
     0
288
     1
  0
DIMSTYLE
105
61
330
A
100
AcDbSymbolTableRecord
100
AcDbDimStyleTableRecord
  2
AM_JIS$6
 70
     0
  3

  4
"
  5
OPEN30
  6

  7

 40
1.0
 41
2.5
 42
1.0
 43
10.0
 44
1.0
 45
0.0
 46
0.0
 47
0.1
 48
0.1
140
3.2
141
0.0
142
0.0
143
0.0393701
144
1.0
145
0.0
146
0.71
147
1.5
 71
     0
 72
     0
 73
     0
 74
     0
 75
     0
 76
     0
 77
     0
 78
     8
170
     0
171
     2
172
     1
173
     0
174
     0
175
     0
176
   256
177
   256
178
     2
270
     2
271
     2
272
     2
273
     2
274
     2
340
6B
275
     0
280
     0
281
     0
282
     0
283
     0
284
     0
285
     0
286
     0
287
     3
288
     0
  0
DIMSTYLE
105
62
330
A
100
AcDbSymbolTableRecord
100
AcDbDimStyleTableRecord
  2
AM_JIS$7
 70
     0
  3

  4
"
  5
OPEN30
  6

  7

 40
1.0
 41
2.5
 42
1.0
 43
10.0
 44
1.0
 45
0.0
 46
0.0
 47
0.1
 48
0.1
140
3.2
141
0.0
142
0.0
143
0.0393701
144
1.0
145
0.0
146
0.71
147
1.5
 71
     0
 72
     0
 73
     0
 74
     0
 75
     0
 76
     0
 77
     3
 78
     8
170
     0
171
     2
172
     1
173
     0
174
     0
175
     0
176
   256
177
   256
178
     2
270
     2
271
     2
272
     3
273
     2
274
     2
340
6B
275
     0
280
     0
281
     0
282
     0
283
     0
284
     0
285
     0
286
     0
287
     3
288
     0
  0
DIMSTYLE
105
63
330
A
100
AcDbSymbolTableRecord
100
AcDbDimStyleTableRecord
  2
AM_JIS$SF
 70
     0
  3

  4
"
  5
OPEN30
  6

  7

 40
1.0
 41
2.5
 42
1.0
 43
10.0
 44
1.0
 45
0.0
 46
0.0
 47
0.1
 48
0.1
140
3.2
141
0.0
142
0.0
143
0.0393701
144
1.0
145
0.0
146
0.71
147
1.5
 71
     0
 72
     0
 73
     0
 74
     0
 75
     1
 76
     1
 77
     3
 78
     8
170
     0
171
     2
172
     1
173
     0
174
     0
175
     0
176
   256
177
   256
178
     2
270
     2
271
     2
272
     2
273
     2
274
     2
340
6B
275
     0
280
     0
281
     0
282
     0
283
     0
284
     0
285
     0
286
     0
287
     3
288
     0
  0
DIMSTYLE
105
68
330
A
100
AcDbSymbolTableRecord
100
AcDbDimStyleTableRecord
  2
AM_JIS$SH
 70
     0
  3

  4
"
  5

  6
GENAXEH
  7
OPEN30
 40
1.0
 41
2.5
 42
1.0
 43
10.0
 44
1.0
 45
0.0
 46
0.0
 47
0.1
 48
0.1
140
3.2
141
0.0
142
0.0
143
0.0393701
144
2.0
145
0.0
146
0.71
147
1.5
 71
     0
 72
     0
 73
     0
 74
     0
 75
     1
 76
     1
 77
     3
 78
     8
170
     0
171
     2
172
     1
173
     1
174
     0
175
     0
176
   256
177
   256
178
     2
270
     2
271
     2
272
     2
273
     2
274
     2
340
6B
275
     0
280
     0
281
     0
282
     0
283
     0
284
     0
285
     0
286
     0
287
     3
288
     0
  0
DIMSTYLE
105
B34
102
{ACAD_REACTORS
330
32CB
102
}
330
A
100
AcDbSymbolTableRecord
100
AcDbDimStyleTableRecord
  2
AM_JIS$2
 70
     0
  3

  4
"
  5
OPEN30
  6

  7

 40
1.0
 41
2.5
 42
1.0
 43
12.0
 44
1.0
 45
0.0
 46
0.0
 47
0.1
 48
0.1
140
3.2
141
0.0
142
0.0
143
0.0393701
144
1.0
145
0.0
146
0.71
147
1.5
 71
     0
 72
     0
 73
     0
 74
     0
 75
     0
 76
     0
 77
     3
 78
     8
170
     0
171
     2
172
     1
173
     0
174
     0
175
     0
176
   256
177
   256
178
     2
270
     2
271
     3
272
     3
273
     2
274
     2
340
6B
275
     0
280
     0
281
     0
282
     0
283
     0
284
     0
285
     0
286
     0
287
     3
288
     0
  0
DIMSTYLE
105
BA5
102
{ACAD_REACTORS
330
CC6
330
DF5
330
2216
330
3189
102
}
330
A
100
AcDbSymbolTableRecord
100
AcDbDimStyleTableRecord
  2
AM_JIS$0
 70
     0
  3

  4
"
  5
OPEN30
  6

  7

 40
1.0
 41
2.5
 42
0.0
 43
10.0
 44
1.0
 45
0.0
 46
0.0
 47
0.1
 48
0.1000000001
140
3.799999999999999
141
0.0
142
0.0
143
0.0393701
144
1.0
145
0.0
146
0.71
147
1.5
 71
     0
 72
     0
 73
     0
 74
     0
 75
     0
 76
     0
 77
     3
 78
     1
170
     0
171
     2
172
     1
173
     0
174
     0
175
     0
176
     3
177
     3
178
     2
270
     2
271
     2
272
     2
273
     2
274
     2
340
11
275
     1
280
     0
281
     0
282
     0
283
     0
284
     8
285
     0
286
     0
287
     0
288
     0
  0
ENDTAB
  0
TABLE
  2
BLOCK_RECORD
  5
1
330
0
100
AcDbSymbolTable
 70
    10
  0
BLOCK_RECORD
  5
1F
102
{ACAD_XDICTIONARY
360
74
102
}
330
1
100
AcDbSymbolTableRecord
100
AcDbBlockTableRecord
  2
*MODEL_SPACE
  0
BLOCK_RECORD
  5
101
102
{ACAD_XDICTIONARY
360
3434
102
}
330
1
100
AcDbSymbolTableRecord
100
AcDbBlockTableRecord
  2
*PAPER_SPACE
  0
BLOCK_RECORD
  5
59
330
1
100
AcDbSymbolTableRecord
100
AcDbBlockTableRecord
  2
_OPEN30
  0
BLOCK_RECORD
  5
64
330
1
100
AcDbSymbolTableRecord
100
AcDbBlockTableRecord
  2
GENAXEH
  0
BLOCK_RECORD
  5
CC8
330
1
100
AcDbSymbolTableRecord
100
AcDbBlockTableRecord
  2
*D5
  0
BLOCK_RECORD
  5
DF6
330
1
100
AcDbSymbolTableRecord
100
AcDbBlockTableRecord
  2
*D6
  0
BLOCK_RECORD
  5
2217
330
1
100
AcDbSymbolTableRecord
100
AcDbBlockTableRecord
  2
*D7
  0
BLOCK_RECORD
  5
318A
330
1
100
AcDbSymbolTableRecord
100
AcDbBlockTableRecord
  2
*D8
  0
BLOCK_RECORD
  5
32CC
330
1
100
AcDbSymbolTableRecord
100
AcDbBlockTableRecord
  2
*D9
  0
ENDTAB
  0
ENDSEC
  0
SECTION
  2
BLOCKS
  0
BLOCK
  5
20
330
1F
100
AcDbEntity
  8
0
100
AcDbBlockBegin
  2
*MODEL_SPACE
 70
     0
 10
0.0
 20
0.0
 30
0.0
  3
*MODEL_SPACE
  1

  0
ENDBLK
  5
21
330
1F
100
AcDbEntity
  8
0
100
AcDbBlockEnd
  0
BLOCK
  5
103
330
101
100
AcDbEntity
 67
     1
  8
0
100
AcDbBlockBegin
  2
*PAPER_SPACE
 70
     0
 10
0.0
 20
0.0
 30
0.0
  3
*PAPER_SPACE
  1

  0
ENDBLK
  5
104
330
101
100
AcDbEntity
 67
     1
  8
0
100
AcDbBlockEnd
  0
BLOCK
  5
5D
330
59
100
AcDbEntity
  8
0
100
AcDbBlockBegin
  2
_OPEN30
 70
     0
 10
0.0
 20
0.0
 30
0.0
  3
_OPEN30
  1

  0
LINE
  5
5A
330
59
100
AcDbEntity
  8
0
 62
     0
100
AcDbLine
 10
-1.0
 20
0.26794919
 30
0.0
 11
0.0
 21
0.0
 31
0.0
  0
LINE
  5
5B
330
59
100
AcDbEntity
  8
0
 62
     0
100
AcDbLine
 10
0.0
 20
0.0
 30
0.0
 11
-1.0
 21
-0.26794919
 31
0.0
  0
LINE
  5
5C
330
59
100
AcDbEntity
  8
0
 62
     0
100
AcDbLine
 10
0.0
 20
0.0
 30
0.0
 11
-1.0
 21
0.0
 31
0.0
  0
ENDBLK
  5
5E
330
59
100
AcDbEntity
  8
0
100
AcDbBlockEnd
  0
BLOCK
  5
66
330
64
100
AcDbEntity
  8
0
100
AcDbBlockBegin
  2
GENAXEH
 70
     0
 10
0.0
 20
0.0
 30
0.0
  3
GENAXEH
  1

  0
LINE
  5
65
330
64
100
AcDbEntity
  8
0
100
AcDbLine
 10
-1.0
 20
0.0
 30
0.0
 11
1.0
 21
0.0
 31
0.0
  0
ENDBLK
  5
67
330
64
100
AcDbEntity
  8
0
100
AcDbBlockEnd
  0
BLOCK
  5
CD2
330
CC8
100
AcDbEntity
  8
0
100
AcDbBlockBegin
  2
*D5
 70
     1
 10
0.0
 20
0.0
 30
0.0
  3
*D5
  1

  0
LINE
  5
328D
330
CC8
100
AcDbEntity
  8
AM_5
 62
     3
100
AcDbLine
 10
-159.9999694824262
 20
-5.625045776360263
 30
0.0
 11
-159.9999694824262
 21
-31.05042326389236
 31
0.0
  0
LINE
  5
328E
330
CC8
100
AcDbEntity
  8
AM_5
 62
     3
100
AcDbLine
 10
-1.999999999999817
 20
-6.000000479709434
 30
0.0
 11
-1.999999999999819
 21
-31.05042326389236
 31
0.0
  0
LINE
  5
328F
330
CC8
100
AcDbEntity
  8
AM_5
 62
     3
100
AcDbLine
 10
-157.4999694824262
 20
-30.05042326389236
 30
0.0
 11
-4.499999999999819
 21
-30.05042326389236
 31
0.0
  0
INSERT
  5
3290
330
CC8
100
AcDbEntity
  8
AM_5
 62
     3
100
AcDbBlockReference
  2
_OPEN30
 10
-159.9999694824262
 20
-30.05042326389236
 30
0.0
 41
2.5
 42
2.5
 43
2.5
 50
180.0
  0
INSERT
  5
3291
330
CC8
100
AcDbEntity
  8
AM_5
 62
     3
100
AcDbBlockReference
  2
_OPEN30
 10
-1.999999999999819
 20
-30.05042326389236
 30
0.0
 41
2.5
 42
2.5
 43
2.5
  0
MTEXT
  5
3292
330
CC8
100
AcDbEntity
  8
AM_5
 62
     2
100
AcDbMText
 10
-80.99998474121305
 20
-26.65042326389236
 30
0.0
 40
3.799999999999999
 41
0.0
 71
     5
 72
     1
  1
158
1001
ACAD
1000
MTEXTBEGIN
1070
    73
1070
     1
1070
    44
1040
1.0
1070
    74
1070
     0
1000
MTEXTEND
  0
POINT
  5
3293
330
CC8
100
AcDbEntity
  8
DEFPOINTS
 62
     0
100
AcDbPoint
 10
-159.9999694824262
 20
-5.625045776360263
 30
0.0
  0
POINT
  5
3294
330
CC8
100
AcDbEntity
  8
DEFPOINTS
 62
     0
100
AcDbPoint
 10
-1.999999999999817
 20
-6.000000479709434
 30
0.0
  0
POINT
  5
3295
330
CC8
100
AcDbEntity
  8
DEFPOINTS
 62
     0
100
AcDbPoint
 10
-1.999999999999819
 20
-30.05042326389236
 30
0.0
  0
ENDBLK
  5
CD3
330
CC8
100
AcDbEntity
  8
0
100
AcDbBlockEnd
  0
BLOCK
  5
E00
330
DF6
100
AcDbEntity
  8
0
100
AcDbBlockBegin
  2
*D6
 70
     1
 10
0.0
 20
0.0
 30
0.0
  3
*D6
  1

  0
LINE
  5
3284
330
DF6
100
AcDbEntity
  8
AM_5
 62
     3
100
AcDbLine
 10
-97.99999999999965
 20
-6.000000000000307
 30
0.0
 11
-97.99999999999965
 21
-21.05042326389229
 31
0.0
  0
LINE
  5
3285
330
DF6
100
AcDbEntity
  8
AM_5
 62
     3
100
AcDbLine
 10
-1.999999999999817
 20
-6.000000479709434
 30
0.0
 11
-1.999999999999818
 21
-21.05042326389229
 31
0.0
  0
LINE
  5
3286
330
DF6
100
AcDbEntity
  8
AM_5
 62
     3
100
AcDbLine
 10
-95.49999999999965
 20
-20.05042326389229
 30
0.0
 11
-4.499999999999818
 21
-20.05042326389229
 31
0.0
  0
INSERT
  5
3287
330
DF6
100
AcDbEntity
  8
AM_5
 62
     3
100
AcDbBlockReference
  2
_OPEN30
 10
-97.99999999999965
 20
-20.05042326389229
 30
0.0
 41
2.5
 42
2.5
 43
2.5
 50
180.0
  0
INSERT
  5
3288
330
DF6
100
AcDbEntity
  8
AM_5
 62
     3
100
AcDbBlockReference
  2
_OPEN30
 10
-1.999999999999818
 20
-20.05042326389229
 30
0.0
 41
2.5
 42
2.5
 43
2.5
  0
MTEXT
  5
3289
330
DF6
100
AcDbEntity
  8
AM_5
 62
     2
100
AcDbMText
 10
-49.99999999999973
 20
-16.65042326389229
 30
0.0
 40
3.799999999999999
 41
0.0
 71
     5
 72
     1
  1
96
1001
ACAD
1000
MTEXTBEGIN
1070
    73
1070
     1
1070
    44
1040
1.0
1070
    74
1070
     0
1000
MTEXTEND
  0
POINT
  5
328A
330
DF6
100
AcDbEntity
  8
DEFPOINTS
 62
     0
100
AcDbPoint
 10
-97.99999999999965
 20
-6.000000000000307
 30
0.0
  0
POINT
  5
328B
330
DF6
100
AcDbEntity
  8
DEFPOINTS
 62
     0
100
AcDbPoint
 10
-1.999999999999817
 20
-6.000000479709434
 30
0.0
  0
POINT
  5
328C
330
DF6
100
AcDbEntity
  8
DEFPOINTS
 62
     0
100
AcDbPoint
 10
-1.999999999999818
 20
-20.05042326389229
 30
0.0
  0
ENDBLK
  5
E01
330
DF6
100
AcDbEntity
  8
0
100
AcDbBlockEnd
  0
BLOCK
  5
2221
330
2217
100
AcDbEntity
  8
0
100
AcDbBlockBegin
  2
*D7
 70
     1
 10
0.0
 20
0.0
 30
0.0
  3
*D7
  1

  0
LINE
  5
3296
330
2217
100
AcDbEntity
  8
AM_5
 62
     3
100
AcDbLine
 10
-159.7499999999996
 20
5.999999999999261
 30
0.0
 11
-177.0000009999996
 21
5.999999999999213
 31
0.0
  0
LINE
  5
3297
330
2217
100
AcDbEntity
  8
AM_5
 62
     3
100
AcDbLine
 10
-159.7499999999996
 20
-6.000000000000736
 30
0.0
 11
-177.0000009999995
 21
-6.000000000000785
 31
0.0
  0
LINE
  5
3298
330
2217
100
AcDbEntity
  8
AM_5
 62
     3
100
AcDbLine
 10
-176.0000009999995
 20
3.499999999999215
 30
0.0
 11
-176.0000009999995
 21
-3.500000000000782
 31
0.0
  0
INSERT
  5
3299
330
2217
100
AcDbEntity
  8
AM_5
 62
     3
100
AcDbBlockReference
  2
_OPEN30
 10
-176.0000009999996
 20
5.999999999999215
 30
0.0
 41
2.5
 42
2.5
 43
2.5
 50
90.00000000000017
  0
INSERT
  5
329A
330
2217
100
AcDbEntity
  8
AM_5
 62
     3
100
AcDbBlockReference
  2
_OPEN30
 10
-176.0000009999995
 20
-6.000000000000782
 30
0.0
 41
2.5
 42
2.5
 43
2.5
 50
270.0000000000001
  0
MTEXT
  5
329B
330
2217
100
AcDbEntity
  8
AM_5
 62
     2
100
AcDbMText
 10
-179.4000009999995
 20
-0.0000000000007861
 30
0.0
 40
3.799999999999999
 41
0.0
 71
     5
 72
     1
  1
%%c12
 11
-0.0000000000000028
 21
1.0
 31
0.0
1001
ACAD
1000
MTEXTBEGIN
1070
    73
1070
     1
1070
    44
1040
1.0
1070
    74
1070
     0
1000
MTEXTEND
  0
POINT
  5
329C
330
2217
100
AcDbEntity
  8
DEFPOINTS
 62
     0
100
AcDbPoint
 10
-159.7499999999996
 20
5.999999999999758
 30
0.0
  0
POINT
  5
329D
330
2217
100
AcDbEntity
  8
DEFPOINTS
 62
     0
100
AcDbPoint
 10
-159.7499999999996
 20
-6.000000000000239
 30
0.0
  0
POINT
  5
329E
330
2217
100
AcDbEntity
  8
DEFPOINTS
 62
     0
100
AcDbPoint
 10
-176.0000009999995
 20
-6.000000000000235
 30
0.0
  0
ENDBLK
  5
2222
330
2217
100
AcDbEntity
  8
0
100
AcDbBlockEnd
  0
BLOCK
  5
3194
330
318A
100
AcDbEntity
  8
0
100
AcDbBlockBegin
  2
*D8
 70
     1
 10
0.0
 20
0.0
 30
0.0
  3
*D8
  1

  0
LINE
  5
32AA
330
318A
100
AcDbEntity
  8
AM_5
 62
     3
100
AcDbLine
 10
-1.999999999999511
 20
5.99999952029052
 30
0.0
 11
16.55592102485799
 21
5.999999520290573
 31
0.0
  0
LINE
  5
32AB
330
318A
100
AcDbEntity
  8
AM_5
 62
     3
100
AcDbLine
 10
-1.999999999999433
 20
-6.000000479709758
 30
0.0
 11
16.55592102485803
 21
-6.000000479709705
 31
0.0
  0
LINE
  5
32AC
330
318A
100
AcDbEntity
  8
AM_5
 62
     3
100
AcDbLine
 10
15.555921024858
 20
3.49999952029057
 30
0.0
 11
15.55592102485802
 21
-3.500000479709708
 31
0.0
  0
INSERT
  5
32AD
330
318A
100
AcDbEntity
  8
AM_5
 62
     3
100
AcDbBlockReference
  2
_OPEN30
 10
15.55592102485799
 20
5.99999952029057
 30
0.0
 41
2.5
 42
2.5
 43
2.5
 50
90.00000000000017
  0
INSERT
  5
32AE
330
318A
100
AcDbEntity
  8
AM_5
 62
     3
100
AcDbBlockReference
  2
_OPEN30
 10
15.55592102485802
 20
-6.000000479709708
 30
0.0
 41
2.5
 42
2.5
 43
2.5
 50
270.0000000000001
  0
MTEXT
  5
32AF
330
318A
100
AcDbEntity
  8
AM_5
 62
     2
100
AcDbMText
 10
12.15592102485801
 20
-0.0000004797095794
 30
0.0
 40
3.799999999999999
 41
0.0
 71
     5
 72
     1
  1
%%c12
 11
-0.0000000000000028
 21
1.0
 31
0.0
1001
ACAD
1000
MTEXTBEGIN
1070
    73
1070
     1
1070
    44
1040
1.0
1070
    74
1070
     0
1000
MTEXTEND
  0
POINT
  5
32B0
330
318A
100
AcDbEntity
  8
DEFPOINTS
 62
     0
100
AcDbPoint
 10
-1.999999999999492
 20
5.999999520290526
 30
0.0
  0
POINT
  5
32B1
330
318A
100
AcDbEntity
  8
DEFPOINTS
 62
     0
100
AcDbPoint
 10
-1.999999999999451
 20
-6.000000479709752
 30
0.0
  0
POINT
  5
32B2
330
318A
100
AcDbEntity
  8
DEFPOINTS
 62
     0
100
AcDbPoint
 10
15.55592102485801
 20
-6.000000479709757
 30
0.0
  0
ENDBLK
  5
3195
330
318A
100
AcDbEntity
  8
0
100
AcDbBlockEnd
  0
BLOCK
  5
32DA
330
32CC
100
AcDbEntity
  8
0
100
AcDbBlockBegin
  2
*D9
 70
     1
 10
0.0
 20
0.0
 30
0.0
  3
*D9
  1

  0
LINE
  5
3436
330
32CC
100
AcDbEntity
  8
AM_5
100
AcDbLine
 10
0.3420199396273758
 20
-0.9396926949261953
 30
0.0
 11
8.90350758535296
 21
-24.46220254381676
 31
0.0
  0
LINE
  5
3437
330
32CC
100
AcDbEntity
  8
AM_5
100
AcDbLine
 10
0.3420207914429651
 20
0.9396923848906508
 30
0.0
 11
8.903529759929471
 21
24.46219447292548
 31
0.0
  0
ARC
  5
3438
330
32CC
100
AcDbEntity
  8
AM_5
100
AcDbCircle
 10
0.0000000000004548
 20
0.0000000000002342
 30
0.0
 40
25.03213015903916
100
AcDbArc
 50
295.7245921085407
 51
64.27535595378703
  0
INSERT
  5
3439
330
32CC
100
AcDbEntity
  8
AM_5
100
AcDbBlockReference
  2
_OPEN30
 10
8.561487645726122
 20
-23.52250984889056
 30
0.0
 41
2.5
 42
2.5
 43
2.5
 50
202.8622898442168
  0
INSERT
  5
343A
330
32CC
100
AcDbEntity
  8
AM_5
100
AcDbBlockReference
  2
_OPEN30
 10
8.561508968486961
 20
23.52250208803506
 30
0.0
 41
2.5
 42
2.5
 43
2.5
 50
157.1376582181109
  0
MTEXT
  5
343B
330
32CC
100
AcDbEntity
  8
AM_5
 62
     2
100
AcDbMText
 10
21.93213015903704
 20
-0.0000113456048065
 30
0.0
 40
3.2
 41
0.0
 71
     5
 72
     1
  1
140°
  7
ASAMI
 11
-0.0000000000000028
 21
1.0
 31
0.0
  0
POINT
  5
343C
330
32CC
100
AcDbEntity
  8
DEFPOINTS
 62
     0
100
AcDbPoint
 10
22.98491037682612
 20
9.914708027389112
 30
0.0
  0
POINT
  5
343D
330
32CC
100
AcDbEntity
  8
DEFPOINTS
 62
     0
100
AcDbPoint
 10
0.0000000000003695
 20
-0.0000000000000001
 30
0.0
  0
POINT
  5
343E
330
32CC
100
AcDbEntity
  8
DEFPOINTS
 62
     0
100
AcDbPoint
 10
0.00000000000054
 20
0.0
 30
0.0
  0
POINT
  5
343F
330
32CC
100
AcDbEntity
  8
DEFPOINTS
 62
     0
100
AcDbPoint
 10
-0.6556848755422258
 20
1.801480604883394
 30
0.0
  0
POINT
  5
3440
330
32CC
100
AcDbEntity
  8
DEFPOINTS
 62
     0
100
AcDbPoint
 10
-0.6556992300413876
 20
-1.80151496243851
 30
0.0
  0
ENDBLK
  5
32DB
330
32CC
100
AcDbEntity
  8
0
100
AcDbBlockEnd
  0
ENDSEC
  0
SECTION
  2
ENTITIES
  0
LINE
  5
C9F
330
1F
100
AcDbEntity
  8
AM_7
100
AcDbLine
 10
-161.9999999999996
 20
-0.0000000000002408
 30
0.0
 11
1.555920024858428
 21
0.0000000000000023
 31
0.0
1001
GENIUS_GENODEF_13
1002
{
1000
HIER
1070
     0
1002
}
1002
{
1000
MANEDIT
1070
     0
1002
}
1002
{
1000
NOSEL
1070
     0
1002
}
1002
{
1000
BEHIND
1070
     0
1002
}
1002
{
1000
REACTOR
1002
}
1001
GENIUS_GENOBJ-N-CEN_13
1002
{
1000
OWNER
1000
GEN
1002
}
  0
DIMENSION
  5
CC6
330
1F
100
AcDbEntity
  8
AM_5
100
AcDbDimension
  2
*D5
 10
-1.999999999999819
 20
-30.05042326389236
 30
0.0
 11
-80.99998474121305
 21
-26.65042326389236
 31
0.0
 70
    32
  1
<>
  3
AM_JIS$0
100
AcDbAlignedDimension
 13
-159.9999694824262
 23
-5.625045776360263
 33
0.0
 14
-1.999999999999817
 24
-6.000000479709434
 34
0.0
 50
0.0000000000001132
100
AcDbRotatedDimension
1001
GENIUS_GENDTOL_13
1000

1000
h7
1000

1040
0.0
1001
ACAD
1000
DSTYLE
1002
{
1070
   271
1070
     0
1002
}
  0
DIMENSION
  5
DF5
330
1F
100
AcDbEntity
  8
AM_5
100
AcDbDimension
  2
*D6
 10
-1.999999999999818
 20
-20.05042326389229
 30
0.0
 11
-49.99999999999973
 21
-16.65042326389229
 31
0.0
 70
    32
  1
<>
  3
AM_JIS$0
100
AcDbAlignedDimension
 13
-97.99999999999965
 23
-6.000000000000307
 33
0.0
 14
-1.999999999999817
 24
-6.000000479709434
 34
0.0
 50
0.0000000000001527
100
AcDbRotatedDimension
1001
GENIUS_GENDTOL_13
1000

1000
h7
1000

1040
0.0
1001
ACAD
1000
DSTYLE
1002
{
1070
   271
1070
     0
1002
}
  0
TEXT
  5
19BD
330
1F
100
AcDbEntity
  8
AM_6
100
AcDbText
 10
-102.2904456729024
 20
-52.500003054481
 30
0.0
 40
5.0
  1
MDW120LHK
 50
0.0000000000001527
 72
     4
 11
-81.09996948242622
 21
-50.00000305448095
 31
0.0
100
AcDbText
  0
LINE
  5
21D8
330
1F
100
AcDbEntity
  8
AM_0
 48
0.5
100
AcDbLine
 10
-159.7499999999996
 20
5.999999999999758
 30
0.0
 11
-97.49096036259288
 21
5.999999520293506
 31
0.0
1001
GENIUS_GENODEF_13
1002
{
1000
HIER
1070
     0
1002
}
1002
{
1000
MANEDIT
1070
     0
1002
}
1002
{
1000
NOSEL
1070
     0
1002
}
1002
{
1000
BEHIND
1070
     0
1002
}
1002
{
1000
REACTOR
1002
}
1001
GENIUS_GENOBJ-N-CEN_13
1002
{
1000
OWNER
1000
GEN
1002
}
  0
LINE
  5
21D9
330
1F
100
AcDbEntity
  8
AM_0
 48
0.5
100
AcDbLine
 10
-159.7499999999996
 20
-6.000000000000239
 30
0.0
 11
-97.99999999999965
 21
-6.000000000000307
 31
0.0
1001
GENIUS_GENODEF_13
1002
{
1000
HIER
1070
     0
1002
}
1002
{
1000
MANEDIT
1070
     0
1002
}
1002
{
1000
NOSEL
1070
     0
1002
}
1002
{
1000
BEHIND
1070
     0
1002
}
1002
{
1000
REACTOR
1002
}
1001
GENIUS_GENOBJ-N-CEN_13
1002
{
1000
OWNER
1000
GEN
1002
}
  0
LINE
  5
21DA
330
1F
100
AcDbEntity
  8
AM_0
 48
0.5
100
AcDbLine
 10
-159.9999999999996
 20
5.62499999999976
 30
0.0
 11
-159.7499999999996
 21
5.999999999999758
 31
0.0
1001
GENIUS_GENFIL_13
1070
     0
1040
0.25
1040
0.25
1040
20.0
1040
0.0
1002
{
1002
}
1001
GENIUS_GENODEF_13
1002
{
1000
HIER
1070
     0
1002
}
1002
{
1000
MANEDIT
1070
     0
1002
}
1002
{
1000
NOSEL
1070
     0
1002
}
1002
{
1000
BEHIND
1070
     0
1002
}
1002
{
1000
REACTOR
1002
}
1001
GENIUS_GENOBJ-N-CHA_13
1002
{
1000
OWNER
1000
GEN
1002
}
  0
LINE
  5
21DB
330
1F
100
AcDbEntity
  8
AM_0
 48
0.5
100
AcDbLine
 10
-159.9999999999996
 20
-5.625000000000238
 30
0.0
 11
-159.7499999999996
 21
-6.000000000000239
 31
0.0
1001
GENIUS_GENFIL_13
1070
     0
1040
0.25
1040
0.25
1040
20.0
1040
0.0
1002
{
1002
}
1001
GENIUS_GENODEF_13
1002
{
1000
HIER
1070
     0
1002
}
1002
{
1000
MANEDIT
1070
     0
1002
}
1002
{
1000
NOSEL
1070
     0
1002
}
1002
{
1000
BEHIND
1070
     0
1002
}
1002
{
1000
REACTOR
1002
}
1001
GENIUS_GENOBJ-N-CHA_13
1002
{
1000
OWNER
1000
GEN
1002
}
  0
LINE
  5
21DC
330
1F
100
AcDbEntity
  8
AM_0
100
AcDbLine
 10
-159.7499999999996
 20
-6.000000000000239
 30
0.0
 11
-159.7499999999996
 21
5.999999999999758
 31
0.0
  0
LINE
  5
21DD
330
1F
100
AcDbEntity
  8
AM_0
 48
0.5
100
AcDbLine
 10
-159.9999999999996
 20
-5.625000000000238
 30
0.0
 11
-159.9999999999996
 21
5.62499999999976
 31
0.0
  0
DIMENSION
  5
2216
330
1F
100
AcDbEntity
  8
AM_5
100
AcDbDimension
  2
*D7
 10
-176.0000009999995
 20
-6.000000000000235
 30
0.0
 11
-179.4000009999995
 21
-0.0000000000002641
 31
0.0
 70
    32
  1
%%c<>
 51
359.9999999999998
  3
AM_JIS$0
100
AcDbAlignedDimension
 13
-159.7499999999996
 23
5.999999999999758
 33
0.0
 14
-159.7499999999996
 24
-6.000000000000239
 34
0.0
 50
269.9999999999999
100
AcDbRotatedDimension
1001
ACAD
1000
DSTYLE
1002
{
1070
   271
1070
     0
1002
}
1001
GENIUS_GENDTOL_13
1000

1000
h7
1000

1040
0.0
  0
ELLIPSE
  5
282D
330
1F
100
AcDbEntity
  8
AM_0
 48
0.5
100
AcDbEllipse
 10
7.071702167241067
 20
6.181507110595838
 30
0.0
 11
8.904306174127103
 21
0.0000000000008784
 31
0.0
210
0.0
220
0.0
230
1.0
 40
0.9899999999999973
 41
3.323896559076802
 42
3.661579236128986
  0
LINE
  5
282E
330
1F
100
AcDbEntity
  8
AM_0
 48
0.5
100
AcDbLine
 10
-1.685054213912065
 20
4.583352406819962
 30
0.0
 11
-1.999999999999492
 21
5.999999520290525
 31
0.0
  0
LINE
  5
282F
330
1F
100
AcDbEntity
  8
AM_0
 48
0.5
100
AcDbLine
 10
0.00000000000054
 20
0.0
 30
0.0
 11
-0.6556848755422258
 21
1.801480604883394
 31
0.0
  0
ELLIPSE
  5
2830
330
1F
100
AcDbEntity
  8
AM_0
 48
0.5
100
AcDbEllipse
 10
7.071702167241186
 20
-6.181516647338346
 30
0.0
 11
-8.904306174127102
 21
0.0000000000012877
 31
0.0
210
0.0
220
0.0
230
1.0
 40
0.989999999999997
 41
-0.5199833380394914
 42
-0.1823047399519406
  0
LINE
  5
2831
330
1F
100
AcDbEntity
  8
AM_0
 48
0.5
100
AcDbLine
 10
-1.685047791863257
 20
-4.583330154419194
 30
0.0
 11
-1.999999999999817
 21
-6.000000479709434
 31
0.0
  0
LINE
  5
2832
330
1F
100
AcDbEntity
  8
AM_0
 48
0.5
100
AcDbLine
 10
0.0000000000003695
 20
-0.0000000000000001
 30
0.0
 11
-0.6556992300413876
 21
-1.80151496243851
 31
0.0
  0
LINE
  5
30CD
330
1F
100
AcDbEntity
  8
AM_0
 48
0.5
100
AcDbLine
 10
0.0000000000002986
 20
-0.0000000000001948
 30
0.0
 11
-3.566858292652657
 21
2.334270943942735
 31
0.0
  0
LINE
  5
30CE
330
1F
100
AcDbEntity
  8
AM_0
 48
0.5
100
AcDbLine
 10
-5.948917167559849
 20
5.999999520290657
 30
0.0
 11
-1.999999999999492
 21
5.999999520290525
 31
0.0
  0
LINE
  5
30CF
330
1F
100
AcDbEntity
  8
AM_0
 48
0.5
100
AcDbLine
 10
-5.948917167560217
 20
-6.00000047970934
 30
0.0
 11
-1.999999999999769
 21
-6.000000479709464
 31
0.0
  0
LINE
  5
30D0
330
1F
100
AcDbEntity
  8
AM_11
 48
0.5
100
AcDbLine
 10
-23.80727936543546
 20
5.999999520291249
 30
0.0
 11
-5.948917167559849
 21
5.999999520290657
 31
0.0
  0
LINE
  5
30D1
330
1F
100
AcDbEntity
  8
AM_11
 48
0.5
100
AcDbLine
 10
-23.80727936543582
 20
-6.00000047970875
 30
0.0
 11
-5.948917167560217
 21
-6.00000047970934
 31
0.0
  0
LINE
  5
30D2
330
1F
100
AcDbEntity
  8
AM_11
 48
0.5
100
AcDbLine
 10
-57.55680586743716
 20
-6.000000479707749
 30
0.0
 11
-39.69844366956381
 21
-6.00085288859703
 31
0.0
  0
LINE
  5
30D3
330
1F
100
AcDbEntity
  8
AM_11
 48
0.5
100
AcDbLine
 10
-55.24199027022607
 20
6.000851929181005
 30
0.0
 11
-43.84546817724817
 21
5.999999520291916
 31
0.0
  0
LINE
  5
30D4
330
1F
100
AcDbEntity
  8
AM_0
 48
0.5
100
AcDbLine
 10
-43.84548355855049
 20
5.999999520291916
 30
0.0
 11
-23.80727936543546
 21
5.999999520291249
 31
0.0
  0
LINE
  5
30D5
330
1F
100
AcDbEntity
  8
AM_0
 48
0.5
100
AcDbLine
 10
-39.6984436695638
 20
-6.00000047970834
 30
0.0
 11
-23.80727936543582
 21
-6.00000047970875
 31
0.0
  0
SPLINE
  5
30DD
330
1F
100
AcDbEntity
  8
AM_0
100
AcDbSpline
210
0.0
220
0.0
230
1.0
 70
     8
 71
     3
 72
    22
 73
    18
 74
     0
 42
0.0000000001
 43
0.0000000001
 40
17.17441611292
 40
17.17441611292
 40
17.17441611292
 40
17.17441611292
 40
17.38177636558528
 40
18.41823744757437
 40
19.46215659509824
 40
20.51397914882054
 40
21.57394542641293
 40
22.64209583141747
 40
23.71826625065247
 40
24.80210429862395
 40
25.8930771157021
 40
26.99048705697709
 40
28.09349309193389
 40
29.20112995599786
 40
30.31233024745139
 40
31.42594771747373
 40
32.5407895042663
 40
32.54078950426994
 40
32.54078950426994
 40
32.54078950426994
 10
-27.42568329056794
 20
-5.388043905602979
 30
0.0
 10
-27.48916443883913
 20
-5.374154494093597
 30
0.0
 10
-27.86969925365055
 20
-5.28955257043985
 30
0.0
 10
-28.56681759133365
 20
-5.119914702328562
 30
0.0
 10
-29.51440743618436
 20
-4.857745808942228
 30
0.0
 10
-30.46190072361897
 20
-4.565638893566369
 30
0.0
 10
-31.40930414288701
 20
-4.245417359995575
 30
0.0
 10
-32.35661644253443
 20
-3.899044639684122
 30
0.0
 10
-33.3038492828771
 20
-3.528676370127468
 30
0.0
 10
-34.25100704986942
 20
-3.136588715544057
 30
0.0
 10
-35.19809850697297
 20
-2.725199659015788
 30
0.0
 10
-36.14513418524431
 20
-2.297047210443268
 30
0.0
 10
-37.09212230438173
 20
-1.854764092180416
 30
0.0
 10
-38.03907239735167
 20
-1.401071304707652
 30
0.0
 10
-38.9859928580425
 20
-0.9387585451172302
 30
0.0
 10
-39.93289771425743
 20
-0.4706785330195693
 30
0.0
 10
-40.56404370767828
 20
-0.1567471978782001
 30
0.0
 10
-40.87979008473709
 20
0.00030469607384
 30
0.0
  0
SPLINE
  5
30DE
330
1F
100
AcDbEntity
  8
AM_0
100
AcDbSpline
210
0.0
220
0.0
230
1.0
 70
     8
 71
     3
 72
    23
 73
    19
 74
     0
 42
0.0000000001
 43
0.0000000001
 40
16.03460024169435
 40
16.03460024169435
 40
16.03460024169435
 40
16.03460024169435
 40
16.35212704903564
 40
17.38177054169784
 40
18.41822485651776
 40
19.46214173629503
 40
20.51396345435107
 40
21.57393551351153
 40
22.64208202342361
 40
23.7182574881101
 40
24.80209208578934
 40
25.89306333925047
 40
26.99048218457928
 40
28.09348763352352
 40
29.20111863782268
 40
30.31232390128032
 40
31.42594612798585
 40
32.5407912310448
 40
32.5407912310486
 40
32.5407912310486
 40
32.5407912310486
 10
-55.24199027022607
 20
6.000851929181007
 30
0.0
 10
-55.14459228455471
 20
5.980596985778698
 30
0.0
 10
-54.73177682306367
 20
5.892392408140278
 30
0.0
 10
-54.00459794192932
 20
5.719568999973393
 30
0.0
 10
-53.06289938721691
 20
5.462582482007615
 30
0.0
 10
-52.12207552641661
 20
5.17402945764787
 30
0.0
 10
-51.18207076549616
 20
4.855579924621767
 30
0.0
 10
-50.24285174202081
 20
4.509009246205065
 30
0.0
 10
-49.304364171382
 20
4.136298566549014
 30
0.0
 10
-48.36654270087228
 20
3.739616968320037
 30
0.0
 10
-47.42933404010741
 20
3.321210836280894
 30
0.0
 10
-46.49266304967067
 20
2.883514778223108
 30
0.0
 10
-45.55645382285273
 20
2.429072872741975
 30
0.0
 10
-44.62064398270304
 20
1.960497970279746
 30
0.0
 10
-43.68515523114882
 20
1.480514769725528
 30
0.0
 10
-42.74990092211946
 20
0.9919260208274732
 30
0.0
 10
-41.81480489951311
 20
0.4975629630802772
 30
0.0
 10
-41.1915749954192
 20
0.1661195643533948
 30
0.0
 10
-40.87979008473289
 20
0.0003046960716843
 30
0.0
  0
SPLINE
  5
30DF
330
1F
100
AcDbEntity
  8
AM_0
100
AcDbSpline
210
0.0
220
0.0
230
1.0
 70
     8
 71
     3
 72
    11
 73
     7
 74
     0
 42
0.0000000001
 43
0.0000000001
 40
11.27226913003534
 40
11.27226913003534
 40
11.27226913003534
 40
11.2722691300354
 40
12.28301561507924
 40
13.29510212255852
 40
14.30984805882082
 40
15.18258238371378
 40
15.18258238371378
 40
15.18258238371378
 40
15.18258238371378
 10
-57.55680586743939
 20
-6.00000047970775
 30
0.0
 10
-57.87147963416654
 20
-5.970634736119124
 30
0.0
 10
-58.50023363305949
 20
-5.899541548940414
 30
0.0
 10
-59.44011786296527
 20
-5.756129005542807
 30
0.0
 10
-60.33208456988552
 20
-5.584838447026482
 30
0.0
 10
-60.90895627852624
 20
-5.453162296760951
 30
0.0
 10
-61.17479518827477
 20
-5.388117915556099
 30
0.0
  0
SPLINE
  5
30E0
330
1F
100
AcDbEntity
  8
AM_0
100
AcDbSpline
210
0.0
220
0.0
230
1.0
 70
     8
 71
     3
 72
    17
 73
    13
 74
     0
 42
0.0000000001
 43
0.0000000001
 40
1.580019955310467
 40
1.580019955310467
 40
1.580019955310467
 40
1.580019955310467
 40
2.030549285115227
 40
3.082371838836284
 40
4.126290986361125
 40
5.162752068350215
 40
6.192395305374981
 40
7.216039564037012
 40
8.234688489606833
 40
9.249433870634691
 40
10.26152376260694
 40
11.27226744710342
 40
11.27226744710342
 40
11.27226744710342
 40
11.27226744710352
 10
-48.62692811914285
 20
-4.428177159250203
 30
0.0
 10
-48.76105792588565
 20
-4.473783700395306
 30
0.0
 10
-49.20909654295105
 20
-4.623265230622698
 30
0.0
 10
-49.97400957120895
 20
-4.857732359326308
 30
0.0
 10
-50.92146751372133
 20
-5.120304439282103
 30
0.0
 10
-51.86918629051824
 20
-5.350807863356226
 30
0.0
 10
-52.81694849145865
 20
-5.548468549244277
 30
0.0
 10
-53.76481394939226
 20
-5.711848703571499
 30
0.0
 10
-54.71274489263042
 20
-5.840015987837833
 30
0.0
 10
-55.66073486163726
 20
-5.932139835155934
 30
0.0
 10
-56.60876050039486
 20
-5.987627233622108
 30
0.0
 10
-57.24093098891538
 20
-6.000000514040077
 30
0.0
 10
-57.55680586743935
 20
-6.00000047970775
 30
0.0
  0
SPLINE
  5
30E1
330
1F
100
AcDbEntity
  8
AM_0
 48
0.5
100
AcDbSpline
210
0.0
220
0.0
230
1.0
 70
     8
 71
     3
 72
    17
 73
    13
 74
     0
 42
0.0000000001
 43
0.0000000001
 40
0.0
 40
0.0
 40
0.0
 40
0.0
 40
1.010743614677189
 40
2.022833924044153
 40
3.037578959561199
 40
4.056212747067873
 40
5.079857613375832
 40
6.109500119648989
 40
7.14596120163808
 40
8.18989512056258
 40
9.241717674284874
 40
9.693948937866434
 40
9.693948937866434
 40
9.693948937866434
 40
9.693948937866434
 10
-5.948917167559849
 20
5.999999520290657
 30
0.0
 10
-6.264792107736598
 20
5.996432238260386
 30
0.0
 10
-6.896962853578072
 20
5.989292921224286
 30
0.0
 10
-7.844987713775767
 20
5.931684761394167
 30
0.0
 10
-8.792973544340252
 20
5.840137580441797
 30
0.0
 10
-9.740900418253717
 20
5.711816890976432
 30
0.0
 10
-10.68875704598172
 20
5.548463016089315
 30
0.0
 10
-11.63653185039253
 20
5.350833322806373
 30
0.0
 10
-12.5842121107554
 20
5.120200018821706
 30
0.0
 10
-13.53183460086851
 20
4.858115786935077
 30
0.0
 10
-14.29678018535478
 20
4.622017511062262
 30
0.0
 10
-14.74600108215067
 20
4.474422136224069
 30
0.0
 10
-14.88083309436973
 20
4.429244180032905
 30
0.0
  0
SPLINE
  5
30E2
330
1F
100
AcDbEntity
  8
AM_0
 48
0.5
100
AcDbSpline
210
0.0
220
0.0
230
1.0
 70
     8
 71
     3
 72
    16
 73
    12
 74
     0
 42
0.0000000001
 43
0.0000000001
 40
0.0
 40
0.0
 40
0.0
 40
0.0
 40
1.010743614677189
 40
2.022833924044153
 40
3.037578959561199
 40
4.056212747067873
 40
5.079857613375832
 40
6.109500119648989
 40
7.14596120163808
 40
8.18989512056258
 40
8.545190612624931
 40
8.545190612624931
 40
8.545190612624931
 40
8.545190612624931
 10
-5.948917167559849
 20
5.999999520290657
 30
0.0
 10
-6.264774547146441
 20
5.999963465395071
 30
0.0
 10
-6.896971016265693
 20
5.987651990414771
 30
0.0
 10
-7.844985511509637
 20
5.932125894521619
 30
0.0
 10
-8.792974166618373
 20
5.840018852109245
 30
0.0
 10
-9.740900141027101
 20
5.711848594800199
 30
0.0
 10
-10.688757532144
 20
5.548455685616873
 30
0.0
 10
-11.63653016995562
 20
5.350830652027203
 30
0.0
 10
-12.58421840565262
 20
5.120218288271916
 30
0.0
 10
-13.32108993286001
 20
4.916345513662198
 30
0.0
 10
-13.74227063177679
 20
4.790958709407763
 30
0.0
 10
-13.84907970477275
 20
4.758601734512158
 30
0.0
  0
SPLINE
  5
30E3
330
1F
100
AcDbEntity
  8
AM_0
 48
0.5
100
AcDbSpline
210
0.0
220
0.0
230
1.0
 70
     8
 71
     3
 72
    25
 73
    21
 74
     0
 42
0.0000000001
 43
0.0000000001
 40
6.846175049578289
 40
6.846175049578289
 40
6.846175049578289
 40
6.846175049578289
 40
7.604337694224321
 40
8.711974558287883
 40
9.814980593243754
 40
10.91239053451967
 40
12.0033633515982
 40
13.08720139956839
 40
14.16337181880432
 40
15.23152222380919
 40
16.29148850140128
 40
17.34331105512262
 40
18.38723020264746
 40
19.42369128463655
 40
20.45333379090873
 40
21.47697865721768
 40
22.49561244472435
 40
23.5103574802404
 40
24.52244778960836
 40
25.53320666051913
 40
25.53320666051913
 40
25.53320666051913
 40
25.53320666051913
 10
-7.054553698454733
 20
1.086038801395722
 30
0.0
 10
-7.269912676176942
 20
1.191388130435015
 30
0.0
 10
-7.800353343336476
 20
1.449593239390569
 30
0.0
 10
-8.646663991173484
 20
1.855068209834828
 30
0.0
 10
-9.593652058557141
 20
2.297351453074534
 30
0.0
 10
-10.54068775058573
 20
2.725503868367766
 30
0.0
 10
-11.48777920406082
 20
3.136892933887579
 30
0.0
 10
-12.43493697191847
 20
3.528980585530168
 30
0.0
 10
-13.38216981239292
 20
3.899348857912196
 30
0.0
 10
-14.32948211067338
 20
4.245721569923598
 30
0.0
 10
-15.2768855352171
 20
4.565943133558751
 30
0.0
 10
-16.22437880312681
 20
4.858049938158269
 30
0.0
 10
-17.1719687200478
 20
5.120219240319867
 30
0.0
 10
-18.1196519418917
 20
5.350828515107769
 30
0.0
 10
-19.06742476652888
 20
5.548464292660732
 30
0.0
 10
-20.01528192004904
 20
5.711816551374298
 30
0.0
 10
-20.96320865417546
 20
5.840137671631699
 30
0.0
 10
-21.91119452179348
 20
5.931684734248805
 30
0.0
 10
-22.85922413423587
 20
5.989293228310534
 30
0.0
 10
-23.49139965425373
 20
5.996432322613951
 30
0.0
 10
-23.80727936543546
 20
5.999999520291249
 30
0.0
  0
SPLINE
  5
30E4
330
1F
100
AcDbEntity
  8
AM_0
100
AcDbSpline
210
0.0
220
0.0
230
1.0
 70
     8
 71
     3
 72
    46
 73
    42
 74
     0
 42
0.0000000001
 43
0.0000000001
 40
0.0
 40
0.0
 40
0.0
 40
0.0
 40
1.348332046947657
 40
2.024828967632895
 40
2.703918159304097
 40
3.386347665078124
 40
4.072776489761952
 40
4.763750544421347
 40
5.459696642770596
 40
6.160921452191754
 40
6.867565637253344
 40
7.579665907256596
 40
8.297112853413899
 40
9.019671552060676
 40
9.746986763446127
 40
10.47859339096366
 40
11.21393074760089
 40
11.95235532364328
 40
12.69315551794651
 40
13.43556823304427
 40
14.1787950170388
 40
14.92202180103393
 40
15.66443451613169
 40
16.40523471043432
 40
17.14365928647669
 40
17.87899664311455
 40
18.61060327063121
 40
19.3379184820169
 40
20.06048192311554
 40
20.77792886927283
 40
21.49002913927608
 40
22.19667332433747
 40
22.89788836015233
 40
23.59383445850158
 40
24.28480851316097
 40
24.97123685067576
 40
25.65366676154838
 40
26.33276604526152
 40
27.00926273560555
 40
27.68398960851751
 40
28.357818684969
 40
28.357818684969
 40
28.357818684969
 40
28.357818684969
 10
-3.295089500323649
 20
-6.00000047970943
 30
0.0
 10
-3.927290865667485
 20
-5.986332015903931
 30
0.0
 10
-4.876685816876385
 20
-5.965805691161382
 30
0.0
 10
-6.13913768493885
 20
-5.839428880608121
 30
0.0
 10
-7.087074389674357
 20
-5.712007437848606
 30
0.0
 10
-8.034930068387659
 20
-5.548419949901322
 30
0.0
 10
-8.982702224102338
 20
-5.350841698846366
 30
0.0
 10
-9.930385987926952
 20
-5.120217277044774
 30
0.0
 10
-10.8779797726336
 20
-4.858049056205048
 30
0.0
 10
-11.82547936109525
 20
-4.565946788012387
 30
0.0
 10
-12.7728866471363
 20
-4.245722199058332
 30
0.0
 10
-13.72019908251928
 20
-3.899349906598594
 30
0.0
 10
-14.66743188632523
 20
-3.528981521667306
 30
0.0
 10
-15.61458966229498
 20
-3.136893896218448
 30
0.0
 10
-16.56168112042762
 20
-2.725504839766573
 30
0.0
 10
-17.50871678540098
 20
-2.297352361205104
 30
0.0
 10
-18.45570495708359
 20
-1.855069363719905
 30
0.0
 10
-19.4026548520597
 20
-1.401376120563444
 30
0.0
 10
-20.34957651069768
 20
-0.9390648478014917
 30
0.0
 10
-21.29647858318869
 20
-0.4709784347852088
 30
0.0
 10
-22.24337269585371
 20
-0.0000004798040961
 30
0.0
 10
-23.19026680831071
 20
0.4709774757493502
 30
0.0
 10
-24.1371688814257
 20
0.9390638870494727
 30
0.0
 10
-25.084090537783
 20
1.401375166083231
 30
0.0
 10
-26.03104044121593
 20
1.855068385979831
 30
0.0
 10
-26.97802858154147
 20
2.297351469710255
 30
0.0
 10
-27.92506436264069
 20
2.725503628875301
 30
0.0
 10
-28.87215745016204
 20
3.136894761119794
 30
0.0
 10
-29.81931890632995
 20
3.528978824253813
 30
0.0
 10
-30.76655339985407
 20
3.899349108307348
 30
0.0
 10
-31.7138658131809
 20
4.245721503831268
 30
0.0
 10
-32.66126920738045
 20
4.565943150195009
 30
0.0
 10
-33.60876248284718
 20
4.858049936962316
 30
0.0
 10
-34.55635239953956
 20
5.12021922878791
 30
0.0
 10
-35.50403561489459
 20
5.35082856192908
 30
0.0
 10
-36.45180846545782
 20
5.548464118462632
 30
0.0
 10
-37.3996701934592
 20
5.711818001379493
 30
0.0
 10
-38.34760201371719
 20
5.840136467358494
 30
0.0
 10
-39.29559248205561
 20
5.931684936081984
 30
0.0
 10
-40.24361736174284
 20
5.989292877669068
 30
0.0
 10
-40.87578810499095
 20
5.996432223749232
 30
0.0
 10
-41.19166304387175
 20
5.999999520291829
 30
0.0
  0
SPLINE
  5
30E5
330
1F
100
AcDbEntity
  8
AM_0
100
AcDbSpline
210
0.0
220
0.0
230
1.0
 70
     8
 71
     3
 72
    55
 73
    51
 74
     0
 42
0.0000000001
 43
0.0000000001
 40
0.0
 40
0.0
 40
0.0
 40
0.0
 40
1.010743684496582
 40
2.022833576467832
 40
3.037578957496688
 40
4.056212745003489
 40
5.079857003664532
 40
6.109500240690281
 40
7.145961322679372
 40
8.189895241603872
 40
9.241717795325891
 40
10.30168407291828
 40
11.36983447792315
 40
12.44600489715814
 40
13.52984294512926
 40
14.62081576220742
 40
15.7182257034828
 40
16.82123173843959
 40
17.92886860250316
 40
19.0400688939571
 40
20.15368796660465
 40
21.26852814259644
 40
22.38336992938901
 40
23.49698739941135
 40
24.6081876908653
 40
25.71582455492886
 40
26.81883757994213
 40
27.91624752121713
 40
29.00722033829659
 40
30.09105838626677
 40
31.16722880550176
 40
32.23537921050758
 40
33.29534548809967
 40
34.347168041821
 40
35.39108718934584
 40
36.42754827133493
 40
37.45720575381954
 40
38.48085062012849
 40
39.49948440763516
 40
40.51422944315121
 40
41.52631975251916
 40
42.53706336719636
 40
43.54780698187354
 40
44.55989729124051
 40
45.57464232675757
 40
46.59327611426424
 40
47.6169209805722
 40
48.64656348684535
 40
49.68302456883444
 40
50.58557219878025
 40
50.58557219878025
 40
50.58557219878025
 40
50.58557219878025
 10
-5.948917167560217
 20
-6.000000479709341
 30
0.0
 10
-6.264792050251511
 20
-5.996430625068225
 30
0.0
 10
-6.896962528753235
 20
-5.989286161103795
 30
0.0
 10
-7.844988187618985
 20
-5.93169376088309
 30
0.0
 10
-8.792973378843846
 20
-5.840136889345608
 30
0.0
 10
-9.74089989909241
 20
-5.711816451715823
 30
0.0
 10
-10.68875828955021
 20
-5.548471435947118
 30
0.0
 10
-11.63652985109046
 20
-5.350828211293825
 30
0.0
 10
-12.584217753967
 20
-5.120218172963219
 30
0.0
 10
-13.53181359410339
 20
-4.858053466491591
 30
0.0
 10
-14.47931091664496
 20
-4.565943767272732
 30
0.0
 10
-15.42671444434203
 20
-4.245722617692874
 30
0.0
 10
-16.37402671453022
 20
-3.899349793140364
 30
0.0
 10
-17.32125956311752
 20
-3.528981552432743
 30
0.0
 10
-18.26841732688874
 20
-3.136893887762895
 30
0.0
 10
-19.2155087885896
 20
-2.725504842537059
 30
0.0
 10
-20.16254445159255
 20
-2.297352358635076
 30
0.0
 10
-21.10953262758818
 20
-1.855069371259112
 30
0.0
 10
-22.05648250720467
 20
-1.401376092833861
 30
0.0
 10
-23.00340422320812
 20
-0.9390649515865735
 30
0.0
 10
-23.95030608100334
 20
-0.4709780464204103
 30
0.0
 10
-24.89720145231133
 20
-0.0000017039266646
 30
0.0
 10
-25.84409257285141
 20
0.4709831164347614
 30
0.0
 10
-26.79099760445526
 20
0.9390627322496937
 30
0.0
 10
-27.73791815147116
 20
1.401375272886485
 30
0.0
 10
-28.68486971948881
 20
1.855070279680906
 30
0.0
 10
-29.63186182404564
 20
2.297349492536194
 30
0.0
 10
-30.57889898172108
 20
2.725504147766997
 30
0.0
 10
-31.52599058015044
 20
3.136892859398727
 30
0.0
 10
-32.47314830945764
 20
3.528980606523137
 30
0.0
 10
-33.42038116047044
 20
3.899348847772537
 30
0.0
 10
-34.36769345478738
 20
4.245721589502079
 30
0.0
 10
-35.31509688470205
 20
4.565943066057185
 30
0.0
 10
-36.26259013524819
 20
4.858050185951138
 30
0.0
 10
-37.2101801155988
 20
5.120218326126333
 30
0.0
 10
-38.15786766693232
 20
5.350833001734703
 30
0.0
 10
-39.10564599587917
 20
5.548453652788165
 30
0.0
 10
-40.05350751779325
 20
5.711849227292305
 30
0.0
 10
-41.00143431904965
 20
5.840017557605937
 30
0.0
 10
-41.94942016896344
 20
5.932130420671634
 30
0.0
 10
-42.8974450240164
 20
5.987635229731814
 30
0.0
 10
-43.84549071134064
 20
6.006177549837372
 30
0.0
 10
-44.79353639726994
 20
5.987635229702802
 30
0.0
 10
-45.74156125651579
 20
5.932130420788371
 30
0.0
 10
-46.6895470909926
 20
5.840017557166555
 30
0.0
 10
-47.63747395012593
 20
5.711849228944201
 30
0.0
 10
-48.58533063345311
 20
5.54845444315742
 30
0.0
 10
-49.53310522851409
 20
5.350835022299378
 30
0.0
 10
-50.43770348353373
 20
5.130686772368907
 30
0.0
 10
-51.02461713324821
 20
4.969690275985069
 30
0.0
 10
-51.29691085891413
 20
4.891228829415162
 30
0.0
  0
SPLINE
  5
30E6
330
1F
100
AcDbEntity
  8
AM_0
100
AcDbSpline
210
0.0
220
0.0
230
1.0
 70
     8
 71
     3
 72
    11
 73
     7
 74
     0
 42
0.0000000001
 43
0.0000000001
 40
11.27226913003534
 40
11.27226913003534
 40
11.27226913003534
 40
11.2722691300354
 40
12.28301561507924
 40
13.29510212255852
 40
14.30984805882082
 40
15.18258238371378
 40
15.18258238371378
 40
15.18258238371378
 40
15.18258238371378
 10
-23.80727936543578
 20
-6.00000047970875
 30
0.0
 10
-24.12195313216295
 20
-5.970634736120126
 30
0.0
 10
-24.75070713105591
 20
-5.899541548941416
 30
0.0
 10
-25.69059136096168
 20
-5.756129005543808
 30
0.0
 10
-26.58255806788192
 20
-5.584838447027492
 30
0.0
 10
-27.15942977652265
 20
-5.453162296761951
 30
0.0
 10
-27.42526868627118
 20
-5.388117915557098
 30
0.0
  0
SPLINE
  5
30E7
330
1F
100
AcDbEntity
  8
AM_0
100
AcDbSpline
210
0.0
220
0.0
230
1.0
 70
     8
 71
     3
 72
    17
 73
    13
 74
     0
 42
0.0000000001
 43
0.0000000001
 40
1.580019955310467
 40
1.580019955310467
 40
1.580019955310467
 40
1.580019955310467
 40
2.030549285115227
 40
3.082371838836284
 40
4.126290986361125
 40
5.162752068350215
 40
6.192395305374981
 40
7.216039564037012
 40
8.234688489606833
 40
9.249433870634691
 40
10.26152376260694
 40
11.27226744710342
 40
11.27226744710342
 40
11.27226744710342
 40
11.27226744710352
 10
-14.8774016171392
 20
-4.428177159251211
 30
0.0
 10
-15.01153142388202
 20
-4.473783700396307
 30
0.0
 10
-15.45957004094743
 20
-4.623265230623698
 30
0.0
 10
-16.22448306920533
 20
-4.857732359327321
 30
0.0
 10
-17.17194101171774
 20
-5.120304439283103
 30
0.0
 10
-18.11965978851464
 20
-5.350807863357228
 30
0.0
 10
-19.06742198945505
 20
-5.548468549245278
 30
0.0
 10
-20.01528744738866
 20
-5.7118487035725
 30
0.0
 10
-20.96321839062684
 20
-5.840015987838834
 30
0.0
 10
-21.91120835963367
 20
-5.932139835156944
 30
0.0
 10
-22.85923399839127
 20
-5.98762723362311
 30
0.0
 10
-23.49140448691177
 20
-6.000000514041079
 30
0.0
 10
-23.80727936543573
 20
-6.00000047970875
 30
0.0
  0
ELLIPSE
  5
30E8
330
1F
100
AcDbEntity
  8
AM_0
 48
0.5
100
AcDbEllipse
 10
2.724860412702097
 20
7.203368660915332
 30
0.0
 11
-0.0000000000009647
 21
12.09266853332507
 31
0.0
210
0.0
220
0.0
230
1.0
 40
0.9374999999999982
 41
2.10116388002888
 42
2.509284810223767
  0
ELLIPSE
  5
30E9
330
1F
100
AcDbEntity
  8
AM_0
 48
0.5
100
AcDbEllipse
 10
4.951980812176507
 20
-1.333717825900745
 30
0.0
 11
8.945953391034421
 21
1.079109528107695
 31
0.0
210
0.0
220
0.0
230
1.0
 40
0.7520779051987798
 41
3.162221657810893
 42
3.736891995200203
  0
ELLIPSE
  5
30EA
330
1F
100
AcDbEntity
  8
AM_0
 48
0.5
100
AcDbEllipse
 10
-11.69578288233387
 20
16.31866873783721
 30
0.0
 11
0.0013117657493328
 21
20.54116073703131
 31
0.0
210
0.0
220
0.0
230
1.0
 40
0.9375035098419935
 41
3.687187463019112
 42
3.794367966746253
  0
ELLIPSE
  5
30EB
330
1F
100
AcDbEntity
  8
AM_0
 48
0.5
100
AcDbEllipse
 10
-2.097797015306053
 20
-1.563688510038597
 30
0.0
 11
-0.8020814334525592
 21
0.5166025180073098
 31
0.0
210
0.0
220
0.0
230
1.0
 40
0.5149916789749831
 41
4.523077269397256
 42
7.666517610726765
  0
ELLIPSE
  5
30EC
330
1F
100
AcDbEntity
  8
AM_0
 48
0.5
100
AcDbEllipse
 10
-2.097797015306053
 20
-1.563688510038597
 30
0.0
 11
-0.1566176984034641
 21
0.9858769558623198
 31
0.0
210
0.0
220
0.0
230
0.9999999999999998
 40
0.4704008186490614
 41
1.8192068169176
 42
4.954548706629577
  0
ELLIPSE
  5
30ED
330
1F
100
AcDbEntity
  8
AM_0
 48
0.5
100
AcDbEllipse
 10
-1.699030517026208
 20
-6.138979465606475
 30
0.0
 11
5.926113665157414
 21
3.005582634240569
 31
0.0
210
0.0
220
0.0
230
1.0
 40
0.6376797004940295
 41
1.388382795839385
 42
1.632139222595291
  0
SPLINE
  5
30EE
330
1F
100
AcDbEntity
  8
AM_0
 48
0.5
100
AcDbSpline
210
0.0
220
0.0
230
1.0
 70
     8
 71
     3
 72
    10
 73
     6
 74
     0
 42
0.0000000001
 43
0.0000000001
 40
0.0
 40
0.0
 40
0.0
 40
0.0
 40
2.69986029516136
 40
4.147722969032201
 40
6.285750005020438
 40
6.285750005020438
 40
6.285750005020438
 40
6.285750005020438
 10
-7.054402130023434
 20
1.085967537868703
 30
0.0
 10
-6.379673128455996
 20
0.5285260760000047
 30
0.0
 10
-5.343105057623257
 20
-0.3278562929053167
 30
0.0
 10
-2.891760814798903
 20
0.0867334144350984
 30
0.0
 10
-3.353420237466033
 20
1.483126407141551
 30
0.0
 10
-3.566858292652656
 20
2.334270943942735
 30
0.0
  0
LINE
  5
30F1
330
1F
100
AcDbEntity
  8
AM_11
 48
0.5
100
AcDbLine
 10
-97.49096036259288
 20
5.999999520293506
 30
0.0
 11
-77.59514023579708
 21
5.999999520292919
 31
0.0
  0
LINE
  5
30F2
330
1F
100
AcDbEntity
  8
AM_11
 48
0.5
100
AcDbLine
 10
-90.67988046491619
 20
-6.000000479706609
 30
0.0
 11
-77.59514023579741
 21
-6.000000479707081
 31
0.0
  0
POLYLINE
  5
30F3
330
1F
100
AcDbEntity
  8
AM_0
100
AcDb2dPolyline
 66
     1
 10
0.0
 20
0.0
 30
0.0
 70
     2
  0
VERTEX
  5
30F4
330
30F3
100
AcDbEntity
  8
AM_0
100
AcDbVertex
100
AcDb2dVertex
 10
-95.93645110762968
 20
5.682136224382533
 30
0.0
 42
0.0276737331564208
  0
VERTEX
  5
30F5
330
30F3
100
AcDbEntity
  8
AM_0
100
AcDbVertex
100
AcDb2dVertex
 10
-96.40748357144921
 20
5.578271252673326
 30
0.0
 42
0.0414024687830266
 70
     1
  0
VERTEX
  5
30F6
330
30F3
100
AcDbEntity
  8
AM_0
100
AcDbVertex
100
AcDb2dVertex
 10
-96.71028194226829
 20
5.465024318915369
 30
0.0
 42
0.0280074108471844
  0
VERTEX
  5
30F7
330
30F3
100
AcDbEntity
  8
AM_0
100
AcDbVertex
100
AcDb2dVertex
 10
-97.40067338982626
 20
5.088906025844425
 30
0.0
 42
0.0427564762256376
 70
     1
  0
VERTEX
  5
30F8
330
30F3
100
AcDbEntity
  8
AM_0
100
AcDbVertex
100
AcDb2dVertex
 10
-97.74205638845316
 20
4.69512689145854
 30
0.0
 42
0.0658714570033076
  0
VERTEX
  5
30F9
330
30F3
100
AcDbEntity
  8
AM_0
100
AcDbVertex
100
AcDb2dVertex
 10
-97.95631225453508
 20
4.428979054819516
 30
0.0
 42
0.1411961588081283
 70
     1
  0
VERTEX
  5
30FA
330
30F3
100
AcDbEntity
  8
AM_0
100
AcDbVertex
100
AcDb2dVertex
 10
-97.99999999999942
 20
4.27181213403349
 30
0.0
 42
0.1226739033459629
  0
VERTEX
  5
30FB
330
30F3
100
AcDbEntity
  8
AM_0
100
AcDbVertex
100
AcDb2dVertex
 10
-97.95737978441767
 20
4.099008768062484
 30
0.0
 42
0.0555312784770531
 70
     1
  0
VERTEX
  5
30FC
330
30F3
100
AcDbEntity
  8
AM_0
100
AcDbVertex
100
AcDb2dVertex
 10
-97.74205638845321
 20
3.778423502760621
 30
0.0
 42
0.0351528005485752
  0
VERTEX
  5
30FD
330
30F3
100
AcDbEntity
  8
AM_0
100
AcDbVertex
100
AcDb2dVertex
 10
-97.39406342727383
 20
3.42086816908694
 30
0.0
 42
0.0197318127063559
 70
     1
  0
VERTEX
  5
30FE
330
30F3
100
AcDbEntity
  8
AM_0
100
AcDbVertex
100
AcDb2dVertex
 10
-96.71028194226838
 20
2.857701344477167
 30
0.0
 42
0.0358460074876439
  0
VERTEX
  5
30FF
330
30F3
100
AcDbEntity
  8
AM_0
100
AcDbVertex
100
AcDb2dVertex
 10
-96.42982917906126
 20
2.675144868692458
 30
0.0
 42
0.021710998496176
 70
     1
  0
VERTEX
  5
3100
330
30F3
100
AcDbEntity
  8
AM_0
100
AcDbVertex
100
AcDb2dVertex
 10
-95.93645110762983
 20
2.43036781746658
 30
0.0
  0
SEQEND
  5
3101
330
30F3
100
AcDbEntity
  8
AM_0
  0
POLYLINE
  5
3102
330
1F
100
AcDbEntity
  8
AM_0
100
AcDb2dPolyline
 66
     1
 10
0.0
 20
0.0
 30
0.0
 70
     2
  0
VERTEX
  5
3103
330
3102
100
AcDbEntity
  8
AM_0
100
AcDbVertex
100
AcDb2dVertex
 10
-96.89944059073585
 20
-4.582877427791933
 30
0.0
 42
0.0351157762658453
  0
VERTEX
  5
3104
330
3102
100
AcDbEntity
  8
AM_0
100
AcDbVertex
100
AcDb2dVertex
 10
-97.12870049837915
 20
-4.534920637325853
 30
0.0
 42
0.044786481860755
 70
     1
  0
VERTEX
  5
3105
330
3102
100
AcDbEntity
  8
AM_0
100
AcDbVertex
100
AcDb2dVertex
 10
-97.31215036920978
 20
-4.527064096032139
 30
0.0
 42
0.0378244354854128
  0
VERTEX
  5
3106
330
3102
100
AcDbEntity
  8
AM_0
100
AcDbVertex
100
AcDb2dVertex
 10
-97.68980077460881
 20
-4.574996252041435
 30
0.0
 42
0.0785304530199817
 70
     1
  0
VERTEX
  5
3107
330
3102
100
AcDbEntity
  8
AM_0
100
AcDbVertex
100
AcDb2dVertex
 10
-97.86243007384172
 20
-4.64065923607226
 30
0.0
 42
0.0914341172496281
  0
VERTEX
  5
3108
330
3102
100
AcDbEntity
  8
AM_0
100
AcDbVertex
100
AcDb2dVertex
 10
-97.97333661122603
 20
-4.735301792722994
 30
0.0
 42
0.1734786634335468
 70
     1
  0
VERTEX
  5
3109
330
3102
100
AcDbEntity
  8
AM_0
100
AcDbVertex
100
AcDb2dVertex
 10
-97.99999999999966
 20
-4.810067707872141
 30
0.0
 42
0.1707159826348874
  0
VERTEX
  5
310A
330
3102
100
AcDbEntity
  8
AM_0
100
AcDbVertex
100
AcDb2dVertex
 10
-97.97438376207686
 20
-4.886249266269112
 30
0.0
 42
0.0878858945849485
 70
     1
  0
VERTEX
  5
310B
330
3102
100
AcDbEntity
  8
AM_0
100
AcDbVertex
100
AcDb2dVertex
 10
-97.86243007384172
 20
-4.987955624023169
 30
0.0
 42
0.0737173247185441
  0
VERTEX
  5
310C
330
3102
100
AcDbEntity
  8
AM_0
100
AcDbVertex
100
AcDb2dVertex
 10
-97.68594566472073
 20
-5.065045938393593
 30
0.0
 42
0.037064748993984
 70
     1
  0
VERTEX
  5
310D
330
3102
100
AcDbEntity
  8
AM_0
100
AcDbVertex
100
AcDb2dVertex
 10
-97.31215036920978
 20
-5.135468541467752
 30
0.0
 42
0.0449345368811406
  0
VERTEX
  5
310E
330
3102
100
AcDbEntity
  8
AM_0
100
AcDbVertex
100
AcDb2dVertex
 10
-97.13192534579976
 20
-5.138800613871034
 30
0.0
 42
0.0344667769950814
 70
     1
  0
VERTEX
  5
310F
330
3102
100
AcDbEntity
  8
AM_0
100
AcDbVertex
100
AcDb2dVertex
 10
-96.89944059073585
 20
-5.105093542761343
 30
0.0
  0
SEQEND
  5
3110
330
3102
100
AcDbEntity
  8
AM_0
  0
LINE
  5
3111
330
1F
100
AcDbEntity
  8
AM_0
100
AcDbLine
 10
-90.67988046491619
 20
-6.000000479706609
 30
0.0
 11
-97.99999999999965
 21
-6.000000000000307
 31
0.0
  0
SPLINE
  5
3112
330
1F
100
AcDbEntity
  8
AM_0
100
AcDbSpline
210
0.0
220
0.0
230
1.0
 70
     8
 71
     3
 72
    15
 73
    11
 74
     0
 42
0.0000000001
 43
0.0000000001
 40
5.241236682593577
 40
5.241236682593577
 40
5.241236682593577
 40
5.241236682593577
 40
5.954688180526682
 40
6.824620803463244
 40
7.701151815239697
 40
8.58445704656667
 40
9.47458238407075
 40
10.37139106676736
 40
11.27458944007584
 40
12.17321262433756
 40
12.17321262433756
 40
12.17321262433756
 40
12.17321262433756
 10
-88.94716898284794
 20
-0.5329032039647699
 30
0.0
 10
-89.26688016133086
 20
-0.5947949149473701
 30
0.0
 10
-89.9744477438098
 20
-0.7402576202848289
 30
0.0
 10
-91.06649806661364
 20
-0.9925205375872096
 30
0.0
 10
-92.22514205256366
 20
-1.290755688899885
 30
0.0
 10
-93.38367316707211
 20
-1.617703607968304
 30
0.0
 10
-94.54208829404249
 20
-1.971348219122471
 30
0.0
 10
-95.70040604403358
 20
-2.34949273681094
 30
0.0
 10
-96.85413414365898
 20
-2.748257886603397
 30
0.0
 10
-97.61943107672919
 20
-3.025733269403767
 30
0.0
 10
-97.99999999999961
 20
-3.166489535070661
 30
0.0
  0
SPLINE
  5
3113
330
1F
100
AcDbEntity
  8
AM_0
100
AcDbSpline
210
0.0
220
0.0
230
1.0
 70
     8
 71
     3
 72
     9
 73
     5
 74
     0
 42
0.0000000001
 43
0.0000000001
 40
1.580019955310467
 40
1.580019955310467
 40
1.580019955310467
 40
1.580019955310467
 40
2.030549285115227
 40
2.43907978603305
 40
2.43907978603305
 40
2.43907978603305
 40
2.43907978603305
 10
-95.95767643878497
 20
-4.851631915124611
 30
0.0
 10
-96.12169623975557
 20
-4.897672804280621
 30
0.0
 10
-96.43498021149945
 20
-4.983961886041353
 30
0.0
 10
-96.74957389694627
 20
-5.066573493696113
 30
0.0
 10
-96.89944059073583
 20
-5.1050935427613
 30
0.0
  0
SPLINE
  5
3114
330
1F
100
AcDbEntity
  8
AM_0
100
AcDbSpline
210
0.0
220
0.0
230
1.0
 70
     8
 71
     3
 72
    14
 73
    10
 74
     0
 42
0.0000000001
 43
0.0000000001
 40
4.945401553178233
 40
4.945401553178233
 40
4.945401553178233
 40
4.945401553178233
 40
5.079857003664532
 40
6.109500240690281
 40
7.145961322679372
 40
8.189895241603872
 40
9.241717795325891
 40
10.30168407291828
 40
10.55450228288433
 40
10.55450228288433
 40
10.55450228288433
 40
10.55450228288433
 10
-90.67988046470361
 20
-6.000000479702881
 30
0.0
 10
-90.7305305186156
 20
-5.992296335330483
 30
0.0
 10
-91.16864789088555
 20
-5.924314320155152
 30
0.0
 10
-91.99408631799549
 20
-5.782209592975132
 30
0.0
 10
-93.15296058305799
 20
-5.549403268565179
 30
0.0
 10
-94.31172226977054
 20
-5.284741755365251
 30
0.0
 10
-95.47036348485427
 20
-4.98985005901097
 30
0.0
 10
-96.33184534343818
 20
-4.749465406972526
 30
0.0
 10
-96.80785349115268
 20
-4.609961709058823
 30
0.0
 10
-96.89944059073544
 20
-4.582877427790462
 30
0.0
  0
SPLINE
  5
3115
330
1F
100
AcDbEntity
  8
AM_0
100
AcDbSpline
210
0.0
220
0.0
230
1.0
 70
     8
 71
     3
 72
    16
 73
    12
 74
     0
 42
0.0000000001
 43
0.0000000001
 40
4.415514848569964
 40
4.415514848569964
 40
4.415514848569964
 40
4.415514848569964
 40
5.09097061220244
 40
5.954688180526682
 40
6.824620803463244
 40
7.701151815239697
 40
8.58445704656667
 40
9.47458238407075
 40
10.37139106676736
 40
11.27458944007584
 40
12.17321262433756
 40
12.17321262433756
 40
12.17321262433756
 40
12.17321262433756
 10
-87.83362498107093
 20
-6.000000479706742
 30
0.0
 10
-88.13817575724602
 20
-5.94964021514664
 30
0.0
 10
-88.8305102243949
 20
-5.827009435770706
 30
0.0
 10
-89.90773889337061
 20
-5.608131151083906
 30
0.0
 10
-91.06649806661371
 20
-5.340458532533912
 30
0.0
 10
-92.22514205256373
 20
-5.042223381221183
 30
0.0
 10
-93.38367316707222
 20
-4.715275462152708
 30
0.0
 10
-94.54208829404256
 20
-4.361630850998488
 30
0.0
 10
-95.70040604403367
 20
-3.983486333309958
 30
0.0
 10
-96.85413414365903
 20
-3.584721183517458
 30
0.0
 10
-97.61943107672927
 20
-3.307245800717061
 30
0.0
 10
-97.99999999999961
 20
-3.166489535050153
 30
0.0
  0
SPLINE
  5
3116
330
1F
100
AcDbEntity
  8
AM_0
100
AcDbSpline
210
0.0
220
0.0
230
1.0
 70
     8
 71
     3
 72
    13
 73
     9
 74
     0
 42
0.0000000001
 43
0.0000000001
 40
26.13201924531566
 40
26.13201924531566
 40
26.13201924531566
 40
26.13201924531566
 40
26.99048218457928
 40
28.09348763352352
 40
29.20111863782268
 40
30.31232390128032
 40
31.42594612798585
 40
32.5407912310448
 40
32.5407912310486
 40
32.5407912310486
 40
32.5407912310486
 10
-95.93645110891944
 20
2.430367817977803
 30
0.0
 10
-95.63731043077414
 20
2.311783833551022
 30
0.0
 10
-94.9554625030311
 20
2.037616131777726
 30
0.0
 10
-93.89377481328059
 20
1.598748266517265
 30
0.0
 10
-92.7498182046323
 20
1.11419379738632
 30
0.0
 10
-91.6061482825691
 20
0.6209518223082866
 30
0.0
 10
-90.4626719200751
 20
0.1218805449634965
 30
0.0
 10
-89.70055910331387
 20
-0.2127194575607883
 30
0.0
 10
-89.31929486206684
 20
-0.3801135150642514
 30
0.0
  0
ELLIPSE
  5
3117
330
1F
100
AcDbEntity
  8
AM_0
100
AcDbEllipse
 10
-95.53378715893812
 20
21.76267902082786
 30
0.0
 11
0.2547627607714533
 21
16.04089319954372
 31
0.0
210
0.0
220
0.0
230
1.0
 40
0.603564070908497
 41
2.964417379926794
 42
3.175537034410332
  0
SPLINE
  5
3118
330
1F
100
AcDbEntity
  8
AM_0
100
AcDbSpline
210
0.0
220
0.0
230
1.0
 70
     8
 71
     3
 72
    22
 73
    18
 74
     0
 42
0.0000000001
 43
0.0000000001
 40
30.51371389116273
 40
30.51371389116273
 40
30.51371389116273
 40
30.51371389116273
 40
31.16722880550176
 40
32.23537921050758
 40
33.29534548809967
 40
34.347168041821
 40
35.39108718934584
 40
36.42754827133493
 40
37.45720575381954
 40
38.48085062012849
 40
39.49948440763516
 40
40.51422944315121
 40
41.52631975251916
 40
42.53706336719636
 40
43.54780698187354
 40
44.55989729124051
 40
45.14939243453665
 40
45.14939243453665
 40
45.14939243453665
 40
45.14939243453665
 10
-74.62870400681339
 20
-0.000000000494202
 30
0.0
 10
-78.87540908959923
 20
2.593888108958816
 30
0.0
 10
-78.92325641015166
 20
2.640343506432852
 30
0.0
 10
-80.73872758963133
 20
3.674081899202195
 30
0.0
 10
-81.8972539886996
 20
3.997353104105442
 30
0.0
 10
-83.51616059631313
 20
4.567142772233892
 30
0.0
 10
-84.83193510666826
 20
4.925589337762235
 30
0.0
 10
-85.99080894184856
 20
5.158400343614516
 30
0.0
 10
-87.14979378386946
 20
5.357903096106587
 30
0.0
 10
-88.30888035789353
 20
5.52285481893935
 30
0.0
 10
-89.46804675835585
 20
5.652243800017885
 30
0.0
 10
-90.62728536610197
 20
5.7452339284461
 30
0.0
 10
-91.78657167104031
 20
5.801267354735435
 30
0.0
 10
-92.94588345059217
 20
5.819986268365827
 30
0.0
 10
-94.10519522843824
 20
5.801267354706161
 30
0.0
 10
-95.10218571509588
 20
5.753078402319226
 30
0.0
 10
-95.7121566216618
 20
5.708237347627568
 30
0.0
 10
-95.93645110762968
 20
5.682136224382533
 30
0.0
  0
ELLIPSE
  5
3119
330
1F
100
AcDbEntity
  8
AM_0
100
AcDbEllipse
 10
-96.48111008594824
 20
-6.610125306436762
 30
0.0
 11
1.620721462315364
 21
1.0710511903131
 31
0.0
210
0.0
220
0.0
230
1.0
 40
0.789633939638244
 41
1.320715970371181
 42
2.070471291121606
  0
SPLINE
  5
311C
330
1F
100
AcDbEntity
  8
AM_0
100
AcDbSpline
210
0.0
220
0.0
230
1.0
 70
     8
 71
     3
 72
    22
 73
    18
 74
     0
 42
0.0000000001
 43
0.0000000001
 40
17.17441611292
 40
17.17441611292
 40
17.17441611292
 40
17.17441611292
 40
17.38177636558528
 40
18.41823744757437
 40
19.46215659509824
 40
20.51397914882054
 40
21.57394542641293
 40
22.64209583141747
 40
23.71826625065247
 40
24.80210429862395
 40
25.8930771157021
 40
26.99048705697709
 40
28.09349309193389
 40
29.20112995599786
 40
30.31233024745139
 40
31.42594771747373
 40
32.5407895042663
 40
32.54078950426994
 40
32.54078950426994
 40
32.54078950426994
 10
-61.17520979257154
 20
-5.388043905601979
 30
0.0
 10
-61.23869094084271
 20
-5.374154494092599
 30
0.0
 10
-61.61922575565416
 20
-5.289552570438841
 30
0.0
 10
-62.31634409333726
 20
-5.119914702327553
 30
0.0
 10
-63.26393393818797
 20
-4.857745808941225
 30
0.0
 10
-64.2114272256226
 20
-4.565638893565369
 30
0.0
 10
-65.15883064489064
 20
-4.245417359994576
 30
0.0
 10
-66.10614294453807
 20
-3.899044639683116
 30
0.0
 10
-67.05337578488077
 20
-3.528676370126462
 30
0.0
 10
-68.00053355187309
 20
-3.136588715543056
 30
0.0
 10
-68.94762500897655
 20
-2.725199659014786
 30
0.0
 10
-69.89466068724786
 20
-2.297047210442263
 30
0.0
 10
-70.84164880638525
 20
-1.854764092179413
 30
0.0
 10
-71.7885988993552
 20
-1.401071304706649
 30
0.0
 10
-72.73551936004611
 20
-0.9387585451162275
 30
0.0
 10
-73.68242421626104
 20
-0.4706785330185661
 30
0.0
 10
-74.3135702096819
 20
-0.1567471978771973
 30
0.0
 10
-74.6293165867407
 20
0.0003046960748431
 30
0.0
  0
SPLINE
  5
311D
330
1F
100
AcDbEntity
  8
AM_0
100
AcDbSpline
210
0.0
220
0.0
230
1.0
 70
     8
 71
     3
 72
    46
 73
    42
 74
     0
 42
0.0000000001
 43
0.0000000001
 40
0.0
 40
0.0
 40
0.0
 40
0.0
 40
1.348332046947654
 40
2.024828967632893
 40
2.703918159304094
 40
3.386347665078122
 40
4.072776489761951
 40
4.763750544421345
 40
5.459696642770595
 40
6.160921452191748
 40
6.867565637253344
 40
7.579665907256597
 40
8.297112853413899
 40
9.019671552060666
 40
9.746986763446125
 40
10.47859339096365
 40
11.21393074760088
 40
11.95235532364327
 40
12.69315551794651
 40
13.43556823304427
 40
14.1787950170388
 40
14.92202180103393
 40
15.66443451613169
 40
16.40523471043432
 40
17.14365928647669
 40
17.87899664311455
 40
18.61060327063121
 40
19.33791848201689
 40
20.06048192311554
 40
20.77792886927282
 40
21.49002913927608
 40
22.19667332433747
 40
22.89788836015233
 40
23.59383445850157
 40
24.28480851316097
 40
24.97123685067575
 40
25.65366676154837
 40
26.33276604526151
 40
27.00926273560554
 40
27.68398960851752
 40
28.35781868496899
 40
28.35781868496899
 40
28.35781868496899
 40
28.35781868496899
 10
-37.04461600232724
 20
-6.000000479708432
 30
0.0
 10
-37.67681736767107
 20
-5.986332015902922
 30
0.0
 10
-38.62621231887997
 20
-5.965805691160371
 30
0.0
 10
-39.88866418694243
 20
-5.839428880607119
 30
0.0
 10
-40.83660089167795
 20
-5.712007437847606
 30
0.0
 10
-41.78445657039126
 20
-5.548419949900317
 30
0.0
 10
-42.73222872610594
 20
-5.350841698845365
 30
0.0
 10
-43.67991248993057
 20
-5.120217277043763
 30
0.0
 10
-44.62750627463719
 20
-4.85804905620404
 30
0.0
 10
-45.57500586309887
 20
-4.56594678801138
 30
0.0
 10
-46.52241314913992
 20
-4.245722199057333
 30
0.0
 10
-47.46972558452284
 20
-3.899349906597592
 30
0.0
 10
-48.41695838832883
 20
-3.528981521666304
 30
0.0
 10
-49.36411616429857
 20
-3.136893896217435
 30
0.0
 10
-50.31120762243123
 20
-2.725504839765581
 30
0.0
 10
-51.25824328740462
 20
-2.297352361204091
 30
0.0
 10
-52.2052314590872
 20
-1.855069363718909
 30
0.0
 10
-53.15218135406328
 20
-1.401376120562435
 30
0.0
 10
-54.09910301270123
 20
-0.9390648478004921
 30
0.0
 10
-55.04600508519229
 20
-0.4709784347842053
 30
0.0
 10
-55.99289919785732
 20
-0.0000004798030916
 30
0.0
 10
-56.93979331031433
 20
0.4709774757503521
 30
0.0
 10
-57.88669538342934
 20
0.9390638870504762
 30
0.0
 10
-58.83361703978662
 20
1.401375166084235
 30
0.0
 10
-59.78056694321952
 20
1.855068385980832
 30
0.0
 10
-60.72755508354507
 20
2.29735146971126
 30
0.0
 10
-61.67459086464428
 20
2.725503628876301
 30
0.0
 10
-62.62168395216565
 20
3.136894761120794
 30
0.0
 10
-63.56884540833359
 20
3.528978824254818
 30
0.0
 10
-64.51607990185763
 20
3.899349108308348
 30
0.0
 10
-65.46339231518448
 20
4.245721503832271
 30
0.0
 10
-66.41079570938406
 20
4.565943150196008
 30
0.0
 10
-67.3582889848508
 20
4.858049936963326
 30
0.0
 10
-68.30587890154319
 20
5.120219228788922
 30
0.0
 10
-69.25356211689821
 20
5.350828561930078
 30
0.0
 10
-70.20133496746145
 20
5.548464118463632
 30
0.0
 10
-71.14919669546281
 20
5.711818001380494
 30
0.0
 10
-72.09712851572081
 20
5.8401364673595
 30
0.0
 10
-73.04511898405923
 20
5.931684936082985
 30
0.0
 10
-73.99314386374648
 20
5.989292877670075
 30
0.0
 10
-74.62531460699456
 20
5.996432223750241
 30
0.0
 10
-74.94118954587536
 20
5.99999952029283
 30
0.0
  0
LINE
  5
311E
330
1F
100
AcDbEntity
  8
AM_0
100
AcDbLine
 10
-77.59514023579708
 20
5.999999520292919
 30
0.0
 11
-55.24199027022607
 21
6.000851929181005
 31
0.0
  0
LINE
  5
311F
330
1F
100
AcDbEntity
  8
AM_0
 48
0.5
100
AcDbLine
 10
-77.59514738838804
 20
-6.000000479707
 30
0.0
 11
-57.55680586744105
 21
-6.000000479707595
 31
0.0
  0
SPLINE
  5
3120
330
1F
100
AcDbEntity
  8
AM_0
100
AcDbSpline
210
0.0
220
0.0
230
1.0
 70
     8
 71
     3
 72
    55
 73
    51
 74
     0
 42
0.0000000001
 43
0.0000000001
 40
0.0
 40
0.0
 40
0.0
 40
0.0
 40
1.010743684496582
 40
2.022833576467832
 40
3.037578957496688
 40
4.056212745003489
 40
5.079857003664532
 40
6.109500240690281
 40
7.145961322679372
 40
8.189895241603872
 40
9.241717795325891
 40
10.30168407291828
 40
11.36983447792315
 40
12.44600489715814
 40
13.52984294512926
 40
14.62081576220742
 40
15.7182257034828
 40
16.82123173843959
 40
17.92886860250316
 40
19.0400688939571
 40
20.15368796660465
 40
21.26852814259644
 40
22.38336992938901
 40
23.49698739941135
 40
24.6081876908653
 40
25.71582455492886
 40
26.81883757994213
 40
27.91624752121713
 40
29.00722033829659
 40
30.09105838626677
 40
31.16722880550176
 40
32.23537921050758
 40
33.29534548809967
 40
34.347168041821
 40
35.39108718934584
 40
36.42754827133493
 40
37.45720575381954
 40
38.48085062012849
 40
39.49948440763516
 40
40.51422944315121
 40
41.52631975251916
 40
42.53706336719636
 40
43.54780698187354
 40
44.55989729124051
 40
45.57464232675757
 40
46.59327611426424
 40
47.6169209805722
 40
48.64656348684535
 40
49.68302456883444
 40
50.43701433679709
 40
50.43701433679709
 40
50.43701433679709
 40
50.43701433679709
 10
-39.6984436695638
 20
-6.000000479708342
 30
0.0
 10
-40.01431855225511
 20
-5.996430625067215
 30
0.0
 10
-40.64648903075682
 20
-5.989286161102785
 30
0.0
 10
-41.59451468962258
 20
-5.93169376088209
 30
0.0
 10
-42.54249988084744
 20
-5.840136889344607
 30
0.0
 10
-43.49042640109601
 20
-5.711816451714821
 30
0.0
 10
-44.43828479155381
 20
-5.548471435946118
 30
0.0
 10
-45.38605635309407
 20
-5.350828211292823
 30
0.0
 10
-46.3337442559706
 20
-5.12021817296221
 30
0.0
 10
-47.28134009610699
 20
-4.858053466490583
 30
0.0
 10
-48.22883741864858
 20
-4.56594376727173
 30
0.0
 10
-49.17624094634565
 20
-4.245722617691872
 30
0.0
 10
-50.1235532165338
 20
-3.899349793139363
 30
0.0
 10
-51.0707860651211
 20
-3.528981552431738
 30
0.0
 10
-52.01794382889236
 20
-3.136893887761894
 30
0.0
 10
-52.96503529059322
 20
-2.725504842536057
 30
0.0
 10
-53.91207095359618
 20
-2.29735235863407
 30
0.0
 10
-54.85905912959179
 20
-1.855069371258109
 30
0.0
 10
-55.80600900920828
 20
-1.401376092832858
 30
0.0
 10
-56.7529307252117
 20
-0.9390649515855706
 30
0.0
 10
-57.69983258300695
 20
-0.4709780464194071
 30
0.0
 10
-58.64672795431495
 20
-0.0000017039256615
 30
0.0
 10
-59.59361907485501
 20
0.4709831164357645
 30
0.0
 10
-60.54052410645891
 20
0.9390627322506968
 30
0.0
 10
-61.48744465347477
 20
1.401375272887488
 30
0.0
 10
-62.4343962214924
 20
1.855070279681909
 30
0.0
 10
-63.38138832604924
 20
2.297349492537198
 30
0.0
 10
-64.32842548372466
 20
2.725504147767997
 30
0.0
 10
-65.27551708215397
 20
3.136892859399732
 30
0.0
 10
-66.22267481146121
 20
3.528980606524143
 30
0.0
 10
-67.16990766247398
 20
3.899348847773539
 30
0.0
 10
-68.11721995679097
 20
4.245721589503079
 30
0.0
 10
-69.06462338670566
 20
4.565943066058188
 30
0.0
 10
-70.01211663725179
 20
4.858050185952148
 30
0.0
 10
-70.95970661760242
 20
5.120218326127345
 30
0.0
 10
-71.90739416893594
 20
5.350833001735703
 30
0.0
 10
-72.85517249788281
 20
5.548453652789166
 30
0.0
 10
-73.80303401979688
 20
5.711849227293305
 30
0.0
 10
-74.75096082105328
 20
5.840017557606937
 30
0.0
 10
-75.69894667096706
 20
5.932130420672635
 30
0.0
 10
-76.64697152602002
 20
5.987635229732821
 30
0.0
 10
-77.59501721334423
 20
6.006177549838372
 30
0.0
 10
-78.54306289927357
 20
5.987635229703803
 30
0.0
 10
-79.49108775851939
 20
5.932130420789371
 30
0.0
 10
-80.43907359299621
 20
5.840017557167556
 30
0.0
 10
-81.38700045212955
 20
5.711849228945203
 30
0.0
 10
-82.33485713545672
 20
5.54845444315843
 30
0.0
 10
-83.28263173051768
 20
5.350835022300387
 30
0.0
 10
-84.14196189142939
 20
5.141703476901722
 30
0.0
 10
-84.68418732840921
 20
4.994258900163399
 30
0.0
 10
-84.91190741493401
 20
4.929685480543455
 30
0.0
  0
SPLINE
  5
3121
330
1F
100
AcDbEntity
  8
AM_0
100
AcDbSpline
210
0.0
220
0.0
230
1.0
 70
     8
 71
     3
 72
    21
 73
    17
 74
     0
 42
0.0000000001
 43
0.0000000001
 40
17.76287965763106
 40
17.76287965763106
 40
17.76287965763106
 40
17.76287965763106
 40
18.41823744757437
 40
19.46215659509824
 40
20.51397914882054
 40
21.57394542641293
 40
22.64209583141747
 40
23.71826625065247
 40
24.80210429862395
 40
25.8930771157021
 40
26.99048705697709
 40
28.09349309193389
 40
29.20112995599786
 40
30.31233024745139
 40
31.42594771747373
 40
32.5407895042663
 40
32.54078950426994
 40
32.54078950426994
 40
32.54078950426994
 10
-72.77112321463019
 20
-6.000000479707139
 30
0.0
 10
-73.18221571240541
 20
-5.884632921193826
 30
0.0
 10
-74.40344160421095
 20
-5.516894336004471
 30
0.0
 10
-75.42120729124045
 20
-5.284431167745057
 30
0.0
 10
-76.57984357201875
 20
-4.98954228174656
 30
0.0
 10
-77.73836995806783
 20
-4.666271019284616
 30
0.0
 10
-78.89678491905485
 20
-4.316599511160669
 30
0.0
 10
-80.05510271372468
 20
-3.942703924751077
 30
0.0
 10
-81.21332870541435
 20
-3.546882102028771
 30
0.0
 10
-82.37147361046844
 20
-3.131575054485944
 30
0.0
 10
-83.52955030672392
 20
-2.699344963546057
 30
0.0
 10
-84.68756884558809
 20
-2.252849625109264
 30
0.0
 10
-85.84554088438956
 20
-1.794835953946265
 30
0.0
 10
-87.00347668754266
 20
-1.328120215693076
 30
0.0
 10
-88.16139340885925
 20
-0.8555822987182942
 30
0.0
 10
-88.93318636627981
 20
-0.5386611413374746
 30
0.0
 10
-89.31929486207206
 20
-0.3801135150620829
 30
0.0
  0
DIMENSION
  5
3189
330
1F
100
AcDbEntity
  8
AM_5
100
AcDbDimension
  2
*D8
 10
15.55592102485801
 20
-6.000000479709757
 30
0.0
 11
12.15592102485801
 21
-0.0000004797096148
 31
0.0
 70
    32
  1
%%c<>
 51
359.9999999999998
  3
AM_JIS$0
100
AcDbAlignedDimension
 13
-1.999999999999492
 23
5.999999520290526
 33
0.0
 14
-1.999999999999451
 24
-6.000000479709752
 34
0.0
 50
89.99999999999804
100
AcDbRotatedDimension
1001
ACAD
1000
DSTYLE
1002
{
1070
   271
1070
     0
1002
}
1001
GENIUS_GENDTOL_13
1000

1000
h7
1000

1040
0.0
  0
DIMENSION
  5
32CB
330
1F
100
AcDbEntity
  8
AM_5
100
AcDbDimension
  2
*D9
 10
-0.6556992300413876
 20
-1.80151496243851
 30
0.0
 11
21.93213015903704
 21
-0.0000113456048738
 31
0.0
 70
    34
  1
<>
 51
359.9999999999998
  3
AM_JIS$2
100
AcDb2LineAngularDimension
 13
0.00000000000054
 23
0.0
 33
0.0
 14
-0.6556848755422258
 24
1.801480604883394
 34
0.0
 15
0.0000000000003695
 25
-0.0000000000000001
 35
0.0
 16
22.98491037682612
 26
9.914708027389112
 36
0.0
1001
GENIUS_GENDTOL_13
1000

1000
h7
1000

1040
0.0
1001
ACAD
1000
DSTYLE
1002
{
1070
   271
1070
     0
1002
}
  0
ELLIPSE
  5
33CB
330
1F
100
AcDbEntity
  8
AM_11
 48
0.5
100
AcDbEllipse
 10
-156.2534427026569
 20
23.85166937466857
 30
0.0
 11
-26.63799285888635
 21
0.0000000000003979
 31
0.0
210
0.0
220
0.0
230
1.0
 40
0.9900000000000002
 41
1.429681313187787
 42
2.011520147323597
  0
ELLIPSE
  5
33CC
330
1F
100
AcDbEntity
  8
AM_11
 48
0.5
100
AcDbEllipse
 10
-156.2534427026576
 20
-23.85156472567302
 30
0.0
 11
-26.63799285888627
 21
0.0000000000015277
 31
0.0
210
0.0
220
0.0
230
1.0
 40
0.9900000000000032
 41
4.271664206181728
 42
4.853503993991846
  0
ELLIPSE
  5
33CD
330
1F
100
AcDbEntity
  8
AM_11
 48
0.5
100
AcDbEllipse
 10
-133.5261229292475
 20
23.85164740650095
 30
0.0
 11
-26.63799285888635
 21
0.0000000000003979
 31
0.0
210
0.0
220
0.0
230
1.0
 40
0.9900000000000002
 41
1.130070686340306
 42
2.011520147323597
  0
ELLIPSE
  5
33CE
330
1F
100
AcDbEntity
  8
AM_11
 48
0.5
100
AcDbEllipse
 10
-133.5261229292481
 20
-23.85158669384063
 30
0.0
 11
-26.63799285888627
 21
0.0000000000015277
 31
0.0
210
0.0
220
0.0
230
1.0
 40
0.9900000000000032
 41
4.271664206181728
 42
5.153113667165039
  0
ELLIPSE
  5
33CF
330
1F
100
AcDbEntity
  8
AM_11
 48
0.5
100
AcDbEllipse
 10
-110.798803155838
 20
23.85162543833334
 30
0.0
 11
-26.63799285888635
 21
0.0000000000003979
 31
0.0
210
0.0
220
0.0
230
1.0
 40
0.9900000000000002
 41
1.130070686340306
 42
2.011520147323597
  0
ELLIPSE
  5
33D0
330
1F
100
AcDbEntity
  8
AM_11
 48
0.5
100
AcDbEllipse
 10
-110.7988031558386
 20
-23.85160866200825
 30
0.0
 11
-26.63799285888627
 21
0.0000000000015277
 31
0.0
210
0.0
220
0.0
230
1.0
 40
0.9900000000000032
 41
4.271664206181728
 42
5.153113667165039
  0
ELLIPSE
  5
33D1
330
1F
100
AcDbEntity
  8
AM_11
 48
0.5
100
AcDbEllipse
 10
-88.07157747494256
 20
-23.85158669384036
 30
0.0
 11
-26.63799285888627
 21
0.0000000000015277
 31
0.0
210
0.0
220
0.0
230
1.0
 40
0.9900000000000032
 41
4.271664206181728
 42
5.153113667165039
  0
ELLIPSE
  5
33D2
330
1F
100
AcDbEntity
  8
AM_11
 48
0.5
100
AcDbEllipse
 10
-88.07157747494192
 20
23.85164740650123
 30
0.0
 11
-26.63799285888635
 21
0.0000000000003979
 31
0.0
210
0.0
220
0.0
230
1.0
 40
0.9900000000000002
 41
1.130070686340306
 42
2.011520147323597
  0
ELLIPSE
  5
33D3
330
1F
100
AcDbEntity
  8
AM_11
 48
0.5
100
AcDbEllipse
 10
-42.61698497426126
 20
-23.85160866200783
 30
0.0
 11
-26.63799285888627
 21
0.0000000000015277
 31
0.0
210
0.0
220
0.0
230
1.0
 40
0.9900000000000032
 41
4.271664206181728
 42
5.153113667165039
  0
ELLIPSE
  5
33D4
330
1F
100
AcDbEntity
  8
AM_11
 48
0.5
100
AcDbEllipse
 10
-42.61698497426062
 20
23.85162543833375
 30
0.0
 11
-26.63799285888635
 21
0.0000000000003979
 31
0.0
210
0.0
220
0.0
230
1.0
 40
0.9900000000000002
 41
1.130070686340306
 42
2.011520147323597
  0
ELLIPSE
  5
33D5
330
1F
100
AcDbEntity
  8
AM_11
 48
0.5
100
AcDbEllipse
 10
-65.34425770153311
 20
-23.85160866200797
 30
0.0
 11
-26.63799285888627
 21
0.0000000000015277
 31
0.0
210
0.0
220
0.0
230
1.0
 40
0.9900000000000032
 41
4.271664206181728
 42
5.153113667165039
  0
ELLIPSE
  5
33D6
330
1F
100
AcDbEntity
  8
AM_11
 48
0.5
100
AcDbEllipse
 10
-65.34425770153247
 20
23.85162543833362
 30
0.0
 11
-26.63799285888635
 21
0.0000000000003979
 31
0.0
210
0.0
220
0.0
230
1.0
 40
0.9900000000000002
 41
1.130070686340306
 42
2.011520147323597
  0
ELLIPSE
  5
33D7
330
1F
100
AcDbEntity
  8
AM_11
 48
0.5
100
AcDbEllipse
 10
-19.88971224698789
 20
23.85162543833346
 30
0.0
 11
-26.63799285888635
 21
0.0000000000011491
 31
0.0
210
0.0
220
0.0
230
1.0
 40
0.9899999999999995
 41
1.130070686340335
 42
2.011520147323624
  0
ELLIPSE
  5
33D8
330
1F
100
AcDbEntity
  8
AM_11
 48
0.5
100
AcDbEllipse
 10
-19.88971224698855
 20
-23.85160866200812
 30
0.0
 11
-26.63799285888632
 21
0.0000000000017761
 31
0.0
210
0.0
220
0.0
230
1.0
 40
0.9900000000000009
 41
4.271664206181739
 42
5.153113667165048
  0
ELLIPSE
  5
33D9
330
1F
100
AcDbEntity
  8
AM_11
 48
0.5
100
AcDbEllipse
 10
2.837560480284849
 20
23.85162543833314
 30
0.0
 11
-26.63799285888681
 21
0.0000000000250272
 31
0.0
210
0.0
220
0.0
230
1.0
 40
0.9899999999999861
 41
1.130070686341231
 42
1.291800737381917
  0
VIEWPORT
  5
110
330
101
100
AcDbEntity
 67
     1
  8
0
100
AcDbViewport
 10
420.5
 20
297.0
 30
0.0
 40
948.9782706766916
 41
628.452
 68
     1
 69
     1
1001
ACAD
1000
MVIEW
1002
{
1070
    16
1010
0.0
1020
0.0
1030
0.0
1010
0.0
1020
0.0
1030
1.0
1040
0.0
1040
628.452
1040
420.5
1040
297.0
1040
50.0
1040
0.0
1040
0.0
1070
     0
1070
   100
1070
     1
1070
     1
1070
     0
1070
     0
1070
     0
1070
     0
1040
0.0
1040
0.0
1040
0.0
1040
10.0
1040
10.0
1040
10.0
1040
10.0
1070
     0
1002
{
1002
}
1002
}
  0
ENDSEC
  0
SECTION
  2
OBJECTS
  0
DICTIONARY
  5
C
330
0
100
AcDbDictionary
  3
ACAD_GROUP
350
D
  3
ACAD_LAYOUT
350
1A
  3
ACAD_MLINESTYLE
350
17
  3
ACAD_PLOTSETTINGS
350
19
  3
ACAD_PLOTSTYLENAME
350
E
  3
ACDBVARIABLEDICTIONARY
350
34
  3
ACMDICTIONARY
350
43
  3
AMG
350
2B
  3
AMGSNAPSETTINGS
350
6E
  3
DWGPROPS
350
33FF
  3
ACDBHEADERROUNDTRIPXREC
350
340C
  0
DICTIONARY
  5
74
330
1F
100
AcDbDictionary
280
     1
  3
ACAD_INDEX
360
3401
  3
ACAD_LAYOUTSELFREF
360
342F
  0
DICTIONARY
  5
3434
330
101
100
AcDbDictionary
280
     1
  3
ACAD_LAYOUTSELFREF
360
3435
  0
DICTIONARY
  5
D
102
{ACAD_REACTORS
330
C
102
}
330
C
100
AcDbDictionary
  0
DICTIONARY
  5
1A
102
{ACAD_REACTORS
330
C
102
}
330
C
100
AcDbDictionary
  0
DICTIONARY
  5
17
102
{ACAD_REACTORS
330
C
102
}
330
C
100
AcDbDictionary
  3
STANDARD
350
18
  0
DICTIONARY
  5
19
102
{ACAD_REACTORS
330
C
102
}
330
C
100
AcDbDictionary
  0
ACDBDICTIONARYWDFLT
  5
E
102
{ACAD_REACTORS
330
C
102
}
330
C
100
AcDbDictionary
281
     1
  3
Normal
350
F
100
AcDbDictionaryWithDefault
340
F
  0
DICTIONARY
  5
34
102
{ACAD_REACTORS
330
C
102
}
330
C
100
AcDbDictionary
  3
INDEXCTL
350
35
  3
SORTENTS
350
B5E
  0
DICTIONARY
  5
43
102
{ACAD_REACTORS
330
C
102
}
330
C
100
AcDbDictionary
  3
ACMSTDDICTIONARY
350
260
  0
DICTIONARY
  5
2B
102
{ACAD_REACTORS
330
C
102
}
330
C
100
AcDbDictionary
  3
ACMGSETTINGS
350
2C
  0
DICTIONARY
  5
6E
102
{ACAD_REACTORS
330
C
102
}
330
C
100
AcDbDictionary
  0
XRECORD
  5
33FF
102
{ACAD_REACTORS
330
C
102
}
330
C
100
AcDbXrecord
  1
DWGPROPS COOKIE
  2

  3

  4

  6

  7

  8

  9

300
AmdtFileType=82
301
=
302
=
303
=
304
=
305
=
306
=
307
=
308
=
309
=
 40
0.0715775231481482
 41
2452800.443498622
 42
2452948.656693611
  1

 90
        1
  0
DICTIONARY
  5
340C
102
{ACAD_REACTORS
330
C
102
}
330
C
100
AcDbDictionary
  3
TSTACKALIGN
350
340D
  3
TSTACKSIZE
350
340E
  3
HYPERLINKBASE
350
340F
  3
STYLESHEET
350
3410
  3
LAYOUTDICT
350
3411
  3
PLOTSETDICT
350
3412
  3
PLOTSTYLNAMDICT
350
3413
  3
LWETCUNION
350
3414
  3
INSUNITS
350
3415
  3
CEPSNTYPE
350
3416
  3
FINGERPRINTGUID
350
3417
  3
VERSIONGUID
350
3418
  3
PSVPSCALE
350
3419
  3
DIMSTYLEDATA
350
341A
  3
PUCSORTHOREF
350
341B
  3
PUCSORTHOVIEW
350
341C
  3
PUCSBASE
350
341D
  3
PUCSORGTOP
350
341E
  3
PUCSORGBOTTOM
350
341F
  3
PUCSORGLEFT
350
3420
  3
PUCSORGRIGHT
350
3421
  3
PUCSORGFRONT
350
3422
  3
PUCSORGBACK
350
3423
  3
UCSORTHOREF
350
3424
  3
UCSORTHOVIEW
350
3425
  3
UCSBASE
350
3426
  3
UCSORGTOP
350
3427
  3
UCSORGBOTTOM
350
3428
  3
UCSORGLEFT
350
3429
  3
UCSORGRIGHT
350
342A
  3
UCSORGFRONT
350
342B
  3
UCSORGBACK
350
342C
  0
DICTIONARY
  5
3401
102
{ACAD_REACTORS
330
74
102
}
330
74
100
AcDbDictionary
  3
*A1
350
3402
  0
XRECORD
  5
342F
102
{ACAD_REACTORS
330
74
102
}
330
74
100
AcDbXrecord
340
1F
  0
XRECORD
  5
3435
102
{ACAD_REACTORS
330
3434
102
}
330
3434
100
AcDbXrecord
340
101
  0
MLINESTYLE
  5
18
102
{ACAD_REACTORS
330
17
102
}
330
17
100
AcDbMlineStyle
  2
STANDARD
 70
     0
  3

 62
   256
 51
90.0
 52
90.0
 71
     2
 49
0.5
 62
   256
  6
BYLAYER
 49
-0.5
 62
   256
  6
BYLAYER
  0
ACDBPLACEHOLDER
  5
F
102
{ACAD_REACTORS
330
E
102
}
330
E
100
AcDbPlaceHolder
280
     0
  0
DICTIONARYVAR
  5
35
102
{ACAD_REACTORS
330
34
102
}
330
34
100
DictionaryVariables
280
     0
  1
1
  0
DICTIONARYVAR
  5
B5E
102
{ACAD_REACTORS
330
34
102
}
330
34
100
DictionaryVariables
280
     0
  1
96
  0
DICTIONARY
  5
260
102
{ACAD_REACTORS
330
43
102
}
330
43
100
AcDbDictionary
  0
DICTIONARY
  5
2C
102
{ACAD_REACTORS
330
2B
102
}
330
2B
100
AcDbDictionary
  3
DWGSETTINGS
350
2D
  0
XRECORD
  5
340D
102
{ACAD_REACTORS
330
340C
102
}
330
340C
100
AcDbXrecord
 90
        1
  0
XRECORD
  5
340E
102
{ACAD_REACTORS
330
340C
102
}
330
340C
100
AcDbXrecord
 90
       70
  0
XRECORD
  5
340F
102
{ACAD_REACTORS
330
340C
102
}
330
340C
100
AcDbXrecord
  1

  0
XRECORD
  5
3410
102
{ACAD_REACTORS
330
340C
102
}
330
340C
100
AcDbXrecord
  1
ASAMI.ctb
  0
XRECORD
  5
3411
102
{ACAD_REACTORS
330
340C
102
}
330
340C
100
AcDbXrecord
340
1A
  0
XRECORD
  5
3412
102
{ACAD_REACTORS
330
340C
102
}
330
340C
100
AcDbXrecord
340
19
  0
XRECORD
  5
3413
102
{ACAD_REACTORS
330
340C
102
}
330
340C
100
AcDbXrecord
340
E
  0
XRECORD
  5
3414
102
{ACAD_REACTORS
330
340C
102
}
330
340C
100
AcDbXrecord
 90
    10781
  0
XRECORD
  5
3415
102
{ACAD_REACTORS
330
340C
102
}
330
340C
100
AcDbXrecord
 90
        4
  0
XRECORD
  5
3416
102
{ACAD_REACTORS
330
340C
102
}
330
340C
100
AcDbXrecord
 90
        0
  0
XRECORD
  5
3417
102
{ACAD_REACTORS
330
340C
102
}
330
340C
100
AcDbXrecord
  1
{AFB28963-8C59-40AE-9337-C84526B81ACE}
  0
XRECORD
  5
3418
102
{ACAD_REACTORS
330
340C
102
}
330
340C
100
AcDbXrecord
  1
{6B429D8D-5790-4AD8-B1A5-7E826EE89CBD}
  0
XRECORD
  5
3419
102
{ACAD_REACTORS
330
340C
102
}
330
340C
100
AcDbXrecord
 40
0.0
  0
XRECORD
  5
341A
102
{ACAD_REACTORS
330
340C
102
}
330
340C
100
AcDbXrecord
1000
DSTYLE
1002
{
1070
    79
 70
     2
1070
   341
340
59
1070
   342
340
59
1070
   371
 70
    -1
1070
   372
 70
    -1
1002
}
  0
XRECORD
  5
341B
102
{ACAD_REACTORS
330
340C
102
}
330
340C
100
AcDbXrecord
340
0
  0
XRECORD
  5
341C
102
{ACAD_REACTORS
330
340C
102
}
330
340C
100
AcDbXrecord
 70
     0
  0
XRECORD
  5
341D
102
{ACAD_REACTORS
330
340C
102
}
330
340C
100
AcDbXrecord
340
0
  0
XRECORD
  5
341E
102
{ACAD_REACTORS
330
340C
102
}
330
340C
100
AcDbXrecord
 10
0.0
 20
0.0
 30
0.0
  0
XRECORD
  5
341F
102
{ACAD_REACTORS
330
340C
102
}
330
340C
100
AcDbXrecord
 10
0.0
 20
0.0
 30
0.0
  0
XRECORD
  5
3420
102
{ACAD_REACTORS
330
340C
102
}
330
340C
100
AcDbXrecord
 10
0.0
 20
0.0
 30
0.0
  0
XRECORD
  5
3421
102
{ACAD_REACTORS
330
340C
102
}
330
340C
100
AcDbXrecord
 10
0.0
 20
0.0
 30
0.0
  0
XRECORD
  5
3422
102
{ACAD_REACTORS
330
340C
102
}
330
340C
100
AcDbXrecord
 10
0.0
 20
0.0
 30
0.0
  0
XRECORD
  5
3423
102
{ACAD_REACTORS
330
340C
102
}
330
340C
100
AcDbXrecord
 10
0.0
 20
0.0
 30
0.0
  0
XRECORD
  5
3424
102
{ACAD_REACTORS
330
340C
102
}
330
340C
100
AcDbXrecord
340
0
  0
XRECORD
  5
3425
102
{ACAD_REACTORS
330
340C
102
}
330
340C
100
AcDbXrecord
 70
     0
  0
XRECORD
  5
3426
102
{ACAD_REACTORS
330
340C
102
}
330
340C
100
AcDbXrecord
340
0
  0
XRECORD
  5
3427
102
{ACAD_REACTORS
330
340C
102
}
330
340C
100
AcDbXrecord
 10
0.0
 20
0.0
 30
0.0
  0
XRECORD
  5
3428
102
{ACAD_REACTORS
330
340C
102
}
330
340C
100
AcDbXrecord
 10
0.0
 20
0.0
 30
0.0
  0
XRECORD
  5
3429
102
{ACAD_REACTORS
330
340C
102
}
330
340C
100
AcDbXrecord
 10
0.0
 20
0.0
 30
0.0
  0
XRECORD
  5
342A
102
{ACAD_REACTORS
330
340C
102
}
330
340C
100
AcDbXrecord
 10
0.0
 20
0.0
 30
0.0
  0
XRECORD
  5
342B
102
{ACAD_REACTORS
330
340C
102
}
330
340C
100
AcDbXrecord
 10
0.0
 20
0.0
 30
0.0
  0
XRECORD
  5
342C
102
{ACAD_REACTORS
330
340C
102
}
330
340C
100
AcDbXrecord
 10
0.0
 20
0.0
 30
0.0
  0
LAYER_INDEX
  5
3402
102
{ACAD_REACTORS
330
3401
102
}
330
3401
100
AcDbIndex
 40
2453151.665207233
100
AcDbLayerIndex
  8
0
360
3403
 90
        0
  8
AM_0
360
3404
 90
       52
  8
AM_7
360
3405
 90
        1
  8
AM_11
360
3406
 90
       21
  8
AM_5
360
3407
 90
        5
  8
Defpoints
360
3408
 90
        0
  8
AM_6
360
3409
 90
        1
  8
AM_CL
360
340A
 90
        0
  0
XRECORD
  5
2D
102
{ACAD_REACTORS
330
2C
102
}
330
2C
100
AcDbXrecord
  1
VERSION
140
15.0
  1
PRODUCT
  2
AutoCAD Mechanical 2000
  0
IDBUFFER
  5
3403
330
0
100
AcDbIdBuffer
  0
IDBUFFER
  5
3404
330
0
100
AcDbIdBuffer
330
311E
330
311F
330
3120
330
3121
330
21D8
330
21D9
330
21DA
330
21DB
330
21DC
330
21DD
330
282D
330
282E
330
282F
330
2830
330
2831
330
2832
330
30CD
330
30CE
330
30CF
330
30D4
330
30D5
330
30DD
330
30DE
330
30DF
330
30E0
330
30E1
330
30E2
330
30E3
330
30E4
330
30E5
330
30E6
330
30E7
330
30E8
330
30E9
330
30EA
330
30EB
330
30EC
330
30ED
330
30EE
330
30F3
330
3102
330
3111
330
3112
330
3113
330
3114
330
3115
330
3116
330
3117
330
3118
330
3119
330
311C
330
311D
  0
IDBUFFER
  5
3405
330
0
100
AcDbIdBuffer
330
C9F
  0
IDBUFFER
  5
3406
330
0
100
AcDbIdBuffer
330
33D5
330
33D6
330
33D7
330
33D8
330
33D9
330
30D0
330
30D1
330
30D2
330
30D3
330
30F1
330
30F2
330
33CB
330
33CC
330
33CD
330
33CE
330
33CF
330
33D0
330
33D1
330
33D2
330
33D3
330
33D4
  0
IDBUFFER
  5
3407
330
0
100
AcDbIdBuffer
330
CC6
330
DF5
330
2216
330
3189
330
32CB
  0
IDBUFFER
  5
3408
330
0
100
AcDbIdBuffer
  0
IDBUFFER
  5
3409
330
0
100
AcDbIdBuffer
330
19BD
  0
IDBUFFER
  5
340A
330
0
100
AcDbIdBuffer
  0
ENDSEC
  0
EOF
