  0
SECTION
  2
HEADER
  9
$ACADVER
  1
AC1014
  9
$ACADMAINTVER
 70
     9
  9
$DWGCODEPAGE
  3
ANSI_932
  9
$INSBASE
 10
0.0
 20
0.0
 30
0.0
  9
$EXTMIN
 10
-136.150001
 20
-29.25000099999954
 30
-0.00000001
  9
$EXTMAX
 10
15.43921670627628
 20
15.0200238509594
 30
0.00000001
  9
$LIMMIN
 10
-156.1444050923396
 20
-44.51020785580943
  9
$LIMMAX
 10
20.31336096277607
 20
28.16015358894219
  9
$ORTHOMODE
 70
     0
  9
$REGENMODE
 70
     1
  9
$FILLMODE
 70
     1
  9
$QTEXTMODE
 70
     0
  9
$MIRRTEXT
 70
     0
  9
$DRAGMODE
 70
     2
  9
$LTSCALE
 40
1.0
  9
$OSMODE
 70
    55
  9
$ATTMODE
 70
     1
  9
$TEXTSIZE
 40
2.5
  9
$TRACEWID
 40
1.0
  9
$TEXTSTYLE
  7
STANDARD
  9
$CLAYER
  8
AM_0
  9
$CELTYPE
  6
BYLAYER
  9
$CECOLOR
 62
   256
  9
$CELTSCALE
 40
1.0
  9
$DELOBJ
 70
     1
  9
$DISPSILH
 70
     0
  9
$DIMSCALE
 40
0.5
  9
$DIMASZ
 40
2.5
  9
$DIMEXO
 40
1.0
  9
$DIMDLI
 40
12.0
  9
$DIMRND
 40
0.0
  9
$DIMDLE
 40
0.0
  9
$DIMEXE
 40
1.0
  9
$DIMTP
 40
0.1
  9
$DIMTM
 40
0.1
  9
$DIMTXT
 40
3.2
  9
$DIMCEN
 40
0.0
  9
$DIMTSZ
 40
0.0
  9
$DIMTOL
 70
     0
  9
$DIMLIM
 70
     0
  9
$DIMTIH
 70
     0
  9
$DIMTOH
 70
     0
  9
$DIMSE1
 70
     0
  9
$DIMSE2
 70
     0
  9
$DIMTAD
 70
     3
  9
$DIMZIN
 70
     8
  9
$DIMBLK
  1
OPEN30
  9
$DIMASO
 70
     1
  9
$DIMSHO
 70
     1
  9
$DIMPOST
  1

  9
$DIMAPOST
  1
"
  9
$DIMALT
 70
     0
  9
$DIMALTD
 70
     2
  9
$DIMALTF
 40
0.0393701
  9
$DIMLFAC
 40
1.0
  9
$DIMTOFL
 70
     1
  9
$DIMTVP
 40
0.0
  9
$DIMTIX
 70
     0
  9
$DIMSOXD
 70
     0
  9
$DIMSAH
 70
     0
  9
$DIMBLK1
  1

  9
$DIMBLK2
  1

  9
$DIMSTYLE
  2
AM_JIS
  9
$DIMCLRD
 70
   256
  9
$DIMCLRE
 70
   256
  9
$DIMCLRT
 70
     2
  9
$DIMTFAC
 40
0.71
  9
$DIMGAP
 40
1.5
  9
$DIMJUST
 70
     0
  9
$DIMSD1
 70
     0
  9
$DIMSD2
 70
     0
  9
$DIMTOLJ
 70
     0
  9
$DIMTZIN
 70
     0
  9
$DIMALTZ
 70
     0
  9
$DIMALTTZ
 70
     0
  9
$DIMFIT
 70
     3
  9
$DIMUPT
 70
     0
  9
$DIMUNIT
 70
     2
  9
$DIMDEC
 70
     3
  9
$DIMTDEC
 70
     3
  9
$DIMALTU
 70
     2
  9
$DIMALTTD
 70
     2
  9
$DIMTXSTY
  7
ASAMI
  9
$DIMAUNIT
 70
     0
  9
$LUNITS
 70
     2
  9
$LUPREC
 70
     2
  9
$SKETCHINC
 40
1.0
  9
$FILLETRAD
 40
2.5
  9
$AUNITS
 70
     0
  9
$AUPREC
 70
     0
  9
$MENU
  1
.
  9
$ELEVATION
 40
0.0
  9
$PELEVATION
 40
0.0
  9
$THICKNESS
 40
0.0
  9
$LIMCHECK
 70
     0
  9
$BLIPMODE
 70
     0
  9
$CHAMFERA
 40
0.5
  9
$CHAMFERB
 40
0.5
  9
$CHAMFERC
 40
20.0
  9
$CHAMFERD
 40
0.0
  9
$SKPOLY
 70
     0
  9
$TDCREATE
 40
2452800.443498622
  9
$TDUPDATE
 40
2453151.562505405
  9
$TDINDWG
 40
0.0798212963
  9
$TDUSRTIMER
 40
0.0798212963
  9
$USRTIMER
 70
     1
  9
$ANGBASE
 50
0.0
  9
$ANGDIR
 70
     0
  9
$PDMODE
 70
     0
  9
$PDSIZE
 40
0.0
  9
$PLINEWID
 40
0.0
  9
$COORDS
 70
     1
  9
$SPLFRAME
 70
     0
  9
$SPLINETYPE
 70
     6
  9
$SPLINESEGS
 70
     8
  9
$ATTDIA
 70
     1
  9
$ATTREQ
 70
     1
  9
$HANDLING
 70
 12289
  9
$HANDSEED
  5
3A92
  9
$SURFTAB1
 70
     6
  9
$SURFTAB2
 70
     6
  9
$SURFTYPE
 70
     6
  9
$SURFU
 70
     6
  9
$SURFV
 70
     6
  9
$UCSNAME
  2

  9
$UCSORG
 10
0.0
 20
0.0
 30
0.0
  9
$UCSXDIR
 10
1.0
 20
0.0000000000000027
 30
0.0
  9
$UCSYDIR
 10
-0.0000000000000027
 20
1.0
 30
0.0
  9
$PUCSNAME
  2

  9
$PUCSORG
 10
0.0
 20
0.0
 30
0.0
  9
$PUCSXDIR
 10
1.0
 20
0.0
 30
0.0
  9
$PUCSYDIR
 10
0.0
 20
1.0
 30
0.0
  9
$USERI1
 70
     0
  9
$USERI2
 70
     0
  9
$USERI3
 70
     0
  9
$USERI4
 70
     0
  9
$USERI5
 70
     0
  9
$USERR1
 40
0.0
  9
$USERR2
 40
0.0
  9
$USERR3
 40
0.0
  9
$USERR4
 40
0.0
  9
$USERR5
 40
0.0
  9
$WORLDVIEW
 70
     1
  9
$SHADEDGE
 70
     3
  9
$SHADEDIF
 70
    70
  9
$TILEMODE
 70
     1
  9
$MAXACTVP
 70
    64
  9
$PINSBASE
 10
0.0
 20
0.0
 30
0.0
  9
$PLIMCHECK
 70
     0
  9
$PEXTMIN
 10
1.000000000000000E+20
 20
1.000000000000000E+20
 30
1.000000000000000E+20
  9
$PEXTMAX
 10
-1.000000000000000E+20
 20
-1.000000000000000E+20
 30
-1.000000000000000E+20
  9
$PLIMMIN
 10
0.0
 20
0.0
  9
$PLIMMAX
 10
841.0
 20
594.0
  9
$UNITMODE
 70
     0
  9
$VISRETAIN
 70
     1
  9
$PLINEGEN
 70
     0
  9
$PSLTSCALE
 70
     0
  9
$TREEDEPTH
 70
  3020
  9
$PICKSTYLE
 70
     0
  9
$CMLSTYLE
  2
STANDARD
  9
$CMLJUST
 70
     0
  9
$CMLSCALE
 40
20.0
  9
$PROXYGRAPHICS
 70
     1
  9
$MEASUREMENT
 70
     1
  0
ENDSEC
  0
SECTION
  2
CLASSES
  0
CLASS
  1
ACDBDICTIONARYWDFLT
  2
AcDbDictionaryWithDefault
  3
AutoCAD 2000
 90
        0
280
     0
281
     0
  0
CLASS
  1
ACDBPLACEHOLDER
  2
AcDbPlaceHolder
  3
AutoCAD 2000
 90
        0
280
     0
281
     0
  0
CLASS
  1
LAYOUT
  2
AcDbLayout
  3
AutoCAD 2000
 90
        0
280
     0
281
     0
  0
CLASS
  1
AMGSETTINGSOBJ
  2
AmgSettingsObj
  3
"AcadM|Product Description: AutoCAD Mechanical 2000|Company: Autodesk"
 90
        0
280
     0
281
     0
  0
CLASS
  1
ACME_DOCUMENT
  2
AcMeDbDoc
  3
AcMeServices
 90
        0
280
     0
281
     0
  0
CLASS
  1
ACMESCOPE
  2
AcMeScope
  3
AcMeServices
 90
        0
280
     0
281
     0
  0
CLASS
  1
ACMECOMMANDHISTORY
  2
AcMeCommandHistory
  3
AcMeServices
 90
        0
280
     0
281
     0
  0
CLASS
  1
DICTIONARYVAR
  2
AcDbDictionaryVar
  3
AutoCAD 2000
 90
        0
280
     0
281
     0
  0
CLASS
  1
ACIMSYSVARMAN
  2
AcImSysVarManager
  3
AcMeServices
 90
        0
280
     0
281
     0
  0
CLASS
  1
ACIMREALSYSVAR
  2
AcImRealSysVar
  3
AcMeServices
 90
        0
280
     0
281
     0
  0
CLASS
  1
ACIMINTSYSVAR
  2
AcImIntSysVar
  3
AcMeServices
 90
        0
280
     0
281
     0
  0
CLASS
  1
ACMEDRAWINGMAN
  2
AcMeDrawingMan
  3
AcMeServices
 90
        0
280
     0
281
     0
  0
CLASS
  1
ACMEVIEW
  2
AcMeView
  3
AcMeServices
 90
        0
280
     0
281
     0
  0
CLASS
  1
ACDBENTITYCACHE
  2
AcMeEntityCache
  3
AcMeServices
 90
        0
280
     0
281
     0
  0
CLASS
  1
GSMANAGER
  2
AcMeGSManager
  3
AcMeServices
 90
        0
280
     0
281
     0
  0
CLASS
  1
AmdtInternalReactor
  2
AmdtInternalReactor
  3
AcMeServices
 90
        0
280
     0
281
     0
  0
CLASS
  1
ACMESTATEMGR
  2
AcMeStateMgr
  3
AcMeServices
 90
        0
280
     0
281
     0
  0
CLASS
  1
ACME_DATABASE
  2
AcMeDbDatabase
  3
AcMeServices
 90
        0
280
     0
281
     0
  0
CLASS
  1
ACRFINSADJUSTERMGR
  2
AcRfInsAdjusterMgr
  3
AcMeServices
 90
        0
280
     0
281
     0
  0
CLASS
  1
ACMDATADICTIONARY
  2
AcmDataDictionary
  3
"AcmSymBB|Product Description: AutoCAD Mechanical 2000|Company: Autodesk"
 90
        0
280
     0
281
     0
  0
CLASS
  1
ACMDATAENTRYBLOCK
  2
AcmDataEntryBlock
  3
"AcmSymBB|Product Description: AutoCAD Mechanical 2000|Company: Autodesk"
 90
        0
280
     0
281
     0
  0
CLASS
  1
AMGOBJPROPCFG
  2
AmgObjPropCfg
  3
"AmgLay|Product Description: AutoCAD Mechanical 2000|Company: Autodesk"
 90
        1
280
     0
281
     0
  0
CLASS
  1
ACAMGFILTERDAT
  2
AcAmgFilterDat
  3
"AcadM|Product Description: AutoCAD Mechanical 2000|Company: Autodesk"
 90
        0
280
     0
281
     0
  0
CLASS
  1
LAYER_INDEX
  2
AcDbLayerIndex
  3
AutoCAD 2000
 90
        0
280
     0
281
     0
  0
CLASS
  1
IDBUFFER
  2
AcDbIdBuffer
  3
AutoCAD 2000
 90
        0
280
     0
281
     0
  0
CLASS
  1
ACIMSTRSYSVAR
  2
AcImStrSysVar
  3
AcMeServices
 90
        0
280
     0
281
     0
  0
CLASS
  1
ACMSTANDARDJIS
  2
AcmStandardJIS
  3
"AcmSymBB|Product Description: AutoCAD Mechanical 2000|Company: Autodesk"
 90
        0
280
     0
281
     0
  0
CLASS
  1
ACMSURFSTANDARDJIS
  2
AcmSurfTextStdJIS
  3
"AcmSymBB|Product Description: AutoCAD Mechanical 2000|Company: Autodesk"
 90
        0
280
     0
281
     0
  0
CLASS
  1
ACMFCFSTANDARDJIS
  2
AcmFCFStdJIS
  3
"AcmSymBB|Product Description: AutoCAD Mechanical 2000|Company: Autodesk"
 90
        0
280
     0
281
     0
  0
CLASS
  1
ACMWELDSTANDARDJIS
  2
AcmWeldingStdJIS
  3
"AcmSymBB|Product Description: AutoCAD Mechanical 2000|Company: Autodesk"
 90
        0
280
     0
281
     0
  0
CLASS
  1
ACMIDSTANDARDJIS
  2
AcmIdStdJIS
  3
"AcmSymBB|Product Description: AutoCAD Mechanical 2000|Company: Autodesk"
 90
        0
280
     0
281
     0
  0
CLASS
  1
ACMDATUMSTANDARDJIS
  2
AcmDatumStdJIS
  3
"AcmSymBB|Product Description: AutoCAD Mechanical 2000|Company: Autodesk"
 90
        0
280
     0
281
     0
  0
CLASS
  1
ACMBOMSTANDARDJIS
  2
AcmBOMStdJIS
  3
"AcmSymBB|Product Description: AutoCAD Mechanical 2000|Company: Autodesk"
 90
        0
280
     0
281
     0
  0
CLASS
  1
ACMSTANDARDANSI
  2
AcmStandardANSI
  3
"AcmSymBB|Product Description: AutoCAD Mechanical 2000|Company: Autodesk"
 90
        0
280
     0
281
     0
  0
CLASS
  1
ACMSURFSTANDARDANSI
  2
AcmSurfTextStdANSI
  3
"AcmSymBB|Product Description: AutoCAD Mechanical 2000|Company: Autodesk"
 90
        0
280
     0
281
     0
  0
CLASS
  1
ACMFCFSTANDARDANSI
  2
AcmFCFStdANSI
  3
"AcmSymBB|Product Description: AutoCAD Mechanical 2000|Company: Autodesk"
 90
        0
280
     0
281
     0
  0
CLASS
  1
ACMWELDSTANDARDANSI
  2
AcmWeldingStdANSI
  3
"AcmSymBB|Product Description: AutoCAD Mechanical 2000|Company: Autodesk"
 90
        0
280
     0
281
     0
  0
CLASS
  1
ACMIDSTANDARDANSI
  2
AcmIdStdANSI
  3
"AcmSymBB|Product Description: AutoCAD Mechanical 2000|Company: Autodesk"
 90
        0
280
     0
281
     0
  0
CLASS
  1
ACMDATUMSTANDARDANSI
  2
AcmDatumStdANSI
  3
"AcmSymBB|Product Description: AutoCAD Mechanical 2000|Company: Autodesk"
 90
        0
280
     0
281
     0
  0
CLASS
  1
ACMBOMSTANDARDANSI
  2
AcmBOMStdANSI
  3
"AcmSymBB|Product Description: AutoCAD Mechanical 2000|Company: Autodesk"
 90
        0
280
     0
281
     0
  0
CLASS
  1
ACMSTANDARDBSI
  2
AcmStandardBSI
  3
"AcmSymBB|Product Description: AutoCAD Mechanical 2000|Company: Autodesk"
 90
        0
280
     0
281
     0
  0
CLASS
  1
ACMSURFSTANDARDBSI
  2
AcmSurfTextStdBSI
  3
"AcmSymBB|Product Description: AutoCAD Mechanical 2000|Company: Autodesk"
 90
        0
280
     0
281
     0
  0
CLASS
  1
ACMFCFSTANDARDBSI
  2
AcmFCFStdBSI
  3
"AcmSymBB|Product Description: AutoCAD Mechanical 2000|Company: Autodesk"
 90
        0
280
     0
281
     0
  0
CLASS
  1
ACMWELDSTANDARDBSI
  2
AcmWeldingStdBSI
  3
"AcmSymBB|Product Description: AutoCAD Mechanical 2000|Company: Autodesk"
 90
        0
280
     0
281
     0
  0
CLASS
  1
ACMIDSTANDARDBSI
  2
AcmIdStdBSI
  3
"AcmSymBB|Product Description: AutoCAD Mechanical 2000|Company: Autodesk"
 90
        0
280
     0
281
     0
  0
CLASS
  1
ACMDATUMSTANDARDBSI
  2
AcmDatumStdBSI
  3
"AcmSymBB|Product Description: AutoCAD Mechanical 2000|Company: Autodesk"
 90
        0
280
     0
281
     0
  0
CLASS
  1
ACMBOMSTANDARDBSI
  2
AcmBOMStdBSI
  3
"AcmSymBB|Product Description: AutoCAD Mechanical 2000|Company: Autodesk"
 90
        0
280
     0
281
     0
  0
CLASS
  1
LONG_TRANSACTION
  2
AcDbLongTransaction
  3
AutoCAD 2000
 90
        0
280
     0
281
     0
  0
CLASS
  1
LWPOLYLINE
  2
AcDbPolyline
  3
AutoCAD 2000
 90
        0
280
     0
281
     1
  0
CLASS
  1
HATCH
  2
AcDbHatch
  3
AutoCAD 2000
 90
        0
280
     0
281
     1
  0
CLASS
  1
XRECORD
  2
AcDbXrecord
  3
AutoCAD 2000
 90
        0
280
     0
281
     0
  0
ENDSEC
  0
SECTION
  2
TABLES
  0
TABLE
  2
VPORT
  5
8
330
0
100
AcDbSymbolTable
 70
     3
  0
VPORT
  5
3A67
330
8
100
AcDbSymbolTableRecord
100
AcDbViewportTableRecord
  2
*ACTIVE
 70
     0
 10
0.0
 20
0.0
 11
1.0
 21
1.0
 12
-57.52615564614288
 22
-7.116064023858001
 13
0.0
 23
0.0
 14
2.5
 24
2.5
 15
10.0
 25
10.0
 16
0.0
 26
0.0
 36
1.0
 17
0.0
 27
0.0
 37
0.0
 40
100.9238338214634
 41
1.56570841889117
 42
50.0
 43
0.0
 44
0.0
 50
0.0
 51
0.0
 71
     0
 72
   100
 73
     1
 74
     1
 75
     0
 76
     0
 77
     0
 78
     0
  0
ENDTAB
  0
TABLE
  2
LTYPE
  5
5
330
0
100
AcDbSymbolTable
 70
    10
  0
LTYPE
  5
14
330
5
100
AcDbSymbolTableRecord
100
AcDbLinetypeTableRecord
  2
BYBLOCK
 70
     0
  3

 72
    65
 73
     0
 40
0.0
  0
LTYPE
  5
15
330
5
100
AcDbSymbolTableRecord
100
AcDbLinetypeTableRecord
  2
BYLAYER
 70
     0
  3

 72
    65
 73
     0
 40
0.0
  0
LTYPE
  5
16
330
5
100
AcDbSymbolTableRecord
100
AcDbLinetypeTableRecord
  2
CONTINUOUS
 70
     0
  3
Solid line
 72
    65
 73
     0
 40
0.0
  0
LTYPE
  5
4B
330
5
100
AcDbSymbolTableRecord
100
AcDbLinetypeTableRecord
  2
AM_ISO02W050
 70
     0
  3
__ __ __ __ __ __ __ __ __ __ __ __ __ __ __
 72
    65
 73
     2
 40
7.5
 49
6.0
 74
     0
 49
-1.5
 74
     0
  0
LTYPE
  5
4C
330
5
100
AcDbSymbolTableRecord
100
AcDbLinetypeTableRecord
  2
AM_ISO08W050
 70
     0
  3
____ . ____ . ____ . ____ . ____ . ____ . ____
 72
    65
 73
     4
 40
18.0
 49
12.0
 74
     0
 49
-1.5
 74
     0
 49
3.0
 74
     0
 49
-1.5
 74
     0
  0
LTYPE
  5
4D
330
5
100
AcDbSymbolTableRecord
100
AcDbLinetypeTableRecord
  2
AM_ISO09W050
 70
     0
  3
_____ . . _____ . . _____ . . ____ .. ____
 72
    65
 73
     6
 40
22.5
 49
12.0
 74
     0
 49
-1.5
 74
     0
 49
3.0
 74
     0
 49
-1.5
 74
     0
 49
3.0
 74
     0
 49
-1.5
 74
     0
  0
LTYPE
  5
4E
330
5
100
AcDbSymbolTableRecord
100
AcDbLinetypeTableRecord
  2
AMCONSTR
 70
     0
  3
_______________________
 72
    65
 73
     2
 40
9999.0
 49
9999.0
 74
     0
 49
0.0
 74
     0
  0
LTYPE
  5
4F
330
5
100
AcDbSymbolTableRecord
100
AcDbLinetypeTableRecord
  2
AM_ISO02W050X2
 70
     0
  3
 _ _ _ _ _ _ _ _ _ _ _ _
 72
    65
 73
     2
 40
3.75
 49
3.0
 74
     0
 49
-0.75
 74
     0
  0
LTYPE
  5
50
330
5
100
AcDbSymbolTableRecord
100
AcDbLinetypeTableRecord
  2
AM_ISO08W050X2
 70
     0
  3
__ . __ . __ . __ . __ . __
 72
    65
 73
     4
 40
9.0
 49
6.0
 74
     0
 49
-0.75
 74
     0
 49
1.5
 74
     0
 49
-0.75
 74
     0
  0
LTYPE
  5
53
330
5
100
AcDbSymbolTableRecord
100
AcDbLinetypeTableRecord
  2
AMZIGZAG
 70
     0
  3
/\/-/\/-/\/-/\/-/\/-/\/
 72
    65
 73
     2
 40
11.00009999999999
 49
0.0001
 74
     4
 75
   135
340
52
 46
0.04
 50
0.0
 44
0.0
 45
0.0
 49
-11.0
 74
     0
  0
LTYPE
  5
166
330
5
100
AcDbSymbolTableRecord
100
AcDbLinetypeTableRecord
  2
ACJISTGL
 70
     0
  3
_ _ _ _ _
 72
    65
 73
     2
 40
3.0
 49
2.0
 74
     0
 49
-1.0
 74
     0
  0
LTYPE
  5
26A
330
5
100
AcDbSymbolTableRecord
100
AcDbLinetypeTableRecord
  2
ACJISTGB
 70
     0
  3
__ . . __ . .
 72
    65
 73
     6
 40
9.0
 49
4.0
 74
     0
 49
-1.0
 74
     0
 49
1.0
 74
     0
 49
-1.0
 74
     0
 49
1.0
 74
     0
 49
-1.0
 74
     0
  0
ENDTAB
  0
TABLE
  2
LAYER
  5
2
330
0
100
AcDbSymbolTable
 70
     7
  0
LAYER
  5
10
330
2
100
AcDbSymbolTableRecord
100
AcDbLayerTableRecord
  2
0
 70
     0
 62
     7
  6
CONTINUOUS
  0
LAYER
  5
3F9
330
2
100
AcDbSymbolTableRecord
100
AcDbLayerTableRecord
  2
AM_0
 70
     0
 62
     7
  6
CONTINUOUS
  0
LAYER
  5
C7C
330
2
100
AcDbSymbolTableRecord
100
AcDbLayerTableRecord
  2
AM_7
 70
     0
 62
     4
  6
AM_ISO08W050
  0
LAYER
  5
C97
330
2
100
AcDbSymbolTableRecord
100
AcDbLayerTableRecord
  2
AM_11
 70
     0
 62
     3
  6
AM_ISO09W050
  0
LAYER
  5
CC5
330
2
100
AcDbSymbolTableRecord
100
AcDbLayerTableRecord
  2
AM_5
 70
     0
 62
     3
  6
CONTINUOUS
  0
LAYER
  5
CC7
330
2
100
AcDbSymbolTableRecord
100
AcDbLayerTableRecord
  2
DEFPOINTS
 70
     0
 62
     7
  6
CONTINUOUS
  0
LAYER
  5
19BC
330
2
100
AcDbSymbolTableRecord
100
AcDbLayerTableRecord
  2
AM_6
 70
     0
 62
     2
  6
CONTINUOUS
  0
ENDTAB
  0
TABLE
  2
STYLE
  5
3
330
0
100
AcDbSymbolTable
 70
     5
  0
STYLE
  5
11
330
3
100
AcDbSymbolTableRecord
100
AcDbTextStyleTableRecord
  2
STANDARD
 70
     0
 40
0.0
 41
1.0
 50
0.0
 71
     0
 42
2.5
  3
simplex.shx
  4
EXTFONT.SHX
  0
STYLE
  5
52
330
3
100
AcDbSymbolTableRecord
100
AcDbTextStyleTableRecord
  2

 70
     1
 40
0.0
 41
1.0
 50
0.0
 71
     0
 42
2.5
  3
ltypeshp.shx
  4

  0
STYLE
  5
6B
330
3
100
AcDbSymbolTableRecord
100
AcDbTextStyleTableRecord
  2
ASAMI
 70
     0
 40
0.0
 41
1.0
 50
0.0
 71
     0
 42
2.5
  3
simplex.shx
  4
EXTFONT.SHX
  0
STYLE
  5
262
330
3
100
AcDbSymbolTableRecord
100
AcDbTextStyleTableRecord
  2
ACJISTS
 70
     0
 40
1.0
 41
1.0
 50
0.0
 71
     0
 42
2.5
  3
simplex.shx
  4
bigfont.shx
  0
STYLE
  5
269
330
3
100
AcDbSymbolTableRecord
100
AcDbTextStyleTableRecord
  2
ACJISGDT
 70
     0
 40
0.0
 41
1.0
 50
0.0
 71
     0
 42
2.5
  3
amgdtans.shx
  4

  0
ENDTAB
  0
TABLE
  2
VIEW
  5
6
330
0
100
AcDbSymbolTable
 70
     0
  0
ENDTAB
  0
TABLE
  2
UCS
  5
7
330
0
100
AcDbSymbolTable
 70
     0
  0
ENDTAB
  0
TABLE
  2
APPID
  5
9
330
0
100
AcDbSymbolTable
 70
    16
  0
APPID
  5
12
330
9
100
AcDbSymbolTableRecord
100
AcDbRegAppTableRecord
  2
ACAD
 70
     0
  0
APPID
  5
30
330
9
100
AcDbSymbolTableRecord
100
AcDbRegAppTableRecord
  2
MCAD_NO_VIS
 70
     0
  0
APPID
  5
31
330
9
100
AcDbSymbolTableRecord
100
AcDbRegAppTableRecord
  2
ACAD_TEMP_GRAPHIC
 70
     0
  0
APPID
  5
2C2
330
9
100
AcDbSymbolTableRecord
100
AcDbRegAppTableRecord
  2
GENIUS_GENDTOL_13
 70
     0
  0
APPID
  5
339
330
9
100
AcDbSymbolTableRecord
100
AcDbRegAppTableRecord
  2
GENIUS_GENODEF_13
 70
     0
  0
APPID
  5
33A
330
9
100
AcDbSymbolTableRecord
100
AcDbRegAppTableRecord
  2
GENIUS_GENOBJ-N-RSBK_13
 70
     0
  0
APPID
  5
33B
330
9
100
AcDbSymbolTableRecord
100
AcDbRegAppTableRecord
  2
GENIUS_GENOBJ-N-LIB_13
 70
     0
  0
APPID
  5
33C
330
9
100
AcDbSymbolTableRecord
100
AcDbRegAppTableRecord
  2
GENIUS_GENSCALE_13
 70
     0
  0
APPID
  5
378
330
9
100
AcDbSymbolTableRecord
100
AcDbRegAppTableRecord
  2
GENIUS_GENDIMSH_14
 70
     0
  0
APPID
  5
C82
330
9
100
AcDbSymbolTableRecord
100
AcDbRegAppTableRecord
  2
GENIUS_GENOBJ-N-CRS_13
 70
     0
  0
APPID
  5
C83
330
9
100
AcDbSymbolTableRecord
100
AcDbRegAppTableRecord
  2
GENIUS_GENOENT_13
 70
     0
  0
APPID
  5
C84
330
9
100
AcDbSymbolTableRecord
100
AcDbRegAppTableRecord
  2
GENIUS_GENOREF_13
 70
     0
  0
APPID
  5
C85
330
9
100
AcDbSymbolTableRecord
100
AcDbRegAppTableRecord
  2
GENIUS_GENOLIS_13
 70
     0
  0
APPID
  5
CA0
330
9
100
AcDbSymbolTableRecord
100
AcDbRegAppTableRecord
  2
GENIUS_GENOBJ-N-CEN_13
 70
     0
  0
APPID
  5
2796
330
9
100
AcDbSymbolTableRecord
100
AcDbRegAppTableRecord
  2
GENIUS_GENFIL_13
 70
     0
  0
APPID
  5
2797
330
9
100
AcDbSymbolTableRecord
100
AcDbRegAppTableRecord
  2
GENIUS_GENOBJ-N-CHA_13
 70
     0
  0
ENDTAB
  0
TABLE
  2
DIMSTYLE
  5
A
330
0
100
AcDbSymbolTable
 70
     9
  0
DIMSTYLE
105
58
330
A
100
AcDbSymbolTableRecord
100
AcDbDimStyleTableRecord
  2
AM_JIS
 70
     0
  3

  4
"
  5
OPEN30
  6

  7

 40
0.5
 41
2.5
 42
1.0
 43
12.0
 44
1.0
 45
0.0
 46
0.0
 47
0.1
 48
0.1
140
3.2
141
0.0
142
0.0
143
0.0393701
144
1.0
145
0.0
146
0.71
147
1.5
 71
     0
 72
     0
 73
     0
 74
     0
 75
     0
 76
     0
 77
     3
 78
     8
170
     0
171
     2
172
     1
173
     0
174
     0
175
     0
176
   256
177
   256
178
     2
270
     2
271
     3
272
     3
273
     2
274
     2
340
6B
275
     0
280
     0
281
     0
282
     0
283
     0
284
     0
285
     0
286
     0
287
     3
288
     0
  0
DIMSTYLE
105
5F
330
A
100
AcDbSymbolTableRecord
100
AcDbDimStyleTableRecord
  2
AM_JIS$3
 70
     0
  3

  4
"
  5
OPEN30
  6

  7

 40
0.5
 41
2.5
 42
1.0
 43
10.0
 44
1.0
 45
0.0
 46
0.0
 47
0.1
 48
0.1
140
3.2
141
0.0
142
0.0
143
0.0393701
144
1.0
145
0.0
146
0.71
147
1.5
 71
     0
 72
     0
 73
     0
 74
     1
 75
     0
 76
     0
 77
     3
 78
     8
170
     0
171
     2
172
     0
173
     0
174
     0
175
     0
176
   256
177
   256
178
     2
270
     2
271
     2
272
     3
273
     2
274
     2
340
6B
275
     0
280
     0
281
     0
282
     0
283
     0
284
     0
285
     0
286
     0
287
     0
288
     1
  0
DIMSTYLE
105
60
330
A
100
AcDbSymbolTableRecord
100
AcDbDimStyleTableRecord
  2
AM_JIS$4
 70
     0
  3

  4
"
  5
OPEN30
  6

  7

 40
0.5
 41
2.5
 42
1.0
 43
10.0
 44
1.0
 45
0.0
 46
0.0
 47
0.1
 48
0.1
140
3.2
141
0.0
142
0.0
143
0.0393701
144
1.0
145
0.0
146
0.71
147
1.5
 71
     0
 72
     0
 73
     0
 74
     1
 75
     0
 76
     0
 77
     3
 78
     8
170
     0
171
     2
172
     0
173
     0
174
     0
175
     0
176
   256
177
   256
178
     2
270
     2
271
     2
272
     3
273
     2
274
     2
340
6B
275
     0
280
     0
281
     0
282
     0
283
     0
284
     0
285
     0
286
     0
287
     0
288
     1
  0
DIMSTYLE
105
61
330
A
100
AcDbSymbolTableRecord
100
AcDbDimStyleTableRecord
  2
AM_JIS$6
 70
     0
  3

  4
"
  5
OPEN30
  6

  7

 40
0.5
 41
2.5
 42
1.0
 43
10.0
 44
1.0
 45
0.0
 46
0.0
 47
0.1
 48
0.1
140
3.2
141
0.0
142
0.0
143
0.0393701
144
1.0
145
0.0
146
0.71
147
1.5
 71
     0
 72
     0
 73
     0
 74
     0
 75
     0
 76
     0
 77
     0
 78
     8
170
     0
171
     2
172
     1
173
     0
174
     0
175
     0
176
   256
177
   256
178
     2
270
     2
271
     2
272
     2
273
     2
274
     2
340
6B
275
     0
280
     0
281
     0
282
     0
283
     0
284
     0
285
     0
286
     0
287
     3
288
     0
  0
DIMSTYLE
105
62
330
A
100
AcDbSymbolTableRecord
100
AcDbDimStyleTableRecord
  2
AM_JIS$7
 70
     0
  3

  4
"
  5
OPEN30
  6

  7

 40
0.5
 41
2.5
 42
1.0
 43
10.0
 44
1.0
 45
0.0
 46
0.0
 47
0.1
 48
0.1
140
3.2
141
0.0
142
0.0
143
0.0393701
144
1.0
145
0.0
146
0.71
147
1.5
 71
     0
 72
     0
 73
     0
 74
     0
 75
     0
 76
     0
 77
     3
 78
     8
170
     0
171
     2
172
     1
173
     0
174
     0
175
     0
176
   256
177
   256
178
     2
270
     2
271
     2
272
     3
273
     2
274
     2
340
6B
275
     0
280
     0
281
     0
282
     0
283
     0
284
     0
285
     0
286
     0
287
     3
288
     0
  0
DIMSTYLE
105
63
330
A
100
AcDbSymbolTableRecord
100
AcDbDimStyleTableRecord
  2
AM_JIS$SF
 70
     0
  3

  4
"
  5
OPEN30
  6

  7

 40
0.5
 41
2.5
 42
1.0
 43
10.0
 44
1.0
 45
0.0
 46
0.0
 47
0.1
 48
0.1
140
3.2
141
0.0
142
0.0
143
0.0393701
144
1.0
145
0.0
146
0.71
147
1.5
 71
     0
 72
     0
 73
     0
 74
     0
 75
     1
 76
     1
 77
     3
 78
     8
170
     0
171
     2
172
     1
173
     0
174
     0
175
     0
176
   256
177
   256
178
     2
270
     2
271
     2
272
     2
273
     2
274
     2
340
6B
275
     0
280
     0
281
     0
282
     0
283
     0
284
     0
285
     0
286
     0
287
     3
288
     0
  0
DIMSTYLE
105
68
330
A
100
AcDbSymbolTableRecord
100
AcDbDimStyleTableRecord
  2
AM_JIS$SH
 70
     0
  3

  4
"
  5

  6
GENAXEH
  7
OPEN30
 40
0.5
 41
2.5
 42
1.0
 43
10.0
 44
1.0
 45
0.0
 46
0.0
 47
0.1
 48
0.1
140
3.2
141
0.0
142
0.0
143
0.0393701
144
2.0
145
0.0
146
0.71
147
1.5
 71
     0
 72
     0
 73
     0
 74
     0
 75
     1
 76
     1
 77
     3
 78
     8
170
     0
171
     2
172
     1
173
     1
174
     0
175
     0
176
   256
177
   256
178
     2
270
     2
271
     2
272
     2
273
     2
274
     2
340
6B
275
     0
280
     0
281
     0
282
     0
283
     0
284
     0
285
     0
286
     0
287
     3
288
     0
  0
DIMSTYLE
105
B34
102
{ACAD_REACTORS
330
2C81
102
}
330
A
100
AcDbSymbolTableRecord
100
AcDbDimStyleTableRecord
  2
AM_JIS$2
 70
     0
  3

  4
"
  5
OPEN30
  6

  7

 40
0.5
 41
2.5
 42
1.0
 43
12.0
 44
1.0
 45
0.0
 46
0.0
 47
0.1
 48
0.1
140
3.2
141
0.0
142
0.0
143
0.0393701
144
1.0
145
0.0
146
0.71
147
1.5
 71
     0
 72
     0
 73
     0
 74
     0
 75
     0
 76
     0
 77
     3
 78
     8
170
     0
171
     2
172
     1
173
     0
174
     0
175
     0
176
   256
177
   256
178
     2
270
     2
271
     3
272
     3
273
     2
274
     2
340
6B
275
     0
280
     0
281
     0
282
     0
283
     0
284
     0
285
     0
286
     0
287
     3
288
     0
  0
DIMSTYLE
105
BA5
102
{ACAD_REACTORS
330
CC6
330
2069
330
2D60
330
324F
102
}
330
A
100
AcDbSymbolTableRecord
100
AcDbDimStyleTableRecord
  2
AM_JIS$0
 70
     0
  3

  4
"
  5
OPEN30
  6

  7

 40
0.5
 41
2.5
 42
0.0
 43
10.0
 44
1.0
 45
0.0
 46
0.0
 47
0.1
 48
0.1000000001
140
3.799999999999999
141
0.0
142
0.0
143
0.0393701
144
1.0
145
0.0
146
0.71
147
1.5
 71
     0
 72
     0
 73
     0
 74
     0
 75
     0
 76
     0
 77
     3
 78
     1
170
     0
171
     2
172
     1
173
     0
174
     0
175
     0
176
     3
177
     3
178
     2
270
     2
271
     2
272
     2
273
     2
274
     2
340
11
275
     1
280
     0
281
     0
282
     0
283
     0
284
     8
285
     0
286
     0
287
     0
288
     0
  0
ENDTAB
  0
TABLE
  2
BLOCK_RECORD
  5
1
330
0
100
AcDbSymbolTable
 70
    10
  0
BLOCK_RECORD
  5
1F
102
{ACAD_XDICTIONARY
360
74
102
}
330
1
100
AcDbSymbolTableRecord
100
AcDbBlockTableRecord
  2
*MODEL_SPACE
  0
BLOCK_RECORD
  5
101
102
{ACAD_XDICTIONARY
360
3A90
102
}
330
1
100
AcDbSymbolTableRecord
100
AcDbBlockTableRecord
  2
*PAPER_SPACE
  0
BLOCK_RECORD
  5
59
330
1
100
AcDbSymbolTableRecord
100
AcDbBlockTableRecord
  2
_OPEN30
  0
BLOCK_RECORD
  5
64
330
1
100
AcDbSymbolTableRecord
100
AcDbBlockTableRecord
  2
GENAXEH
  0
BLOCK_RECORD
  5
CC8
330
1
100
AcDbSymbolTableRecord
100
AcDbBlockTableRecord
  2
*D5
  0
BLOCK_RECORD
  5
206A
330
1
100
AcDbSymbolTableRecord
100
AcDbBlockTableRecord
  2
*D6
  0
BLOCK_RECORD
  5
2C82
330
1
100
AcDbSymbolTableRecord
100
AcDbBlockTableRecord
  2
*D7
  0
BLOCK_RECORD
  5
2D61
330
1
100
AcDbSymbolTableRecord
100
AcDbBlockTableRecord
  2
*D8
  0
BLOCK_RECORD
  5
3250
330
1
100
AcDbSymbolTableRecord
100
AcDbBlockTableRecord
  2
*D9
  0
ENDTAB
  0
ENDSEC
  0
SECTION
  2
BLOCKS
  0
BLOCK
  5
20
330
1F
100
AcDbEntity
  8
0
100
AcDbBlockBegin
  2
*MODEL_SPACE
 70
     0
 10
0.0
 20
0.0
 30
0.0
  3
*MODEL_SPACE
  1

  0
ENDBLK
  5
21
330
1F
100
AcDbEntity
  8
0
100
AcDbBlockEnd
  0
BLOCK
  5
103
330
101
100
AcDbEntity
 67
     1
  8
0
100
AcDbBlockBegin
  2
*PAPER_SPACE
 70
     0
 10
0.0
 20
0.0
 30
0.0
  3
*PAPER_SPACE
  1

  0
ENDBLK
  5
104
330
101
100
AcDbEntity
 67
     1
  8
0
100
AcDbBlockEnd
  0
BLOCK
  5
5D
330
59
100
AcDbEntity
  8
0
100
AcDbBlockBegin
  2
_OPEN30
 70
     0
 10
0.0
 20
0.0
 30
0.0
  3
_OPEN30
  1

  0
LINE
  5
5A
330
59
100
AcDbEntity
  8
0
 62
     0
100
AcDbLine
 10
-1.0
 20
0.26794919
 30
0.0
 11
0.0
 21
0.0
 31
0.0
  0
LINE
  5
5B
330
59
100
AcDbEntity
  8
0
 62
     0
100
AcDbLine
 10
0.0
 20
0.0
 30
0.0
 11
-1.0
 21
-0.26794919
 31
0.0
  0
LINE
  5
5C
330
59
100
AcDbEntity
  8
0
 62
     0
100
AcDbLine
 10
0.0
 20
0.0
 30
0.0
 11
-1.0
 21
0.0
 31
0.0
  0
ENDBLK
  5
5E
330
59
100
AcDbEntity
  8
0
100
AcDbBlockEnd
  0
BLOCK
  5
66
330
64
100
AcDbEntity
  8
0
100
AcDbBlockBegin
  2
GENAXEH
 70
     0
 10
0.0
 20
0.0
 30
0.0
  3
GENAXEH
  1

  0
LINE
  5
65
330
64
100
AcDbEntity
  8
0
100
AcDbLine
 10
-1.0
 20
0.0
 30
0.0
 11
1.0
 21
0.0
 31
0.0
  0
ENDBLK
  5
67
330
64
100
AcDbEntity
  8
0
100
AcDbBlockEnd
  0
BLOCK
  5
CD2
330
CC8
100
AcDbEntity
  8
0
100
AcDbBlockBegin
  2
*D5
 70
     1
 10
0.0
 20
0.0
 30
0.0
  3
*D5
  1

  0
LINE
  5
3A13
330
CC8
100
AcDbEntity
  8
AM_5
 62
     3
100
AcDbLine
 10
-124.0
 20
-5.499999999999359
 30
0.0
 11
-124.0
 21
-18.50000099999951
 31
0.0
  0
LINE
  5
3A14
330
CC8
100
AcDbEntity
  8
AM_5
 62
     3
100
AcDbLine
 10
-2.000000000000173
 20
-6.00001249172071
 30
0.0
 11
-2.000000000000174
 21
-18.50000099999951
 31
0.0
  0
LINE
  5
3A15
330
CC8
100
AcDbEntity
  8
AM_5
 62
     3
100
AcDbLine
 10
-122.75
 20
-18.00000099999951
 30
0.0
 11
-3.250000000000174
 21
-18.00000099999951
 31
0.0
  0
INSERT
  5
3A16
330
CC8
100
AcDbEntity
  8
AM_5
 62
     3
100
AcDbBlockReference
  2
_OPEN30
 10
-124.0
 20
-18.00000099999951
 30
0.0
 41
1.25
 42
1.25
 43
1.25
 50
180.0
  0
INSERT
  5
3A17
330
CC8
100
AcDbEntity
  8
AM_5
 62
     3
100
AcDbBlockReference
  2
_OPEN30
 10
-2.000000000000174
 20
-18.00000099999951
 30
0.0
 41
1.25
 42
1.25
 43
1.25
  0
MTEXT
  5
3A18
330
CC8
100
AcDbEntity
  8
AM_5
 62
     2
100
AcDbMText
 10
-63.0000000000001
 20
-16.30000099999951
 30
0.0
 40
1.9
 41
0.0
 71
     5
 72
     1
  1
122
1001
ACAD
1000
MTEXTBEGIN
1070
    73
1070
     1
1070
    44
1040
1.0
1070
    74
1070
     0
1000
MTEXTEND
  0
POINT
  5
3A19
330
CC8
100
AcDbEntity
  8
DEFPOINTS
 62
     0
100
AcDbPoint
 10
-124.0
 20
-5.499999999999359
 30
0.0
  0
POINT
  5
3A1A
330
CC8
100
AcDbEntity
  8
DEFPOINTS
 62
     0
100
AcDbPoint
 10
-2.000000000000173
 20
-6.00001249172071
 30
0.0
  0
POINT
  5
3A1B
330
CC8
100
AcDbEntity
  8
DEFPOINTS
 62
     0
100
AcDbPoint
 10
-2.000000000000174
 20
-18.00000099999951
 30
0.0
  0
ENDBLK
  5
CD3
330
CC8
100
AcDbEntity
  8
0
100
AcDbBlockEnd
  0
BLOCK
  5
2074
330
206A
100
AcDbEntity
  8
0
100
AcDbBlockBegin
  2
*D6
 70
     1
 10
0.0
 20
0.0
 30
0.0
  3
*D6
  1

  0
LINE
  5
3A30
330
206A
100
AcDbEntity
  8
AM_5
 62
     3
100
AcDbLine
 10
-62.0000000000001
 20
-3.988993228996957
 30
0.0
 11
-62.00000000000008
 21
-13.50000099999965
 31
0.0
  0
LINE
  5
3A31
330
206A
100
AcDbEntity
  8
AM_5
 62
     3
100
AcDbLine
 10
-2.000000000000155
 20
-6.000012491720716
 30
0.0
 11
-2.000000000000134
 21
-13.50000099999947
 31
0.0
  0
LINE
  5
3A32
330
206A
100
AcDbEntity
  8
AM_5
 62
     3
100
AcDbLine
 10
-60.75000000000009
 20
-13.00000099999965
 30
0.0
 11
-3.250000000000135
 21
-13.00000099999948
 31
0.0
  0
INSERT
  5
3A33
330
206A
100
AcDbEntity
  8
AM_5
 62
     3
100
AcDbBlockReference
  2
_OPEN30
 10
-62.00000000000009
 20
-13.00000099999965
 30
0.0
 41
1.25
 42
1.25
 43
1.25
 50
180.0000000000001
  0
INSERT
  5
3A34
330
206A
100
AcDbEntity
  8
AM_5
 62
     3
100
AcDbBlockReference
  2
_OPEN30
 10
-2.000000000000135
 20
-13.00000099999947
 30
0.0
 41
1.25
 42
1.25
 43
1.25
 50
0.0000000000001527
  0
MTEXT
  5
3A35
330
206A
100
AcDbEntity
  8
AM_5
 62
     2
100
AcDbMText
 10
-32.00000000000011
 20
-11.30000099999956
 30
0.0
 40
1.9
 41
0.0
 71
     5
 72
     1
  1
60
1001
ACAD
1000
MTEXTBEGIN
1070
    73
1070
     1
1070
    44
1040
1.0
1070
    74
1070
     0
1000
MTEXTEND
  0
POINT
  5
3A36
330
206A
100
AcDbEntity
  8
DEFPOINTS
 62
     0
100
AcDbPoint
 10
-62.00000000000012
 20
-3.988993228996776
 30
0.0
  0
POINT
  5
3A37
330
206A
100
AcDbEntity
  8
DEFPOINTS
 62
     0
100
AcDbPoint
 10
-2.000000000000173
 20
-6.00001249172071
 30
0.0
  0
POINT
  5
3A38
330
206A
100
AcDbEntity
  8
DEFPOINTS
 62
     0
100
AcDbPoint
 10
-2.000000000000173
 20
-13.00000099999947
 30
0.0
  0
ENDBLK
  5
2075
330
206A
100
AcDbEntity
  8
0
100
AcDbBlockEnd
  0
BLOCK
  5
2C90
330
2C82
100
AcDbEntity
  8
0
100
AcDbBlockBegin
  2
*D7
 70
     1
 10
0.0
 20
0.0
 30
0.0
  3
*D7
  1

  0
LINE
  5
3A25
330
2C82
100
AcDbEntity
  8
AM_5
100
AcDbLine
 10
0.1710100704080544
 20
-0.4698463108496579
 30
0.0
 11
5.46684596192212
 21
-15.02003596082515
 31
0.0
  0
LINE
  5
3A26
330
2C82
100
AcDbEntity
  8
AM_5
100
AcDbLine
 10
0.1710111111829681
 20
0.4698459320372658
 30
0.0
 11
5.46687923339041
 21
15.0200238509594
 31
0.0
  0
ARC
  5
3A27
330
2C82
100
AcDbEntity
  8
AM_5
100
AcDbCircle
 10
-0.0000000000000164
 20
-0.0000000000000001
 30
0.0
 40
15.48398839576233
100
AcDbArc
 50
294.6266622332645
 51
65.37321084856529
  0
INSERT
  5
3A28
330
2C82
100
AcDbEntity
  8
AM_5
100
AcDbBlockReference
  2
_OPEN30
 10
5.295835891514052
 20
-14.5501896499755
 30
0.0
 41
1.25
 42
1.25
 43
1.25
 50
202.3133310401254
  0
INSERT
  5
3A29
330
2C82
100
AcDbEntity
  8
AM_5
100
AcDbBlockReference
  2
_OPEN30
 10
5.295868122207428
 20
14.55017791892215
 30
0.0
 41
1.25
 42
1.25
 43
1.25
 50
157.6865420417043
  0
MTEXT
  5
3A2A
330
2C82
100
AcDbEntity
  8
AM_5
 62
     2
100
AcDbMText
 10
13.93398839575377
 20
-0.0000154328671896
 30
0.0
 40
1.6
 41
0.0
 71
     5
 72
     1
  1
140°
  7
ASAMI
 11
0.0000011075699751
 21
0.9999999999993868
 31
0.0
1001
ACAD
1000
MTEXTBEGIN
1070
    73
1070
     1
1070
    44
1040
1.0
1070
    74
1070
     0
1000
MTEXTEND
  0
POINT
  5
3A2B
330
2C82
100
AcDbEntity
  8
DEFPOINTS
 62
     0
100
AcDbPoint
 10
14.21764300986629
 20
-6.132905011827785
 30
0.0
  0
POINT
  5
3A2C
330
2C82
100
AcDbEntity
  8
DEFPOINTS
 62
     0
100
AcDbPoint
 10
-0.0000000000000143
 20
0.0000000000000056
 30
0.0
  0
POINT
  5
3A2D
330
2C82
100
AcDbEntity
  8
DEFPOINTS
 62
     0
100
AcDbPoint
 10
-0.0000000000000142
 20
-0.0000000000000063
 30
0.0
  0
POINT
  5
3A2E
330
2C82
100
AcDbEntity
  8
DEFPOINTS
 62
     0
100
AcDbPoint
 10
-0.6288636867983483
 20
1.727788793750294
 30
0.0
  0
POINT
  5
3A2F
330
2C82
100
AcDbEntity
  8
DEFPOINTS
 62
     0
100
AcDbPoint
 10
-0.6288762571457464
 20
-1.727811421905664
 30
0.0
  0
ENDBLK
  5
2C91
330
2C82
100
AcDbEntity
  8
0
100
AcDbBlockEnd
  0
BLOCK
  5
2D6B
330
2D61
100
AcDbEntity
  8
0
100
AcDbBlockBegin
  2
*D8
 70
     1
 10
0.0
 20
0.0
 30
0.0
  3
*D8
  1

  0
LINE
  5
3A39
330
2D61
100
AcDbEntity
  8
AM_5
 62
     3
100
AcDbLine
 10
-2.000000001295759
 20
6.000000000000005
 30
0.0
 11
9.819922091907695
 21
5.999958510232348
 31
0.0
  0
LINE
  5
3A3A
330
2D61
100
AcDbEntity
  8
AM_5
 62
     3
100
AcDbLine
 10
-2.000000000000156
 20
-6.000012491720715
 30
0.0
 11
9.819879969994689
 21
-6.000053981340514
 31
0.0
  0
LINE
  5
3A3B
330
2D61
100
AcDbEntity
  8
AM_5
 62
     3
100
AcDbLine
 10
9.319917704216072
 20
4.74996026531793
 30
0.0
 11
9.319884357692473
 21
-4.750052226270333
 31
0.0
  0
INSERT
  5
3A3C
330
2D61
100
AcDbEntity
  8
AM_5
 62
     3
100
AcDbBlockReference
  2
_OPEN30
 10
9.319922091910775
 20
5.99996026531023
 30
0.0
 41
1.25
 42
1.25
 43
1.25
 50
89.99979888288931
  0
INSERT
  5
3A3D
330
2D61
100
AcDbEntity
  8
AM_5
 62
     3
100
AcDbBlockReference
  2
_OPEN30
 10
9.319879969997769
 20
-6.000052226262631
 30
0.0
 41
1.25
 42
1.25
 43
1.25
 50
269.9997988828893
  0
MTEXT
  5
3A3E
330
2D61
100
AcDbEntity
  8
AM_5
 62
     2
100
AcDbMText
 10
7.619901030964745
 20
-0.000040013211404
 30
0.0
 40
1.9
 41
0.0
 71
     5
 72
     1
  1
%%c12
 11
0.0000035101557632
 21
0.9999999999938395
 31
0.0
1001
ACAD
1000
MTEXTBEGIN
1070
    73
1070
     1
1070
    44
1040
1.0
1070
    74
1070
     0
1000
MTEXTEND
  0
POINT
  5
3A3F
330
2D61
100
AcDbEntity
  8
DEFPOINTS
 62
     0
100
AcDbPoint
 10
-2.000000001295742
 20
6.000000000000011
 30
0.0
  0
POINT
  5
3A40
330
2D61
100
AcDbEntity
  8
DEFPOINTS
 62
     0
100
AcDbPoint
 10
-2.000000000000173
 20
-6.000012491720711
 30
0.0
  0
POINT
  5
3A41
330
2D61
100
AcDbEntity
  8
DEFPOINTS
 62
     0
100
AcDbPoint
 10
9.319879969997753
 20
-6.000052226262659
 30
0.0
  0
ENDBLK
  5
2D6C
330
2D61
100
AcDbEntity
  8
0
100
AcDbBlockEnd
  0
BLOCK
  5
325A
330
3250
100
AcDbEntity
  8
0
100
AcDbBlockBegin
  2
*D9
 70
     1
 10
0.0
 20
0.0
 30
0.0
  3
*D9
  1

  0
LINE
  5
3A1C
330
3250
100
AcDbEntity
  8
AM_5
 62
     3
100
AcDbLine
 10
-123.5
 20
-5.999999999999936
 30
0.0
 11
-134.000001
 21
-5.999999999999982
 31
0.0
  0
LINE
  5
3A1D
330
3250
100
AcDbEntity
  8
AM_5
 62
     3
100
AcDbLine
 10
-123.5
 20
6.000000000000097
 30
0.0
 11
-134.000001
 21
6.000000000000051
 31
0.0
  0
LINE
  5
3A1E
330
3250
100
AcDbEntity
  8
AM_5
 62
     3
100
AcDbLine
 10
-133.500001
 20
-4.74999999999998
 30
0.0
 11
-133.500001
 21
4.750000000000053
 31
0.0
  0
INSERT
  5
3A1F
330
3250
100
AcDbEntity
  8
AM_5
 62
     3
100
AcDbBlockReference
  2
_OPEN30
 10
-133.500001
 20
-5.99999999999998
 30
0.0
 41
1.25
 42
1.25
 43
1.25
 50
270.0000000000002
  0
INSERT
  5
3A20
330
3250
100
AcDbEntity
  8
AM_5
 62
     3
100
AcDbBlockReference
  2
_OPEN30
 10
-133.500001
 20
6.000000000000053
 30
0.0
 41
1.25
 42
1.25
 43
1.25
 50
90.00000000000026
  0
MTEXT
  5
3A21
330
3250
100
AcDbEntity
  8
AM_5
 62
     2
100
AcDbMText
 10
-135.200001
 20
0.0000129000659571
 30
0.0
 40
1.9
 41
0.0
 71
     5
 72
     1
  1
%%c12
 11
-0.0000000000000046
 21
1.0
 31
0.0
1001
ACAD
1000
MTEXTBEGIN
1070
    73
1070
     1
1070
    44
1040
1.0
1070
    74
1070
     0
1000
MTEXTEND
  0
POINT
  5
3A22
330
3250
100
AcDbEntity
  8
DEFPOINTS
 62
     0
100
AcDbPoint
 10
-123.5
 20
-5.99999999999936
 30
0.0
  0
POINT
  5
3A23
330
3250
100
AcDbEntity
  8
DEFPOINTS
 62
     0
100
AcDbPoint
 10
-123.4999999999999
 20
6.000000000000673
 30
0.0
  0
POINT
  5
3A24
330
3250
100
AcDbEntity
  8
DEFPOINTS
 62
     0
100
AcDbPoint
 10
-133.500001
 20
6.000000000000675
 30
0.0
  0
ENDBLK
  5
325B
330
3250
100
AcDbEntity
  8
0
100
AcDbBlockEnd
  0
ENDSEC
  0
SECTION
  2
ENTITIES
  0
LINE
  5
C1D
330
1F
100
AcDbEntity
  8
AM_0
 48
0.5
100
AcDbLine
 10
-0.0000000000000156
 20
-0.0000000000000069
 30
0.0
 11
-0.6911274181645214
 21
1.898856991151313
 31
0.0
  0
LINE
  5
C20
330
1F
100
AcDbEntity
  8
AM_0
 48
0.5
100
AcDbLine
 10
-0.0000000000000158
 20
0.0000000000000062
 30
0.0
 11
-0.6911412331007707
 21
-1.898881859718106
 31
0.0
  0
DIMENSION
  5
CC6
330
1F
100
AcDbEntity
  8
AM_5
100
AcDbDimension
  2
*D5
 10
-2.000000000000174
 20
-18.00000099999951
 30
0.0
 11
-63.0000000000001
 21
-16.30000099999951
 31
0.0
 70
    32
  1
<>
  3
AM_JIS$0
100
AcDbAlignedDimension
 13
-124.0
 23
-5.499999999999359
 33
0.0
 14
-2.000000000000173
 24
-6.00001249172071
 34
0.0
 50
0.0000000000001132
100
AcDbRotatedDimension
1001
GENIUS_GENDTOL_13
1000

1000
h7
1000

1040
0.0
1001
ACAD
1000
DSTYLE
1002
{
1070
   271
1070
     0
1002
}
  0
TEXT
  5
19BD
330
1F
100
AcDbEntity
  8
AM_6
100
AcDbText
 10
-74.0119047619048
 20
-29.25000099999954
 30
0.0
 40
2.5
  1
MDW120MHK
 50
0.0000000000001527
 72
     4
 11
-63.00000000000004
 21
-28.00000099999951
 31
0.0
100
AcDbText
  0
DIMENSION
  5
2069
330
1F
100
AcDbEntity
  8
AM_5
100
AcDbDimension
  2
*D6
 10
-2.000000000000173
 20
-13.00000099999947
 30
0.0
 11
-32.00000000000015
 21
-11.30000099999947
 31
0.0
 70
    32
  1
<>
 51
359.9999999999998
  3
AM_JIS$0
100
AcDbAlignedDimension
 13
-62.00000000000012
 23
-3.988993228996776
 33
0.0
 14
-2.000000000000173
 24
-6.00001249172071
 34
0.0
 50
0.0000000000001527
100
AcDbRotatedDimension
1001
ACAD
1000
DSTYLE
1002
{
1070
   271
1070
     0
1070
   174
1070
     1
1002
}
1001
GENIUS_GENDTOL_13
1000

1000
h7
1000

1040
0.0
  0
LINE
  5
23EF
330
1F
100
AcDbEntity
  8
AM_7
100
AcDbLine
 10
-126.5
 20
0.0000000000006583
 30
0.0
 11
2.31990003107253
 21
-0.0000000000000121
 31
0.0
1001
GENIUS_GENODEF_13
1002
{
1000
HIER
1070
     0
1002
}
1002
{
1000
MANEDIT
1070
     0
1002
}
1002
{
1000
NOSEL
1070
     0
1002
}
1002
{
1000
BEHIND
1070
     0
1002
}
1002
{
1000
REACTOR
1002
}
1001
GENIUS_GENOBJ-N-CEN_13
1002
{
1000
OWNER
1000
GEN
1002
}
  0
ELLIPSE
  5
24B7
330
1F
100
AcDbEntity
  8
AM_11
 48
0.5
100
AcDbEllipse
 10
-18.90505084822881
 20
21.92422160965422
 30
0.0
 11
-25.30609321594203
 21
0.0000000000001926
 31
0.0
210
0.0
220
0.0
230
1.0
 40
0.9578947368421056
 41
1.130070686340284
 42
2.011520147323574
  0
ELLIPSE
  5
24B8
330
1F
100
AcDbEntity
  8
AM_11
 48
0.5
100
AcDbEllipse
 10
-18.90505084823002
 20
-21.92420569470017
 30
0.0
 11
-25.306093215942
 21
0.0000000000001139
 31
0.0
210
0.0
220
0.0
230
1.0
 40
0.9578947368421054
 41
4.271664206181664
 42
5.153113667164971
  0
ELLIPSE
  5
24B9
330
1F
100
AcDbEntity
  8
AM_11
 48
0.5
100
AcDbEllipse
 10
2.685858242680297
 20
21.92422160965365
 30
0.0
 11
-25.30609321594198
 21
0.0000000000019795
 31
0.0
210
0.0
220
0.0
230
1.0
 40
0.9578947368421141
 41
1.130070686340349
 42
1.291800737381041
  0
ELLIPSE
  5
24BE
330
1F
100
AcDbEntity
  8
AM_0
 48
0.5
100
AcDbEllipse
 10
8.112677985322388
 20
6.861476995223885
 30
0.0
 11
8.923049457853185
 21
4.746715063030587
 31
0.0
210
0.0
220
0.0
230
1.0
 40
0.881062575869514
 41
2.787798752473538
 42
3.169290432513448
  0
ELLIPSE
  5
24C7
330
1F
100
AcDbEntity
  8
AM_11
 48
0.5
100
AcDbEllipse
 10
-83.67777812095001
 20
21.92422160965587
 30
0.0
 11
-25.30609321594203
 21
0.0000000000005635
 31
0.0
210
0.0
220
0.0
230
1.0
 40
0.9578947368421056
 41
1.130070686340301
 42
2.011520147323591
  0
ELLIPSE
  5
24C8
330
1F
100
AcDbEntity
  8
AM_11
 48
0.5
100
AcDbEllipse
 10
-83.67777812095125
 20
-21.92420569469852
 30
0.0
 11
25.306093215942
 21
0.000000000000423
 31
0.0
210
0.0
220
0.0
230
1.0
 40
0.957894736842107
 41
1.13007155259185
 42
2.011521013575156
  0
ELLIPSE
  5
24D4
330
1F
100
AcDbEntity
  8
AM_11
 48
0.5
100
AcDbEllipse
 10
-62.08686903004092
 20
21.92422160965534
 30
0.0
 11
-25.30609321594207
 21
0.0000000000001476
 31
0.0
210
0.0
220
0.0
230
1.0
 40
0.9578947368421051
 41
1.130070686340283
 42
2.011520147323574
  0
ELLIPSE
  5
24D5
330
1F
100
AcDbEntity
  8
AM_11
 48
0.5
100
AcDbEllipse
 10
-62.08686903004213
 20
-21.92420569469905
 30
0.0
 11
-25.30609321594196
 21
0.0000000000004567
 31
0.0
210
0.0
220
0.0
230
1.0
 40
0.9578947368421083
 41
4.271664206181676
 42
5.153113667164986
  0
ELLIPSE
  5
24E6
330
1F
100
AcDbEntity
  8
AM_11
 48
0.5
100
AcDbEllipse
 10
-40.4959599391391
 20
-21.92420569469962
 30
0.0
 11
-25.30609321594199
 21
0.0000000000006871
 31
0.0
210
0.0
220
0.0
230
1.0
 40
0.9578947368421058
 41
4.271664206181685
 42
5.153113667164993
  0
ELLIPSE
  5
24E7
330
1F
100
AcDbEntity
  8
AM_11
 48
0.5
100
AcDbEllipse
 10
-40.49595993913789
 20
21.92422160965477
 30
0.0
 11
25.30609321594204
 21
0.0000000000000409
 31
0.0
210
0.0
220
0.0
230
1.0
 40
0.9578947368421051
 41
4.271663339930067
 42
5.153112800913361
  0
ELLIPSE
  5
2BF3
330
1F
100
AcDbEntity
  8
AM_11
 48
0.5
100
AcDbEllipse
 10
-105.2686872118502
 20
21.9242216096552
 30
0.0
 11
-25.30609321594207
 21
0.0000000000001476
 31
0.0
210
0.0
220
0.0
230
1.0
 40
0.9578947368421051
 41
1.130070686340283
 42
2.011520147323574
  0
ELLIPSE
  5
2BF5
330
1F
100
AcDbEntity
  8
AM_11
 48
0.5
100
AcDbEllipse
 10
-105.2686872118514
 20
-21.92420569469919
 30
0.0
 11
-25.30609321594196
 21
0.0000000000004567
 31
0.0
210
0.0
220
0.0
230
1.0
 40
0.9578947368421083
 41
4.271664206181676
 42
5.153113667164986
  0
ELLIPSE
  5
2C72
330
1F
100
AcDbEntity
  8
AM_0
 48
0.5
100
AcDbEllipse
 10
8.11267798532231
 20
-6.861476995223975
 30
0.0
 11
8.906467373807679
 21
-4.777201807748571
 31
0.0
210
0.0
220
0.0
230
-1.0
 40
0.8865390934601007
 41
2.790918318021922
 42
3.165246863909731
  0
LINE
  5
2C73
330
1F
100
AcDbEntity
  8
AM_0
 48
0.5
100
AcDbLine
 10
-1.706668176775011
 20
-5.087508301370093
 30
0.0
 11
-2.000000000000173
 21
-6.00001249172071
 31
0.0
  0
DIMENSION
  5
2C81
330
1F
100
AcDbEntity
  8
AM_5
100
AcDbDimension
  2
*D7
 10
-0.6288762571457463
 20
-1.727811421905664
 30
0.0
 11
13.93398839575377
 21
-0.0000154328672309
 31
0.0
 70
    34
  1
<>
 51
359.9999999999998
  3
AM_JIS$2
100
AcDb2LineAngularDimension
 13
-0.0000000000000142
 23
-0.0000000000000063
 33
0.0
 14
-0.6288636867983481
 24
1.727788793750294
 34
0.0
 15
-0.0000000000000143
 25
0.0000000000000056
 35
0.0
 16
14.21764300986629
 26
-6.132905011827785
 36
0.0
1001
ACAD
1000
DSTYLE
1002
{
1070
   179
1070
     3
1002
}
1001
GENIUS_GENDTOL_13
1000

1000
h7
1000

1040
0.0
  0
DIMENSION
  5
2D60
330
1F
100
AcDbEntity
  8
AM_5
100
AcDbDimension
  2
*D8
 10
9.319879969997753
 20
-6.000052226262659
 30
0.0
 11
7.619901030964745
 21
-0.0000400132114262
 31
0.0
 70
    32
  1
%%c<>
 51
359.9999999999998
  3
AM_JIS$0
100
AcDbAlignedDimension
 13
-2.000000001295742
 23
6.00000000000001
 33
0.0
 14
-2.000000000000173
 24
-6.00001249172071
 34
0.0
 50
89.99979888288933
100
AcDbRotatedDimension
1001
GENIUS_GENDTOL_13
1000

1000
h7
1000

1040
0.0
1001
ACAD
1000
DSTYLE
1002
{
1070
   271
1070
     0
1002
}
  0
LINE
  5
324C
330
1F
100
AcDbEntity
  8
AM_0
100
AcDbLine
 10
-123.5
 20
-5.99999999999936
 30
0.0
 11
-59.92931700942388
 21
-5.999999999999446
 31
0.0
  0
DIMENSION
  5
324F
330
1F
100
AcDbEntity
  8
AM_5
100
AcDbDimension
  2
*D9
 10
-133.500001
 20
6.000000000000675
 30
0.0
 11
-133.500001
 21
0.0000129000665904
 31
0.0
 70
   160
  1
%%c<>
 51
359.9999999999997
  3
AM_JIS$0
100
AcDbAlignedDimension
 13
-123.5
 23
-5.99999999999936
 33
0.0
 14
-123.4999999999999
 24
6.000000000000673
 34
0.0
 50
270.0
100
AcDbRotatedDimension
1001
ACAD
1000
DSTYLE
1002
{
1070
   271
1070
     0
1002
}
1001
GENIUS_GENDTOL_13
1000

1000
h7
1000

1040
0.0
  0
LINE
  5
325C
330
1F
100
AcDbEntity
  8
AM_0
 48
0.5
100
AcDbLine
 10
-123.5
 20
-5.999999999999392
 30
0.0
 11
-123.4999999999999
 21
5.999990914632275
 31
0.0
  0
LINE
  5
325D
330
1F
100
AcDbEntity
  8
AM_0
 48
0.5
100
AcDbLine
 10
-124.0
 20
-5.499999999999359
 30
0.0
 11
-124.0
 21
5.500000000000639
 31
0.0
  0
LINE
  5
325E
330
1F
100
AcDbEntity
  8
AM_0
100
AcDbLine
 10
-58.16792116346937
 20
6.000000000001399
 30
0.0
 11
-123.5
 21
6.000000000000638
 31
0.0
  0
LINE
  5
3273
330
1F
100
AcDbEntity
  8
AM_0
 48
0.5
100
AcDbLine
 10
-123.5
 20
-5.99999999999936
 30
0.0
 11
-124.0
 21
-5.499999999999359
 31
0.0
1001
GENIUS_GENFIL_13
1070
     0
1040
0.5
1040
0.5
1040
20.0
1040
0.0
1002
{
1002
}
1001
GENIUS_GENODEF_13
1002
{
1000
HIER
1070
     0
1002
}
1002
{
1000
MANEDIT
1070
     0
1002
}
1002
{
1000
NOSEL
1070
     0
1002
}
1002
{
1000
BEHIND
1070
     0
1002
}
1002
{
1000
REACTOR
1002
}
1001
GENIUS_GENOBJ-N-CHA_13
1002
{
1000
OWNER
1000
GEN
1002
}
  0
LINE
  5
327F
330
1F
100
AcDbEntity
  8
AM_0
 48
0.5
100
AcDbLine
 10
-123.5
 20
6.000000000000638
 30
0.0
 11
-124.0
 21
5.500000000000639
 31
0.0
1001
GENIUS_GENFIL_13
1070
     0
1040
0.5
1040
0.5
1040
20.0
1040
0.0
1002
{
1002
}
1001
GENIUS_GENODEF_13
1002
{
1000
HIER
1070
     0
1002
}
1002
{
1000
MANEDIT
1070
     0
1002
}
1002
{
1000
NOSEL
1070
     0
1002
}
1002
{
1000
BEHIND
1070
     0
1002
}
1002
{
1000
REACTOR
1002
}
1001
GENIUS_GENOBJ-N-CHA_13
1002
{
1000
OWNER
1000
GEN
1002
}
  0
ELLIPSE
  5
3281
330
1F
100
AcDbEntity
  8
AM_11
 48
0.5
100
AcDbEllipse
 10
-126.8595410461822
 20
-21.92420569469927
 30
0.0
 11
-25.30609321594196
 21
0.0000000000004567
 31
0.0
210
0.0
220
0.0
230
1.0
 40
0.9578947368421083
 41
4.271664206181676
 42
4.599148993739767
  0
ELLIPSE
  5
3282
330
1F
100
AcDbEntity
  8
AM_11
 48
0.5
100
AcDbEllipse
 10
-126.8595410461809
 20
21.92422160965513
 30
0.0
 11
-25.30609321594207
 21
0.0000000000001476
 31
0.0
210
0.0
220
0.0
230
1.0
 40
0.9578947368421051
 41
1.684036313439791
 42
2.011520147323574
  0
LINE
  5
364D
330
1F
100
AcDbEntity
  8
AM_0
 48
0.5
100
AcDbLine
 10
-1.706668176774939
 20
5.132530498727377
 30
0.0
 11
-2.000000001295742
 21
6.00000000000001
 31
0.0
  0
LINE
  5
3991
330
1F
100
AcDbEntity
  8
AM_0
 48
0.5
100
AcDbLine
 10
-5.643434023961977
 20
6.00000000000023
 30
0.0
 11
-2.000000001295742
 21
6.00000000000001
 31
0.0
  0
LINE
  5
3992
330
1F
100
AcDbEntity
  8
AM_0
 48
0.5
100
AcDbLine
 10
-0.0000000000000331
 20
0.0000000000000071
 30
0.0
 11
-2.847476700022533
 21
2.303818369421026
 31
0.0
  0
LINE
  5
3993
330
1F
100
AcDbEntity
  8
AM_0
 48
0.5
100
AcDbLine
 10
-5.64343402262219
 20
-5.999999379601836
 30
0.0
 11
-2.000000000000268
 21
-6.00001249172071
 31
0.0
  0
LINE
  5
3994
330
1F
100
AcDbEntity
  8
AM_11
 48
0.5
100
AcDbLine
 10
-58.16792116346937
 20
6.000000000001399
 30
0.0
 11
-46.02429853161873
 21
6.000000000001104
 31
0.0
  0
LINE
  5
3995
330
1F
100
AcDbEntity
  8
AM_0
 48
0.5
100
AcDbLine
 10
-49.07375911146853
 20
2.981634914090243
 30
0.0
 11
-62.00000000000013
 21
-0.4855537414524839
 31
0.0
  0
LINE
  5
3996
330
1F
100
AcDbEntity
  8
AM_11
 48
0.5
100
AcDbLine
 10
-59.92987767255261
 20
-5.999999987695043
 30
0.0
 11
-46.02365982791194
 21
-6.000305175779355
 31
0.0
  0
LINE
  5
3997
330
1F
100
AcDbEntity
  8
AM_0
 48
0.5
100
AcDbLine
 10
-45.0709145135226
 20
-5.999999379599925
 30
0.0
 11
-24.67250759139837
 21
-5.999999999999418
 31
0.0
  0
LINE
  5
3998
330
1F
100
AcDbEntity
  8
AM_0
 48
0.5
100
AcDbLine
 10
-46.0243149212444
 20
6.000000620400363
 30
0.0
 11
-24.67250355803784
 21
6.000000000001261
 31
0.0
  0
LINE
  5
3999
330
1F
100
AcDbEntity
  8
AM_11
 48
0.5
100
AcDbLine
 10
-24.67250759139837
 20
-5.999999999999418
 30
0.0
 11
-5.64343402262219
 21
-5.999999379601836
 31
0.0
  0
LINE
  5
399A
330
1F
100
AcDbEntity
  8
AM_11
 48
0.5
100
AcDbLine
 10
-24.67250355803784
 20
6.000000000001261
 30
0.0
 11
-5.643434023961979
 21
6.00000000000023
 31
0.0
  0
ELLIPSE
  5
399B
330
1F
100
AcDbEntity
  8
AM_0
 48
0.5
100
AcDbEllipse
 10
-60.50205527826275
 20
-4.027113073009854
 30
0.0
 11
1.266859011284824
 21
0.8068696912158149
 31
0.0
210
0.0
220
0.0
230
1.0
 40
0.9924617421385447
 41
0.717278487172778
 42
2.545524669434604
  0
SPLINE
  5
399C
330
1F
100
AcDbEntity
  8
AM_0
 48
0.5
100
AcDbSpline
210
0.0
220
0.0
230
1.0
 70
     8
 71
     3
 72
    26
 73
    22
 74
     0
 42
0.0000000001
 43
0.0000000001
 40
0.0
 40
0.0
 40
0.0
 40
0.0
 40
0.8422864037471089
 40
1.685694647057321
 40
2.531315797913884
 40
3.380177287502886
 40
4.233214169721234
 40
5.09125020057522
 40
5.954967768899448
 40
6.824900391836836
 40
7.701419186604396
 40
8.584724417931369
 40
9.47485577056355
 40
10.37165251267315
 40
11.27486274211709
 40
12.18400675634887
 40
13.09851504074504
 40
14.01768673654235
 40
14.94071745659532
 40
15.8667176994736
 40
16.76607142455336
 40
16.76607142455336
 40
16.76607142455336
 40
16.76607142455336
 10
-42.85025251792635
 20
-6.000305175779528
 30
0.0
 10
-43.18683462108466
 20
-5.996735321293964
 30
0.0
 10
-43.86044712042589
 20
-5.98959085764083
 30
0.0
 10
-44.87062072827872
 20
-5.931998455080813
 30
0.0
 10
-45.88075121856136
 20
-5.840441592469383
 30
0.0
 10
-46.89081918062689
 20
-5.712121121287007
 30
0.0
 10
-47.90081458821971
 20
-5.548776231689511
 30
0.0
 10
-48.91071731831332
 20
-5.351132531970957
 30
0.0
 10
-49.92052669906443
 20
-5.120525379652891
 30
0.0
 10
-50.93023584359524
 20
-4.858355366435445
 30
0.0
 10
-51.93984236485563
 20
-4.566249213446891
 30
0.0
 10
-52.94935457194491
 20
-4.246025013679926
 30
0.0
 10
-53.95876828177422
 20
-3.899660048348911
 30
0.0
 10
-54.96809493128522
 20
-3.52927900604061
 30
0.0
 10
-55.97734801587066
 20
-3.137202651690266
 30
0.0
 10
-56.98652971614748
 20
-2.72580942150278
 30
0.0
 10
-57.99564755503496
 20
-2.297655207447779
 30
0.0
 10
-59.00472006379473
 20
-1.855381628586869
 30
0.0
 10
-60.01373056638351
 20
-1.401652238407698
 30
0.0
 10
-61.01237633891379
 20
-0.944246866261848
 30
0.0
 10
-61.67401673617696
 20
-0.6369587287442254
 30
0.0
 10
-62.00000762144482
 20
-0.4855575561494938
 30
0.0
  0
ELLIPSE
  5
399D
330
1F
100
AcDbEntity
  8
AM_0
 48
0.5
100
AcDbEllipse
 10
-60.00221047963347
 20
-4.000305175778623
 30
0.0
 11
-1.454192596506802
 21
1.436265130493837
 31
0.0
210
0.0
220
0.0
230
1.0
 40
0.9568637518814451
 41
0.8124884145544708
 42
2.364118645066998
  0
SPLINE
  5
399E
330
1F
100
AcDbEntity
  8
AM_0
 48
0.5
100
AcDbSpline
210
0.0
220
0.0
230
1.0
 70
     8
 71
     3
 72
    22
 73
    18
 74
     0
 42
0.0000000001
 43
0.0000000001
 40
0.0
 40
0.0
 40
0.0
 40
0.0
 40
1.010743684496582
 40
2.022833993863546
 40
3.037578683882831
 40
4.056212471389632
 40
5.079857945358201
 40
6.109499720892564
 40
7.145961650132166
 40
8.189873411961459
 40
9.241710626092514
 40
10.30166235592959
 40
11.36982472628033
 40
12.44598212828784
 40
13.52983440361964
 40
14.62080578343036
 40
14.90544694398022
 40
14.90544694398022
 40
14.90544694398022
 40
14.90544694398022
 10
-45.67788361610384
 20
-5.999999999998911
 30
0.0
 10
-46.01463438231614
 20
-5.996736387639556
 30
0.0
 10
-46.6882471492865
 20
-5.989594056624469
 30
0.0
 10
-47.698419699276
 20
-5.931985613377754
 30
0.0
 10
-48.70855128030321
 20
-5.840444155765545
 30
0.0
 10
-49.71861978819087
 20
-5.71212359984285
 30
0.0
 10
-50.7286124120503
 20
-5.548763344694821
 30
0.0
 10
-51.73851861533613
 20
-5.351136733642514
 30
0.0
 10
-52.74832359933816
 20
-5.120521201297596
 30
0.0
 10
-53.7580343078278
 20
-4.85834739239583
 30
0.0
 10
-54.76764164687402
 20
-4.566252276370493
 30
0.0
 10
-55.77715089258564
 20
-4.246013577000312
 30
0.0
 10
-56.78656855258803
 20
-3.899669119544301
 30
0.0
 10
-57.79589386869018
 20
-3.529277907140162
 30
0.0
 10
-58.80514574941265
 20
-3.137199499506774
 30
0.0
 10
-59.56366906876533
 20
-2.828003253773128
 30
0.0
 10
-59.98634473201978
 20
-2.651276618557733
 30
0.0
 10
-60.07374000414498
 20
-2.614554396811441
 30
0.0
  0
SPLINE
  5
399F
330
1F
100
AcDbEntity
  8
AM_0
100
AcDbSpline
210
0.0
220
0.0
230
1.0
 70
     8
 71
     3
 72
    13
 73
     9
 74
     0
 42
0.0000000001
 43
0.0000000001
 40
16.03460056234195
 40
16.03460056234195
 40
16.03460056234195
 40
16.03460056234195
 40
16.35212717791071
 40
17.38177067057215
 40
18.41822498539278
 40
19.46214186516937
 40
20.5139635832251
 40
21.34083983469381
 40
21.34083983469381
 40
21.34083983469381
 40
21.34083983469381
 10
-59.92987818967343
 20
-5.999999999998562
 30
0.0
 10
-59.71659932467583
 20
-5.980596502459438
 30
0.0
 10
-59.27672132608484
 20
-5.892394344870269
 30
0.0
 10
-58.50187255795938
 20
-5.719568918949574
 30
0.0
 10
-57.49844070153756
 20
-5.462583113545933
 30
0.0
 10
-56.49594104018071
 20
-5.174029896212386
 30
0.0
 10
-55.56829906183432
 20
-4.879102609680849
 30
0.0
 10
-54.97647981533603
 20
-4.676024184018251
 30
0.0
 10
-54.71685225891879
 20
-4.584230885167802
 30
0.0
  0
ELLIPSE
  5
39A0
330
1F
100
AcDbEntity
  8
AM_0
 48
0.5
100
AcDbEllipse
 10
-10.0296233016467
 20
10.17189469388425
 30
0.0
 11
9.715017657389555
 21
13.16523543365713
 31
0.0
210
0.0
220
0.0
230
1.0
 40
0.8704954669021971
 41
4.464636477798334
 42
4.575703997216196
  0
ELLIPSE
  5
39A1
330
1F
100
AcDbEntity
  8
AM_0
 48
0.5
100
AcDbEllipse
 10
-6.584425756287533
 20
6.121134350074052
 30
0.0
 11
0.0000000000007114
 21
9.321891961717231
 31
0.0
210
0.0
220
0.0
230
1.0
 40
0.9250000000000126
 41
3.517054509082729
 42
3.68182157085623
  0
ELLIPSE
  5
39A2
330
1F
100
AcDbEntity
  8
AM_0
 48
0.5
100
AcDbEllipse
 10
-1.726175219014294
 20
-1.561557705959218
 30
0.0
 11
-0.1626249286861682
 21
0.9853560252462383
 31
0.0
210
0.0
220
0.0
230
0.9999999999999998
 40
0.4829974202936597
 41
1.812033152467223
 42
4.9473750421792
  0
ELLIPSE
  5
39A3
330
1F
100
AcDbEntity
  8
AM_0
 48
0.5
100
AcDbEllipse
 10
-1.72625847456461
 20
-1.56368575045205
 30
0.0
 11
-0.8310964338540443
 21
0.5088807595320862
 31
0.0
210
0.0
220
0.0
230
1.0
 40
0.50841470796864
 41
4.504595998952747
 42
7.648036340282258
  0
SPLINE
  5
39A4
330
1F
100
AcDbEntity
  8
AM_0
100
AcDbSpline
210
0.0
220
0.0
230
1.0
 70
     8
 71
     3
 72
    11
 73
     7
 74
     0
 42
0.0000000001
 43
0.0000000001
 40
11.27226913003534
 40
11.27226913003534
 40
11.27226913003534
 40
11.2722691300354
 40
12.28301561507924
 40
13.29510212255852
 40
14.30984805882082
 40
15.18258238371378
 40
15.18258238371378
 40
15.18258238371378
 40
15.18258238371378
 10
-24.67250759139842
 20
-5.99999999999942
 30
0.0
 10
-25.0078058045331
 20
-5.970633636012173
 30
0.0
 10
-25.67777785640389
 20
-5.899540448833445
 30
0.0
 10
-26.67927632343495
 20
-5.756127905435822
 30
0.0
 10
-27.62971602781529
 20
-5.584837346919474
 30
0.0
 10
-28.24440463891711
 20
-5.453161196653925
 30
0.0
 10
-28.52767065415503
 20
-5.38811681544907
 30
0.0
  0
SPLINE
  5
39A5
330
1F
100
AcDbEntity
  8
AM_0
100
AcDbSpline
210
0.0
220
0.0
230
1.0
 70
     8
 71
     3
 72
    17
 73
    13
 74
     0
 42
0.0000000001
 43
0.0000000001
 40
1.580019955310467
 40
1.580019955310467
 40
1.580019955310467
 40
1.580019955310467
 40
2.030549285115227
 40
3.082371838836284
 40
4.126290986361125
 40
5.162752068350215
 40
6.192395305374981
 40
7.216039564037012
 40
8.234688489606833
 40
9.249433870634691
 40
10.26152376260694
 40
11.27226744710342
 40
11.27226744710342
 40
11.27226744710342
 40
11.27226744710352
 10
-15.15722647135884
 20
-4.428176059143483
 30
0.0
 10
-15.30014917562592
 20
-4.473782600288579
 30
0.0
 10
-15.7775590245035
 20
-4.623264130515956
 30
0.0
 10
-16.59261602922546
 20
-4.857731259219556
 30
0.0
 10
-17.60218470461192
 20
-5.120303339175321
 30
0.0
 10
-18.6120313133095
 20
-5.350806763249424
 30
0.0
 10
-19.62192419282614
 20
-5.54846744913745
 30
0.0
 10
-20.63192709836208
 20
-5.711847603464651
 30
0.0
 10
-21.64199978210053
 20
-5.840014887730962
 30
0.0
 10
-22.65213536104983
 20
-5.932138735049048
 30
0.0
 10
-23.66230894808521
 20
-5.987626133515184
 30
0.0
 10
-24.33592145802068
 20
-5.999999413933147
 30
0.0
 10
-24.67250759139838
 20
-5.99999999999942
 30
0.0
  0
SPLINE
  5
39A6
330
1F
100
AcDbEntity
  8
AM_0
100
AcDbSpline
210
0.0
220
0.0
230
1.0
 70
     8
 71
     3
 72
    22
 73
    18
 74
     0
 42
0.0000000001
 43
0.0000000001
 40
17.17441611292
 40
17.17441611292
 40
17.17441611292
 40
17.17441611292
 40
17.38177636558528
 40
18.41823744757437
 40
19.46215659509824
 40
20.51397914882054
 40
21.57394542641293
 40
22.64209583141747
 40
23.71826625065247
 40
24.80210429862395
 40
25.8930771157021
 40
26.99048705697709
 40
28.09349309193389
 40
29.20112995599786
 40
30.31233024745139
 40
31.42594771747373
 40
32.5407895042663
 40
32.54078950426994
 40
32.54078950426994
 40
32.54078950426994
 10
-28.52811243789223
 20
-5.38804280549495
 30
0.0
 10
-28.59575510137787
 20
-5.374153393985568
 30
0.0
 10
-29.00123592716405
 20
-5.289551470331805
 30
0.0
 10
-29.74405395125079
 20
-5.119913602220496
 30
0.0
 10
-30.75376317585108
 20
-4.857744708834137
 30
0.0
 10
-31.76336951320088
 20
-4.565637793458255
 30
0.0
 10
-32.77288009106436
 20
-4.245416259887438
 30
0.0
 10
-33.78229357594816
 20
-3.899043539575963
 30
0.0
 10
-34.79162239256191
 20
-3.528675270019288
 30
0.0
 10
-35.8008712143817
 20
-3.136587615435856
 30
0.0
 10
-36.81004937935903
 20
-2.725198558907566
 30
0.0
 10
-37.81916810891527
 20
-2.297046110335022
 30
0.0
 10
-38.82823616159223
 20
-1.854762992072145
 30
0.0
 10
-39.83726369529111
 20
-1.401070204599356
 30
0.0
 10
-40.84625965416288
 20
-0.9387574450089131
 30
0.0
 10
-41.85523898560523
 20
-0.4706774329112278
 30
0.0
 10
-42.52775983952697
 20
-0.1567460977698435
 30
0.0
 10
-42.86420501280825
 20
0.0003057961822046
 30
0.0
  0
SPLINE
  5
39A7
330
1F
100
AcDbEntity
  8
AM_0
100
AcDbSpline
210
0.0
220
0.0
230
1.0
 70
     8
 71
     3
 72
    23
 73
    19
 74
     0
 42
0.0000000001
 43
0.0000000001
 40
16.03460024169435
 40
16.03460024169435
 40
16.03460024169435
 40
16.03460024169435
 40
16.35212704903564
 40
17.38177054169784
 40
18.41822485651776
 40
19.46214173629503
 40
20.51396345435107
 40
21.57393551351153
 40
22.64208202342361
 40
23.7182574881101
 40
24.80209208578934
 40
25.89306333925047
 40
26.99048218457928
 40
28.09348763352352
 40
29.20111863782268
 40
30.31232390128032
 40
31.42594612798585
 40
32.5407912310448
 40
32.5407912310486
 40
32.5407912310486
 40
32.5407912310486
 10
-58.16792116346937
 20
6.000000000001397
 30
0.0
 10
-58.06413823974526
 20
5.97974505659909
 30
0.0
 10
-57.62426060514397
 20
5.891540478960656
 30
0.0
 10
-56.84941141463627
 20
5.718717070793751
 30
0.0
 10
-55.84597968449182
 20
5.461730552827949
 30
0.0
 10
-54.8434799889365
 20
5.17317752846819
 30
0.0
 10
-53.84185308946392
 20
4.854727995442059
 30
0.0
 10
-52.84106343656031
 20
4.508157317025338
 30
0.0
 10
-51.84105318698231
 20
4.135446637369259
 30
0.0
 10
-50.84175270381699
 20
3.738765039140256
 30
0.0
 10
-49.84310520322175
 20
3.320358907101089
 30
0.0
 10
-48.84503062000534
 20
2.882662849043282
 30
0.0
 10
-47.84744807138387
 20
2.428220943562123
 30
0.0
 10
-46.8502910912774
 20
1.959646041099876
 30
0.0
 10
-45.85347624877258
 20
1.479662840545636
 30
0.0
 10
-44.85691121770376
 20
0.9910740916475564
 30
0.0
 10
-43.86051484954573
 20
0.4967110339003374
 30
0.0
 10
-43.19642902525164
 20
0.1652676351734397
 30
0.0
 10
-42.86420501280381
 20
-0.0005472331082784
 30
0.0
  0
SPLINE
  5
39A8
330
1F
100
AcDbEntity
  8
AM_0
 48
0.5
100
AcDbSpline
210
0.0
220
0.0
230
1.0
 70
     8
 71
     3
 72
    17
 73
    13
 74
     0
 42
0.0000000001
 43
0.0000000001
 40
0.0
 40
0.0
 40
0.0
 40
0.0
 40
1.010743614677189
 40
2.022833924044153
 40
3.037578959561199
 40
4.056212747067873
 40
5.079857613375832
 40
6.109500119648989
 40
7.14596120163808
 40
8.18989512056258
 40
9.241717674284874
 40
9.693948937866434
 40
9.693948937866434
 40
9.693948937866434
 40
9.693948937866434
 10
-5.643434023961977
 20
6.00000000000023
 30
0.0
 10
-5.980016188333716
 20
5.996432717969971
 30
0.0
 10
-6.653628972458852
 20
5.989293400933886
 30
0.0
 10
-7.663801729895726
 20
5.931685241103792
 30
0.0
 10
-8.673932899106544
 20
5.840138060151438
 30
0.0
 10
-9.684001246755146
 20
5.711817370686099
 30
0.0
 10
-10.69399474322015
 20
5.548463495799002
 30
0.0
 10
-11.70390105242941
 20
5.350833802516079
 30
0.0
 10
-12.71370661974294
 20
5.120200498531441
 30
0.0
 10
-13.72345062967021
 20
4.85811626664484
 30
0.0
 10
-14.53854232484846
 20
4.62201799077204
 30
0.0
 10
-15.01721195796329
 20
4.47442261593386
 30
0.0
 10
-15.16088290088107
 20
4.429244659742697
 30
0.0
  0
SPLINE
  5
39A9
330
1F
100
AcDbEntity
  8
AM_0
100
AcDbSpline
210
0.0
220
0.0
230
1.0
 70
     8
 71
     3
 72
    46
 73
    42
 74
     0
 42
0.0000000001
 43
0.0000000001
 40
0.0
 40
0.0
 40
0.0
 40
0.0
 40
1.685415058684571
 40
2.531036209541119
 40
3.379897699130121
 40
4.232934581347655
 40
5.090970612202441
 40
5.954688180526682
 40
6.824620803463246
 40
7.701151815239689
 40
8.584457046566678
 40
9.474582384070741
 40
10.37139106676737
 40
11.27458944007583
 40
12.18373345430765
 40
13.09824173870457
 40
14.01741343450111
 40
14.9404441545541
 40
15.86644439743314
 40
16.79446029130534
 40
17.7234937712985
 40
18.65252725129241
 40
19.58054314516461
 40
20.50654338804289
 40
21.42957410809586
 40
22.34874580389317
 40
23.26325408828901
 40
24.17239810252111
 40
25.07560240389441
 40
25.97241108659103
 40
26.8625364240951
 40
27.74584165542183
 40
28.62236045019041
 40
29.49229307312697
 40
30.35601064145121
 40
31.21404606334468
 40
32.06708345193547
 40
32.91595755657689
 40
33.76157841950693
 40
34.60498701064689
 40
35.44727335621125
 40
35.44727335621125
 40
35.44727335621125
 40
35.44727335621125
 10
-2.815634325665299
 20
-5.999999379601993
 30
0.0
 10
-3.489279736558391
 20
-5.986330915796465
 30
0.0
 10
-4.500912401507016
 20
-5.965804591053891
 30
0.0
 10
-5.846124471606162
 20
-5.839427780500612
 30
0.0
 10
-6.856203294537668
 20
-5.712006337741073
 30
0.0
 10
-7.866195779775179
 20
-5.548418849793766
 30
0.0
 10
-8.876099266652657
 20
-5.350840598738786
 30
0.0
 10
-9.885908567097827
 20
-5.120216176937165
 30
0.0
 10
-10.89562198983185
 20
-4.858047956097423
 30
0.0
 10
-11.90523504127335
 20
-4.565945687904731
 30
0.0
 10
-12.91474973939667
 20
-4.245721098950654
 30
0.0
 10
-13.92416336891426
 20
-3.899348806490896
 30
0.0
 10
-14.93349214659606
 20
-3.528980421559581
 30
0.0
 10
-15.9427409779818
 20
-3.136892796110701
 30
0.0
 10
-16.95191914405565
 20
-2.725503739658805
 30
0.0
 10
-17.96103785944223
 20
-2.29735126109731
 30
0.0
 10
-18.97010596810892
 20
-1.855068263612091
 30
0.0
 10
-19.97913329083452
 20
-1.401375020455602
 30
0.0
 10
-20.98813052618503
 20
-0.9390637476936312
 30
0.0
 10
-21.99710689141603
 20
-0.4709773346773245
 30
0.0
 10
-23.00607477501364
 20
0.000000620303812
 30
0.0
 10
-24.01504265838957
 20
0.4709785758572824
 30
0.0
 10
-25.02401902428544
 20
0.939064987157425
 30
0.0
 10
-26.03301625720579
 20
1.40137626619121
 30
0.0
 10
-27.04204358894257
 20
1.85506948608783
 30
0.0
 10
-28.05111166419661
 20
2.297352569818281
 30
0.0
 10
-29.06023050332162
 20
2.725504728983344
 30
0.0
 10
-30.06941040559901
 20
3.13689586122786
 30
0.0
 10
-31.0786631584388
 20
3.528979924361904
 30
0.0
 10
-32.08799373660848
 20
3.89935020841546
 30
0.0
 10
-33.09740734262401
 20
4.245722603939411
 30
0.0
 10
-34.10691789377564
 20
4.565944250303169
 30
0.0
 10
-35.11652421837298
 20
4.858051037070504
 30
0.0
 10
-36.12623351952456
 20
5.12022032889612
 30
0.0
 10
-37.13604223554517
 20
5.35082966203731
 30
0.0
 10
-38.14594646282208
 20
5.548465218570887
 30
0.0
 10
-39.15594539390956
 20
5.71181910148777
 30
0.0
 10
-40.16601901216096
 20
5.840137567466799
 30
0.0
 10
-41.17615512317556
 20
5.931686036190302
 30
0.0
 10
-42.18632790137963
 20
5.989293977777426
 30
0.0
 10
-42.85994068274137
 20
5.996433323857603
 30
0.0
 10
-43.19652284573222
 20
6.000000620400205
 30
0.0
  0
SPLINE
  5
39AA
330
1F
100
AcDbEntity
  8
AM_0
 48
0.5
100
AcDbSpline
210
0.0
220
0.0
230
1.0
 70
     8
 71
     3
 72
    25
 73
    21
 74
     0
 42
0.0000000001
 43
0.0000000001
 40
6.846175049578289
 40
6.846175049578289
 40
6.846175049578289
 40
6.846175049578289
 40
7.604337694224321
 40
8.711974558287883
 40
9.814980593243754
 40
10.91239053451967
 40
12.0033633515982
 40
13.08720139956839
 40
14.16337181880432
 40
15.23152222380919
 40
16.29148850140128
 40
17.34331105512262
 40
18.38723020264746
 40
19.42369128463655
 40
20.45333379090873
 40
21.47697865721768
 40
22.49561244472435
 40
23.5103574802404
 40
24.52244778960836
 40
25.53320666051913
 40
25.53320666051913
 40
25.53320666051913
 40
25.53320666051913
 10
-6.821550705030297
 20
1.086039901503259
 30
0.0
 10
-7.051027569507318
 20
1.191389230542557
 30
0.0
 10
-7.616241345957717
 20
1.449594339498123
 30
0.0
 10
-8.518032002159932
 20
1.855069309942405
 30
0.0
 10
-9.527099999690367
 20
2.297352553182129
 30
0.0
 10
-10.53621874390574
 20
2.725504968475386
 30
0.0
 10
-11.54539690501674
 20
3.136894033995226
 30
0.0
 10
-12.55464572775857
 20
3.528981685637836
 30
0.0
 10
-13.5639745445127
 20
3.899349958019883
 30
0.0
 10
-14.57338802793999
 20
4.245722670031311
 30
0.0
 10
-15.582898611425
 20
4.565944233666497
 30
0.0
 10
-16.59250492796994
 20
4.858051038266035
 30
0.0
 10
-17.6022142293651
 20
5.120220340427651
 30
0.0
 10
-18.61202295229993
 20
5.350829615215572
 30
0.0
 10
-19.62192715195123
 20
5.548465392768564
 30
0.0
 10
-20.63192120867675
 20
5.711817651482148
 30
0.0
 10
-21.64198940737454
 20
5.840138771739571
 30
0.0
 10
-22.65212061606793
 20
5.9316858343567
 30
0.0
 10
-23.66229843728355
 20
5.989294328418456
 30
0.0
 10
-24.33591630855684
 20
5.996433422721889
 30
0.0
 10
-24.67250355803784
 20
6.000000000001261
 30
0.0
  0
SPLINE
  5
39AB
330
1F
100
AcDbEntity
  8
AM_0
 48
0.5
100
AcDbSpline
210
0.0
220
0.0
230
1.0
 70
     8
 71
     3
 72
    10
 73
     6
 74
     0
 42
0.0000000001
 43
0.0000000001
 40
0.0
 40
0.0
 40
0.0
 40
0.0
 40
2.69986029516136
 40
4.147722969032201
 40
6.285750005020438
 40
6.285750005020438
 40
6.285750005020438
 40
6.285750005020438
 10
-6.821550705030297
 20
1.086039901503259
 30
0.0
 10
-5.89901397353061
 20
0.5285271761075054
 30
0.0
 10
-4.831310891046499
 20
-0.327855192797838
 30
0.0
 10
-2.306336528107995
 20
0.0867345145425249
 30
0.0
 10
-2.781862644056681
 20
1.483127507248989
 30
0.0
 10
-2.847476700022533
 20
2.303818369421026
 30
0.0
  0
ELLIPSE
  5
39AC
330
1F
100
AcDbEntity
  8
AM_0
 48
0.5
100
AcDbEllipse
 10
3.478989073259454
 20
7.203369761022641
 30
0.0
 11
-10.39634881899589
 21
10.89654481743798
 31
0.0
210
0.0
220
0.0
230
1.0
 40
0.7878537070656372
 41
1.391589532118341
 42
1.723685723310825
  0
ELLIPSE
  5
39AD
330
1F
100
AcDbEntity
  8
AM_0
 48
0.5
100
AcDbEllipse
 10
5.80017003667568
 20
-1.602388352396748
 30
0.0
 11
9.172471903574207
 21
1.392561972992111
 31
0.0
210
0.0
220
0.0
230
1.0
 40
0.7946213301072856
 41
3.081047975892579
 42
3.587132874969974
  0
SPLINE
  5
39AE
330
1F
100
AcDbEntity
  8
AM_0
100
AcDbSpline
210
0.0
220
0.0
230
1.0
 70
     8
 71
     3
 72
    55
 73
    51
 74
     0
 42
0.0000000001
 43
0.0000000001
 40
0.0
 40
0.0
 40
0.0
 40
0.0
 40
1.010743684496582
 40
2.022833576467832
 40
3.037578957496688
 40
4.056212745003489
 40
5.079857003664532
 40
6.109500240690281
 40
7.145961322679372
 40
8.189895241603872
 40
9.241717795325891
 40
10.30168407291828
 40
11.36983447792315
 40
12.44600489715814
 40
13.52984294512926
 40
14.62081576220742
 40
15.7182257034828
 40
16.82123173843959
 40
17.92886860250316
 40
19.0400688939571
 40
20.15368796660465
 40
21.26852814259644
 40
22.38336992938901
 40
23.49698739941135
 40
24.6081876908653
 40
25.71582455492886
 40
26.81883757994213
 40
27.91624752121713
 40
29.00722033829659
 40
30.09105838626677
 40
31.16722880550176
 40
32.23537921050758
 40
33.29534548809967
 40
34.347168041821
 40
35.39108718934584
 40
36.42754827133493
 40
37.45720575381954
 40
38.48085062012849
 40
39.49948440763516
 40
40.51422944315121
 40
41.52631975251916
 40
42.53706336719636
 40
43.54780698187354
 40
44.55989729124051
 40
45.57464232675757
 40
46.59327611426424
 40
47.6169209805722
 40
48.64656348684535
 40
49.68302456883444
 40
50.58557219878025
 40
50.58557219878025
 40
50.58557219878025
 40
50.58557219878025
 10
-5.643434022622188
 20
-5.999999379601836
 30
0.0
 10
-5.980016125740006
 20
-5.996429524960707
 30
0.0
 10
-6.653628624999894
 20
-5.989285060996266
 30
0.0
 10
-7.663802233461615
 20
-5.931692660775535
 30
0.0
 10
-8.673932721420809
 20
-5.84013578923803
 30
0.0
 10
-9.68400069221996
 20
-5.711815351608222
 30
0.0
 10
-10.69399606697075
 20
-5.548470335839501
 30
0.0
 10
-11.7038989207226
 20
-5.350827111186181
 30
0.0
 10
-12.7137126315558
 20
-5.120217072855546
 30
0.0
 10
-13.72342824446355
 20
-4.858052366383896
 30
0.0
 10
-14.73303888144227
 20
-4.565942667165011
 30
0.0
 10
-15.74254957484287
 20
-4.245721517585132
 30
0.0
 10
-16.7519630283363
 20
-3.899348693032603
 30
0.0
 10
-17.76129185373511
 20
-3.528980452324959
 30
0.0
 10
-18.77054067212264
 20
-3.136892787655085
 30
0.0
 10
-19.77971884199865
 20
-2.725503742429228
 30
0.0
 10
-20.78883755528559
 20
-2.297351258527219
 30
0.0
 10
-21.79790566854808
 20
-1.855068271151232
 30
0.0
 10
-22.80693297490715
 20
-1.401374992725955
 30
0.0
 10
-23.81593027138374
 20
-0.9390638514786473
 30
0.0
 10
-24.82490640784453
 20
-0.47097694631246
 30
0.0
 10
-25.83387563259561
 20
-0.0000006038186916
 30
0.0
 10
-26.84284032791909
 20
0.4709842165427579
 30
0.0
 10
-27.85181984624797
 20
0.9390638323577126
 30
0.0
 10
-28.86081589710387
 20
1.401376372994527
 30
0.0
 10
-29.86984500254747
 20
1.855071379788973
 30
0.0
 10
-30.87891730190853
 20
2.29735059264428
 30
0.0
 10
-31.88803760785138
 20
2.725505247875106
 30
0.0
 10
-32.89721592341917
 20
3.136893959506864
 30
0.0
 10
-33.9064647050834
 20
3.528981706631298
 30
0.0
 10
-34.91579353306671
 20
3.899349947880716
 30
0.0
 10
-35.92520701227063
 20
4.245722689610284
 30
0.0
 10
-36.93471760147868
 20
4.565944166165415
 30
0.0
 10
-37.94432389952178
 20
4.858051286059389
 30
0.0
 10
-38.95403326850469
 20
5.120219426234605
 30
0.0
 10
-39.96384660474943
 20
5.350834101842995
 30
0.0
 10
-40.97375666954613
 20
5.548454752896481
 30
0.0
 10
-41.98375538103622
 20
5.711850327400645
 30
0.0
 10
-42.99382365126471
 20
5.840018657714304
 30
0.0
 10
-44.00395484109327
 20
5.93213152078002
 30
0.0
 10
-45.01412759304818
 20
5.987636329840228
 30
0.0
 10
-46.02432254293666
 20
6.006178649945812
 30
0.0
 10
-47.03451749133878
 20
5.987636329811262
 30
0.0
 10
-48.0446902477614
 20
5.932131520896861
 30
0.0
 10
-49.05482142114102
 20
5.840018657275061
 30
0.0
 10
-50.06488975304058
 20
5.711850329052731
 30
0.0
 10
-51.07488330874954
 20
5.548455543265978
 30
0.0
 10
-52.084789394885
 20
5.35083612240796
 30
0.0
 10
-53.0486887101996
 20
5.130687872477506
 30
0.0
 10
-53.67407756317319
 20
4.969691376093679
 30
0.0
 10
-53.96422154065428
 20
4.891229929523777
 30
0.0
  0
VIEWPORT
  5
110
330
101
100
AcDbEntity
 67
     1
  8
0
100
AcDbViewport
 10
420.5
 20
297.0
 30
0.0
 40
948.9782706766916
 41
628.452
 68
     1
 69
     1
1001
ACAD
1000
MVIEW
1002
{
1070
    16
1010
0.0
1020
0.0
1030
0.0
1010
0.0
1020
0.0
1030
1.0
1040
0.0
1040
628.452
1040
420.5
1040
297.0
1040
50.0
1040
0.0
1040
0.0
1070
     0
1070
   100
1070
     1
1070
     1
1070
     0
1070
     0
1070
     0
1070
     0
1040
0.0
1040
0.0
1040
0.0
1040
10.0
1040
10.0
1040
10.0
1040
10.0
1070
     0
1002
{
1002
}
1002
}
  0
ENDSEC
  0
SECTION
  2
OBJECTS
  0
DICTIONARY
  5
C
330
0
100
AcDbDictionary
  3
ACAD_GROUP
350
D
  3
ACAD_LAYOUT
350
1A
  3
ACAD_MLINESTYLE
350
17
  3
ACAD_PLOTSETTINGS
350
19
  3
ACAD_PLOTSTYLENAME
350
E
  3
ACDBVARIABLEDICTIONARY
350
34
  3
ACMDICTIONARY
350
43
  3
AMG
350
2B
  3
AMGSNAPSETTINGS
350
6E
  3
DWGPROPS
350
3A5C
  3
ACDBHEADERROUNDTRIPXREC
350
3A68
  0
DICTIONARY
  5
74
330
1F
100
AcDbDictionary
280
     1
  3
ACAD_INDEX
360
3A5E
  3
ACAD_LAYOUTSELFREF
360
3A8B
  0
DICTIONARY
  5
3A90
330
101
100
AcDbDictionary
280
     1
  3
ACAD_LAYOUTSELFREF
360
3A91
  0
DICTIONARY
  5
D
102
{ACAD_REACTORS
330
C
102
}
330
C
100
AcDbDictionary
  0
DICTIONARY
  5
1A
102
{ACAD_REACTORS
330
C
102
}
330
C
100
AcDbDictionary
  0
DICTIONARY
  5
17
102
{ACAD_REACTORS
330
C
102
}
330
C
100
AcDbDictionary
  3
STANDARD
350
18
  0
DICTIONARY
  5
19
102
{ACAD_REACTORS
330
C
102
}
330
C
100
AcDbDictionary
  0
ACDBDICTIONARYWDFLT
  5
E
102
{ACAD_REACTORS
330
C
102
}
330
C
100
AcDbDictionary
281
     1
  3
Normal
350
F
100
AcDbDictionaryWithDefault
340
F
  0
DICTIONARY
  5
34
102
{ACAD_REACTORS
330
C
102
}
330
C
100
AcDbDictionary
  3
INDEXCTL
350
35
  3
SORTENTS
350
B5E
  0
DICTIONARY
  5
43
102
{ACAD_REACTORS
330
C
102
}
330
C
100
AcDbDictionary
  3
ACMSTDDICTIONARY
350
260
  0
DICTIONARY
  5
2B
102
{ACAD_REACTORS
330
C
102
}
330
C
100
AcDbDictionary
  3
ACMGSETTINGS
350
2C
  0
DICTIONARY
  5
6E
102
{ACAD_REACTORS
330
C
102
}
330
C
100
AcDbDictionary
  0
XRECORD
  5
3A5C
102
{ACAD_REACTORS
330
C
102
}
330
C
100
AcDbXrecord
  1
DWGPROPS COOKIE
  2

  3

  4

  6

  7

  8

  9

300
AmdtFileType=82
301
=
302
=
303
=
304
=
305
=
306
=
307
=
308
=
309
=
 40
0.0797467939814815
 41
2452800.443498622
 42
2452946.629140798
  1

 90
        1
  0
DICTIONARY
  5
3A68
102
{ACAD_REACTORS
330
C
102
}
330
C
100
AcDbDictionary
  3
TSTACKALIGN
350
3A69
  3
TSTACKSIZE
350
3A6A
  3
HYPERLINKBASE
350
3A6B
  3
STYLESHEET
350
3A6C
  3
LAYOUTDICT
350
3A6D
  3
PLOTSETDICT
350
3A6E
  3
PLOTSTYLNAMDICT
350
3A6F
  3
LWETCUNION
350
3A70
  3
INSUNITS
350
3A71
  3
CEPSNTYPE
350
3A72
  3
FINGERPRINTGUID
350
3A73
  3
VERSIONGUID
350
3A74
  3
PSVPSCALE
350
3A75
  3
DIMSTYLEDATA
350
3A76
  3
PUCSORTHOREF
350
3A77
  3
PUCSORTHOVIEW
350
3A78
  3
PUCSBASE
350
3A79
  3
PUCSORGTOP
350
3A7A
  3
PUCSORGBOTTOM
350
3A7B
  3
PUCSORGLEFT
350
3A7C
  3
PUCSORGRIGHT
350
3A7D
  3
PUCSORGFRONT
350
3A7E
  3
PUCSORGBACK
350
3A7F
  3
UCSORTHOREF
350
3A80
  3
UCSORTHOVIEW
350
3A81
  3
UCSBASE
350
3A82
  3
UCSORGTOP
350
3A83
  3
UCSORGBOTTOM
350
3A84
  3
UCSORGLEFT
350
3A85
  3
UCSORGRIGHT
350
3A86
  3
UCSORGFRONT
350
3A87
  3
UCSORGBACK
350
3A88
  0
DICTIONARY
  5
3A5E
102
{ACAD_REACTORS
330
74
102
}
330
74
100
AcDbDictionary
  3
*A1
350
3A5F
  0
XRECORD
  5
3A8B
102
{ACAD_REACTORS
330
74
102
}
330
74
100
AcDbXrecord
340
1F
  0
XRECORD
  5
3A91
102
{ACAD_REACTORS
330
3A90
102
}
330
3A90
100
AcDbXrecord
340
101
  0
MLINESTYLE
  5
18
102
{ACAD_REACTORS
330
17
102
}
330
17
100
AcDbMlineStyle
  2
STANDARD
 70
     0
  3

 62
   256
 51
90.0
 52
90.0
 71
     2
 49
0.5
 62
   256
  6
BYLAYER
 49
-0.5
 62
   256
  6
BYLAYER
  0
ACDBPLACEHOLDER
  5
F
102
{ACAD_REACTORS
330
E
102
}
330
E
100
AcDbPlaceHolder
280
     0
  0
DICTIONARYVAR
  5
35
102
{ACAD_REACTORS
330
34
102
}
330
34
100
DictionaryVariables
280
     0
  1
1
  0
DICTIONARYVAR
  5
B5E
102
{ACAD_REACTORS
330
34
102
}
330
34
100
DictionaryVariables
280
     0
  1
96
  0
DICTIONARY
  5
260
102
{ACAD_REACTORS
330
43
102
}
330
43
100
AcDbDictionary
  0
DICTIONARY
  5
2C
102
{ACAD_REACTORS
330
2B
102
}
330
2B
100
AcDbDictionary
  3
DWGSETTINGS
350
2D
  0
XRECORD
  5
3A69
102
{ACAD_REACTORS
330
3A68
102
}
330
3A68
100
AcDbXrecord
 90
        1
  0
XRECORD
  5
3A6A
102
{ACAD_REACTORS
330
3A68
102
}
330
3A68
100
AcDbXrecord
 90
       70
  0
XRECORD
  5
3A6B
102
{ACAD_REACTORS
330
3A68
102
}
330
3A68
100
AcDbXrecord
  1

  0
XRECORD
  5
3A6C
102
{ACAD_REACTORS
330
3A68
102
}
330
3A68
100
AcDbXrecord
  1
ASAMI.ctb
  0
XRECORD
  5
3A6D
102
{ACAD_REACTORS
330
3A68
102
}
330
3A68
100
AcDbXrecord
340
1A
  0
XRECORD
  5
3A6E
102
{ACAD_REACTORS
330
3A68
102
}
330
3A68
100
AcDbXrecord
340
19
  0
XRECORD
  5
3A6F
102
{ACAD_REACTORS
330
3A68
102
}
330
3A68
100
AcDbXrecord
340
E
  0
XRECORD
  5
3A70
102
{ACAD_REACTORS
330
3A68
102
}
330
3A68
100
AcDbXrecord
 90
    10781
  0
XRECORD
  5
3A71
102
{ACAD_REACTORS
330
3A68
102
}
330
3A68
100
AcDbXrecord
 90
        4
  0
XRECORD
  5
3A72
102
{ACAD_REACTORS
330
3A68
102
}
330
3A68
100
AcDbXrecord
 90
        0
  0
XRECORD
  5
3A73
102
{ACAD_REACTORS
330
3A68
102
}
330
3A68
100
AcDbXrecord
  1
{AFB28963-8C59-40AE-9337-C84526B81ACE}
  0
XRECORD
  5
3A74
102
{ACAD_REACTORS
330
3A68
102
}
330
3A68
100
AcDbXrecord
  1
{5CE093C5-A24E-4FCA-B7A1-A1A7E315E9FB}
  0
XRECORD
  5
3A75
102
{ACAD_REACTORS
330
3A68
102
}
330
3A68
100
AcDbXrecord
 40
0.0
  0
XRECORD
  5
3A76
102
{ACAD_REACTORS
330
3A68
102
}
330
3A68
100
AcDbXrecord
1000
DSTYLE
1002
{
1070
    79
 70
     2
1070
   341
340
59
1070
   342
340
59
1070
   371
 70
    -1
1070
   372
 70
    -1
1002
}
  0
XRECORD
  5
3A77
102
{ACAD_REACTORS
330
3A68
102
}
330
3A68
100
AcDbXrecord
340
0
  0
XRECORD
  5
3A78
102
{ACAD_REACTORS
330
3A68
102
}
330
3A68
100
AcDbXrecord
 70
     0
  0
XRECORD
  5
3A79
102
{ACAD_REACTORS
330
3A68
102
}
330
3A68
100
AcDbXrecord
340
0
  0
XRECORD
  5
3A7A
102
{ACAD_REACTORS
330
3A68
102
}
330
3A68
100
AcDbXrecord
 10
0.0
 20
0.0
 30
0.0
  0
XRECORD
  5
3A7B
102
{ACAD_REACTORS
330
3A68
102
}
330
3A68
100
AcDbXrecord
 10
0.0
 20
0.0
 30
0.0
  0
XRECORD
  5
3A7C
102
{ACAD_REACTORS
330
3A68
102
}
330
3A68
100
AcDbXrecord
 10
0.0
 20
0.0
 30
0.0
  0
XRECORD
  5
3A7D
102
{ACAD_REACTORS
330
3A68
102
}
330
3A68
100
AcDbXrecord
 10
0.0
 20
0.0
 30
0.0
  0
XRECORD
  5
3A7E
102
{ACAD_REACTORS
330
3A68
102
}
330
3A68
100
AcDbXrecord
 10
0.0
 20
0.0
 30
0.0
  0
XRECORD
  5
3A7F
102
{ACAD_REACTORS
330
3A68
102
}
330
3A68
100
AcDbXrecord
 10
0.0
 20
0.0
 30
0.0
  0
XRECORD
  5
3A80
102
{ACAD_REACTORS
330
3A68
102
}
330
3A68
100
AcDbXrecord
340
0
  0
XRECORD
  5
3A81
102
{ACAD_REACTORS
330
3A68
102
}
330
3A68
100
AcDbXrecord
 70
     0
  0
XRECORD
  5
3A82
102
{ACAD_REACTORS
330
3A68
102
}
330
3A68
100
AcDbXrecord
340
0
  0
XRECORD
  5
3A83
102
{ACAD_REACTORS
330
3A68
102
}
330
3A68
100
AcDbXrecord
 10
0.0
 20
0.0
 30
0.0
  0
XRECORD
  5
3A84
102
{ACAD_REACTORS
330
3A68
102
}
330
3A68
100
AcDbXrecord
 10
0.0
 20
0.0
 30
0.0
  0
XRECORD
  5
3A85
102
{ACAD_REACTORS
330
3A68
102
}
330
3A68
100
AcDbXrecord
 10
0.0
 20
0.0
 30
0.0
  0
XRECORD
  5
3A86
102
{ACAD_REACTORS
330
3A68
102
}
330
3A68
100
AcDbXrecord
 10
0.0
 20
0.0
 30
0.0
  0
XRECORD
  5
3A87
102
{ACAD_REACTORS
330
3A68
102
}
330
3A68
100
AcDbXrecord
 10
0.0
 20
0.0
 30
0.0
  0
XRECORD
  5
3A88
102
{ACAD_REACTORS
330
3A68
102
}
330
3A68
100
AcDbXrecord
 10
0.0
 20
0.0
 30
0.0
  0
LAYER_INDEX
  5
3A5F
102
{ACAD_REACTORS
330
3A5E
102
}
330
3A5E
100
AcDbIndex
 40
2453151.562505405
100
AcDbLayerIndex
  8
0
360
3A60
 90
        0
  8
AM_0
360
3A61
 90
       38
  8
AM_7
360
3A62
 90
        1
  8
AM_11
360
3A63
 90
       17
  8
AM_5
360
3A64
 90
        5
  8
Defpoints
360
3A65
 90
        0
  8
AM_6
360
3A66
 90
        1
  0
XRECORD
  5
2D
102
{ACAD_REACTORS
330
2C
102
}
330
2C
100
AcDbXrecord
  1
VERSION
140
15.0
  1
PRODUCT
  2
AutoCAD Mechanical 2000
  0
IDBUFFER
  5
3A60
330
0
100
AcDbIdBuffer
  0
IDBUFFER
  5
3A61
330
0
100
AcDbIdBuffer
330
3997
330
3998
330
399B
330
399C
330
399D
330
399E
330
399F
330
39A0
330
39A1
330
39A2
330
39A3
330
39A4
330
39A5
330
39A6
330
39A7
330
39A8
330
39A9
330
39AA
330
39AB
330
39AC
330
39AD
330
39AE
330
C1D
330
C20
330
24BE
330
2C72
330
2C73
330
324C
330
325C
330
325D
330
325E
330
3273
330
327F
330
364D
330
3991
330
3992
330
3993
330
3995
  0
IDBUFFER
  5
3A62
330
0
100
AcDbIdBuffer
330
23EF
  0
IDBUFFER
  5
3A63
330
0
100
AcDbIdBuffer
330
399A
330
24B7
330
24B8
330
24B9
330
24C7
330
24C8
330
24D4
330
24D5
330
24E6
330
24E7
330
2BF3
330
2BF5
330
3281
330
3282
330
3994
330
3996
330
3999
  0
IDBUFFER
  5
3A64
330
0
100
AcDbIdBuffer
330
CC6
330
2069
330
2C81
330
2D60
330
324F
  0
IDBUFFER
  5
3A65
330
0
100
AcDbIdBuffer
  0
IDBUFFER
  5
3A66
330
0
100
AcDbIdBuffer
330
19BD
  0
ENDSEC
  0
EOF
