  0
SECTION
  2
HEADER
  9
$ACADVER
  1
AC1014
  9
$ACADMAINTVER
 70
     9
  9
$DWGCODEPAGE
  3
ANSI_932
  9
$INSBASE
 10
0.0
 20
0.0
 30
0.0
  9
$EXTMIN
 10
-190.3000009999999
 20
-52.50000305448085
 30
-0.00000001
  9
$EXTMAX
 10
34.19548430023694
 20
33.07291221067087
 30
0.00000001
  9
$LIMMIN
 10
-204.9481783985751
 20
-88.05709827321306
  9
$LIMMAX
 10
45.46559379740722
 20
54.22958895053546
  9
$ORTHOMODE
 70
     0
  9
$REGENMODE
 70
     1
  9
$FILLMODE
 70
     1
  9
$QTEXTMODE
 70
     0
  9
$MIRRTEXT
 70
     0
  9
$DRAGMODE
 70
     2
  9
$LTSCALE
 40
1.0
  9
$OSMODE
 70
    55
  9
$ATTMODE
 70
     1
  9
$TEXTSIZE
 40
2.5
  9
$TRACEWID
 40
1.0
  9
$TEXTSTYLE
  7
STANDARD
  9
$CLAYER
  8
AM_0
  9
$CELTYPE
  6
BYLAYER
  9
$CECOLOR
 62
   256
  9
$CELTSCALE
 40
1.0
  9
$DELOBJ
 70
     1
  9
$DISPSILH
 70
     0
  9
$DIMSCALE
 40
1.0
  9
$DIMASZ
 40
2.5
  9
$DIMEXO
 40
1.0
  9
$DIMDLI
 40
12.0
  9
$DIMRND
 40
0.0
  9
$DIMDLE
 40
0.0
  9
$DIMEXE
 40
1.0
  9
$DIMTP
 40
0.1
  9
$DIMTM
 40
0.1
  9
$DIMTXT
 40
3.2
  9
$DIMCEN
 40
0.0
  9
$DIMTSZ
 40
0.0
  9
$DIMTOL
 70
     0
  9
$DIMLIM
 70
     0
  9
$DIMTIH
 70
     0
  9
$DIMTOH
 70
     0
  9
$DIMSE1
 70
     0
  9
$DIMSE2
 70
     0
  9
$DIMTAD
 70
     3
  9
$DIMZIN
 70
     8
  9
$DIMBLK
  1
OPEN30
  9
$DIMASO
 70
     1
  9
$DIMSHO
 70
     1
  9
$DIMPOST
  1

  9
$DIMAPOST
  1
"
  9
$DIMALT
 70
     0
  9
$DIMALTD
 70
     2
  9
$DIMALTF
 40
0.0393701
  9
$DIMLFAC
 40
1.0
  9
$DIMTOFL
 70
     1
  9
$DIMTVP
 40
0.0
  9
$DIMTIX
 70
     0
  9
$DIMSOXD
 70
     0
  9
$DIMSAH
 70
     0
  9
$DIMBLK1
  1

  9
$DIMBLK2
  1

  9
$DIMSTYLE
  2
AM_JIS
  9
$DIMCLRD
 70
   256
  9
$DIMCLRE
 70
   256
  9
$DIMCLRT
 70
     2
  9
$DIMTFAC
 40
0.71
  9
$DIMGAP
 40
1.5
  9
$DIMJUST
 70
     0
  9
$DIMSD1
 70
     0
  9
$DIMSD2
 70
     0
  9
$DIMTOLJ
 70
     0
  9
$DIMTZIN
 70
     0
  9
$DIMALTZ
 70
     0
  9
$DIMALTTZ
 70
     0
  9
$DIMFIT
 70
     3
  9
$DIMUPT
 70
     0
  9
$DIMUNIT
 70
     2
  9
$DIMDEC
 70
     3
  9
$DIMTDEC
 70
     3
  9
$DIMALTU
 70
     2
  9
$DIMALTTD
 70
     2
  9
$DIMTXSTY
  7
ASAMI
  9
$DIMAUNIT
 70
     0
  9
$LUNITS
 70
     2
  9
$LUPREC
 70
     2
  9
$SKETCHINC
 40
1.0
  9
$FILLETRAD
 40
2.5
  9
$AUNITS
 70
     0
  9
$AUPREC
 70
     0
  9
$MENU
  1
.
  9
$ELEVATION
 40
0.0
  9
$PELEVATION
 40
0.0
  9
$THICKNESS
 40
0.0
  9
$LIMCHECK
 70
     0
  9
$BLIPMODE
 70
     0
  9
$CHAMFERA
 40
0.5
  9
$CHAMFERB
 40
0.5
  9
$CHAMFERC
 40
20.0
  9
$CHAMFERD
 40
0.0
  9
$SKPOLY
 70
     0
  9
$TDCREATE
 40
2452800.443498622
  9
$TDUPDATE
 40
2453151.665389166
  9
$TDINDWG
 40
0.0613095139
  9
$TDUSRTIMER
 40
0.0613095139
  9
$USRTIMER
 70
     1
  9
$ANGBASE
 50
0.0
  9
$ANGDIR
 70
     0
  9
$PDMODE
 70
     3
  9
$PDSIZE
 40
0.0
  9
$PLINEWID
 40
0.0
  9
$COORDS
 70
     1
  9
$SPLFRAME
 70
     0
  9
$SPLINETYPE
 70
     6
  9
$SPLINESEGS
 70
     8
  9
$ATTDIA
 70
     1
  9
$ATTREQ
 70
     1
  9
$HANDLING
 70
 12289
  9
$HANDSEED
  5
31F8
  9
$SURFTAB1
 70
     6
  9
$SURFTAB2
 70
     6
  9
$SURFTYPE
 70
     6
  9
$SURFU
 70
     6
  9
$SURFV
 70
     6
  9
$UCSNAME
  2

  9
$UCSORG
 10
0.0
 20
0.0
 30
0.0
  9
$UCSXDIR
 10
1.0
 20
0.0000000000000027
 30
0.0
  9
$UCSYDIR
 10
-0.0000000000000027
 20
1.0
 30
0.0
  9
$PUCSNAME
  2

  9
$PUCSORG
 10
0.0
 20
0.0
 30
0.0
  9
$PUCSXDIR
 10
1.0
 20
0.0
 30
0.0
  9
$PUCSYDIR
 10
0.0
 20
1.0
 30
0.0
  9
$USERI1
 70
     0
  9
$USERI2
 70
     0
  9
$USERI3
 70
     0
  9
$USERI4
 70
     0
  9
$USERI5
 70
     0
  9
$USERR1
 40
0.0
  9
$USERR2
 40
0.0
  9
$USERR3
 40
0.0
  9
$USERR4
 40
0.0
  9
$USERR5
 40
0.0
  9
$WORLDVIEW
 70
     1
  9
$SHADEDGE
 70
     3
  9
$SHADEDIF
 70
    70
  9
$TILEMODE
 70
     1
  9
$MAXACTVP
 70
    64
  9
$PINSBASE
 10
0.0
 20
0.0
 30
0.0
  9
$PLIMCHECK
 70
     0
  9
$PEXTMIN
 10
1.000000000000000E+20
 20
1.000000000000000E+20
 30
1.000000000000000E+20
  9
$PEXTMAX
 10
-1.000000000000000E+20
 20
-1.000000000000000E+20
 30
-1.000000000000000E+20
  9
$PLIMMIN
 10
0.0
 20
0.0
  9
$PLIMMAX
 10
841.0
 20
594.0
  9
$UNITMODE
 70
     0
  9
$VISRETAIN
 70
     1
  9
$PLINEGEN
 70
     0
  9
$PSLTSCALE
 70
     0
  9
$TREEDEPTH
 70
  3020
  9
$PICKSTYLE
 70
     0
  9
$CMLSTYLE
  2
STANDARD
  9
$CMLJUST
 70
     0
  9
$CMLSCALE
 40
20.0
  9
$PROXYGRAPHICS
 70
     1
  9
$MEASUREMENT
 70
     1
  0
ENDSEC
  0
SECTION
  2
CLASSES
  0
CLASS
  1
ACDBDICTIONARYWDFLT
  2
AcDbDictionaryWithDefault
  3
AutoCAD 2000
 90
        0
280
     0
281
     0
  0
CLASS
  1
ACDBPLACEHOLDER
  2
AcDbPlaceHolder
  3
AutoCAD 2000
 90
        0
280
     0
281
     0
  0
CLASS
  1
LAYOUT
  2
AcDbLayout
  3
AutoCAD 2000
 90
        0
280
     0
281
     0
  0
CLASS
  1
AMGSETTINGSOBJ
  2
AmgSettingsObj
  3
"AcadM|Product Description: AutoCAD Mechanical 2000|Company: Autodesk"
 90
        0
280
     0
281
     0
  0
CLASS
  1
ACME_DOCUMENT
  2
AcMeDbDoc
  3
AcMeServices
 90
        0
280
     0
281
     0
  0
CLASS
  1
ACMESCOPE
  2
AcMeScope
  3
AcMeServices
 90
        0
280
     0
281
     0
  0
CLASS
  1
ACMECOMMANDHISTORY
  2
AcMeCommandHistory
  3
AcMeServices
 90
        0
280
     0
281
     0
  0
CLASS
  1
DICTIONARYVAR
  2
AcDbDictionaryVar
  3
AutoCAD 2000
 90
        0
280
     0
281
     0
  0
CLASS
  1
ACIMSYSVARMAN
  2
AcImSysVarManager
  3
AcMeServices
 90
        0
280
     0
281
     0
  0
CLASS
  1
ACIMREALSYSVAR
  2
AcImRealSysVar
  3
AcMeServices
 90
        0
280
     0
281
     0
  0
CLASS
  1
ACIMINTSYSVAR
  2
AcImIntSysVar
  3
AcMeServices
 90
        0
280
     0
281
     0
  0
CLASS
  1
ACMEDRAWINGMAN
  2
AcMeDrawingMan
  3
AcMeServices
 90
        0
280
     0
281
     0
  0
CLASS
  1
ACMEVIEW
  2
AcMeView
  3
AcMeServices
 90
        0
280
     0
281
     0
  0
CLASS
  1
ACDBENTITYCACHE
  2
AcMeEntityCache
  3
AcMeServices
 90
        0
280
     0
281
     0
  0
CLASS
  1
GSMANAGER
  2
AcMeGSManager
  3
AcMeServices
 90
        0
280
     0
281
     0
  0
CLASS
  1
AmdtInternalReactor
  2
AmdtInternalReactor
  3
AcMeServices
 90
        0
280
     0
281
     0
  0
CLASS
  1
ACMESTATEMGR
  2
AcMeStateMgr
  3
AcMeServices
 90
        0
280
     0
281
     0
  0
CLASS
  1
ACME_DATABASE
  2
AcMeDbDatabase
  3
AcMeServices
 90
        0
280
     0
281
     0
  0
CLASS
  1
ACRFINSADJUSTERMGR
  2
AcRfInsAdjusterMgr
  3
AcMeServices
 90
        0
280
     0
281
     0
  0
CLASS
  1
ACMDATADICTIONARY
  2
AcmDataDictionary
  3
"AcmSymBB|Product Description: AutoCAD Mechanical 2000|Company: Autodesk"
 90
        0
280
     0
281
     0
  0
CLASS
  1
ACMDATAENTRYBLOCK
  2
AcmDataEntryBlock
  3
"AcmSymBB|Product Description: AutoCAD Mechanical 2000|Company: Autodesk"
 90
        0
280
     0
281
     0
  0
CLASS
  1
AMGOBJPROPCFG
  2
AmgObjPropCfg
  3
"AmgLay|Product Description: AutoCAD Mechanical 2000|Company: Autodesk"
 90
        1
280
     0
281
     0
  0
CLASS
  1
ACAMGFILTERDAT
  2
AcAmgFilterDat
  3
"AcadM|Product Description: AutoCAD Mechanical 2000|Company: Autodesk"
 90
        0
280
     0
281
     0
  0
CLASS
  1
LAYER_INDEX
  2
AcDbLayerIndex
  3
AutoCAD 2000
 90
        0
280
     0
281
     0
  0
CLASS
  1
IDBUFFER
  2
AcDbIdBuffer
  3
AutoCAD 2000
 90
        0
280
     0
281
     0
  0
CLASS
  1
ACIMSTRSYSVAR
  2
AcImStrSysVar
  3
AcMeServices
 90
        0
280
     0
281
     0
  0
CLASS
  1
ACMSTANDARDJIS
  2
AcmStandardJIS
  3
"AcmSymBB|Product Description: AutoCAD Mechanical 2000|Company: Autodesk"
 90
        0
280
     0
281
     0
  0
CLASS
  1
ACMSURFSTANDARDJIS
  2
AcmSurfTextStdJIS
  3
"AcmSymBB|Product Description: AutoCAD Mechanical 2000|Company: Autodesk"
 90
        0
280
     0
281
     0
  0
CLASS
  1
ACMFCFSTANDARDJIS
  2
AcmFCFStdJIS
  3
"AcmSymBB|Product Description: AutoCAD Mechanical 2000|Company: Autodesk"
 90
        0
280
     0
281
     0
  0
CLASS
  1
ACMWELDSTANDARDJIS
  2
AcmWeldingStdJIS
  3
"AcmSymBB|Product Description: AutoCAD Mechanical 2000|Company: Autodesk"
 90
        0
280
     0
281
     0
  0
CLASS
  1
ACMIDSTANDARDJIS
  2
AcmIdStdJIS
  3
"AcmSymBB|Product Description: AutoCAD Mechanical 2000|Company: Autodesk"
 90
        0
280
     0
281
     0
  0
CLASS
  1
ACMDATUMSTANDARDJIS
  2
AcmDatumStdJIS
  3
"AcmSymBB|Product Description: AutoCAD Mechanical 2000|Company: Autodesk"
 90
        0
280
     0
281
     0
  0
CLASS
  1
ACMBOMSTANDARDJIS
  2
AcmBOMStdJIS
  3
"AcmSymBB|Product Description: AutoCAD Mechanical 2000|Company: Autodesk"
 90
        0
280
     0
281
     0
  0
CLASS
  1
ACMSTANDARDANSI
  2
AcmStandardANSI
  3
"AcmSymBB|Product Description: AutoCAD Mechanical 2000|Company: Autodesk"
 90
        0
280
     0
281
     0
  0
CLASS
  1
ACMSURFSTANDARDANSI
  2
AcmSurfTextStdANSI
  3
"AcmSymBB|Product Description: AutoCAD Mechanical 2000|Company: Autodesk"
 90
        0
280
     0
281
     0
  0
CLASS
  1
ACMFCFSTANDARDANSI
  2
AcmFCFStdANSI
  3
"AcmSymBB|Product Description: AutoCAD Mechanical 2000|Company: Autodesk"
 90
        0
280
     0
281
     0
  0
CLASS
  1
ACMWELDSTANDARDANSI
  2
AcmWeldingStdANSI
  3
"AcmSymBB|Product Description: AutoCAD Mechanical 2000|Company: Autodesk"
 90
        0
280
     0
281
     0
  0
CLASS
  1
ACMIDSTANDARDANSI
  2
AcmIdStdANSI
  3
"AcmSymBB|Product Description: AutoCAD Mechanical 2000|Company: Autodesk"
 90
        0
280
     0
281
     0
  0
CLASS
  1
ACMDATUMSTANDARDANSI
  2
AcmDatumStdANSI
  3
"AcmSymBB|Product Description: AutoCAD Mechanical 2000|Company: Autodesk"
 90
        0
280
     0
281
     0
  0
CLASS
  1
ACMBOMSTANDARDANSI
  2
AcmBOMStdANSI
  3
"AcmSymBB|Product Description: AutoCAD Mechanical 2000|Company: Autodesk"
 90
        0
280
     0
281
     0
  0
CLASS
  1
ACMSTANDARDBSI
  2
AcmStandardBSI
  3
"AcmSymBB|Product Description: AutoCAD Mechanical 2000|Company: Autodesk"
 90
        0
280
     0
281
     0
  0
CLASS
  1
ACMSURFSTANDARDBSI
  2
AcmSurfTextStdBSI
  3
"AcmSymBB|Product Description: AutoCAD Mechanical 2000|Company: Autodesk"
 90
        0
280
     0
281
     0
  0
CLASS
  1
ACMFCFSTANDARDBSI
  2
AcmFCFStdBSI
  3
"AcmSymBB|Product Description: AutoCAD Mechanical 2000|Company: Autodesk"
 90
        0
280
     0
281
     0
  0
CLASS
  1
ACMWELDSTANDARDBSI
  2
AcmWeldingStdBSI
  3
"AcmSymBB|Product Description: AutoCAD Mechanical 2000|Company: Autodesk"
 90
        0
280
     0
281
     0
  0
CLASS
  1
ACMIDSTANDARDBSI
  2
AcmIdStdBSI
  3
"AcmSymBB|Product Description: AutoCAD Mechanical 2000|Company: Autodesk"
 90
        0
280
     0
281
     0
  0
CLASS
  1
ACMDATUMSTANDARDBSI
  2
AcmDatumStdBSI
  3
"AcmSymBB|Product Description: AutoCAD Mechanical 2000|Company: Autodesk"
 90
        0
280
     0
281
     0
  0
CLASS
  1
ACMBOMSTANDARDBSI
  2
AcmBOMStdBSI
  3
"AcmSymBB|Product Description: AutoCAD Mechanical 2000|Company: Autodesk"
 90
        0
280
     0
281
     0
  0
CLASS
  1
LONG_TRANSACTION
  2
AcDbLongTransaction
  3
AutoCAD 2000
 90
        0
280
     0
281
     0
  0
CLASS
  1
LWPOLYLINE
  2
AcDbPolyline
  3
AutoCAD 2000
 90
        0
280
     0
281
     1
  0
CLASS
  1
HATCH
  2
AcDbHatch
  3
AutoCAD 2000
 90
        0
280
     0
281
     1
  0
CLASS
  1
XRECORD
  2
AcDbXrecord
  3
AutoCAD 2000
 90
        0
280
     0
281
     0
  0
ENDSEC
  0
SECTION
  2
TABLES
  0
TABLE
  2
VPORT
  5
8
330
0
100
AcDbSymbolTable
 70
     3
  0
VPORT
  5
31C2
330
8
100
AcDbSymbolTableRecord
100
AcDbViewportTableRecord
  2
*ACTIVE
 70
     0
 10
0.0
 20
0.0
 11
1.0
 21
1.0
 12
-73.89053810151404
 22
-9.716483079199861
 13
0.0
 23
0.0
 14
2.5
 24
2.5
 15
10.0
 25
10.0
 16
0.0
 26
0.0
 36
1.0
 17
0.0
 27
0.0
 37
0.0
 40
149.4147105923388
 41
1.56570841889117
 42
50.0
 43
0.0
 44
0.0
 50
0.0
 51
0.0
 71
     0
 72
   100
 73
     1
 74
     1
 75
     0
 76
     0
 77
     0
 78
     0
  0
ENDTAB
  0
TABLE
  2
LTYPE
  5
5
330
0
100
AcDbSymbolTable
 70
    10
  0
LTYPE
  5
14
330
5
100
AcDbSymbolTableRecord
100
AcDbLinetypeTableRecord
  2
BYBLOCK
 70
     0
  3

 72
    65
 73
     0
 40
0.0
  0
LTYPE
  5
15
330
5
100
AcDbSymbolTableRecord
100
AcDbLinetypeTableRecord
  2
BYLAYER
 70
     0
  3

 72
    65
 73
     0
 40
0.0
  0
LTYPE
  5
16
330
5
100
AcDbSymbolTableRecord
100
AcDbLinetypeTableRecord
  2
CONTINUOUS
 70
     0
  3
Solid line
 72
    65
 73
     0
 40
0.0
  0
LTYPE
  5
4B
330
5
100
AcDbSymbolTableRecord
100
AcDbLinetypeTableRecord
  2
AM_ISO02W050
 70
     0
  3
__ __ __ __ __ __ __ __ __ __ __ __ __ __ __
 72
    65
 73
     2
 40
7.5
 49
6.0
 74
     0
 49
-1.5
 74
     0
  0
LTYPE
  5
4C
330
5
100
AcDbSymbolTableRecord
100
AcDbLinetypeTableRecord
  2
AM_ISO08W050
 70
     0
  3
____ . ____ . ____ . ____ . ____ . ____ . ____
 72
    65
 73
     4
 40
18.0
 49
12.0
 74
     0
 49
-1.5
 74
     0
 49
3.0
 74
     0
 49
-1.5
 74
     0
  0
LTYPE
  5
4D
330
5
100
AcDbSymbolTableRecord
100
AcDbLinetypeTableRecord
  2
AM_ISO09W050
 70
     0
  3
_____ . . _____ . . _____ . . ____ .. ____
 72
    65
 73
     6
 40
22.5
 49
12.0
 74
     0
 49
-1.5
 74
     0
 49
3.0
 74
     0
 49
-1.5
 74
     0
 49
3.0
 74
     0
 49
-1.5
 74
     0
  0
LTYPE
  5
4E
330
5
100
AcDbSymbolTableRecord
100
AcDbLinetypeTableRecord
  2
AMCONSTR
 70
     0
  3
_______________________
 72
    65
 73
     2
 40
9999.0
 49
9999.0
 74
     0
 49
0.0
 74
     0
  0
LTYPE
  5
4F
330
5
100
AcDbSymbolTableRecord
100
AcDbLinetypeTableRecord
  2
AM_ISO02W050X2
 70
     0
  3
 _ _ _ _ _ _ _ _ _ _ _ _
 72
    65
 73
     2
 40
3.75
 49
3.0
 74
     0
 49
-0.75
 74
     0
  0
LTYPE
  5
50
330
5
100
AcDbSymbolTableRecord
100
AcDbLinetypeTableRecord
  2
AM_ISO08W050X2
 70
     0
  3
__ . __ . __ . __ . __ . __
 72
    65
 73
     4
 40
9.0
 49
6.0
 74
     0
 49
-0.75
 74
     0
 49
1.5
 74
     0
 49
-0.75
 74
     0
  0
LTYPE
  5
53
330
5
100
AcDbSymbolTableRecord
100
AcDbLinetypeTableRecord
  2
AMZIGZAG
 70
     0
  3
/\/-/\/-/\/-/\/-/\/-/\/
 72
    65
 73
     2
 40
11.00009999999999
 49
0.0001
 74
     4
 75
   135
340
52
 46
0.04
 50
0.0
 44
0.0
 45
0.0
 49
-11.0
 74
     0
  0
LTYPE
  5
166
330
5
100
AcDbSymbolTableRecord
100
AcDbLinetypeTableRecord
  2
ACJISTGL
 70
     0
  3
_ _ _ _ _
 72
    65
 73
     2
 40
3.0
 49
2.0
 74
     0
 49
-1.0
 74
     0
  0
LTYPE
  5
26A
330
5
100
AcDbSymbolTableRecord
100
AcDbLinetypeTableRecord
  2
ACJISTGB
 70
     0
  3
__ . . __ . .
 72
    65
 73
     6
 40
9.0
 49
4.0
 74
     0
 49
-1.0
 74
     0
 49
1.0
 74
     0
 49
-1.0
 74
     0
 49
1.0
 74
     0
 49
-1.0
 74
     0
  0
ENDTAB
  0
TABLE
  2
LAYER
  5
2
330
0
100
AcDbSymbolTable
 70
     8
  0
LAYER
  5
10
330
2
100
AcDbSymbolTableRecord
100
AcDbLayerTableRecord
  2
0
 70
     0
 62
     7
  6
CONTINUOUS
  0
LAYER
  5
3F9
330
2
100
AcDbSymbolTableRecord
100
AcDbLayerTableRecord
  2
AM_0
 70
     0
 62
     7
  6
CONTINUOUS
  0
LAYER
  5
C7C
330
2
100
AcDbSymbolTableRecord
100
AcDbLayerTableRecord
  2
AM_7
 70
     0
 62
     4
  6
AM_ISO08W050
  0
LAYER
  5
C97
330
2
100
AcDbSymbolTableRecord
100
AcDbLayerTableRecord
  2
AM_11
 70
     0
 62
     3
  6
AM_ISO09W050
  0
LAYER
  5
CC5
330
2
100
AcDbSymbolTableRecord
100
AcDbLayerTableRecord
  2
AM_5
 70
     0
 62
     3
  6
CONTINUOUS
  0
LAYER
  5
CC7
330
2
100
AcDbSymbolTableRecord
100
AcDbLayerTableRecord
  2
DEFPOINTS
 70
     0
 62
     7
  6
CONTINUOUS
  0
LAYER
  5
19BC
330
2
100
AcDbSymbolTableRecord
100
AcDbLayerTableRecord
  2
AM_6
 70
     0
 62
     2
  6
CONTINUOUS
  0
LAYER
  5
303B
330
2
100
AcDbSymbolTableRecord
100
AcDbLayerTableRecord
  2
AM_CL
 70
     0
 62
     1
  6
AMCONSTR
  0
ENDTAB
  0
TABLE
  2
STYLE
  5
3
330
0
100
AcDbSymbolTable
 70
     5
  0
STYLE
  5
11
330
3
100
AcDbSymbolTableRecord
100
AcDbTextStyleTableRecord
  2
STANDARD
 70
     0
 40
0.0
 41
1.0
 50
0.0
 71
     0
 42
2.5
  3
simplex.shx
  4
EXTFONT.SHX
  0
STYLE
  5
52
330
3
100
AcDbSymbolTableRecord
100
AcDbTextStyleTableRecord
  2

 70
     1
 40
0.0
 41
1.0
 50
0.0
 71
     0
 42
2.5
  3
ltypeshp.shx
  4

  0
STYLE
  5
6B
330
3
100
AcDbSymbolTableRecord
100
AcDbTextStyleTableRecord
  2
ASAMI
 70
     0
 40
0.0
 41
1.0
 50
0.0
 71
     0
 42
2.5
  3
simplex.shx
  4
EXTFONT.SHX
  0
STYLE
  5
262
330
3
100
AcDbSymbolTableRecord
100
AcDbTextStyleTableRecord
  2
ACJISTS
 70
     0
 40
1.0
 41
1.0
 50
0.0
 71
     0
 42
2.5
  3
simplex.shx
  4
bigfont.shx
  0
STYLE
  5
269
330
3
100
AcDbSymbolTableRecord
100
AcDbTextStyleTableRecord
  2
ACJISGDT
 70
     0
 40
0.0
 41
1.0
 50
0.0
 71
     0
 42
2.5
  3
amgdtans.shx
  4

  0
ENDTAB
  0
TABLE
  2
VIEW
  5
6
330
0
100
AcDbSymbolTable
 70
     0
  0
ENDTAB
  0
TABLE
  2
UCS
  5
7
330
0
100
AcDbSymbolTable
 70
     0
  0
ENDTAB
  0
TABLE
  2
APPID
  5
9
330
0
100
AcDbSymbolTable
 70
    16
  0
APPID
  5
12
330
9
100
AcDbSymbolTableRecord
100
AcDbRegAppTableRecord
  2
ACAD
 70
     0
  0
APPID
  5
30
330
9
100
AcDbSymbolTableRecord
100
AcDbRegAppTableRecord
  2
MCAD_NO_VIS
 70
     0
  0
APPID
  5
31
330
9
100
AcDbSymbolTableRecord
100
AcDbRegAppTableRecord
  2
ACAD_TEMP_GRAPHIC
 70
     0
  0
APPID
  5
2C2
330
9
100
AcDbSymbolTableRecord
100
AcDbRegAppTableRecord
  2
GENIUS_GENDTOL_13
 70
     0
  0
APPID
  5
339
330
9
100
AcDbSymbolTableRecord
100
AcDbRegAppTableRecord
  2
GENIUS_GENODEF_13
 70
     0
  0
APPID
  5
33A
330
9
100
AcDbSymbolTableRecord
100
AcDbRegAppTableRecord
  2
GENIUS_GENOBJ-N-RSBK_13
 70
     0
  0
APPID
  5
33B
330
9
100
AcDbSymbolTableRecord
100
AcDbRegAppTableRecord
  2
GENIUS_GENOBJ-N-LIB_13
 70
     0
  0
APPID
  5
33C
330
9
100
AcDbSymbolTableRecord
100
AcDbRegAppTableRecord
  2
GENIUS_GENSCALE_13
 70
     0
  0
APPID
  5
378
330
9
100
AcDbSymbolTableRecord
100
AcDbRegAppTableRecord
  2
GENIUS_GENDIMSH_14
 70
     0
  0
APPID
  5
C82
330
9
100
AcDbSymbolTableRecord
100
AcDbRegAppTableRecord
  2
GENIUS_GENOBJ-N-CRS_13
 70
     0
  0
APPID
  5
C83
330
9
100
AcDbSymbolTableRecord
100
AcDbRegAppTableRecord
  2
GENIUS_GENOENT_13
 70
     0
  0
APPID
  5
C84
330
9
100
AcDbSymbolTableRecord
100
AcDbRegAppTableRecord
  2
GENIUS_GENOREF_13
 70
     0
  0
APPID
  5
C85
330
9
100
AcDbSymbolTableRecord
100
AcDbRegAppTableRecord
  2
GENIUS_GENOLIS_13
 70
     0
  0
APPID
  5
CA0
330
9
100
AcDbSymbolTableRecord
100
AcDbRegAppTableRecord
  2
GENIUS_GENOBJ-N-CEN_13
 70
     0
  0
APPID
  5
1E1E
330
9
100
AcDbSymbolTableRecord
100
AcDbRegAppTableRecord
  2
GENIUS_GENFIL_13
 70
     0
  0
APPID
  5
1E1F
330
9
100
AcDbSymbolTableRecord
100
AcDbRegAppTableRecord
  2
GENIUS_GENOBJ-N-CHA_13
 70
     0
  0
ENDTAB
  0
TABLE
  2
DIMSTYLE
  5
A
330
0
100
AcDbSymbolTable
 70
     9
  0
DIMSTYLE
105
58
330
A
100
AcDbSymbolTableRecord
100
AcDbDimStyleTableRecord
  2
AM_JIS
 70
     0
  3

  4
"
  5
OPEN30
  6

  7

 40
1.0
 41
2.5
 42
1.0
 43
12.0
 44
1.0
 45
0.0
 46
0.0
 47
0.1
 48
0.1
140
3.2
141
0.0
142
0.0
143
0.0393701
144
1.0
145
0.0
146
0.71
147
1.5
 71
     0
 72
     0
 73
     0
 74
     0
 75
     0
 76
     0
 77
     3
 78
     8
170
     0
171
     2
172
     1
173
     0
174
     0
175
     0
176
   256
177
   256
178
     2
270
     2
271
     3
272
     3
273
     2
274
     2
340
6B
275
     0
280
     0
281
     0
282
     0
283
     0
284
     0
285
     0
286
     0
287
     3
288
     0
  0
DIMSTYLE
105
5F
330
A
100
AcDbSymbolTableRecord
100
AcDbDimStyleTableRecord
  2
AM_JIS$3
 70
     0
  3

  4
"
  5
OPEN30
  6

  7

 40
1.0
 41
2.5
 42
1.0
 43
10.0
 44
1.0
 45
0.0
 46
0.0
 47
0.1
 48
0.1
140
3.2
141
0.0
142
0.0
143
0.0393701
144
1.0
145
0.0
146
0.71
147
1.5
 71
     0
 72
     0
 73
     0
 74
     1
 75
     0
 76
     0
 77
     3
 78
     8
170
     0
171
     2
172
     0
173
     0
174
     0
175
     0
176
   256
177
   256
178
     2
270
     2
271
     2
272
     3
273
     2
274
     2
340
6B
275
     0
280
     0
281
     0
282
     0
283
     0
284
     0
285
     0
286
     0
287
     0
288
     1
  0
DIMSTYLE
105
60
330
A
100
AcDbSymbolTableRecord
100
AcDbDimStyleTableRecord
  2
AM_JIS$4
 70
     0
  3

  4
"
  5
OPEN30
  6

  7

 40
1.0
 41
2.5
 42
1.0
 43
10.0
 44
1.0
 45
0.0
 46
0.0
 47
0.1
 48
0.1
140
3.2
141
0.0
142
0.0
143
0.0393701
144
1.0
145
0.0
146
0.71
147
1.5
 71
     0
 72
     0
 73
     0
 74
     1
 75
     0
 76
     0
 77
     3
 78
     8
170
     0
171
     2
172
     0
173
     0
174
     0
175
     0
176
   256
177
   256
178
     2
270
     2
271
     2
272
     3
273
     2
274
     2
340
6B
275
     0
280
     0
281
     0
282
     0
283
     0
284
     0
285
     0
286
     0
287
     0
288
     1
  0
DIMSTYLE
105
61
330
A
100
AcDbSymbolTableRecord
100
AcDbDimStyleTableRecord
  2
AM_JIS$6
 70
     0
  3

  4
"
  5
OPEN30
  6

  7

 40
1.0
 41
2.5
 42
1.0
 43
10.0
 44
1.0
 45
0.0
 46
0.0
 47
0.1
 48
0.1
140
3.2
141
0.0
142
0.0
143
0.0393701
144
1.0
145
0.0
146
0.71
147
1.5
 71
     0
 72
     0
 73
     0
 74
     0
 75
     0
 76
     0
 77
     0
 78
     8
170
     0
171
     2
172
     1
173
     0
174
     0
175
     0
176
   256
177
   256
178
     2
270
     2
271
     2
272
     2
273
     2
274
     2
340
6B
275
     0
280
     0
281
     0
282
     0
283
     0
284
     0
285
     0
286
     0
287
     3
288
     0
  0
DIMSTYLE
105
62
330
A
100
AcDbSymbolTableRecord
100
AcDbDimStyleTableRecord
  2
AM_JIS$7
 70
     0
  3

  4
"
  5
OPEN30
  6

  7

 40
1.0
 41
2.5
 42
1.0
 43
10.0
 44
1.0
 45
0.0
 46
0.0
 47
0.1
 48
0.1
140
3.2
141
0.0
142
0.0
143
0.0393701
144
1.0
145
0.0
146
0.71
147
1.5
 71
     0
 72
     0
 73
     0
 74
     0
 75
     0
 76
     0
 77
     3
 78
     8
170
     0
171
     2
172
     1
173
     0
174
     0
175
     0
176
   256
177
   256
178
     2
270
     2
271
     2
272
     3
273
     2
274
     2
340
6B
275
     0
280
     0
281
     0
282
     0
283
     0
284
     0
285
     0
286
     0
287
     3
288
     0
  0
DIMSTYLE
105
63
330
A
100
AcDbSymbolTableRecord
100
AcDbDimStyleTableRecord
  2
AM_JIS$SF
 70
     0
  3

  4
"
  5
OPEN30
  6

  7

 40
1.0
 41
2.5
 42
1.0
 43
10.0
 44
1.0
 45
0.0
 46
0.0
 47
0.1
 48
0.1
140
3.2
141
0.0
142
0.0
143
0.0393701
144
1.0
145
0.0
146
0.71
147
1.5
 71
     0
 72
     0
 73
     0
 74
     0
 75
     1
 76
     1
 77
     3
 78
     8
170
     0
171
     2
172
     1
173
     0
174
     0
175
     0
176
   256
177
   256
178
     2
270
     2
271
     2
272
     2
273
     2
274
     2
340
6B
275
     0
280
     0
281
     0
282
     0
283
     0
284
     0
285
     0
286
     0
287
     3
288
     0
  0
DIMSTYLE
105
68
330
A
100
AcDbSymbolTableRecord
100
AcDbDimStyleTableRecord
  2
AM_JIS$SH
 70
     0
  3

  4
"
  5

  6
GENAXEH
  7
OPEN30
 40
1.0
 41
2.5
 42
1.0
 43
10.0
 44
1.0
 45
0.0
 46
0.0
 47
0.1
 48
0.1
140
3.2
141
0.0
142
0.0
143
0.0393701
144
2.0
145
0.0
146
0.71
147
1.5
 71
     0
 72
     0
 73
     0
 74
     0
 75
     1
 76
     1
 77
     3
 78
     8
170
     0
171
     2
172
     1
173
     1
174
     0
175
     0
176
   256
177
   256
178
     2
270
     2
271
     2
272
     2
273
     2
274
     2
340
6B
275
     0
280
     0
281
     0
282
     0
283
     0
284
     0
285
     0
286
     0
287
     3
288
     0
  0
DIMSTYLE
105
B34
102
{ACAD_REACTORS
330
3063
102
}
330
A
100
AcDbSymbolTableRecord
100
AcDbDimStyleTableRecord
  2
AM_JIS$2
 70
     0
  3

  4
"
  5
OPEN30
  6

  7

 40
1.0
 41
2.5
 42
1.0
 43
12.0
 44
1.0
 45
0.0
 46
0.0
 47
0.1
 48
0.1
140
3.2
141
0.0
142
0.0
143
0.0393701
144
1.0
145
0.0
146
0.71
147
1.5
 71
     0
 72
     0
 73
     0
 74
     0
 75
     0
 76
     0
 77
     3
 78
     8
170
     0
171
     2
172
     1
173
     0
174
     0
175
     0
176
   256
177
   256
178
     2
270
     2
271
     3
272
     3
273
     2
274
     2
340
6B
275
     0
280
     0
281
     0
282
     0
283
     0
284
     0
285
     0
286
     0
287
     3
288
     0
  0
DIMSTYLE
105
BA5
102
{ACAD_REACTORS
330
CC6
330
DF5
330
1FB6
330
2216
102
}
330
A
100
AcDbSymbolTableRecord
100
AcDbDimStyleTableRecord
  2
AM_JIS$0
 70
     0
  3

  4
"
  5
OPEN30
  6

  7

 40
1.0
 41
2.5
 42
0.0
 43
10.0
 44
1.0
 45
0.0
 46
0.0
 47
0.1
 48
0.1000000001
140
3.799999999999999
141
0.0
142
0.0
143
0.0393701
144
1.0
145
0.0
146
0.71
147
1.5
 71
     0
 72
     0
 73
     0
 74
     0
 75
     0
 76
     0
 77
     3
 78
     1
170
     0
171
     2
172
     1
173
     0
174
     0
175
     0
176
     3
177
     3
178
     2
270
     2
271
     2
272
     2
273
     2
274
     2
340
11
275
     1
280
     0
281
     0
282
     0
283
     0
284
     8
285
     0
286
     0
287
     0
288
     0
  0
ENDTAB
  0
TABLE
  2
BLOCK_RECORD
  5
1
330
0
100
AcDbSymbolTable
 70
    10
  0
BLOCK_RECORD
  5
1F
102
{ACAD_XDICTIONARY
360
74
102
}
330
1
100
AcDbSymbolTableRecord
100
AcDbBlockTableRecord
  2
*MODEL_SPACE
  0
BLOCK_RECORD
  5
101
102
{ACAD_XDICTIONARY
360
31EB
102
}
330
1
100
AcDbSymbolTableRecord
100
AcDbBlockTableRecord
  2
*PAPER_SPACE
  0
BLOCK_RECORD
  5
59
330
1
100
AcDbSymbolTableRecord
100
AcDbBlockTableRecord
  2
_OPEN30
  0
BLOCK_RECORD
  5
64
330
1
100
AcDbSymbolTableRecord
100
AcDbBlockTableRecord
  2
GENAXEH
  0
BLOCK_RECORD
  5
CC8
330
1
100
AcDbSymbolTableRecord
100
AcDbBlockTableRecord
  2
*D5
  0
BLOCK_RECORD
  5
DF6
330
1
100
AcDbSymbolTableRecord
100
AcDbBlockTableRecord
  2
*D6
  0
BLOCK_RECORD
  5
1FB7
330
1
100
AcDbSymbolTableRecord
100
AcDbBlockTableRecord
  2
*D7
  0
BLOCK_RECORD
  5
2217
330
1
100
AcDbSymbolTableRecord
100
AcDbBlockTableRecord
  2
*D8
  0
BLOCK_RECORD
  5
3064
330
1
100
AcDbSymbolTableRecord
100
AcDbBlockTableRecord
  2
*D9
  0
ENDTAB
  0
ENDSEC
  0
SECTION
  2
BLOCKS
  0
BLOCK
  5
20
330
1F
100
AcDbEntity
  8
0
100
AcDbBlockBegin
  2
*MODEL_SPACE
 70
     0
 10
0.0
 20
0.0
 30
0.0
  3
*MODEL_SPACE
  1

  0
ENDBLK
  5
21
330
1F
100
AcDbEntity
  8
0
100
AcDbBlockEnd
  0
BLOCK
  5
103
330
101
100
AcDbEntity
 67
     1
  8
0
100
AcDbBlockBegin
  2
*PAPER_SPACE
 70
     0
 10
0.0
 20
0.0
 30
0.0
  3
*PAPER_SPACE
  1

  0
ENDBLK
  5
104
330
101
100
AcDbEntity
 67
     1
  8
0
100
AcDbBlockEnd
  0
BLOCK
  5
5D
330
59
100
AcDbEntity
  8
0
100
AcDbBlockBegin
  2
_OPEN30
 70
     0
 10
0.0
 20
0.0
 30
0.0
  3
_OPEN30
  1

  0
LINE
  5
5A
330
59
100
AcDbEntity
  8
0
 62
     0
100
AcDbLine
 10
-1.0
 20
0.26794919
 30
0.0
 11
0.0
 21
0.0
 31
0.0
  0
LINE
  5
5B
330
59
100
AcDbEntity
  8
0
 62
     0
100
AcDbLine
 10
0.0
 20
0.0
 30
0.0
 11
-1.0
 21
-0.26794919
 31
0.0
  0
LINE
  5
5C
330
59
100
AcDbEntity
  8
0
 62
     0
100
AcDbLine
 10
0.0
 20
0.0
 30
0.0
 11
-1.0
 21
0.0
 31
0.0
  0
ENDBLK
  5
5E
330
59
100
AcDbEntity
  8
0
100
AcDbBlockEnd
  0
BLOCK
  5
66
330
64
100
AcDbEntity
  8
0
100
AcDbBlockBegin
  2
GENAXEH
 70
     0
 10
0.0
 20
0.0
 30
0.0
  3
GENAXEH
  1

  0
LINE
  5
65
330
64
100
AcDbEntity
  8
0
100
AcDbLine
 10
-1.0
 20
0.0
 30
0.0
 11
1.0
 21
0.0
 31
0.0
  0
ENDBLK
  5
67
330
64
100
AcDbEntity
  8
0
100
AcDbBlockEnd
  0
BLOCK
  5
CD2
330
CC8
100
AcDbEntity
  8
0
100
AcDbBlockBegin
  2
*D5
 70
     1
 10
0.0
 20
0.0
 30
0.0
  3
*D5
  1

  0
LINE
  5
3139
330
CC8
100
AcDbEntity
  8
AM_5
 62
     3
100
AcDbLine
 10
-168.9999999999999
 20
-6.000002054480947
 30
0.0
 11
-168.9999999999999
 21
-31.50000305448083
 31
0.0
  0
LINE
  5
313A
330
CC8
100
AcDbEntity
  8
AM_5
 62
     3
100
AcDbLine
 10
-1.999999999999925
 20
-5.550000485058206
 30
0.0
 11
-1.999999999999926
 21
-31.50000305448083
 31
0.0
  0
LINE
  5
313B
330
CC8
100
AcDbEntity
  8
AM_5
 62
     3
100
AcDbLine
 10
-166.4999999999999
 20
-30.50000305448083
 30
0.0
 11
-4.499999999999927
 21
-30.50000305448083
 31
0.0
  0
INSERT
  5
313C
330
CC8
100
AcDbEntity
  8
AM_5
 62
     3
100
AcDbBlockReference
  2
_OPEN30
 10
-168.9999999999999
 20
-30.50000305448083
 30
0.0
 41
2.5
 42
2.5
 43
2.5
 50
180.0
  0
INSERT
  5
313D
330
CC8
100
AcDbEntity
  8
AM_5
 62
     3
100
AcDbBlockReference
  2
_OPEN30
 10
-1.999999999999926
 20
-30.50000305448083
 30
0.0
 41
2.5
 42
2.5
 43
2.5
  0
MTEXT
  5
313E
330
CC8
100
AcDbEntity
  8
AM_5
 62
     2
100
AcDbMText
 10
-85.49999999999991
 20
-27.10000305448083
 30
0.0
 40
3.799999999999999
 41
0.0
 71
     5
 72
     1
  1
167
1001
ACAD
1000
MTEXTBEGIN
1070
    73
1070
     1
1070
    44
1040
1.0
1070
    74
1070
     0
1000
MTEXTEND
  0
POINT
  5
313F
330
CC8
100
AcDbEntity
  8
DEFPOINTS
 62
     0
100
AcDbPoint
 10
-168.9999999999999
 20
-6.000002054480947
 30
0.0
  0
POINT
  5
3140
330
CC8
100
AcDbEntity
  8
DEFPOINTS
 62
     0
100
AcDbPoint
 10
-1.999999999999925
 20
-5.550000485058206
 30
0.0
  0
POINT
  5
3141
330
CC8
100
AcDbEntity
  8
DEFPOINTS
 62
     0
100
AcDbPoint
 10
-1.999999999999926
 20
-30.50000305448083
 30
0.0
  0
ENDBLK
  5
CD3
330
CC8
100
AcDbEntity
  8
0
100
AcDbBlockEnd
  0
BLOCK
  5
E00
330
DF6
100
AcDbEntity
  8
0
100
AcDbBlockBegin
  2
*D6
 70
     1
 10
0.0
 20
0.0
 30
0.0
  3
*D6
  1

  0
LINE
  5
3130
330
DF6
100
AcDbEntity
  8
AM_5
 62
     3
100
AcDbLine
 10
-105.9999999999998
 20
-6.500002054480978
 30
0.0
 11
-105.9999999999998
 21
-21.50000305448072
 31
0.0
  0
LINE
  5
3131
330
DF6
100
AcDbEntity
  8
AM_5
 62
     3
100
AcDbLine
 10
-1.999999999999925
 20
-5.550000485058206
 30
0.0
 11
-1.999999999999926
 21
-21.50000305448072
 31
0.0
  0
LINE
  5
3132
330
DF6
100
AcDbEntity
  8
AM_5
 62
     3
100
AcDbLine
 10
-103.4999999999999
 20
-20.50000305448071
 30
0.0
 11
-4.499999999999926
 21
-20.50000305448071
 31
0.0
  0
INSERT
  5
3133
330
DF6
100
AcDbEntity
  8
AM_5
 62
     3
100
AcDbBlockReference
  2
_OPEN30
 10
-105.9999999999998
 20
-20.50000305448071
 30
0.0
 41
2.5
 42
2.5
 43
2.5
 50
180.0
  0
INSERT
  5
3134
330
DF6
100
AcDbEntity
  8
AM_5
 62
     3
100
AcDbBlockReference
  2
_OPEN30
 10
-1.999999999999926
 20
-20.50000305448071
 30
0.0
 41
2.5
 42
2.5
 43
2.5
  0
MTEXT
  5
3135
330
DF6
100
AcDbEntity
  8
AM_5
 62
     2
100
AcDbMText
 10
-53.99999999999991
 20
-17.10000305448072
 30
0.0
 40
3.799999999999999
 41
0.0
 71
     5
 72
     1
  1
104
1001
ACAD
1000
MTEXTBEGIN
1070
    73
1070
     1
1070
    44
1040
1.0
1070
    74
1070
     0
1000
MTEXTEND
  0
POINT
  5
3136
330
DF6
100
AcDbEntity
  8
DEFPOINTS
 62
     0
100
AcDbPoint
 10
-105.9999999999998
 20
-6.500002054480978
 30
0.0
  0
POINT
  5
3137
330
DF6
100
AcDbEntity
  8
DEFPOINTS
 62
     0
100
AcDbPoint
 10
-1.999999999999925
 20
-5.550000485058206
 30
0.0
  0
POINT
  5
3138
330
DF6
100
AcDbEntity
  8
DEFPOINTS
 62
     0
100
AcDbPoint
 10
-1.999999999999926
 20
-20.50000305448071
 30
0.0
  0
ENDBLK
  5
E01
330
DF6
100
AcDbEntity
  8
0
100
AcDbBlockEnd
  0
BLOCK
  5
1FC3
330
1FB7
100
AcDbEntity
  8
0
100
AcDbBlockBegin
  2
*D7
 70
     1
 10
0.0
 20
0.0
 30
0.0
  3
*D7
  1

  0
LINE
  5
3156
330
1FB7
100
AcDbEntity
  8
AM_5
 62
     3
100
AcDbLine
 10
-1.999999999999963
 20
-6.050000528757163
 30
0.0
 11
16.5559210248581
 21
-6.050000528757167
 31
0.0
  0
LINE
  5
3157
330
1FB7
100
AcDbEntity
  8
AM_5
 62
     3
100
AcDbLine
 10
-1.999999999999995
 20
6.049999471242834
 30
0.0
 11
16.5559210248581
 21
6.04999947124283
 31
0.0
  0
LINE
  5
3158
330
1FB7
100
AcDbEntity
  8
AM_5
 62
     3
100
AcDbLine
 10
15.5559210248581
 20
-8.550000528757166
 30
0.0
 11
15.5559210248581
 21
-11.05000052875716
 31
0.0
  0
LINE
  5
3159
330
1FB7
100
AcDbEntity
  8
AM_5
 62
     3
100
AcDbLine
 10
15.5559210248581
 20
8.549999471242831
 30
0.0
 11
15.5559210248581
 21
26.84556129195689
 31
0.0
  0
LINE
  5
315A
330
1FB7
100
AcDbEntity
  8
AM_5
 62
     3
100
AcDbLine
 10
15.5559210248581
 20
-6.050000528757167
 30
0.0
 11
15.5559210248581
 21
6.04999947124283
 31
0.0
  0
INSERT
  5
315B
330
1FB7
100
AcDbEntity
  8
AM_5
 62
     3
100
AcDbBlockReference
  2
_OPEN30
 10
15.5559210248581
 20
-6.050000528757167
 30
0.0
 41
2.5
 42
2.5
 43
2.5
 50
90.0
  0
INSERT
  5
315C
330
1FB7
100
AcDbEntity
  8
AM_5
 62
     3
100
AcDbBlockReference
  2
_OPEN30
 10
15.5559210248581
 20
6.04999947124283
 30
0.0
 41
2.5
 42
2.5
 43
2.5
 50
270.0
  0
MTEXT
  5
315D
330
1FB7
100
AcDbEntity
  8
AM_5
 62
     2
100
AcDbMText
 10
12.1559210248581
 20
19.01222795862356
 30
0.0
 40
3.799999999999999
 41
0.0
 71
     5
 72
     1
  1
%%c12.1
 11
0.0000000000000001
 21
1.0
 31
0.0
1001
ACAD
1000
MTEXTBEGIN
1070
    73
1070
     1
1070
    44
1040
1.0
1070
    74
1070
     0
1000
MTEXTEND
  0
POINT
  5
315E
330
1FB7
100
AcDbEntity
  8
DEFPOINTS
 62
     0
100
AcDbPoint
 10
-1.999999999999963
 20
-6.050000528757163
 30
0.0
  0
POINT
  5
315F
330
1FB7
100
AcDbEntity
  8
DEFPOINTS
 62
     0
100
AcDbPoint
 10
-1.999999999999995
 20
6.049999471242834
 30
0.0
  0
POINT
  5
3160
330
1FB7
100
AcDbEntity
  8
DEFPOINTS
 62
     0
100
AcDbPoint
 10
15.5559210248581
 20
6.04999947124283
 30
0.0
  0
ENDBLK
  5
1FC4
330
1FB7
100
AcDbEntity
  8
0
100
AcDbBlockEnd
  0
BLOCK
  5
2221
330
2217
100
AcDbEntity
  8
0
100
AcDbBlockBegin
  2
*D8
 70
     1
 10
0.0
 20
0.0
 30
0.0
  3
*D8
  1

  0
LINE
  5
3142
330
2217
100
AcDbEntity
  8
AM_5
 62
     3
100
AcDbLine
 10
-168.5000000000004
 20
6.499999999998856
 30
0.0
 11
-186.0000009999999
 21
6.499999999998806
 31
0.0
  0
LINE
  5
3143
330
2217
100
AcDbEntity
  8
AM_5
 62
     3
100
AcDbLine
 10
-168.4999999999998
 20
-6.500002054481471
 30
0.0
 11
-186.0000009999998
 21
-6.50000205448152
 31
0.0
  0
LINE
  5
3144
330
2217
100
AcDbEntity
  8
AM_5
 62
     3
100
AcDbLine
 10
-185.0000009999999
 20
3.999999999998809
 30
0.0
 11
-185.0000009999999
 21
-4.000002054481517
 31
0.0
  0
INSERT
  5
3145
330
2217
100
AcDbEntity
  8
AM_5
 62
     3
100
AcDbBlockReference
  2
_OPEN30
 10
-185.0000009999999
 20
6.499999999998809
 30
0.0
 41
2.5
 42
2.5
 43
2.5
 50
90.00000000000017
  0
INSERT
  5
3146
330
2217
100
AcDbEntity
  8
AM_5
 62
     3
100
AcDbBlockReference
  2
_OPEN30
 10
-185.0000009999998
 20
-6.500002054481517
 30
0.0
 41
2.5
 42
2.5
 43
2.5
 50
270.0000000000001
  0
MTEXT
  5
3147
330
2217
100
AcDbEntity
  8
AM_5
 62
     2
100
AcDbMText
 10
-188.4000009999999
 20
-0.0000010272413564
 30
0.0
 40
3.799999999999999
 41
0.0
 71
     5
 72
     1
  1
%%c13
 11
-0.0000000000000028
 21
1.0
 31
0.0
1001
ACAD
1000
MTEXTBEGIN
1070
    73
1070
     1
1070
    44
1040
1.0
1070
    74
1070
     0
1000
MTEXTEND
  0
POINT
  5
3148
330
2217
100
AcDbEntity
  8
DEFPOINTS
 62
     0
100
AcDbPoint
 10
-168.5000000000004
 20
6.49999999999938
 30
0.0
  0
POINT
  5
3149
330
2217
100
AcDbEntity
  8
DEFPOINTS
 62
     0
100
AcDbPoint
 10
-168.4999999999999
 20
-6.500002054480947
 30
0.0
  0
POINT
  5
314A
330
2217
100
AcDbEntity
  8
DEFPOINTS
 62
     0
100
AcDbPoint
 10
-185.0000009999999
 20
-6.500002054480942
 30
0.0
  0
ENDBLK
  5
2222
330
2217
100
AcDbEntity
  8
0
100
AcDbBlockEnd
  0
BLOCK
  5
3072
330
3064
100
AcDbEntity
  8
0
100
AcDbBlockBegin
  2
*D9
 70
     1
 10
0.0
 20
0.0
 30
0.0
  3
*D9
  1

  0
LINE
  5
31ED
330
3064
100
AcDbEntity
  8
AM_5
100
AcDbLine
 10
0.3420201408161966
 20
-0.9396926216991461
 30
0.0
 11
12.03756449646544
 21
-33.07293691408292
 31
0.0
  0
LINE
  5
31EE
330
3064
100
AcDbEntity
  8
AM_5
100
AcDbLine
 10
0.3420220692411879
 20
0.9396919198079276
 30
0.0
 11
12.03763236831695
 21
33.07291221067087
 31
0.0
  0
ARC
  5
31EF
330
3064
100
AcDbEntity
  8
AM_5
100
AcDbCircle
 10
0.0000000000000568
 20
0.0000000000001562
 30
0.0
 40
34.19548430025481
100
AcDbArc
 50
294.1897743493149
 51
65.81010806898669
  0
INSERT
  5
31F0
330
3064
100
AcDbEntity
  8
AM_5
100
AcDbBlockReference
  2
_OPEN30
 10
11.6955443556493
 20
-32.13324429238362
 30
0.0
 41
2.5
 42
2.5
 43
2.5
 50
202.0948870981508
  0
INSERT
  5
31F1
330
3064
100
AcDbEntity
  8
AM_5
100
AcDbBlockReference
  2
_OPEN30
 10
11.69561029907581
 20
32.1332202908631
 30
0.0
 41
2.5
 42
2.5
 43
2.5
 50
157.9049953201507
  0
MTEXT
  5
31F2
330
3064
100
AcDbEntity
  8
AM_5
 62
     2
100
AcDbMText
 10
31.09548430023849
 20
-0.0000319068862481
 30
0.0
 40
3.2
 41
0.0
 71
     5
 72
     1
  1
140°
  7
ASAMI
 11
0.000001026093887
 21
0.9999999999994738
 31
0.0
  0
POINT
  5
31F3
330
3064
100
AcDbEntity
  8
DEFPOINTS
 62
     0
100
AcDbPoint
 10
31.39883518996211
 20
-13.54416092796338
 30
0.0
  0
POINT
  5
31F4
330
3064
100
AcDbEntity
  8
DEFPOINTS
 62
     0
100
AcDbPoint
 10
0.0000000000000568
 20
0.0000000000001562
 30
0.0
  0
POINT
  5
31F5
330
3064
100
AcDbEntity
  8
DEFPOINTS
 62
     0
100
AcDbPoint
 10
0.0000000000000568
 20
0.0000000000001562
 30
0.0
  0
POINT
  5
31F6
330
3064
100
AcDbEntity
  8
DEFPOINTS
 62
     0
100
AcDbPoint
 10
-0.7147573352033662
 20
1.963779655178942
 30
0.0
  0
POINT
  5
31F7
330
3064
100
AcDbEntity
  8
DEFPOINTS
 62
     0
100
AcDbPoint
 10
-0.7147729829006514
 20
-1.963810107397188
 30
0.0
  0
ENDBLK
  5
3073
330
3064
100
AcDbEntity
  8
0
100
AcDbBlockEnd
  0
ENDSEC
  0
SECTION
  2
ENTITIES
  0
LINE
  5
C9F
330
1F
100
AcDbEntity
  8
AM_7
100
AcDbLine
 10
-170.9999999999999
 20
-0.0000000000001166
 30
0.0
 11
1.555920024858115
 21
0.0000000000001585
 31
0.0
1001
GENIUS_GENODEF_13
1002
{
1000
HIER
1070
     0
1002
}
1002
{
1000
MANEDIT
1070
     0
1002
}
1002
{
1000
NOSEL
1070
     0
1002
}
1002
{
1000
BEHIND
1070
     0
1002
}
1002
{
1000
REACTOR
1002
}
1001
GENIUS_GENOBJ-N-CEN_13
1002
{
1000
OWNER
1000
GEN
1002
}
  0
DIMENSION
  5
CC6
330
1F
100
AcDbEntity
  8
AM_5
100
AcDbDimension
  2
*D5
 10
-1.999999999999926
 20
-30.50000305448083
 30
0.0
 11
-85.49999999999991
 21
-27.10000305448083
 31
0.0
 70
    32
  1
<>
  3
AM_JIS$0
100
AcDbAlignedDimension
 13
-168.9999999999999
 23
-6.000002054480947
 33
0.0
 14
-1.999999999999925
 24
-5.550000485058206
 34
0.0
 50
0.0000000000001132
100
AcDbRotatedDimension
1001
GENIUS_GENDTOL_13
1000

1000
h7
1000

1040
0.0
1001
ACAD
1000
DSTYLE
1002
{
1070
   271
1070
     0
1002
}
  0
DIMENSION
  5
DF5
330
1F
100
AcDbEntity
  8
AM_5
100
AcDbDimension
  2
*D6
 10
-1.999999999999926
 20
-20.50000305448071
 30
0.0
 11
-53.99999999999991
 21
-17.10000305448072
 31
0.0
 70
    32
  1
<>
  3
AM_JIS$0
100
AcDbAlignedDimension
 13
-105.9999999999998
 23
-6.500002054480978
 33
0.0
 14
-1.999999999999925
 24
-5.550000485058206
 34
0.0
 50
0.0000000000001527
100
AcDbRotatedDimension
1001
GENIUS_GENDTOL_13
1000

1000
h7
1000

1040
0.0
1001
ACAD
1000
DSTYLE
1002
{
1070
   271
1070
     0
1002
}
  0
TEXT
  5
19BD
330
1F
100
AcDbEntity
  8
AM_6
100
AcDbText
 10
-106.2142857142855
 20
-52.50000305448085
 30
0.0
 40
5.0
  1
MDW121LHK
 50
0.0000000000001527
 72
     4
 11
-85.49999999999988
 21
-50.00000305448079
 31
0.0
100
AcDbText
  0
LINE
  5
1E25
330
1F
100
AcDbEntity
  8
AM_0
100
AcDbLine
 10
-105.9999999999999
 20
-6.500002054480993
 30
0.0
 11
-105.220572310024
 21
-6.049999267859567
 31
0.0
  0
LINE
  5
1E26
330
1F
100
AcDbEntity
  8
AM_0
100
AcDbLine
 10
-105.2205762964496
 20
6.049999514942314
 30
0.0
 11
-106.0000192404468
 21
6.500011108477069
 31
0.0
  0
DIMENSION
  5
1FB6
330
1F
100
AcDbEntity
  8
AM_5
100
AcDbDimension
  2
*D7
 10
15.5559210248581
 20
6.04999947124283
 30
0.0
 11
15.5559210248581
 21
19.01222795862356
 31
0.0
 70
   160
  1
%%c<>
  3
AM_JIS$0
100
AcDbAlignedDimension
 13
-1.999999999999963
 23
-6.050000528757163
 33
0.0
 14
-1.999999999999995
 24
6.049999471242834
 34
0.0
 50
89.99999999999969
100
AcDbRotatedDimension
1001
ACAD
1000
DSTYLE
1002
{
1070
   271
1070
     1
1002
}
1001
GENIUS_GENDTOL_13
1000

1000
h7
1000

1040
0.0
  0
LINE
  5
1FC5
330
1F
100
AcDbEntity
  8
AM_0
 48
0.5
100
AcDbLine
 10
0.0000000000000853
 20
0.0000000000001561
 30
0.0
 11
-3.957468226792908
 21
2.323015701507712
 31
0.0
  0
ELLIPSE
  5
1FC6
330
1F
100
AcDbEntity
  8
AM_0
 48
0.5
100
AcDbEllipse
 10
3.604752153594457
 20
-9.561018857496314
 30
0.0
 11
-5.392569335505712
 21
8.679143861985679
 31
0.0
210
0.0
220
0.0
230
1.0
 40
0.9999971377139619
 41
-0.1954071652371123
 42
0.0651356407751993
  0
LINE
  5
1FC8
330
1F
100
AcDbEntity
  8
AM_0
 48
0.5
100
AcDbLine
 10
-6.484855401193524
 20
6.049999471242862
 30
0.0
 11
-1.999999999999995
 21
6.049999471242834
 31
0.0
  0
LINE
  5
1FCA
330
1F
100
AcDbEntity
  8
AM_0
 48
0.5
100
AcDbLine
 10
-6.484855401193623
 20
-6.050000528757139
 30
0.0
 11
-1.999999999999925
 21
-6.050000528756916
 31
0.0
  0
LINE
  5
1FCC
330
1F
100
AcDbEntity
  8
AM_11
 48
0.5
100
AcDbLine
 10
-25.9520790583373
 20
-6.050000528756989
 30
0.0
 11
-6.484855401193623
 21
-6.050000528757139
 31
0.0
  0
LINE
  5
1FCD
330
1F
100
AcDbEntity
  8
AM_11
 48
0.5
100
AcDbLine
 10
-25.9520790583372
 20
6.049999471243013
 30
0.0
 11
-6.484855401193524
 21
6.049999471242862
 31
0.0
  0
LINE
  5
1FCE
330
1F
100
AcDbEntity
  8
AM_11
 48
0.5
100
AcDbLine
 10
-60.21874590049634
 20
6.050858983539392
 30
0.0
 11
-47.79551010544834
 21
6.049999471243181
 31
0.0
  0
LINE
  5
1FCF
330
1F
100
AcDbEntity
  8
AM_11
 48
0.5
100
AcDbLine
 10
-62.74210344340183
 20
-6.05000052875683
 30
0.0
 11
-43.27487978626062
 21
-6.050860041053076
 31
0.0
  0
LINE
  5
1FD2
330
1F
100
AcDbEntity
  8
AM_0
 48
0.5
100
AcDbLine
 10
-88.40235914333995
 20
3.16293454432804
 30
0.0
 11
-104.0645422921368
 21
-0.1869902948083556
 31
0.0
  0
LINE
  5
1FD3
330
1F
100
AcDbEntity
  8
AM_11
 48
0.5
100
AcDbLine
 10
-99.79486288629011
 20
-6.050000528756551
 30
0.0
 11
-84.585693160263
 21
-6.05000052875666
 31
0.0
  0
LINE
  5
1FD4
330
1F
100
AcDbEntity
  8
AM_11
 48
0.5
100
AcDbLine
 10
-98.16602595810639
 20
6.049999471243435
 30
0.0
 11
-84.58569316026292
 21
6.049999471243342
 31
0.0
  0
LINE
  5
1FD5
330
1F
100
AcDbEntity
  8
AM_0
 48
0.5
100
AcDbLine
 10
-84.58570095723116
 20
-6.05000052875658
 30
0.0
 11
-62.7421005752418
 21
-6.050000528756682
 31
0.0
  0
LINE
  5
1FD6
330
1F
100
AcDbEntity
  8
AM_0
100
AcDbLine
 10
-84.58569316026292
 20
6.049999471243342
 30
0.0
 11
-60.21874590049634
 21
6.050858983539392
 31
0.0
  0
LINE
  5
1FD9
330
1F
100
AcDbEntity
  8
AM_0
100
AcDbLine
 10
-105.2205718751966
 20
-6.050000528756552
 30
0.0
 11
-105.2205762207609
 21
6.049999471243433
 31
0.0
  0
LINE
  5
1FDA
330
1F
100
AcDbEntity
  8
AM_0
100
AcDbLine
 10
-99.79486288629011
 20
-6.050000528756551
 30
0.0
 11
-105.2205718751966
 21
-6.050000528756553
 31
0.0
  0
LINE
  5
1FDB
330
1F
100
AcDbEntity
  8
AM_0
100
AcDbLine
 10
-98.16602595810639
 20
6.049999471243435
 30
0.0
 11
-105.2205762207609
 21
6.049999471243432
 31
0.0
  0
LINE
  5
1FDC
330
1F
100
AcDbEntity
  8
AM_0
 48
0.5
100
AcDbLine
 10
-43.27487978626061
 20
-6.050000528756979
 30
0.0
 11
-25.9520790583373
 21
-6.050000528756989
 31
0.0
  0
LINE
  5
1FDD
330
1F
100
AcDbEntity
  8
AM_0
 48
0.5
100
AcDbLine
 10
-47.79552687245358
 20
6.049999471243181
 30
0.0
 11
-25.9520790583372
 21
6.049999471243013
 31
0.0
  0
ELLIPSE
  5
1FE0
330
1F
100
AcDbEntity
  8
AM_0
 48
0.5
100
AcDbEllipse
 10
-11.55835018351189
 20
10.15409276856503
 30
0.0
 11
14.78431520429833
 21
0.0000000000351398
 31
0.0
210
0.0
220
0.0
230
1.0
 40
0.9866666666666453
 41
-1.06021300156887
 42
-0.9717182238893792
  0
ELLIPSE
  5
1FE1
330
1F
100
AcDbEntity
  8
AM_0
 48
0.5
100
AcDbEllipse
 10
2.970343582695596
 20
7.263396688039636
 30
0.0
 11
-12.35821699773924
 21
0.0000000000010051
 31
0.0
210
0.0
220
0.0
230
1.0
 40
0.9866666666666667
 41
0.5303675532341701
 42
0.938488483429063
  0
ELLIPSE
  5
1FE2
330
1F
100
AcDbEntity
  8
AM_0
 48
0.5
100
AcDbEllipse
 10
-101.8099026500598
 20
-3.882141726692043
 30
0.0
 11
1.278733869160027
 21
1.461359544748026
 31
0.0
210
0.0
220
0.0
230
0.9999999999999998
 40
0.7758110144751544
 41
0.3755882034972524
 42
2.26753405933737
  0
ELLIPSE
  5
1FE3
330
1F
100
AcDbEntity
  8
AM_0
 48
0.5
100
AcDbEllipse
 10
-101.4584123857891
 20
-4.03333386208992
 30
0.0
 11
-1.615272860210481
 21
1.375062313892058
 31
0.0
210
0.0
220
0.0
230
1.0
 40
0.9191708820863544
 41
0.7597964604461114
 42
2.234761795810601
  0
SPLINE
  5
1FE4
330
1F
100
AcDbEntity
  8
AM_0
100
AcDbSpline
210
0.0
220
0.0
230
1.0
 70
     8
 71
     3
 72
    17
 73
    13
 74
     0
 42
0.0000000001
 43
0.0000000001
 40
1.580019955310467
 40
1.580019955310467
 40
1.580019955310467
 40
1.580019955310467
 40
2.030549285115227
 40
3.082371838836284
 40
4.126290986361125
 40
5.162752068350215
 40
6.192395305374981
 40
7.216039564037012
 40
8.234688489606833
 40
9.249433870634691
 40
10.26152376260694
 40
11.27226744710342
 40
11.27226744710342
 40
11.27226744710342
 40
11.27226744710352
 10
-16.2177078192032
 20
-4.465078680628742
 30
0.0
 10
-16.36392139231924
 20
-4.51106527628339
 30
0.0
 10
-16.8523238487599
 20
-4.661792485929352
 30
0.0
 10
-17.68614796064463
 20
-4.898213507372187
 30
0.0
 10
-18.71896247455454
 20
-5.162973687994294
 30
0.0
 10
-19.75206132133314
 20
-5.395397973935727
 30
0.0
 10
-20.78520750434026
 20
-5.594705832206202
 30
0.0
 10
-21.81846624677239
 20
-5.75944748781951
 30
0.0
 10
-22.85179637408608
 20
-5.88868283278809
 30
0.0
 10
-23.88519084480523
 20
-5.981574378833869
 30
0.0
 10
-24.91862419876622
 20
-6.037524172287276
 30
0.0
 10
-25.60774698354983
 20
-6.050000563375411
 30
0.0
 10
-25.95207905833722
 20
-6.050000528756989
 30
0.0
  0
SPLINE
  5
1FE5
330
1F
100
AcDbEntity
  8
AM_0
100
AcDbSpline
210
0.0
220
0.0
230
1.0
 70
     8
 71
     3
 72
    22
 73
    18
 74
     0
 42
0.0000000001
 43
0.0000000001
 40
17.17441611292
 40
17.17441611292
 40
17.17441611292
 40
17.17441611292
 40
17.38177636558528
 40
18.41823744757437
 40
19.46215659509824
 40
20.51397914882054
 40
21.57394542641293
 40
22.64209583141747
 40
23.71826625065247
 40
24.80210429862395
 40
25.8930771157021
 40
26.99048705697709
 40
28.09349309193389
 40
29.20112995599786
 40
30.31233024745139
 40
31.42594771747373
 40
32.5407895042663
 40
32.54078950426994
 40
32.54078950426994
 40
32.54078950426994
 10
-29.89646531906692
 20
-5.432944316533763
 30
0.0
 10
-29.96566548970488
 20
-5.418939159928471
 30
0.0
 10
-30.38048272026508
 20
-5.333632220244283
 30
0.0
 10
-31.1404045117935
 20
-5.162580703232084
 30
0.0
 10
-32.17336281113528
 20
-4.898227069067554
 30
0.0
 10
-33.20621585419465
 20
-4.603685929396922
 30
0.0
 10
-34.23897093285621
 20
-4.280795883046399
 30
0.0
 10
-35.27162668292231
 20
-3.931536723399039
 30
0.0
 10
-36.30419581518779
 20
-3.558082051596105
 30
0.0
 10
-37.33668311073797
 20
-3.162726999891191
 30
0.0
 10
-38.36909812253553
 20
-2.747909701225212
 30
0.0
 10
-39.40145233038087
 20
-2.316189315581275
 30
0.0
 10
-40.43375469448562
 20
-1.870220504666256
 30
0.0
 10
-41.46601560664207
 20
-1.412746943964576
 30
0.0
 10
-42.49824421694473
 20
-0.9465815780442587
 30
0.0
 10
-43.53045581696281
 20
-0.4746008991791403
 30
0.0
 10
-44.21846180979095
 20
-0.1580534695782761
 30
0.0
 10
-44.5626538064046
 20
0.0003071901566899
 30
0.0
  0
SPLINE
  5
1FE6
330
1F
100
AcDbEntity
  8
AM_0
100
AcDbSpline
210
0.0
220
0.0
230
1.0
 70
     8
 71
     3
 72
    11
 73
     7
 74
     0
 42
0.0000000001
 43
0.0000000001
 40
11.27226913003534
 40
11.27226913003534
 40
11.27226913003534
 40
11.2722691300354
 40
12.28301561507924
 40
13.29510212255852
 40
14.30984805882082
 40
15.18258238371378
 40
15.18258238371378
 40
15.18258238371378
 40
15.18258238371378
 10
-25.95207905833727
 20
-6.050000528756989
 30
0.0
 10
-26.29510181305787
 20
-6.020390070638468
 30
0.0
 10
-26.9805003163556
 20
-5.948704440233285
 30
0.0
 10
-28.00505880120784
 20
-5.80409679230739
 30
0.0
 10
-28.97738286911189
 20
-5.631378812470122
 30
0.0
 10
-29.60622500195448
 20
-5.498605360952384
 30
0.0
 10
-29.8960133630317
 20
-5.433018943237501
 30
0.0
  0
SPLINE
  5
1FE7
330
1F
100
AcDbEntity
  8
AM_0
100
AcDbSpline
210
0.0
220
0.0
230
1.0
 70
     8
 71
     3
 72
    55
 73
    51
 74
     0
 42
0.0000000001
 43
0.0000000001
 40
0.0
 40
0.0
 40
0.0
 40
0.0
 40
1.010743684496582
 40
2.022833576467832
 40
3.037578957496688
 40
4.056212745003489
 40
5.079857003664532
 40
6.109500240690281
 40
7.145961322679372
 40
8.189895241603872
 40
9.241717795325891
 40
10.30168407291828
 40
11.36983447792315
 40
12.44600489715814
 40
13.52984294512926
 40
14.62081576220742
 40
15.7182257034828
 40
16.82123173843959
 40
17.92886860250316
 40
19.0400688939571
 40
20.15368796660465
 40
21.26852814259644
 40
22.38336992938901
 40
23.49698739941135
 40
24.6081876908653
 40
25.71582455492886
 40
26.81883757994213
 40
27.91624752121713
 40
29.00722033829659
 40
30.09105838626677
 40
31.16722880550176
 40
32.23537921050758
 40
33.29534548809967
 40
34.347168041821
 40
35.39108718934584
 40
36.42754827133493
 40
37.45720575381954
 40
38.48085062012849
 40
39.49948440763516
 40
40.51422944315121
 40
41.52631975251916
 40
42.53706336719636
 40
43.54780698187354
 40
44.55989729124051
 40
45.57464232675757
 40
46.59327611426424
 40
47.6169209805722
 40
48.64656348684535
 40
49.68302456883444
 40
50.58557219878025
 40
50.58557219878025
 40
50.58557219878025
 40
50.58557219878025
 10
-6.484855401193623
 20
-6.050000528757139
 30
0.0
 10
-6.829187480523772
 20
-6.046400925327347
 30
0.0
 10
-7.518310254386011
 20
-6.039196924163229
 30
0.0
 10
-8.551743630266697
 20
-5.981124587274044
 30
0.0
 10
-9.585132892773081
 20
-5.88880474180711
 30
0.0
 10
-10.61845819862963
 20
-5.759414967197101
 30
0.0
 10
-11.65170923687642
 20
-5.594708742963684
 30
0.0
 10
-12.68486562378066
 20
-5.395418491438303
 30
0.0
 10
-13.71793081520464
 20
-5.162886702788291
 30
0.0
 10
-14.75089564994793
 20
-4.898537290429427
 30
0.0
 10
-15.78375309163738
 20
-4.603993343717101
 30
0.0
 10
-16.81650828849637
 20
-4.281103684557438
 30
0.0
 10
-17.84916400644926
 20
-3.931844419800351
 30
0.0
 10
-18.88173314770209
 20
-3.558389777086854
 30
0.0
 10
-19.91422043974101
 20
-3.163034715211449
 30
0.0
 10
-20.94663545655007
 20
-2.748217427942089
 30
0.0
 10
-21.97898964775148
 20
-2.316497006674277
 30
0.0
 10
-23.01129207383683
 20
-1.870528327736871
 30
0.0
 10
-24.04355275341877
 20
-1.413054271991432
 30
0.0
 10
-25.07578273212524
 20
-0.9468905379004423
 30
0.0
 10
-26.10799106359574
 20
-0.4749029085245848
 30
0.0
 10
-27.14019232421076
 20
-0.0000017631767488
 30
0.0
 10
-28.17238895110579
 20
0.4749079306876655
 30
0.0
 10
-29.20460074231363
 20
0.9468882099676985
 30
0.0
 10
-30.23682944671834
 20
1.413053355109772
 30
0.0
 10
-31.26909196680966
 20
1.870529153627457
 30
0.0
 10
-32.30139867538067
 20
2.316494026589847
 30
0.0
 10
-33.33375449590974
 20
2.748216637280882
 30
0.0
 10
-34.36616966176517
 20
3.163033588176189
 30
0.0
 10
-35.39865691623519
 20
3.558388733193277
 30
0.0
 10
-36.43122606013202
 20
3.931843376453064
 30
0.0
 10
-37.46388180438747
 20
4.281102557696995
 30
0.0
 10
-38.49663689465484
 20
4.603992546556704
 30
0.0
 10
-39.52948989750243
 20
4.898533892449755
 30
0.0
 10
-40.5624483445513
 20
5.162886767126385
 30
0.0
 10
-41.5955131527617
 20
5.395423231698134
 30
0.0
 10
-42.62867691674881
 20
5.594690721510348
 30
0.0
 10
-43.66193136856506
 20
5.759447925801998
 30
0.0
 10
-44.69525698074545
 20
5.888684325534885
 30
0.0
 10
-45.72864696128212
 20
5.981564795792771
 30
0.0
 10
-46.76207946093444
 20
6.037532144928435
 30
0.0
 10
-47.79553466963924
 20
6.056228984368182
 30
0.0
 10
-48.82898987682343
 20
6.037532144899133
 30
0.0
 10
-49.86242238104638
 20
5.981564795910388
 30
0.0
 10
-50.89581234475534
 20
5.888684325091698
 30
0.0
 10
-51.92913802002681
 20
5.759447927467467
 30
0.0
 10
-52.96238719734742
 20
5.594691518465778
 30
0.0
 10
-53.99554689106254
 20
5.39542526910056
 30
0.0
 10
-54.98164048437224
 20
5.173442450420645
 30
0.0
 10
-55.62142923766462
 20
5.011104316566925
 30
0.0
 10
-55.91825392960673
 20
4.931989024608927
 30
0.0
  0
SPLINE
  5
1FE8
330
1F
100
AcDbEntity
  8
AM_0
100
AcDbSpline
210
0.0
220
0.0
230
1.0
 70
     8
 71
     3
 72
    46
 73
    42
 74
     0
 42
0.0000000001
 43
0.0000000001
 40
0.0
 40
0.0
 40
0.0
 40
0.0
 40
1.348332046947657
 40
2.024828967632895
 40
2.703918159304097
 40
3.386347665078124
 40
4.072776489761952
 40
4.763750544421347
 40
5.459696642770596
 40
6.160921452191754
 40
6.867565637253344
 40
7.579665907256596
 40
8.297112853413899
 40
9.019671552060676
 40
9.746986763446127
 40
10.47859339096366
 40
11.21393074760089
 40
11.95235532364328
 40
12.69315551794651
 40
13.43556823304427
 40
14.1787950170388
 40
14.92202180103393
 40
15.66443451613169
 40
16.40523471043432
 40
17.14365928647669
 40
17.87899664311455
 40
18.61060327063121
 40
19.3379184820169
 40
20.06048192311554
 40
20.77792886927283
 40
21.49002913927608
 40
22.19667332433747
 40
22.89788836015233
 40
23.59383445850158
 40
24.28480851316097
 40
24.97123685067576
 40
25.65366676154838
 40
26.33276604526152
 40
27.00926273560555
 40
27.68398960851751
 40
28.357818684969
 40
28.357818684969
 40
28.357818684969
 40
28.357818684969
 10
-3.591944160332139
 20
-6.050000528757163
 30
0.0
 10
-4.281100603634881
 20
-6.036218161086625
 30
0.0
 10
-5.316026631529266
 20
-6.015520783637914
 30
0.0
 10
-6.692212902119885
 20
-5.888090832996742
 30
0.0
 10
-7.72554930998472
 20
-5.759607544880921
 30
0.0
 10
-8.75879739218571
 20
-5.594656827867438
 30
0.0
 10
-9.791954426793608
 20
-5.395432091387047
 30
0.0
 10
-10.8250151062781
 20
-5.162885799403792
 30
0.0
 10
-11.8579777004178
 20
-4.898532843390429
 30
0.0
 10
-12.89083761216428
 20
-4.603996389629519
 30
0.0
 10
-13.92359690595679
 20
-4.281103262434205
 30
0.0
 10
-14.95625280398688
 20
-3.931844534203999
 30
0.0
 10
-15.98882189642402
 20
-3.55838974606497
 30
0.0
 10
-17.02130920176041
 20
-3.163034723737397
 30
0.0
 10
-18.05372421467979
 20
-2.748217425148449
 30
0.0
 10
-19.08607840802913
 20
-2.316497009265656
 30
0.0
 10
-20.11838082941291
 20
-1.870528320134769
 30
0.0
 10
-21.15064152573822
 20
-1.41305429995203
 30
0.0
 10
-22.18287144191115
 20
-0.9468904332504186
 30
0.0
 10
-23.2150800074194
 20
-0.47490330012569
 30
0.0
 10
-24.2472798960002
 20
-0.0000005288530918
 30
0.0
 10
-25.27947978435423
 20
0.4749022429966094
 30
0.0
 10
-26.31168835054266
 20
0.9468893743908754
 30
0.0
 10
-27.34391826422946
 20
1.413053247416558
 30
0.0
 10
-28.37617896977346
 20
1.870527244145606
 30
0.0
 10
-29.40848135697521
 20
2.316496020240425
 30
0.0
 10
-30.44083567691219
 20
2.748216114065156
 30
0.0
 10
-31.47325246601205
 20
3.163035505744995
 30
0.0
 10
-32.50574378309601
 20
3.558386936071776
 30
0.0
 10
-33.53831471747817
 20
3.931843639159065
 30
0.0
 10
-34.57097059146507
 20
4.281102471312329
 30
0.0
 10
-35.60372564279976
 20
4.603992631395741
 30
0.0
 10
-36.63657867281303
 20
4.898533641386094
 30
0.0
 10
-37.66953705046869
 20
5.162887677310211
 30
0.0
 10
-38.70259713207192
 20
5.395418754894197
 30
0.0
 10
-39.73575492412734
 20
5.594701274398836
 30
0.0
 10
-40.7690096005973
 20
5.759416439673313
 30
0.0
 10
-41.80234068394161
 20
5.888804226202116
 30
0.0
 10
-42.83573569897717
 20
5.981115598831609
 30
0.0
 10
-43.86916822548308
 20
6.03920360659857
 30
0.0
 10
-44.55829128794272
 20
6.046402447229382
 30
0.0
 10
-44.9026234285245
 20
6.049999471243159
 30
0.0
  0
SPLINE
  5
1FE9
330
1F
100
AcDbEntity
  8
AM_0
 48
0.5
100
AcDbSpline
210
0.0
220
0.0
230
1.0
 70
     8
 71
     3
 72
    10
 73
     6
 74
     0
 42
0.0000000001
 43
0.0000000001
 40
0.0
 40
0.0
 40
0.0
 40
0.0
 40
2.69986029516136
 40
4.147722969032201
 40
6.285750005020438
 40
6.285750005020438
 40
6.285750005020438
 40
6.285750005020438
 10
-7.689933603518568
 20
1.095017222300699
 30
0.0
 10
-6.954418205413511
 20
0.5329304149164439
 30
0.0
 10
-5.824465623694917
 20
-0.3305884737297292
 30
0.0
 10
-3.152279557192704
 20
0.0874561478385844
 30
0.0
 10
-3.65552991883889
 20
1.49548574881758
 30
0.0
 10
-3.988045603831427
 20
2.353723156758765
 30
0.0
  0
SPLINE
  5
1FEA
330
1F
100
AcDbEntity
  8
AM_0
 48
0.5
100
AcDbSpline
210
0.0
220
0.0
230
1.0
 70
     8
 71
     3
 72
    25
 73
    21
 74
     0
 42
0.0000000001
 43
0.0000000001
 40
6.846175049578289
 40
6.846175049578289
 40
6.846175049578289
 40
6.846175049578289
 40
7.604337694224321
 40
8.711974558287883
 40
9.814980593243754
 40
10.91239053451967
 40
12.0033633515982
 40
13.08720139956839
 40
14.16337181880432
 40
15.23152222380919
 40
16.29148850140128
 40
17.34331105512262
 40
18.38723020264746
 40
19.42369128463655
 40
20.45333379090873
 40
21.47697865721768
 40
22.49561244472435
 40
23.5103574802404
 40
24.52244778960836
 40
25.53320666051913
 40
25.53320666051913
 40
25.53320666051913
 40
25.53320666051913
 10
-7.690098826763497
 20
1.095089079690443
 30
0.0
 10
-7.924859514190412
 20
1.201316319805057
 30
0.0
 10
-8.503087628841804
 20
1.461673138001894
 30
0.0
 10
-9.425642479186668
 20
1.870527066533169
 30
0.0
 10
-10.45794478687515
 20
2.316496003466512
 30
0.0
 10
-11.49029900971715
 20
2.748216355553828
 30
0.0
 10
-12.52271401755938
 20
3.163033663286286
 30
0.0
 10
-13.55520131405286
 20
3.558388712025871
 30
0.0
 10
-14.58777044646196
 20
3.931843386677724
 30
0.0
 10
-15.62042619503795
 20
4.281102537955867
 30
0.0
 10
-16.65318127945049
 20
4.603992614621295
 30
0.0
 10
-17.68603430122595
 20
4.898533642592451
 30
0.0
 10
-18.71899267913083
 20
5.162887688938704
 30
0.0
 10
-19.75205276780751
 20
5.395418707683147
 30
0.0
 10
-20.7852105316012
 20
5.594701450049026
 30
0.0
 10
-21.81846022147453
 20
5.759414977585178
 30
0.0
 10
-22.85178576047719
 20
5.888805440511366
 30
0.0
 10
-23.88517576031305
 20
5.981115395316931
 30
0.0
 10
-24.91861344594846
 20
6.039203960162484
 30
0.0
 10
-25.60774171551748
 20
6.046402546918413
 30
0.0
 10
-25.9520790583372
 20
6.049999471243013
 30
0.0
  0
SPLINE
  5
1FEB
330
1F
100
AcDbEntity
  8
AM_0
 48
0.5
100
AcDbSpline
210
0.0
220
0.0
230
1.0
 70
     8
 71
     3
 72
    16
 73
    12
 74
     0
 42
0.0000000001
 43
0.0000000001
 40
0.0
 40
0.0
 40
0.0
 40
0.0
 40
1.010743614677189
 40
2.022833924044153
 40
3.037578959561199
 40
4.056212747067873
 40
5.079857613375832
 40
6.109500119648989
 40
7.14596120163808
 40
8.18989512056258
 40
8.545190612624931
 40
8.545190612624931
 40
8.545190612624931
 40
8.545190612624931
 10
-6.484855401193523
 20
6.049999471242862
 30
0.0
 10
-6.829168400562692
 20
6.049963115889812
 30
0.0
 10
-7.518319506539533
 20
6.03754904528466
 30
0.0
 10
-8.551740713066713
 20
5.981560231925707
 30
0.0
 10
-9.585133751518576
 20
5.888685630826536
 30
0.0
 10
-10.61845846236051
 20
5.759447288039889
 30
0.0
 10
-11.65170841123569
 20
5.59469277128001
 30
0.0
 10
-12.68486597137268
 20
5.395420862410403
 30
0.0
 10
-13.71793152560094
 20
5.162886728957137
 30
0.0
 10
-14.52118787507926
 20
4.95731501455898
 30
0.0
 10
-14.98031278110566
 20
4.830883320269083
 30
0.0
 10
-15.09674429311027
 20
4.798256703916014
 30
0.0
  0
SPLINE
  5
1FEC
330
1F
100
AcDbEntity
  8
AM_0
 48
0.5
100
AcDbSpline
210
0.0
220
0.0
230
1.0
 70
     8
 71
     3
 72
    17
 73
    13
 74
     0
 42
0.0000000001
 43
0.0000000001
 40
0.0
 40
0.0
 40
0.0
 40
0.0
 40
1.010743614677189
 40
2.022833924044153
 40
3.037578959561199
 40
4.056212747067873
 40
5.079857613375832
 40
6.109500119648989
 40
7.14596120163808
 40
8.18989512056258
 40
9.241717674284874
 40
9.693948937866434
 40
9.693948937866434
 40
9.693948937866434
 40
9.693948937866434
 10
-6.484855401193523
 20
6.049999471242862
 30
0.0
 10
-6.829187543187997
 20
6.046402461862338
 30
0.0
 10
-7.518310608474649
 20
6.039203650517587
 30
0.0
 10
-8.551743113735197
 20
5.98111542268886
 30
0.0
 10
-9.585133073179363
 20
5.888805348561859
 30
0.0
 10
-10.6184587645625
 20
5.759415320017592
 30
0.0
 10
-11.65170788127501
 20
5.594700162839723
 30
0.0
 10
-12.68486780320031
 20
5.395423555446065
 30
0.0
 10
-13.71792466359586
 20
5.16286830726151
 30
0.0
 10
-14.75091854921465
 20
4.898600040109133
 30
0.0
 10
-15.58477815032129
 20
4.660534278604019
 30
0.0
 10
-16.07446939817987
 20
4.511708942308834
 30
0.0
 10
-16.22144843852678
 20
4.466154503149409
 30
0.0
  0
ELLIPSE
  5
1FED
330
1F
100
AcDbEntity
  8
AM_0
 48
0.5
100
AcDbEllipse
 10
-2.770880448495368
 20
-1.576717619364258
 30
0.0
 11
-0.886977196195416
 21
0.5008060657773834
 31
0.0
210
0.0
220
0.0
230
1.0
 40
0.4966000907481559
 41
4.47617354288169
 42
7.619613884211199
  0
ELLIPSE
  5
1FEE
330
1F
100
AcDbEntity
  8
AM_0
 48
0.5
100
AcDbEllipse
 10
-2.770880448495368
 20
-1.576717619364258
 30
0.0
 11
-0.1790303392899541
 21
0.9927342698910891
 31
0.0
210
0.0
220
0.0
230
1.0
 40
0.5063357509269119
 41
1.802736277219808
 42
4.938078166931783
  0
SPLINE
  5
1FEF
330
1F
100
AcDbEntity
  8
AM_0
100
AcDbSpline
210
0.0
220
0.0
230
1.0
 70
     8
 71
     3
 72
    23
 73
    19
 74
     0
 42
0.0000000001
 43
0.0000000001
 40
16.03460024169435
 40
16.03460024169435
 40
16.03460024169435
 40
16.03460024169435
 40
16.35212704903564
 40
17.38177054169784
 40
18.41822485651776
 40
19.46214173629503
 40
20.51396345435107
 40
21.57393551351153
 40
22.64208202342361
 40
23.7182574881101
 40
24.80209208578934
 40
25.89306333925047
 40
26.99048218457928
 40
28.09348763352352
 40
29.20111863782268
 40
30.31232390128032
 40
31.42594612798585
 40
32.5407912310448
 40
32.5407912310486
 40
32.5407912310486
 40
32.5407912310486
 10
-98.16602595810639
 20
6.049999471243435
 30
0.0
 10
-98.16602595810639
 20
6.049999471243435
 30
0.0
 10
-96.4110954114823
 20
5.89985747891591
 30
0.0
 10
-95.66004307367585
 20
5.767232029921896
 30
0.0
 10
-94.63350681133169
 20
5.508103957639765
 30
0.0
 10
-93.60792404415299
 20
5.217146324743712
 30
0.0
 10
-92.58323416963609
 20
4.896043045609082
 30
0.0
 10
-91.55940081972152
 20
4.5465842782056
 30
0.0
 10
-90.5363648192954
 20
4.170767676219103
 30
0.0
 10
-89.51405492801901
 20
3.770780398004902
 30
0.0
 10
-88.4924130545726
 20
3.348887548198792
 30
0.0
 10
-87.47135729022266
 20
2.90754402299055
 30
0.0
 10
-86.45080488981752
 20
2.449315101630429
 30
0.0
 10
-85.43068785686157
 20
1.976835408314374
 30
0.0
 10
-84.41092083940155
 20
1.492852347755561
 30
0.0
 10
-83.39140938541452
 20
1.000192025950045
 30
0.0
 10
-82.37207047788867
 20
0.5017092760549794
 30
0.0
 10
-81.6926937355881
 20
0.1675038490053887
 30
0.0
 10
-81.35282009420933
 20
0.0003071901546719
 30
0.0
  0
SPLINE
  5
1FF0
330
1F
100
AcDbEntity
  8
AM_0
100
AcDbSpline
210
0.0
220
0.0
230
1.0
 70
     8
 71
     3
 72
    13
 73
     9
 74
     0
 42
0.0000000001
 43
0.0000000001
 40
16.03460056234195
 40
16.03460056234195
 40
16.03460056234195
 40
16.03460056234195
 40
16.35212717791071
 40
17.38177067057215
 40
18.41822498539278
 40
19.46214186516937
 40
20.5139635832251
 40
21.34083983469381
 40
21.34083983469381
 40
21.34083983469381
 40
21.34083983469381
 10
-101.6736712472619
 20
-6.050000528756557
 30
0.0
 10
-99.9790036495265
 20
-6.012163684287364
 30
0.0
 10
-99.52899723354837
 20
-5.941190440923956
 30
0.0
 10
-98.73630717360883
 20
-5.766924803120554
 30
0.0
 10
-97.70977078207973
 20
-5.507797449338498
 30
0.0
 10
-96.68418804988689
 20
-5.216839621860461
 30
0.0
 10
-95.73518663739605
 20
-4.919454607941114
 30
0.0
 10
-95.12974044805124
 20
-4.714683862064637
 30
0.0
 10
-94.27748049534582
 20
-4.479783742770241
 30
0.0
  0
SPLINE
  5
1FF1
330
1F
100
AcDbEntity
  8
AM_0
 48
0.5
100
AcDbSpline
210
0.0
220
0.0
230
1.0
 70
     8
 71
     3
 72
    22
 73
    18
 74
     0
 42
0.0000000001
 43
0.0000000001
 40
0.0
 40
0.0
 40
0.0
 40
0.0
 40
1.010743684496582
 40
2.022833993863546
 40
3.037578683882831
 40
4.056212471389632
 40
5.079857945358201
 40
6.109499720892564
 40
7.145961650132166
 40
8.189873411961459
 40
9.241710626092514
 40
10.30166235592959
 40
11.36982472628033
 40
12.44598212828784
 40
13.52983440361964
 40
14.62080578343036
 40
14.90544694398022
 40
14.90544694398022
 40
14.90544694398022
 40
14.90544694398022
 10
-84.58570095719538
 20
-6.050000528756661
 30
0.0
 10
-84.93003310232147
 20
-6.046402000715692
 30
0.0
 10
-85.61915615005837
 20
-6.039200150275515
 30
0.0
 10
-86.65258844309498
 20
-5.981111636668453
 30
0.0
 10
-87.68597882383783
 20
-5.888807333576192
 30
0.0
 10
-88.7193046791496
 20
-5.75941743968752
 30
0.0
 10
-89.75255290316434
 20
-5.594695849079967
 30
0.0
 10
-90.7857127167273
 20
-5.395422349602281
 30
0.0
 10
-91.81876898038032
 20
-5.162885021154528
 30
0.0
 10
-92.85172879777871
 20
-4.898526430511964
 30
0.0
 10
-93.88458286559908
 20
-4.6039971885198
 30
0.0
 10
-94.91733658143528
 20
-4.281089833321583
 30
0.0
 10
-95.94999660275425
 20
-3.931859172053487
 30
0.0
 10
-96.98256215390701
 20
-3.558381366212691
 30
0.0
 10
-98.01505257879288
 20
-3.163035638515737
 30
0.0
 10
-98.79104128809657
 20
-2.851262757401016
 30
0.0
 10
-99.22344927611041
 20
-2.67306340022551
 30
0.0
 10
-101.0361845820902
 20
-2.15874489536934
 30
0.0
  0
SPLINE
  5
1FF2
330
1F
100
AcDbEntity
  8
AM_0
 48
0.5
100
AcDbSpline
210
0.0
220
0.0
230
1.0
 70
     8
 71
     3
 72
    26
 73
    22
 74
     0
 42
0.0000000001
 43
0.0000000001
 40
0.0
 40
0.0
 40
0.0
 40
0.0
 40
0.6738291229976858
 40
1.34855571764586
 40
2.025052638331105
 40
2.7041418300023
 40
3.386571335776987
 40
4.073000160460178
 40
4.763974215119558
 40
5.459920313469455
 40
6.161135349283505
 40
6.867779534345081
 40
7.579884616450838
 40
8.297322010138517
 40
9.01989019369366
 40
9.747205405079087
 40
10.47881203259601
 40
11.21414938923388
 40
11.95257396527625
 40
12.69337415957888
 40
13.41285713964268
 40
13.41285713964268
 40
13.41285713964268
 40
13.41285713964268
 10
-81.69278971633392
 20
-6.050000528756684
 30
0.0
 10
-82.03712179570548
 20
-6.04640092548375
 30
0.0
 10
-82.72624456965095
 20
-6.039196924633538
 30
0.0
 10
-83.7596779449087
 20
-5.981124585385572
 30
0.0
 10
-84.79306720979199
 20
-5.888804748919093
 30
0.0
 10
-85.82639250671382
 20
-5.759414940476913
 30
0.0
 10
-86.85964357855883
 20
-5.594708843466152
 30
0.0
 10
-87.89279983895758
 20
-5.395418112916658
 30
0.0
 10
-88.92586060059704
 20
-5.162889234329319
 30
0.0
 10
-89.95881881802569
 20
-4.89853447100177
 30
0.0
 10
-90.99167204923023
 20
-4.60399410007171
 30
0.0
 10
-92.0244287946314
 20
-4.281101365306718
 30
0.0
 10
-93.05708477482244
 20
-3.931850025264676
 30
0.0
 10
-94.08965169008652
 20
-3.55838247427051
 30
0.0
 10
-95.12214334655489
 20
-3.163038816967294
 30
0.0
 10
-96.15456197505416
 20
-2.748217309861634
 30
0.0
 10
-97.18691527172246
 20
-2.316495144022873
 30
0.0
 10
-98.33976492905055
 20
-1.99107868654169
 30
0.0
 10
-99.55640870425657
 20
-1.616104798556982
 30
0.0
 10
-100.9052579235577
 20
-1.277807709658184
 30
0.0
 10
-102.1215278512443
 20
-0.8572757540670112
 30
0.0
 10
-104.0645422921368
 20
-0.1869902948083556
 30
0.0
  0
SPLINE
  5
1FF3
330
1F
100
AcDbEntity
  8
AM_0
100
AcDbSpline
210
0.0
220
0.0
230
1.0
 70
     8
 71
     3
 72
    55
 73
    51
 74
     0
 42
0.0000000001
 43
0.0000000001
 40
0.0
 40
0.0
 40
0.0
 40
0.0
 40
1.010743684496582
 40
2.022833576467832
 40
3.037578957496688
 40
4.056212745003489
 40
5.079857003664532
 40
6.109500240690281
 40
7.145961322679372
 40
8.189895241603872
 40
9.241717795325891
 40
10.30168407291828
 40
11.36983447792315
 40
12.44600489715814
 40
13.52984294512926
 40
14.62081576220742
 40
15.7182257034828
 40
16.82123173843959
 40
17.92886860250316
 40
19.0400688939571
 40
20.15368796660465
 40
21.26852814259644
 40
22.38336992938901
 40
23.49698739941135
 40
24.6081876908653
 40
25.71582455492886
 40
26.81883757994213
 40
27.91624752121713
 40
29.00722033829659
 40
30.09105838626677
 40
31.16722880550176
 40
32.23537921050758
 40
33.29534548809967
 40
34.347168041821
 40
35.39108718934584
 40
36.42754827133493
 40
37.45720575381954
 40
38.48085062012849
 40
39.49948440763516
 40
40.51422944315121
 40
41.52631975251916
 40
42.53706336719636
 40
43.54780698187354
 40
44.55989729124051
 40
45.57464232675757
 40
46.59327611426424
 40
47.6169209805722
 40
48.64656348684535
 40
49.68302456883444
 40
50.58557219878025
 40
50.58557219878025
 40
50.58557219878025
 40
50.58557219878025
 10
-43.27487978626061
 20
-6.050000528756981
 30
0.0
 10
-43.61921186559076
 20
-6.046400925327187
 30
0.0
 10
-44.308334639453
 20
-6.039196924163069
 30
0.0
 10
-45.34176801533368
 20
-5.981124587273885
 30
0.0
 10
-46.37515727784006
 20
-5.88880474180695
 30
0.0
 10
-47.40848258369662
 20
-5.759414967196941
 30
0.0
 10
-48.44173362194341
 20
-5.594708742963525
 30
0.0
 10
-49.47489000884765
 20
-5.395418491438143
 30
0.0
 10
-50.50795520027161
 20
-5.162886702788132
 30
0.0
 10
-51.54092003501489
 20
-4.898537290429266
 30
0.0
 10
-52.57377747670437
 20
-4.603993343716941
 30
0.0
 10
-53.60653267356336
 20
-4.281103684557278
 30
0.0
 10
-54.63918839151626
 20
-3.931844419800191
 30
0.0
 10
-55.67175753276908
 20
-3.558389777086695
 30
0.0
 10
-56.70424482480801
 20
-3.16303471521129
 30
0.0
 10
-57.73665984161707
 20
-2.74821742794193
 30
0.0
 10
-58.76901403281848
 20
-2.316497006674118
 30
0.0
 10
-59.8013164589038
 20
-1.870528327736712
 30
0.0
 10
-60.83357713848577
 20
-1.413054271991273
 30
0.0
 10
-61.86580711719223
 20
-0.946890537900283
 30
0.0
 10
-62.89801544866273
 20
-0.4749029085244255
 30
0.0
 10
-63.93021670927776
 20
-0.0000017631765893
 30
0.0
 10
-64.96241333617277
 20
0.474907930687825
 30
0.0
 10
-65.99462512738063
 20
0.946888209967858
 30
0.0
 10
-67.02685383178536
 20
1.413053355109931
 30
0.0
 10
-68.05911635187666
 20
1.870529153627616
 30
0.0
 10
-69.09142306044763
 20
2.316494026590006
 30
0.0
 10
-70.12377888097671
 20
2.748216637281041
 30
0.0
 10
-71.15619404683214
 20
3.163033588176348
 30
0.0
 10
-72.18868130130219
 20
3.558388733193438
 30
0.0
 10
-73.22125044519902
 20
3.931843376453223
 30
0.0
 10
-74.25390618945447
 20
4.281102557697154
 30
0.0
 10
-75.28666127972183
 20
4.603992546556864
 30
0.0
 10
-76.31951428256941
 20
4.898533892449915
 30
0.0
 10
-77.3524727296183
 20
5.162886767126546
 30
0.0
 10
-78.38553753782871
 20
5.395423231698293
 30
0.0
 10
-79.41870130181583
 20
5.594690721510508
 30
0.0
 10
-80.45195575363207
 20
5.759447925802157
 30
0.0
 10
-81.48528136581248
 20
5.888684325535043
 30
0.0
 10
-82.51867134634911
 20
5.98156479579293
 30
0.0
 10
-83.55210384600145
 20
6.037532144928594
 30
0.0
 10
-84.58555905470623
 20
6.05622898436834
 30
0.0
 10
-85.61901426189043
 20
6.037532144899291
 30
0.0
 10
-86.65244676611338
 20
5.981564795910548
 30
0.0
 10
-87.68583672982236
 20
5.888684325091858
 30
0.0
 10
-88.71916240509383
 20
5.759447927467627
 30
0.0
 10
-89.75241158241443
 20
5.594691518465938
 30
0.0
 10
-90.78557127612951
 20
5.395425269100719
 30
0.0
 10
-91.77166486943923
 20
5.173442450420804
 30
0.0
 10
-92.4114536227316
 20
5.011104316567084
 30
0.0
 10
-92.70827831467373
 20
4.931989024609085
 30
0.0
  0
SPLINE
  5
1FF4
330
1F
100
AcDbEntity
  8
AM_0
100
AcDbSpline
210
0.0
220
0.0
230
1.0
 70
     8
 71
     3
 72
    46
 73
    42
 74
     0
 42
0.0000000001
 43
0.0000000001
 40
0.0
 40
0.0
 40
0.0
 40
0.0
 40
1.348332046947654
 40
2.024828967632893
 40
2.703918159304094
 40
3.386347665078122
 40
4.072776489761951
 40
4.763750544421345
 40
5.459696642770595
 40
6.160921452191748
 40
6.867565637253344
 40
7.579665907256597
 40
8.297112853413899
 40
9.019671552060666
 40
9.746986763446125
 40
10.47859339096365
 40
11.21393074760088
 40
11.95235532364327
 40
12.69315551794651
 40
13.43556823304427
 40
14.1787950170388
 40
14.92202180103393
 40
15.66443451613169
 40
16.40523471043432
 40
17.14365928647669
 40
17.87899664311455
 40
18.61060327063121
 40
19.33791848201689
 40
20.06048192311554
 40
20.77792886927282
 40
21.49002913927608
 40
22.19667332433747
 40
22.89788836015233
 40
23.59383445850157
 40
24.28480851316097
 40
24.97123685067575
 40
25.65366676154837
 40
26.33276604526151
 40
27.00926273560554
 40
27.68398960851752
 40
28.35781868496899
 40
28.35781868496899
 40
28.35781868496899
 40
28.35781868496899
 10
-40.38196854539913
 20
-6.050000528757004
 30
0.0
 10
-41.07112498870186
 20
-6.036218161086466
 30
0.0
 10
-42.10605101659625
 20
-6.015520783637753
 30
0.0
 10
-43.48223728718686
 20
-5.888090832996581
 30
0.0
 10
-44.51557369505171
 20
-5.759607544880763
 30
0.0
 10
-45.5488217772527
 20
-5.594656827867275
 30
0.0
 10
-46.58197881186061
 20
-5.395432091386887
 30
0.0
 10
-47.61503949134509
 20
-5.162885799403632
 30
0.0
 10
-48.64800208548476
 20
-4.89853284339027
 30
0.0
 10
-49.68086199723127
 20
-4.603996389629354
 30
0.0
 10
-50.71362129102379
 20
-4.281103262434048
 30
0.0
 10
-51.74627718905387
 20
-3.931844534203838
 30
0.0
 10
-52.77884628149102
 20
-3.558389746064814
 30
0.0
 10
-53.81133358682739
 20
-3.16303472373723
 30
0.0
 10
-54.84374859974679
 20
-2.748217425148299
 30
0.0
 10
-55.87610279309616
 20
-2.316497009265488
 30
0.0
 10
-56.90840521447988
 20
-1.870528320134617
 30
0.0
 10
-57.94066591080518
 20
-1.413054299951863
 30
0.0
 10
-58.97289582697812
 20
-0.9468904332502626
 30
0.0
 10
-60.00510439248639
 20
-0.4749033001255302
 30
0.0
 10
-61.0373042810672
 20
-0.000000528852931
 30
0.0
 10
-62.06950416942123
 20
0.4749022429967676
 30
0.0
 10
-63.10171273560967
 20
0.9468893743910349
 30
0.0
 10
-64.13394264929647
 20
1.413053247416718
 30
0.0
 10
-65.16620335484046
 20
1.870527244145764
 30
0.0
 10
-66.1985057420422
 20
2.316496020240586
 30
0.0
 10
-67.23086006197917
 20
2.748216114065315
 30
0.0
 10
-68.26327685107904
 20
3.163035505745153
 30
0.0
 10
-69.295768168163
 20
3.558386936071936
 30
0.0
 10
-70.32833910254516
 20
3.931843639159224
 30
0.0
 10
-71.36099497653207
 20
4.28110247131249
 30
0.0
 10
-72.39375002786674
 20
4.603992631395899
 30
0.0
 10
-73.42660305788005
 20
4.898533641386255
 30
0.0
 10
-74.45956143553572
 20
5.162887677310371
 30
0.0
 10
-75.49262151713893
 20
5.395418754894354
 30
0.0
 10
-76.52577930919434
 20
5.594701274398997
 30
0.0
 10
-77.5590339856643
 20
5.759416439673472
 30
0.0
 10
-78.5923650690086
 20
5.888804226202278
 30
0.0
 10
-79.62576008404418
 20
5.981115598831769
 30
0.0
 10
-80.65919261055011
 20
6.039203606598727
 30
0.0
 10
-81.34831567300974
 20
6.046402447229542
 30
0.0
 10
-81.69264781359151
 20
6.049999471243318
 30
0.0
  0
SPLINE
  5
1FF5
330
1F
100
AcDbEntity
  8
AM_0
100
AcDbSpline
210
0.0
220
0.0
230
1.0
 70
     8
 71
     3
 72
    22
 73
    18
 74
     0
 42
0.0000000001
 43
0.0000000001
 40
17.17441611292
 40
17.17441611292
 40
17.17441611292
 40
17.17441611292
 40
17.38177636558528
 40
18.41823744757437
 40
19.46215659509824
 40
20.51397914882054
 40
21.57394542641293
 40
22.64209583141747
 40
23.71826625065247
 40
24.80210429862395
 40
25.8930771157021
 40
26.99048705697709
 40
28.09349309193389
 40
29.20112995599786
 40
30.31233024745139
 40
31.42594771747373
 40
32.5407895042663
 40
32.54078950426994
 40
32.54078950426994
 40
32.54078950426994
 10
-66.6864897041339
 20
-5.432944316533603
 30
0.0
 10
-66.75568987477184
 20
-5.418939159928312
 30
0.0
 10
-67.17050710533207
 20
-5.333632220244123
 30
0.0
 10
-67.9304288968605
 20
-5.162580703231924
 30
0.0
 10
-68.96338719620228
 20
-4.898227069067394
 30
0.0
 10
-69.99624023926164
 20
-4.603685929396763
 30
0.0
 10
-71.02899531792319
 20
-4.28079588304624
 30
0.0
 10
-72.0616510679893
 20
-3.931536723398879
 30
0.0
 10
-73.09422020025478
 20
-3.558082051595945
 30
0.0
 10
-74.12670749580496
 20
-3.162726999891031
 30
0.0
 10
-75.15912250760255
 20
-2.747909701225052
 30
0.0
 10
-76.19147671544787
 20
-2.316189315581116
 30
0.0
 10
-77.2237790795526
 20
-1.870220504666097
 30
0.0
 10
-78.25603999170903
 20
-1.412746943964416
 30
0.0
 10
-79.28826860201173
 20
-0.9465815780440994
 30
0.0
 10
-80.3204802020298
 20
-0.4746008991789808
 30
0.0
 10
-81.00848619485795
 20
-0.1580534695781167
 30
0.0
 10
-81.35267819147159
 20
0.0003071901568494
 30
0.0
  0
SPLINE
  5
1FF6
330
1F
100
AcDbEntity
  8
AM_0
100
AcDbSpline
210
0.0
220
0.0
230
1.0
 70
     8
 71
     3
 72
    17
 73
    13
 74
     0
 42
0.0000000001
 43
0.0000000001
 40
1.580019955310467
 40
1.580019955310467
 40
1.580019955310467
 40
1.580019955310467
 40
2.030549285115227
 40
3.082371838836284
 40
4.126290986361125
 40
5.162752068350215
 40
6.192395305374981
 40
7.216039564037012
 40
8.234688489606833
 40
9.249433870634691
 40
10.26152376260694
 40
11.27226744710342
 40
11.27226744710342
 40
11.27226744710342
 40
11.27226744710352
 10
-53.00773220427019
 20
-4.465078680628584
 30
0.0
 10
-53.15394577738622
 20
-4.51106527628323
 30
0.0
 10
-53.64234823382687
 20
-4.661792485929193
 30
0.0
 10
-54.47617234571161
 20
-4.898213507372026
 30
0.0
 10
-55.50898685962152
 20
-5.162973687994135
 30
0.0
 10
-56.54208570640012
 20
-5.395397973935567
 30
0.0
 10
-57.57523188940724
 20
-5.594705832206044
 30
0.0
 10
-58.60849063183937
 20
-5.759447487819352
 30
0.0
 10
-59.64182075915305
 20
-5.88868283278793
 30
0.0
 10
-60.6752152298722
 20
-5.981574378833708
 30
0.0
 10
-61.70864858383319
 20
-6.037524172287116
 30
0.0
 10
-62.39777136861683
 20
-6.050000563375252
 30
0.0
 10
-62.74210344340421
 20
-6.050000528756831
 30
0.0
  0
SPLINE
  5
1FF7
330
1F
100
AcDbEntity
  8
AM_0
100
AcDbSpline
210
0.0
220
0.0
230
1.0
 70
     8
 71
     3
 72
    11
 73
     7
 74
     0
 42
0.0000000001
 43
0.0000000001
 40
11.27226913003534
 40
11.27226913003534
 40
11.27226913003534
 40
11.2722691300354
 40
12.28301561507924
 40
13.29510212255852
 40
14.30984805882082
 40
15.18258238371378
 40
15.18258238371378
 40
15.18258238371378
 40
15.18258238371378
 10
-62.74210344340427
 20
-6.050000528756831
 30
0.0
 10
-63.08512619812486
 20
-6.020390070638308
 30
0.0
 10
-63.77052470142257
 20
-5.948704440233125
 30
0.0
 10
-64.7950831862748
 20
-5.804096792307229
 30
0.0
 10
-65.76740725417888
 20
-5.631378812469963
 30
0.0
 10
-66.39624938702147
 20
-5.498605360952225
 30
0.0
 10
-66.68603774809868
 20
-5.433018943237342
 30
0.0
  0
SPLINE
  5
1FF8
330
1F
100
AcDbEntity
  8
AM_0
100
AcDbSpline
210
0.0
220
0.0
230
1.0
 70
     8
 71
     3
 72
    23
 73
    19
 74
     0
 42
0.0000000001
 43
0.0000000001
 40
16.03460024169435
 40
16.03460024169435
 40
16.03460024169435
 40
16.03460024169435
 40
16.35212704903564
 40
17.38177054169784
 40
18.41822485651776
 40
19.46214173629503
 40
20.51396345435107
 40
21.57393551351153
 40
22.64208202342361
 40
23.7182574881101
 40
24.80209208578934
 40
25.89306333925047
 40
26.99048218457928
 40
28.09348763352352
 40
29.20111863782268
 40
30.31232390128032
 40
31.42594612798585
 40
32.5407912310448
 40
32.5407912310486
 40
32.5407912310486
 40
32.5407912310486
 10
-60.21874590049634
 20
6.050858983539394
 30
0.0
 10
-60.11257332152125
 20
6.030435248942065
 30
0.0
 10
-59.66256727791389
 20
5.941495633156668
 30
0.0
 10
-58.86987678586653
 20
5.767232029921742
 30
0.0
 10
-57.84334052352239
 20
5.508103957639609
 30
0.0
 10
-56.81775775634367
 20
5.217146324743556
 30
0.0
 10
-55.79306788182679
 20
4.896043045608928
 30
0.0
 10
-54.76923453191222
 20
4.546584278205445
 30
0.0
 10
-53.74619853148608
 20
4.170767676218946
 30
0.0
 10
-52.72388864020969
 20
3.770780398004747
 30
0.0
 10
-51.70224676676331
 20
3.348887548198636
 30
0.0
 10
-50.68119100241335
 20
2.907544022990394
 30
0.0
 10
-49.66063860200821
 20
2.449315101630273
 30
0.0
 10
-48.64052156905223
 20
1.976835408314219
 30
0.0
 10
-47.62075455159222
 20
1.492852347755406
 30
0.0
 10
-46.6012430976052
 20
1.000192025949889
 30
0.0
 10
-45.58190419007936
 20
0.5017092760548239
 30
0.0
 10
-44.90252744777879
 20
0.167503849005233
 30
0.0
 10
-44.56265380640003
 20
0.0003071901545162
 30
0.0
  0
ELLIPSE
  5
1FF9
330
1F
100
AcDbEntity
  8
AM_0
 48
0.5
100
AcDbEllipse
 10
5.398105459600348
 20
-1.344832186166525
 30
0.0
 11
9.731525723682942
 21
1.228171265123272
 31
0.0
210
0.0
220
0.0
230
1.0
 40
0.6480200509316511
 41
3.141535418616813
 42
3.771019523520073
  0
LINE
  5
21D7
330
1F
100
AcDbEntity
  8
AM_0
 48
0.5
100
AcDbLine
 10
-105.9999999999999
 20
-6.500002054480996
 30
0.0
 11
-105.9999999999999
 21
6.49999999999982
 31
0.0
  0
LINE
  5
21D8
330
1F
100
AcDbEntity
  8
AM_0
 48
0.5
100
AcDbLine
 10
-168.4999999999999
 20
6.499999999999882
 30
0.0
 11
-105.9999999999999
 21
6.499999999999851
 31
0.0
1001
GENIUS_GENODEF_13
1002
{
1000
HIER
1070
     0
1002
}
1002
{
1000
MANEDIT
1070
     0
1002
}
1002
{
1000
NOSEL
1070
     0
1002
}
1002
{
1000
BEHIND
1070
     0
1002
}
1002
{
1000
REACTOR
1002
}
1001
GENIUS_GENOBJ-N-CEN_13
1002
{
1000
OWNER
1000
GEN
1002
}
  0
LINE
  5
21D9
330
1F
100
AcDbEntity
  8
AM_0
 48
0.5
100
AcDbLine
 10
-168.4999999999999
 20
-6.500002054480947
 30
0.0
 11
-105.9999999999999
 21
-6.500002054480978
 31
0.0
1001
GENIUS_GENODEF_13
1002
{
1000
HIER
1070
     0
1002
}
1002
{
1000
MANEDIT
1070
     0
1002
}
1002
{
1000
NOSEL
1070
     0
1002
}
1002
{
1000
BEHIND
1070
     0
1002
}
1002
{
1000
REACTOR
1002
}
1001
GENIUS_GENOBJ-N-CEN_13
1002
{
1000
OWNER
1000
GEN
1002
}
  0
LINE
  5
21DC
330
1F
100
AcDbEntity
  8
AM_0
100
AcDbLine
 10
-168.5000000000004
 20
-6.500002054480413
 30
0.0
 11
-168.5000000000004
 21
6.49999999999938
 31
0.0
  0
LINE
  5
21DD
330
1F
100
AcDbEntity
  8
AM_0
 48
0.5
100
AcDbLine
 10
-168.9999999999999
 20
-6.000002054480944
 30
0.0
 11
-168.9999999999999
 21
5.999999999999893
 31
0.0
  0
DIMENSION
  5
2216
330
1F
100
AcDbEntity
  8
AM_5
100
AcDbDimension
  2
*D8
 10
-185.0000009999999
 20
-6.500002054480942
 30
0.0
 11
-188.4000009999999
 21
-0.0000010272408082
 31
0.0
 70
    32
  1
%%c<>
 51
359.9999999999998
  3
AM_JIS$0
100
AcDbAlignedDimension
 13
-168.5000000000004
 23
6.49999999999938
 33
0.0
 14
-168.4999999999999
 24
-6.500002054480947
 34
0.0
 50
269.9999999999999
100
AcDbRotatedDimension
1001
ACAD
1000
DSTYLE
1002
{
1070
   271
1070
     0
1002
}
1001
GENIUS_GENDTOL_13
1000

1000
h7
1000

1040
0.0
  0
ELLIPSE
  5
2694
330
1F
100
AcDbEntity
  8
AM_0
 48
0.5
100
AcDbEllipse
 10
7.70879070242527
 20
6.738403143388001
 30
0.0
 11
9.706495919543959
 21
0.0000000000009575
 31
0.0
210
0.0
220
0.0
230
1.0
 40
0.9899999999999973
 41
3.323896559076802
 42
3.661579236128986
  0
LINE
  5
2695
330
1F
100
AcDbEntity
  8
AM_0
 48
0.5
100
AcDbLine
 10
-1.83686265000292
 20
4.996270538371056
 30
0.0
 11
-1.999999999999995
 21
6.049999471242834
 31
0.0
  0
LINE
  5
2696
330
1F
100
AcDbEntity
  8
AM_0
 48
0.5
100
AcDbLine
 10
0.0000000000000568
 20
0.0000000000001562
 30
0.0
 11
-0.7147573352033661
 21
1.963779655178941
 31
0.0
  0
ELLIPSE
  5
2697
330
1F
100
AcDbEntity
  8
AM_0
 48
0.5
100
AcDbEllipse
 10
7.7087907024254
 20
-6.738406538684396
 30
0.0
 11
-9.706495919543957
 21
0.0000000000014037
 31
0.0
210
0.0
220
0.0
230
1.0
 40
0.989999999999997
 41
-0.5199833380394914
 42
-0.1823047399519406
  0
LINE
  5
2698
330
1F
100
AcDbEntity
  8
AM_0
 48
0.5
100
AcDbLine
 10
-1.836855649391155
 20
-4.996239280637393
 30
0.0
 11
-1.999999999999963
 21
-6.050000528757163
 31
0.0
  0
LINE
  5
2699
330
1F
100
AcDbEntity
  8
AM_0
 48
0.5
100
AcDbLine
 10
0.0000000000000568
 20
0.0000000000001562
 30
0.0
 11
-0.7147729829006514
 21
-1.963810107397188
 31
0.0
  0
LINE
  5
2CB4
330
1F
100
AcDbEntity
  8
AM_0
 48
0.5
100
AcDbLine
 10
-168.9999999999999
 20
5.999999999999882
 30
0.0
 11
-168.4999999999999
 21
6.499999999999882
 31
0.0
1001
GENIUS_GENFIL_13
1070
     0
1040
0.5
1040
0.5
1040
20.0
1040
0.0
1002
{
1002
}
1001
GENIUS_GENODEF_13
1002
{
1000
HIER
1070
     0
1002
}
1002
{
1000
MANEDIT
1070
     0
1002
}
1002
{
1000
NOSEL
1070
     0
1002
}
1002
{
1000
BEHIND
1070
     0
1002
}
1002
{
1000
REACTOR
1002
}
1001
GENIUS_GENOBJ-N-CHA_13
1002
{
1000
OWNER
1000
GEN
1002
}
  0
LINE
  5
2CB7
330
1F
100
AcDbEntity
  8
AM_0
 48
0.5
100
AcDbLine
 10
-168.4999999999999
 20
-6.500002054480947
 30
0.0
 11
-168.9999999999999
 21
-6.000002054480947
 31
0.0
1001
GENIUS_GENFIL_13
1070
     0
1040
0.5
1040
0.5
1040
20.0
1040
0.0
1002
{
1002
}
1001
GENIUS_GENODEF_13
1002
{
1000
HIER
1070
     0
1002
}
1002
{
1000
MANEDIT
1070
     0
1002
}
1002
{
1000
NOSEL
1070
     0
1002
}
1002
{
1000
BEHIND
1070
     0
1002
}
1002
{
1000
REACTOR
1002
}
1001
GENIUS_GENOBJ-N-CHA_13
1002
{
1000
OWNER
1000
GEN
1002
}
  0
DIMENSION
  5
3063
330
1F
100
AcDbEntity
  8
AM_5
100
AcDbDimension
  2
*D9
 10
-0.7147729829006514
 20
-1.963810107397188
 30
0.0
 11
31.09548430023849
 21
-0.0000319068863401
 31
0.0
 70
    34
  1
<>
 51
359.9999999999998
  3
AM_JIS$2
100
AcDb2LineAngularDimension
 13
0.0000000000000568
 23
0.0000000000001562
 33
0.0
 14
-0.7147573352033661
 24
1.963779655178941
 34
0.0
 15
0.0000000000000568
 25
0.0000000000001562
 35
0.0
 16
31.39883518996211
 26
-13.54416092796338
 36
0.0
1001
GENIUS_GENDTOL_13
1000

1000
h7
1000

1040
0.0
1001
ACAD
1000
DSTYLE
1002
{
1070
   271
1070
     0
1002
}
  0
ELLIPSE
  5
318A
330
1F
100
AcDbEntity
  8
AM_11
 48
0.5
100
AcDbEllipse
 10
3.07402385364188
 20
25.83926089152773
 30
0.0
 11
-28.85782559712738
 21
0.000000000027036
 31
0.0
210
0.0
220
0.0
230
1.0
 40
0.9899999999999861
 41
1.130070686341231
 42
1.291800737381917
  0
ELLIPSE
  5
318B
330
1F
100
AcDbEntity
  8
AM_11
 48
0.5
100
AcDbEllipse
 10
-21.54718826757083
 20
-25.83924271717537
 30
0.0
 11
-28.85782559712684
 21
0.0000000000018472
 31
0.0
210
0.0
220
0.0
230
1.0
 40
0.9900000000000011
 41
4.271664206181739
 42
5.153113667165048
  0
ELLIPSE
  5
318C
330
1F
100
AcDbEntity
  8
AM_11
 48
0.5
100
AcDbEllipse
 10
-21.54718826757026
 20
25.83926089152801
 30
0.0
 11
-28.85782559712688
 21
0.000000000001168
 31
0.0
210
0.0
220
0.0
230
1.0
 40
0.9899999999999995
 41
1.130070686340335
 42
2.011520147323624
  0
ELLIPSE
  5
318D
330
1F
100
AcDbEntity
  8
AM_11
 48
0.5
100
AcDbEllipse
 10
-46.16840038878294
 20
-25.83924271717512
 30
0.0
 11
-28.85782559712679
 21
0.0000000000015781
 31
0.0
210
0.0
220
0.0
230
1.0
 40
0.9900000000000032
 41
4.271664206181728
 42
5.153113667165039
  0
ELLIPSE
  5
318E
330
1F
100
AcDbEntity
  8
AM_11
 48
0.5
100
AcDbEllipse
 10
-46.16840038878239
 20
25.83926089152827
 30
0.0
 11
-28.85782559712687
 21
0.0000000000003542
 31
0.0
210
0.0
220
0.0
230
1.0
 40
0.9900000000000002
 41
1.130070686340306
 42
2.011520147323597
  0
ELLIPSE
  5
318F
330
1F
100
AcDbEntity
  8
AM_11
 48
0.5
100
AcDbEllipse
 10
-95.41076943049674
 20
-25.83924271717545
 30
0.0
 11
-28.85782559712679
 21
0.0000000000015781
 31
0.0
210
0.0
220
0.0
230
1.0
 40
0.9900000000000032
 41
4.271664206181728
 42
5.153113667165039
  0
ELLIPSE
  5
3190
330
1F
100
AcDbEntity
  8
AM_11
 48
0.5
100
AcDbEllipse
 10
-95.41076943049617
 20
25.83926089152794
 30
0.0
 11
-28.85782559712687
 21
0.0000000000003542
 31
0.0
210
0.0
220
0.0
230
1.0
 40
0.9900000000000002
 41
1.130070686340306
 42
2.011520147323597
  0
ELLIPSE
  5
3191
330
1F
100
AcDbEntity
  8
AM_11
 48
0.5
100
AcDbEllipse
 10
-70.78955730928405
 20
25.83926089152768
 30
0.0
 11
-28.85782559712688
 21
0.000000000001168
 31
0.0
210
0.0
220
0.0
230
1.0
 40
0.9899999999999995
 41
1.130070686340335
 42
2.011520147323624
  0
ELLIPSE
  5
3192
330
1F
100
AcDbEntity
  8
AM_11
 48
0.5
100
AcDbEllipse
 10
-70.78955730928462
 20
-25.83924271717569
 30
0.0
 11
-28.85782559712684
 21
0.0000000000018472
 31
0.0
210
0.0
220
0.0
230
1.0
 40
0.9900000000000011
 41
4.271664206181739
 42
5.153113667165048
  0
ELLIPSE
  5
3193
330
1F
100
AcDbEntity
  8
AM_11
 48
0.5
100
AcDbEllipse
 10
-144.6531384722112
 20
-25.83924271717528
 30
0.0
 11
-28.85782559712679
 21
0.0000000000015781
 31
0.0
210
0.0
220
0.0
230
1.0
 40
0.9900000000000032
 41
4.271664206181728
 42
5.153113667165039
  0
ELLIPSE
  5
3194
330
1F
100
AcDbEntity
  8
AM_11
 48
0.5
100
AcDbEllipse
 10
-144.6531384722106
 20
25.83926089152811
 30
0.0
 11
-28.85782559712687
 21
0.0000000000003542
 31
0.0
210
0.0
220
0.0
230
1.0
 40
0.9900000000000002
 41
1.130070686340306
 42
2.011520147323597
  0
ELLIPSE
  5
3195
330
1F
100
AcDbEntity
  8
AM_11
 48
0.5
100
AcDbEllipse
 10
-120.0319263509985
 20
25.83926089152785
 30
0.0
 11
-28.85782559712688
 21
0.000000000001168
 31
0.0
210
0.0
220
0.0
230
1.0
 40
0.9899999999999995
 41
1.130070686340335
 42
2.011520147323624
  0
ELLIPSE
  5
3196
330
1F
100
AcDbEntity
  8
AM_11
 48
0.5
100
AcDbEllipse
 10
-120.0319263509991
 20
-25.83924271717553
 30
0.0
 11
-28.85782559712684
 21
0.0000000000018472
 31
0.0
210
0.0
220
0.0
230
1.0
 40
0.9900000000000011
 41
4.271664206181739
 42
5.153113667165048
  0
ELLIPSE
  5
3199
330
1F
100
AcDbEntity
  8
AM_11
 48
0.5
100
AcDbEllipse
 10
-169.2742953927124
 20
25.83926089152772
 30
0.0
 11
-28.85782559712688
 21
0.000000000001168
 31
0.0
210
0.0
220
0.0
230
1.0
 40
0.9899999999999995
 41
1.580301530928017
 42
2.011520147323624
  0
ELLIPSE
  5
319A
330
1F
100
AcDbEntity
  8
AM_11
 48
0.5
100
AcDbEllipse
 10
-169.274295392713
 20
-25.83924271717565
 30
0.0
 11
-28.85782559712684
 21
0.0000000000018472
 31
0.0
210
0.0
220
0.0
230
1.0
 40
0.9900000000000011
 41
4.271664206181739
 42
4.702883776251653
  0
VIEWPORT
  5
110
330
101
100
AcDbEntity
 67
     1
  8
0
100
AcDbViewport
 10
420.5
 20
297.0
 30
0.0
 40
948.9782706766916
 41
628.452
 68
     1
 69
     1
1001
ACAD
1000
MVIEW
1002
{
1070
    16
1010
0.0
1020
0.0
1030
0.0
1010
0.0
1020
0.0
1030
1.0
1040
0.0
1040
628.452
1040
420.5
1040
297.0
1040
50.0
1040
0.0
1040
0.0
1070
     0
1070
   100
1070
     1
1070
     1
1070
     0
1070
     0
1070
     0
1070
     0
1040
0.0
1040
0.0
1040
0.0
1040
10.0
1040
10.0
1040
10.0
1040
10.0
1070
     0
1002
{
1002
}
1002
}
  0
ENDSEC
  0
SECTION
  2
OBJECTS
  0
DICTIONARY
  5
C
330
0
100
AcDbDictionary
  3
ACAD_GROUP
350
D
  3
ACAD_LAYOUT
350
1A
  3
ACAD_MLINESTYLE
350
17
  3
ACAD_PLOTSETTINGS
350
19
  3
ACAD_PLOTSTYLENAME
350
E
  3
ACDBVARIABLEDICTIONARY
350
34
  3
ACMDICTIONARY
350
43
  3
AMG
350
2B
  3
AMGSNAPSETTINGS
350
6E
  3
DWGPROPS
350
31B6
  3
ACDBHEADERROUNDTRIPXREC
350
31C3
  0
DICTIONARY
  5
74
330
1F
100
AcDbDictionary
280
     1
  3
ACAD_INDEX
360
31B8
  3
ACAD_LAYOUTSELFREF
360
31E6
  0
DICTIONARY
  5
31EB
330
101
100
AcDbDictionary
280
     1
  3
ACAD_LAYOUTSELFREF
360
31EC
  0
DICTIONARY
  5
D
102
{ACAD_REACTORS
330
C
102
}
330
C
100
AcDbDictionary
  0
DICTIONARY
  5
1A
102
{ACAD_REACTORS
330
C
102
}
330
C
100
AcDbDictionary
  0
DICTIONARY
  5
17
102
{ACAD_REACTORS
330
C
102
}
330
C
100
AcDbDictionary
  3
STANDARD
350
18
  0
DICTIONARY
  5
19
102
{ACAD_REACTORS
330
C
102
}
330
C
100
AcDbDictionary
  0
ACDBDICTIONARYWDFLT
  5
E
102
{ACAD_REACTORS
330
C
102
}
330
C
100
AcDbDictionary
281
     1
  3
Normal
350
F
100
AcDbDictionaryWithDefault
340
F
  0
DICTIONARY
  5
34
102
{ACAD_REACTORS
330
C
102
}
330
C
100
AcDbDictionary
  3
INDEXCTL
350
35
  3
SORTENTS
350
B5E
  0
DICTIONARY
  5
43
102
{ACAD_REACTORS
330
C
102
}
330
C
100
AcDbDictionary
  3
ACMSTDDICTIONARY
350
260
  0
DICTIONARY
  5
2B
102
{ACAD_REACTORS
330
C
102
}
330
C
100
AcDbDictionary
  3
ACMGSETTINGS
350
2C
  0
DICTIONARY
  5
6E
102
{ACAD_REACTORS
330
C
102
}
330
C
100
AcDbDictionary
  0
XRECORD
  5
31B6
102
{ACAD_REACTORS
330
C
102
}
330
C
100
AcDbXrecord
  1
DWGPROPS COOKIE
  2

  3

  4

  6

  7

  8

  9

300
AmdtFileType=82
301
=
302
=
303
=
304
=
305
=
306
=
307
=
308
=
309
=
 40
0.0611612152777778
 41
2452800.443498622
 42
2452948.65761537
  1

 90
        1
  0
DICTIONARY
  5
31C3
102
{ACAD_REACTORS
330
C
102
}
330
C
100
AcDbDictionary
  3
TSTACKALIGN
350
31C4
  3
TSTACKSIZE
350
31C5
  3
HYPERLINKBASE
350
31C6
  3
STYLESHEET
350
31C7
  3
LAYOUTDICT
350
31C8
  3
PLOTSETDICT
350
31C9
  3
PLOTSTYLNAMDICT
350
31CA
  3
LWETCUNION
350
31CB
  3
INSUNITS
350
31CC
  3
CEPSNTYPE
350
31CD
  3
FINGERPRINTGUID
350
31CE
  3
VERSIONGUID
350
31CF
  3
PSVPSCALE
350
31D0
  3
DIMSTYLEDATA
350
31D1
  3
PUCSORTHOREF
350
31D2
  3
PUCSORTHOVIEW
350
31D3
  3
PUCSBASE
350
31D4
  3
PUCSORGTOP
350
31D5
  3
PUCSORGBOTTOM
350
31D6
  3
PUCSORGLEFT
350
31D7
  3
PUCSORGRIGHT
350
31D8
  3
PUCSORGFRONT
350
31D9
  3
PUCSORGBACK
350
31DA
  3
UCSORTHOREF
350
31DB
  3
UCSORTHOVIEW
350
31DC
  3
UCSBASE
350
31DD
  3
UCSORGTOP
350
31DE
  3
UCSORGBOTTOM
350
31DF
  3
UCSORGLEFT
350
31E0
  3
UCSORGRIGHT
350
31E1
  3
UCSORGFRONT
350
31E2
  3
UCSORGBACK
350
31E3
  0
DICTIONARY
  5
31B8
102
{ACAD_REACTORS
330
74
102
}
330
74
100
AcDbDictionary
  3
*A1
350
31B9
  0
XRECORD
  5
31E6
102
{ACAD_REACTORS
330
74
102
}
330
74
100
AcDbXrecord
340
1F
  0
XRECORD
  5
31EC
102
{ACAD_REACTORS
330
31EB
102
}
330
31EB
100
AcDbXrecord
340
101
  0
MLINESTYLE
  5
18
102
{ACAD_REACTORS
330
17
102
}
330
17
100
AcDbMlineStyle
  2
STANDARD
 70
     0
  3

 62
   256
 51
90.0
 52
90.0
 71
     2
 49
0.5
 62
   256
  6
BYLAYER
 49
-0.5
 62
   256
  6
BYLAYER
  0
ACDBPLACEHOLDER
  5
F
102
{ACAD_REACTORS
330
E
102
}
330
E
100
AcDbPlaceHolder
280
     0
  0
DICTIONARYVAR
  5
35
102
{ACAD_REACTORS
330
34
102
}
330
34
100
DictionaryVariables
280
     0
  1
1
  0
DICTIONARYVAR
  5
B5E
102
{ACAD_REACTORS
330
34
102
}
330
34
100
DictionaryVariables
280
     0
  1
96
  0
DICTIONARY
  5
260
102
{ACAD_REACTORS
330
43
102
}
330
43
100
AcDbDictionary
  0
DICTIONARY
  5
2C
102
{ACAD_REACTORS
330
2B
102
}
330
2B
100
AcDbDictionary
  3
DWGSETTINGS
350
2D
  0
XRECORD
  5
31C4
102
{ACAD_REACTORS
330
31C3
102
}
330
31C3
100
AcDbXrecord
 90
        1
  0
XRECORD
  5
31C5
102
{ACAD_REACTORS
330
31C3
102
}
330
31C3
100
AcDbXrecord
 90
       70
  0
XRECORD
  5
31C6
102
{ACAD_REACTORS
330
31C3
102
}
330
31C3
100
AcDbXrecord
  1

  0
XRECORD
  5
31C7
102
{ACAD_REACTORS
330
31C3
102
}
330
31C3
100
AcDbXrecord
  1
ASAMI.ctb
  0
XRECORD
  5
31C8
102
{ACAD_REACTORS
330
31C3
102
}
330
31C3
100
AcDbXrecord
340
1A
  0
XRECORD
  5
31C9
102
{ACAD_REACTORS
330
31C3
102
}
330
31C3
100
AcDbXrecord
340
19
  0
XRECORD
  5
31CA
102
{ACAD_REACTORS
330
31C3
102
}
330
31C3
100
AcDbXrecord
340
E
  0
XRECORD
  5
31CB
102
{ACAD_REACTORS
330
31C3
102
}
330
31C3
100
AcDbXrecord
 90
    10781
  0
XRECORD
  5
31CC
102
{ACAD_REACTORS
330
31C3
102
}
330
31C3
100
AcDbXrecord
 90
        4
  0
XRECORD
  5
31CD
102
{ACAD_REACTORS
330
31C3
102
}
330
31C3
100
AcDbXrecord
 90
        0
  0
XRECORD
  5
31CE
102
{ACAD_REACTORS
330
31C3
102
}
330
31C3
100
AcDbXrecord
  1
{AFB28963-8C59-40AE-9337-C84526B81ACE}
  0
XRECORD
  5
31CF
102
{ACAD_REACTORS
330
31C3
102
}
330
31C3
100
AcDbXrecord
  1
{B5FB847A-9347-4A0E-9E5B-BD07A5B61415}
  0
XRECORD
  5
31D0
102
{ACAD_REACTORS
330
31C3
102
}
330
31C3
100
AcDbXrecord
 40
0.0
  0
XRECORD
  5
31D1
102
{ACAD_REACTORS
330
31C3
102
}
330
31C3
100
AcDbXrecord
1000
DSTYLE
1002
{
1070
    79
 70
     2
1070
   341
340
59
1070
   342
340
59
1070
   371
 70
    -1
1070
   372
 70
    -1
1002
}
  0
XRECORD
  5
31D2
102
{ACAD_REACTORS
330
31C3
102
}
330
31C3
100
AcDbXrecord
340
0
  0
XRECORD
  5
31D3
102
{ACAD_REACTORS
330
31C3
102
}
330
31C3
100
AcDbXrecord
 70
     0
  0
XRECORD
  5
31D4
102
{ACAD_REACTORS
330
31C3
102
}
330
31C3
100
AcDbXrecord
340
0
  0
XRECORD
  5
31D5
102
{ACAD_REACTORS
330
31C3
102
}
330
31C3
100
AcDbXrecord
 10
0.0
 20
0.0
 30
0.0
  0
XRECORD
  5
31D6
102
{ACAD_REACTORS
330
31C3
102
}
330
31C3
100
AcDbXrecord
 10
0.0
 20
0.0
 30
0.0
  0
XRECORD
  5
31D7
102
{ACAD_REACTORS
330
31C3
102
}
330
31C3
100
AcDbXrecord
 10
0.0
 20
0.0
 30
0.0
  0
XRECORD
  5
31D8
102
{ACAD_REACTORS
330
31C3
102
}
330
31C3
100
AcDbXrecord
 10
0.0
 20
0.0
 30
0.0
  0
XRECORD
  5
31D9
102
{ACAD_REACTORS
330
31C3
102
}
330
31C3
100
AcDbXrecord
 10
0.0
 20
0.0
 30
0.0
  0
XRECORD
  5
31DA
102
{ACAD_REACTORS
330
31C3
102
}
330
31C3
100
AcDbXrecord
 10
0.0
 20
0.0
 30
0.0
  0
XRECORD
  5
31DB
102
{ACAD_REACTORS
330
31C3
102
}
330
31C3
100
AcDbXrecord
340
0
  0
XRECORD
  5
31DC
102
{ACAD_REACTORS
330
31C3
102
}
330
31C3
100
AcDbXrecord
 70
     0
  0
XRECORD
  5
31DD
102
{ACAD_REACTORS
330
31C3
102
}
330
31C3
100
AcDbXrecord
340
0
  0
XRECORD
  5
31DE
102
{ACAD_REACTORS
330
31C3
102
}
330
31C3
100
AcDbXrecord
 10
0.0
 20
0.0
 30
0.0
  0
XRECORD
  5
31DF
102
{ACAD_REACTORS
330
31C3
102
}
330
31C3
100
AcDbXrecord
 10
0.0
 20
0.0
 30
0.0
  0
XRECORD
  5
31E0
102
{ACAD_REACTORS
330
31C3
102
}
330
31C3
100
AcDbXrecord
 10
0.0
 20
0.0
 30
0.0
  0
XRECORD
  5
31E1
102
{ACAD_REACTORS
330
31C3
102
}
330
31C3
100
AcDbXrecord
 10
0.0
 20
0.0
 30
0.0
  0
XRECORD
  5
31E2
102
{ACAD_REACTORS
330
31C3
102
}
330
31C3
100
AcDbXrecord
 10
0.0
 20
0.0
 30
0.0
  0
XRECORD
  5
31E3
102
{ACAD_REACTORS
330
31C3
102
}
330
31C3
100
AcDbXrecord
 10
0.0
 20
0.0
 30
0.0
  0
LAYER_INDEX
  5
31B9
102
{ACAD_REACTORS
330
31B8
102
}
330
31B8
100
AcDbIndex
 40
2453151.665389166
100
AcDbLayerIndex
  8
0
360
31BA
 90
        0
  8
AM_0
360
31BB
 90
       53
  8
AM_7
360
31BC
 90
        1
  8
AM_11
360
31BD
 90
       21
  8
AM_5
360
31BE
 90
        5
  8
Defpoints
360
31BF
 90
        0
  8
AM_6
360
31C0
 90
        1
  8
AM_CL
360
31C1
 90
        0
  0
XRECORD
  5
2D
102
{ACAD_REACTORS
330
2C
102
}
330
2C
100
AcDbXrecord
  1
VERSION
140
15.0
  1
PRODUCT
  2
AutoCAD Mechanical 2000
  0
IDBUFFER
  5
31BA
330
0
100
AcDbIdBuffer
  0
IDBUFFER
  5
31BB
330
0
100
AcDbIdBuffer
330
2697
330
2698
330
2699
330
2CB4
330
2CB7
330
1E25
330
1E26
330
1FC5
330
1FC6
330
1FC8
330
1FCA
330
1FD2
330
1FD5
330
1FD6
330
1FD9
330
1FDA
330
1FDB
330
1FDC
330
1FDD
330
1FE0
330
1FE1
330
1FE2
330
1FE3
330
1FE4
330
1FE5
330
1FE6
330
1FE7
330
1FE8
330
1FE9
330
1FEA
330
1FEB
330
1FEC
330
1FED
330
1FEE
330
1FEF
330
1FF0
330
1FF1
330
1FF2
330
1FF3
330
1FF4
330
1FF5
330
1FF6
330
1FF7
330
1FF8
330
1FF9
330
21D7
330
21D8
330
21D9
330
21DC
330
21DD
330
2694
330
2695
330
2696
  0
IDBUFFER
  5
31BC
330
0
100
AcDbIdBuffer
330
C9F
  0
IDBUFFER
  5
31BD
330
0
100
AcDbIdBuffer
330
3194
330
3195
330
3196
330
3199
330
319A
330
1FCC
330
1FCD
330
1FCE
330
1FCF
330
1FD3
330
1FD4
330
318A
330
318B
330
318C
330
318D
330
318E
330
318F
330
3190
330
3191
330
3192
330
3193
  0
IDBUFFER
  5
31BE
330
0
100
AcDbIdBuffer
330
CC6
330
DF5
330
1FB6
330
2216
330
3063
  0
IDBUFFER
  5
31BF
330
0
100
AcDbIdBuffer
  0
IDBUFFER
  5
31C0
330
0
100
AcDbIdBuffer
330
19BD
  0
IDBUFFER
  5
31C1
330
0
100
AcDbIdBuffer
  0
ENDSEC
  0
EOF
