  0
SECTION
  2
HEADER
  9
$ACADVER
  1
AC1014
  9
$ACADMAINTVER
 70
     9
  9
$DWGCODEPAGE
  3
ANSI_932
  9
$INSBASE
 10
0.0
 20
0.0
 30
0.0
  9
$EXTMIN
 10
-142.150001
 20
-29.75000099999956
 30
-0.00000001
  9
$EXTMAX
 10
14.61785916258744
 20
14.25878909803277
 30
0.00000001
  9
$LIMMIN
 10
-156.1444050923396
 20
-44.51020785580943
  9
$LIMMAX
 10
20.31336096277607
 20
28.16015358894219
  9
$ORTHOMODE
 70
     0
  9
$REGENMODE
 70
     1
  9
$FILLMODE
 70
     1
  9
$QTEXTMODE
 70
     0
  9
$MIRRTEXT
 70
     0
  9
$DRAGMODE
 70
     2
  9
$LTSCALE
 40
1.0
  9
$OSMODE
 70
    55
  9
$ATTMODE
 70
     1
  9
$TEXTSIZE
 40
2.5
  9
$TRACEWID
 40
1.0
  9
$TEXTSTYLE
  7
STANDARD
  9
$CLAYER
  8
AM_0
  9
$CELTYPE
  6
BYLAYER
  9
$CECOLOR
 62
   256
  9
$CELTSCALE
 40
1.0
  9
$DELOBJ
 70
     1
  9
$DISPSILH
 70
     0
  9
$DIMSCALE
 40
0.5
  9
$DIMASZ
 40
2.5
  9
$DIMEXO
 40
1.0
  9
$DIMDLI
 40
12.0
  9
$DIMRND
 40
0.0
  9
$DIMDLE
 40
0.0
  9
$DIMEXE
 40
1.0
  9
$DIMTP
 40
0.1
  9
$DIMTM
 40
0.1
  9
$DIMTXT
 40
3.2
  9
$DIMCEN
 40
0.0
  9
$DIMTSZ
 40
0.0
  9
$DIMTOL
 70
     0
  9
$DIMLIM
 70
     0
  9
$DIMTIH
 70
     0
  9
$DIMTOH
 70
     0
  9
$DIMSE1
 70
     0
  9
$DIMSE2
 70
     0
  9
$DIMTAD
 70
     3
  9
$DIMZIN
 70
     8
  9
$DIMBLK
  1
OPEN30
  9
$DIMASO
 70
     1
  9
$DIMSHO
 70
     1
  9
$DIMPOST
  1

  9
$DIMAPOST
  1
"
  9
$DIMALT
 70
     0
  9
$DIMALTD
 70
     2
  9
$DIMALTF
 40
0.0393701
  9
$DIMLFAC
 40
1.0
  9
$DIMTOFL
 70
     1
  9
$DIMTVP
 40
0.0
  9
$DIMTIX
 70
     0
  9
$DIMSOXD
 70
     0
  9
$DIMSAH
 70
     0
  9
$DIMBLK1
  1

  9
$DIMBLK2
  1

  9
$DIMSTYLE
  2
AM_JIS
  9
$DIMCLRD
 70
   256
  9
$DIMCLRE
 70
   256
  9
$DIMCLRT
 70
     2
  9
$DIMTFAC
 40
0.71
  9
$DIMGAP
 40
1.5
  9
$DIMJUST
 70
     0
  9
$DIMSD1
 70
     0
  9
$DIMSD2
 70
     0
  9
$DIMTOLJ
 70
     0
  9
$DIMTZIN
 70
     0
  9
$DIMALTZ
 70
     0
  9
$DIMALTTZ
 70
     0
  9
$DIMFIT
 70
     3
  9
$DIMUPT
 70
     0
  9
$DIMUNIT
 70
     2
  9
$DIMDEC
 70
     3
  9
$DIMTDEC
 70
     3
  9
$DIMALTU
 70
     2
  9
$DIMALTTD
 70
     2
  9
$DIMTXSTY
  7
ASAMI
  9
$DIMAUNIT
 70
     0
  9
$LUNITS
 70
     2
  9
$LUPREC
 70
     2
  9
$SKETCHINC
 40
1.0
  9
$FILLETRAD
 40
2.5
  9
$AUNITS
 70
     0
  9
$AUPREC
 70
     0
  9
$MENU
  1
.
  9
$ELEVATION
 40
0.0
  9
$PELEVATION
 40
0.0
  9
$THICKNESS
 40
0.0
  9
$LIMCHECK
 70
     0
  9
$BLIPMODE
 70
     0
  9
$CHAMFERA
 40
0.5
  9
$CHAMFERB
 40
0.5
  9
$CHAMFERC
 40
20.0
  9
$CHAMFERD
 40
0.0
  9
$SKPOLY
 70
     0
  9
$TDCREATE
 40
2452800.443498622
  9
$TDUPDATE
 40
2453151.562719710
  9
$TDINDWG
 40
0.0779401620
  9
$TDUSRTIMER
 40
0.0779401620
  9
$USRTIMER
 70
     1
  9
$ANGBASE
 50
0.0
  9
$ANGDIR
 70
     0
  9
$PDMODE
 70
     0
  9
$PDSIZE
 40
0.0
  9
$PLINEWID
 40
0.0
  9
$COORDS
 70
     1
  9
$SPLFRAME
 70
     0
  9
$SPLINETYPE
 70
     6
  9
$SPLINESEGS
 70
     8
  9
$ATTDIA
 70
     1
  9
$ATTREQ
 70
     1
  9
$HANDLING
 70
 12289
  9
$HANDSEED
  5
3A17
  9
$SURFTAB1
 70
     6
  9
$SURFTAB2
 70
     6
  9
$SURFTYPE
 70
     6
  9
$SURFU
 70
     6
  9
$SURFV
 70
     6
  9
$UCSNAME
  2

  9
$UCSORG
 10
0.0
 20
0.0
 30
0.0
  9
$UCSXDIR
 10
1.0
 20
0.0000000000000027
 30
0.0
  9
$UCSYDIR
 10
-0.0000000000000027
 20
1.0
 30
0.0
  9
$PUCSNAME
  2

  9
$PUCSORG
 10
0.0
 20
0.0
 30
0.0
  9
$PUCSXDIR
 10
1.0
 20
0.0
 30
0.0
  9
$PUCSYDIR
 10
0.0
 20
1.0
 30
0.0
  9
$USERI1
 70
     0
  9
$USERI2
 70
     0
  9
$USERI3
 70
     0
  9
$USERI4
 70
     0
  9
$USERI5
 70
     0
  9
$USERR1
 40
0.0
  9
$USERR2
 40
0.0
  9
$USERR3
 40
0.0
  9
$USERR4
 40
0.0
  9
$USERR5
 40
0.0
  9
$WORLDVIEW
 70
     1
  9
$SHADEDGE
 70
     3
  9
$SHADEDIF
 70
    70
  9
$TILEMODE
 70
     1
  9
$MAXACTVP
 70
    64
  9
$PINSBASE
 10
0.0
 20
0.0
 30
0.0
  9
$PLIMCHECK
 70
     0
  9
$PEXTMIN
 10
1.000000000000000E+20
 20
1.000000000000000E+20
 30
1.000000000000000E+20
  9
$PEXTMAX
 10
-1.000000000000000E+20
 20
-1.000000000000000E+20
 30
-1.000000000000000E+20
  9
$PLIMMIN
 10
0.0
 20
0.0
  9
$PLIMMAX
 10
841.0
 20
594.0
  9
$UNITMODE
 70
     0
  9
$VISRETAIN
 70
     1
  9
$PLINEGEN
 70
     0
  9
$PSLTSCALE
 70
     0
  9
$TREEDEPTH
 70
  3020
  9
$PICKSTYLE
 70
     0
  9
$CMLSTYLE
  2
STANDARD
  9
$CMLJUST
 70
     0
  9
$CMLSCALE
 40
20.0
  9
$PROXYGRAPHICS
 70
     1
  9
$MEASUREMENT
 70
     1
  0
ENDSEC
  0
SECTION
  2
CLASSES
  0
CLASS
  1
ACDBDICTIONARYWDFLT
  2
AcDbDictionaryWithDefault
  3
AutoCAD 2000
 90
        0
280
     0
281
     0
  0
CLASS
  1
ACDBPLACEHOLDER
  2
AcDbPlaceHolder
  3
AutoCAD 2000
 90
        0
280
     0
281
     0
  0
CLASS
  1
LAYOUT
  2
AcDbLayout
  3
AutoCAD 2000
 90
        0
280
     0
281
     0
  0
CLASS
  1
AMGSETTINGSOBJ
  2
AmgSettingsObj
  3
"AcadM|Product Description: AutoCAD Mechanical 2000|Company: Autodesk"
 90
        0
280
     0
281
     0
  0
CLASS
  1
ACME_DOCUMENT
  2
AcMeDbDoc
  3
AcMeServices
 90
        0
280
     0
281
     0
  0
CLASS
  1
ACMESCOPE
  2
AcMeScope
  3
AcMeServices
 90
        0
280
     0
281
     0
  0
CLASS
  1
ACMECOMMANDHISTORY
  2
AcMeCommandHistory
  3
AcMeServices
 90
        0
280
     0
281
     0
  0
CLASS
  1
DICTIONARYVAR
  2
AcDbDictionaryVar
  3
AutoCAD 2000
 90
        0
280
     0
281
     0
  0
CLASS
  1
ACIMSYSVARMAN
  2
AcImSysVarManager
  3
AcMeServices
 90
        0
280
     0
281
     0
  0
CLASS
  1
ACIMREALSYSVAR
  2
AcImRealSysVar
  3
AcMeServices
 90
        0
280
     0
281
     0
  0
CLASS
  1
ACIMINTSYSVAR
  2
AcImIntSysVar
  3
AcMeServices
 90
        0
280
     0
281
     0
  0
CLASS
  1
ACMEDRAWINGMAN
  2
AcMeDrawingMan
  3
AcMeServices
 90
        0
280
     0
281
     0
  0
CLASS
  1
ACMEVIEW
  2
AcMeView
  3
AcMeServices
 90
        0
280
     0
281
     0
  0
CLASS
  1
ACDBENTITYCACHE
  2
AcMeEntityCache
  3
AcMeServices
 90
        0
280
     0
281
     0
  0
CLASS
  1
GSMANAGER
  2
AcMeGSManager
  3
AcMeServices
 90
        0
280
     0
281
     0
  0
CLASS
  1
AmdtInternalReactor
  2
AmdtInternalReactor
  3
AcMeServices
 90
        0
280
     0
281
     0
  0
CLASS
  1
ACMESTATEMGR
  2
AcMeStateMgr
  3
AcMeServices
 90
        0
280
     0
281
     0
  0
CLASS
  1
ACME_DATABASE
  2
AcMeDbDatabase
  3
AcMeServices
 90
        0
280
     0
281
     0
  0
CLASS
  1
ACRFINSADJUSTERMGR
  2
AcRfInsAdjusterMgr
  3
AcMeServices
 90
        0
280
     0
281
     0
  0
CLASS
  1
ACMDATADICTIONARY
  2
AcmDataDictionary
  3
"AcmSymBB|Product Description: AutoCAD Mechanical 2000|Company: Autodesk"
 90
        0
280
     0
281
     0
  0
CLASS
  1
ACMDATAENTRYBLOCK
  2
AcmDataEntryBlock
  3
"AcmSymBB|Product Description: AutoCAD Mechanical 2000|Company: Autodesk"
 90
        0
280
     0
281
     0
  0
CLASS
  1
AMGOBJPROPCFG
  2
AmgObjPropCfg
  3
"AmgLay|Product Description: AutoCAD Mechanical 2000|Company: Autodesk"
 90
        1
280
     0
281
     0
  0
CLASS
  1
ACAMGFILTERDAT
  2
AcAmgFilterDat
  3
"AcadM|Product Description: AutoCAD Mechanical 2000|Company: Autodesk"
 90
        0
280
     0
281
     0
  0
CLASS
  1
LAYER_INDEX
  2
AcDbLayerIndex
  3
AutoCAD 2000
 90
        0
280
     0
281
     0
  0
CLASS
  1
IDBUFFER
  2
AcDbIdBuffer
  3
AutoCAD 2000
 90
        0
280
     0
281
     0
  0
CLASS
  1
ACIMSTRSYSVAR
  2
AcImStrSysVar
  3
AcMeServices
 90
        0
280
     0
281
     0
  0
CLASS
  1
ACMSTANDARDJIS
  2
AcmStandardJIS
  3
"AcmSymBB|Product Description: AutoCAD Mechanical 2000|Company: Autodesk"
 90
        0
280
     0
281
     0
  0
CLASS
  1
ACMSURFSTANDARDJIS
  2
AcmSurfTextStdJIS
  3
"AcmSymBB|Product Description: AutoCAD Mechanical 2000|Company: Autodesk"
 90
        0
280
     0
281
     0
  0
CLASS
  1
ACMFCFSTANDARDJIS
  2
AcmFCFStdJIS
  3
"AcmSymBB|Product Description: AutoCAD Mechanical 2000|Company: Autodesk"
 90
        0
280
     0
281
     0
  0
CLASS
  1
ACMWELDSTANDARDJIS
  2
AcmWeldingStdJIS
  3
"AcmSymBB|Product Description: AutoCAD Mechanical 2000|Company: Autodesk"
 90
        0
280
     0
281
     0
  0
CLASS
  1
ACMIDSTANDARDJIS
  2
AcmIdStdJIS
  3
"AcmSymBB|Product Description: AutoCAD Mechanical 2000|Company: Autodesk"
 90
        0
280
     0
281
     0
  0
CLASS
  1
ACMDATUMSTANDARDJIS
  2
AcmDatumStdJIS
  3
"AcmSymBB|Product Description: AutoCAD Mechanical 2000|Company: Autodesk"
 90
        0
280
     0
281
     0
  0
CLASS
  1
ACMBOMSTANDARDJIS
  2
AcmBOMStdJIS
  3
"AcmSymBB|Product Description: AutoCAD Mechanical 2000|Company: Autodesk"
 90
        0
280
     0
281
     0
  0
CLASS
  1
ACMSTANDARDANSI
  2
AcmStandardANSI
  3
"AcmSymBB|Product Description: AutoCAD Mechanical 2000|Company: Autodesk"
 90
        0
280
     0
281
     0
  0
CLASS
  1
ACMSURFSTANDARDANSI
  2
AcmSurfTextStdANSI
  3
"AcmSymBB|Product Description: AutoCAD Mechanical 2000|Company: Autodesk"
 90
        0
280
     0
281
     0
  0
CLASS
  1
ACMFCFSTANDARDANSI
  2
AcmFCFStdANSI
  3
"AcmSymBB|Product Description: AutoCAD Mechanical 2000|Company: Autodesk"
 90
        0
280
     0
281
     0
  0
CLASS
  1
ACMWELDSTANDARDANSI
  2
AcmWeldingStdANSI
  3
"AcmSymBB|Product Description: AutoCAD Mechanical 2000|Company: Autodesk"
 90
        0
280
     0
281
     0
  0
CLASS
  1
ACMIDSTANDARDANSI
  2
AcmIdStdANSI
  3
"AcmSymBB|Product Description: AutoCAD Mechanical 2000|Company: Autodesk"
 90
        0
280
     0
281
     0
  0
CLASS
  1
ACMDATUMSTANDARDANSI
  2
AcmDatumStdANSI
  3
"AcmSymBB|Product Description: AutoCAD Mechanical 2000|Company: Autodesk"
 90
        0
280
     0
281
     0
  0
CLASS
  1
ACMBOMSTANDARDANSI
  2
AcmBOMStdANSI
  3
"AcmSymBB|Product Description: AutoCAD Mechanical 2000|Company: Autodesk"
 90
        0
280
     0
281
     0
  0
CLASS
  1
ACMSTANDARDBSI
  2
AcmStandardBSI
  3
"AcmSymBB|Product Description: AutoCAD Mechanical 2000|Company: Autodesk"
 90
        0
280
     0
281
     0
  0
CLASS
  1
ACMSURFSTANDARDBSI
  2
AcmSurfTextStdBSI
  3
"AcmSymBB|Product Description: AutoCAD Mechanical 2000|Company: Autodesk"
 90
        0
280
     0
281
     0
  0
CLASS
  1
ACMFCFSTANDARDBSI
  2
AcmFCFStdBSI
  3
"AcmSymBB|Product Description: AutoCAD Mechanical 2000|Company: Autodesk"
 90
        0
280
     0
281
     0
  0
CLASS
  1
ACMWELDSTANDARDBSI
  2
AcmWeldingStdBSI
  3
"AcmSymBB|Product Description: AutoCAD Mechanical 2000|Company: Autodesk"
 90
        0
280
     0
281
     0
  0
CLASS
  1
ACMIDSTANDARDBSI
  2
AcmIdStdBSI
  3
"AcmSymBB|Product Description: AutoCAD Mechanical 2000|Company: Autodesk"
 90
        0
280
     0
281
     0
  0
CLASS
  1
ACMDATUMSTANDARDBSI
  2
AcmDatumStdBSI
  3
"AcmSymBB|Product Description: AutoCAD Mechanical 2000|Company: Autodesk"
 90
        0
280
     0
281
     0
  0
CLASS
  1
ACMBOMSTANDARDBSI
  2
AcmBOMStdBSI
  3
"AcmSymBB|Product Description: AutoCAD Mechanical 2000|Company: Autodesk"
 90
        0
280
     0
281
     0
  0
CLASS
  1
LONG_TRANSACTION
  2
AcDbLongTransaction
  3
AutoCAD 2000
 90
        0
280
     0
281
     0
  0
CLASS
  1
LWPOLYLINE
  2
AcDbPolyline
  3
AutoCAD 2000
 90
        0
280
     0
281
     1
  0
CLASS
  1
HATCH
  2
AcDbHatch
  3
AutoCAD 2000
 90
        0
280
     0
281
     1
  0
CLASS
  1
XRECORD
  2
AcDbXrecord
  3
AutoCAD 2000
 90
        0
280
     0
281
     0
  0
ENDSEC
  0
SECTION
  2
TABLES
  0
TABLE
  2
VPORT
  5
8
330
0
100
AcDbSymbolTable
 70
     3
  0
VPORT
  5
39E1
330
8
100
AcDbSymbolTableRecord
100
AcDbViewportTableRecord
  2
*ACTIVE
 70
     0
 10
0.0
 20
0.0
 11
1.0
 21
1.0
 12
-60.83495062604507
 22
-7.745343048636854
 13
0.0
 23
0.0
 14
2.5
 24
2.5
 15
10.0
 25
10.0
 16
0.0
 26
0.0
 36
1.0
 17
0.0
 27
0.0
 37
0.0
 40
104.417078354252
 41
1.56570841889117
 42
50.0
 43
0.0
 44
0.0
 50
0.0
 51
0.0
 71
     0
 72
   100
 73
     1
 74
     1
 75
     0
 76
     0
 77
     0
 78
     0
  0
ENDTAB
  0
TABLE
  2
LTYPE
  5
5
330
0
100
AcDbSymbolTable
 70
    10
  0
LTYPE
  5
14
330
5
100
AcDbSymbolTableRecord
100
AcDbLinetypeTableRecord
  2
BYBLOCK
 70
     0
  3

 72
    65
 73
     0
 40
0.0
  0
LTYPE
  5
15
330
5
100
AcDbSymbolTableRecord
100
AcDbLinetypeTableRecord
  2
BYLAYER
 70
     0
  3

 72
    65
 73
     0
 40
0.0
  0
LTYPE
  5
16
330
5
100
AcDbSymbolTableRecord
100
AcDbLinetypeTableRecord
  2
CONTINUOUS
 70
     0
  3
Solid line
 72
    65
 73
     0
 40
0.0
  0
LTYPE
  5
4B
330
5
100
AcDbSymbolTableRecord
100
AcDbLinetypeTableRecord
  2
AM_ISO02W050
 70
     0
  3
__ __ __ __ __ __ __ __ __ __ __ __ __ __ __
 72
    65
 73
     2
 40
7.5
 49
6.0
 74
     0
 49
-1.5
 74
     0
  0
LTYPE
  5
4C
330
5
100
AcDbSymbolTableRecord
100
AcDbLinetypeTableRecord
  2
AM_ISO08W050
 70
     0
  3
____ . ____ . ____ . ____ . ____ . ____ . ____
 72
    65
 73
     4
 40
18.0
 49
12.0
 74
     0
 49
-1.5
 74
     0
 49
3.0
 74
     0
 49
-1.5
 74
     0
  0
LTYPE
  5
4D
330
5
100
AcDbSymbolTableRecord
100
AcDbLinetypeTableRecord
  2
AM_ISO09W050
 70
     0
  3
_____ . . _____ . . _____ . . ____ .. ____
 72
    65
 73
     6
 40
22.5
 49
12.0
 74
     0
 49
-1.5
 74
     0
 49
3.0
 74
     0
 49
-1.5
 74
     0
 49
3.0
 74
     0
 49
-1.5
 74
     0
  0
LTYPE
  5
4E
330
5
100
AcDbSymbolTableRecord
100
AcDbLinetypeTableRecord
  2
AMCONSTR
 70
     0
  3
_______________________
 72
    65
 73
     2
 40
9999.0
 49
9999.0
 74
     0
 49
0.0
 74
     0
  0
LTYPE
  5
4F
330
5
100
AcDbSymbolTableRecord
100
AcDbLinetypeTableRecord
  2
AM_ISO02W050X2
 70
     0
  3
 _ _ _ _ _ _ _ _ _ _ _ _
 72
    65
 73
     2
 40
3.75
 49
3.0
 74
     0
 49
-0.75
 74
     0
  0
LTYPE
  5
50
330
5
100
AcDbSymbolTableRecord
100
AcDbLinetypeTableRecord
  2
AM_ISO08W050X2
 70
     0
  3
__ . __ . __ . __ . __ . __
 72
    65
 73
     4
 40
9.0
 49
6.0
 74
     0
 49
-0.75
 74
     0
 49
1.5
 74
     0
 49
-0.75
 74
     0
  0
LTYPE
  5
53
330
5
100
AcDbSymbolTableRecord
100
AcDbLinetypeTableRecord
  2
AMZIGZAG
 70
     0
  3
/\/-/\/-/\/-/\/-/\/-/\/
 72
    65
 73
     2
 40
11.00009999999999
 49
0.0001
 74
     4
 75
   135
340
52
 46
0.04
 50
0.0
 44
0.0
 45
0.0
 49
-11.0
 74
     0
  0
LTYPE
  5
166
330
5
100
AcDbSymbolTableRecord
100
AcDbLinetypeTableRecord
  2
ACJISTGL
 70
     0
  3
_ _ _ _ _
 72
    65
 73
     2
 40
3.0
 49
2.0
 74
     0
 49
-1.0
 74
     0
  0
LTYPE
  5
26A
330
5
100
AcDbSymbolTableRecord
100
AcDbLinetypeTableRecord
  2
ACJISTGB
 70
     0
  3
__ . . __ . .
 72
    65
 73
     6
 40
9.0
 49
4.0
 74
     0
 49
-1.0
 74
     0
 49
1.0
 74
     0
 49
-1.0
 74
     0
 49
1.0
 74
     0
 49
-1.0
 74
     0
  0
ENDTAB
  0
TABLE
  2
LAYER
  5
2
330
0
100
AcDbSymbolTable
 70
     8
  0
LAYER
  5
10
330
2
100
AcDbSymbolTableRecord
100
AcDbLayerTableRecord
  2
0
 70
     0
 62
     7
  6
CONTINUOUS
  0
LAYER
  5
3F9
330
2
100
AcDbSymbolTableRecord
100
AcDbLayerTableRecord
  2
AM_0
 70
     0
 62
     7
  6
CONTINUOUS
  0
LAYER
  5
C7C
330
2
100
AcDbSymbolTableRecord
100
AcDbLayerTableRecord
  2
AM_7
 70
     0
 62
     4
  6
AM_ISO08W050
  0
LAYER
  5
C97
330
2
100
AcDbSymbolTableRecord
100
AcDbLayerTableRecord
  2
AM_11
 70
     0
 62
     3
  6
AM_ISO09W050
  0
LAYER
  5
CC5
330
2
100
AcDbSymbolTableRecord
100
AcDbLayerTableRecord
  2
AM_5
 70
     0
 62
     3
  6
CONTINUOUS
  0
LAYER
  5
CC7
330
2
100
AcDbSymbolTableRecord
100
AcDbLayerTableRecord
  2
DEFPOINTS
 70
     0
 62
     7
  6
CONTINUOUS
  0
LAYER
  5
19BC
330
2
100
AcDbSymbolTableRecord
100
AcDbLayerTableRecord
  2
AM_6
 70
     0
 62
     2
  6
CONTINUOUS
  0
LAYER
  5
397D
330
2
100
AcDbSymbolTableRecord
100
AcDbLayerTableRecord
  2
AM_CL
 70
     0
 62
     1
  6
AMCONSTR
  0
ENDTAB
  0
TABLE
  2
STYLE
  5
3
330
0
100
AcDbSymbolTable
 70
     5
  0
STYLE
  5
11
330
3
100
AcDbSymbolTableRecord
100
AcDbTextStyleTableRecord
  2
STANDARD
 70
     0
 40
0.0
 41
1.0
 50
0.0
 71
     0
 42
2.5
  3
simplex.shx
  4
EXTFONT.SHX
  0
STYLE
  5
52
330
3
100
AcDbSymbolTableRecord
100
AcDbTextStyleTableRecord
  2

 70
     1
 40
0.0
 41
1.0
 50
0.0
 71
     0
 42
2.5
  3
ltypeshp.shx
  4

  0
STYLE
  5
6B
330
3
100
AcDbSymbolTableRecord
100
AcDbTextStyleTableRecord
  2
ASAMI
 70
     0
 40
0.0
 41
1.0
 50
0.0
 71
     0
 42
2.5
  3
simplex.shx
  4
EXTFONT.SHX
  0
STYLE
  5
262
330
3
100
AcDbSymbolTableRecord
100
AcDbTextStyleTableRecord
  2
ACJISTS
 70
     0
 40
1.0
 41
1.0
 50
0.0
 71
     0
 42
2.5
  3
simplex.shx
  4
bigfont.shx
  0
STYLE
  5
269
330
3
100
AcDbSymbolTableRecord
100
AcDbTextStyleTableRecord
  2
ACJISGDT
 70
     0
 40
0.0
 41
1.0
 50
0.0
 71
     0
 42
2.5
  3
amgdtans.shx
  4

  0
ENDTAB
  0
TABLE
  2
VIEW
  5
6
330
0
100
AcDbSymbolTable
 70
     0
  0
ENDTAB
  0
TABLE
  2
UCS
  5
7
330
0
100
AcDbSymbolTable
 70
     0
  0
ENDTAB
  0
TABLE
  2
APPID
  5
9
330
0
100
AcDbSymbolTable
 70
    16
  0
APPID
  5
12
330
9
100
AcDbSymbolTableRecord
100
AcDbRegAppTableRecord
  2
ACAD
 70
     0
  0
APPID
  5
30
330
9
100
AcDbSymbolTableRecord
100
AcDbRegAppTableRecord
  2
MCAD_NO_VIS
 70
     0
  0
APPID
  5
31
330
9
100
AcDbSymbolTableRecord
100
AcDbRegAppTableRecord
  2
ACAD_TEMP_GRAPHIC
 70
     0
  0
APPID
  5
2C2
330
9
100
AcDbSymbolTableRecord
100
AcDbRegAppTableRecord
  2
GENIUS_GENDTOL_13
 70
     0
  0
APPID
  5
339
330
9
100
AcDbSymbolTableRecord
100
AcDbRegAppTableRecord
  2
GENIUS_GENODEF_13
 70
     0
  0
APPID
  5
33A
330
9
100
AcDbSymbolTableRecord
100
AcDbRegAppTableRecord
  2
GENIUS_GENOBJ-N-RSBK_13
 70
     0
  0
APPID
  5
33B
330
9
100
AcDbSymbolTableRecord
100
AcDbRegAppTableRecord
  2
GENIUS_GENOBJ-N-LIB_13
 70
     0
  0
APPID
  5
33C
330
9
100
AcDbSymbolTableRecord
100
AcDbRegAppTableRecord
  2
GENIUS_GENSCALE_13
 70
     0
  0
APPID
  5
378
330
9
100
AcDbSymbolTableRecord
100
AcDbRegAppTableRecord
  2
GENIUS_GENDIMSH_14
 70
     0
  0
APPID
  5
C82
330
9
100
AcDbSymbolTableRecord
100
AcDbRegAppTableRecord
  2
GENIUS_GENOBJ-N-CRS_13
 70
     0
  0
APPID
  5
C83
330
9
100
AcDbSymbolTableRecord
100
AcDbRegAppTableRecord
  2
GENIUS_GENOENT_13
 70
     0
  0
APPID
  5
C84
330
9
100
AcDbSymbolTableRecord
100
AcDbRegAppTableRecord
  2
GENIUS_GENOREF_13
 70
     0
  0
APPID
  5
C85
330
9
100
AcDbSymbolTableRecord
100
AcDbRegAppTableRecord
  2
GENIUS_GENOLIS_13
 70
     0
  0
APPID
  5
CA0
330
9
100
AcDbSymbolTableRecord
100
AcDbRegAppTableRecord
  2
GENIUS_GENOBJ-N-CEN_13
 70
     0
  0
APPID
  5
2796
330
9
100
AcDbSymbolTableRecord
100
AcDbRegAppTableRecord
  2
GENIUS_GENFIL_13
 70
     0
  0
APPID
  5
2797
330
9
100
AcDbSymbolTableRecord
100
AcDbRegAppTableRecord
  2
GENIUS_GENOBJ-N-CHA_13
 70
     0
  0
ENDTAB
  0
TABLE
  2
DIMSTYLE
  5
A
330
0
100
AcDbSymbolTable
 70
     9
  0
DIMSTYLE
105
58
330
A
100
AcDbSymbolTableRecord
100
AcDbDimStyleTableRecord
  2
AM_JIS
 70
     0
  3

  4
"
  5
OPEN30
  6

  7

 40
0.5
 41
2.5
 42
1.0
 43
12.0
 44
1.0
 45
0.0
 46
0.0
 47
0.1
 48
0.1
140
3.2
141
0.0
142
0.0
143
0.0393701
144
1.0
145
0.0
146
0.71
147
1.5
 71
     0
 72
     0
 73
     0
 74
     0
 75
     0
 76
     0
 77
     3
 78
     8
170
     0
171
     2
172
     1
173
     0
174
     0
175
     0
176
   256
177
   256
178
     2
270
     2
271
     3
272
     3
273
     2
274
     2
340
6B
275
     0
280
     0
281
     0
282
     0
283
     0
284
     0
285
     0
286
     0
287
     3
288
     0
  0
DIMSTYLE
105
5F
330
A
100
AcDbSymbolTableRecord
100
AcDbDimStyleTableRecord
  2
AM_JIS$3
 70
     0
  3

  4
"
  5
OPEN30
  6

  7

 40
0.5
 41
2.5
 42
1.0
 43
10.0
 44
1.0
 45
0.0
 46
0.0
 47
0.1
 48
0.1
140
3.2
141
0.0
142
0.0
143
0.0393701
144
1.0
145
0.0
146
0.71
147
1.5
 71
     0
 72
     0
 73
     0
 74
     1
 75
     0
 76
     0
 77
     3
 78
     8
170
     0
171
     2
172
     0
173
     0
174
     0
175
     0
176
   256
177
   256
178
     2
270
     2
271
     2
272
     3
273
     2
274
     2
340
6B
275
     0
280
     0
281
     0
282
     0
283
     0
284
     0
285
     0
286
     0
287
     0
288
     1
  0
DIMSTYLE
105
60
330
A
100
AcDbSymbolTableRecord
100
AcDbDimStyleTableRecord
  2
AM_JIS$4
 70
     0
  3

  4
"
  5
OPEN30
  6

  7

 40
0.5
 41
2.5
 42
1.0
 43
10.0
 44
1.0
 45
0.0
 46
0.0
 47
0.1
 48
0.1
140
3.2
141
0.0
142
0.0
143
0.0393701
144
1.0
145
0.0
146
0.71
147
1.5
 71
     0
 72
     0
 73
     0
 74
     1
 75
     0
 76
     0
 77
     3
 78
     8
170
     0
171
     2
172
     0
173
     0
174
     0
175
     0
176
   256
177
   256
178
     2
270
     2
271
     2
272
     3
273
     2
274
     2
340
6B
275
     0
280
     0
281
     0
282
     0
283
     0
284
     0
285
     0
286
     0
287
     0
288
     1
  0
DIMSTYLE
105
61
330
A
100
AcDbSymbolTableRecord
100
AcDbDimStyleTableRecord
  2
AM_JIS$6
 70
     0
  3

  4
"
  5
OPEN30
  6

  7

 40
0.5
 41
2.5
 42
1.0
 43
10.0
 44
1.0
 45
0.0
 46
0.0
 47
0.1
 48
0.1
140
3.2
141
0.0
142
0.0
143
0.0393701
144
1.0
145
0.0
146
0.71
147
1.5
 71
     0
 72
     0
 73
     0
 74
     0
 75
     0
 76
     0
 77
     0
 78
     8
170
     0
171
     2
172
     1
173
     0
174
     0
175
     0
176
   256
177
   256
178
     2
270
     2
271
     2
272
     2
273
     2
274
     2
340
6B
275
     0
280
     0
281
     0
282
     0
283
     0
284
     0
285
     0
286
     0
287
     3
288
     0
  0
DIMSTYLE
105
62
330
A
100
AcDbSymbolTableRecord
100
AcDbDimStyleTableRecord
  2
AM_JIS$7
 70
     0
  3

  4
"
  5
OPEN30
  6

  7

 40
0.5
 41
2.5
 42
1.0
 43
10.0
 44
1.0
 45
0.0
 46
0.0
 47
0.1
 48
0.1
140
3.2
141
0.0
142
0.0
143
0.0393701
144
1.0
145
0.0
146
0.71
147
1.5
 71
     0
 72
     0
 73
     0
 74
     0
 75
     0
 76
     0
 77
     3
 78
     8
170
     0
171
     2
172
     1
173
     0
174
     0
175
     0
176
   256
177
   256
178
     2
270
     2
271
     2
272
     3
273
     2
274
     2
340
6B
275
     0
280
     0
281
     0
282
     0
283
     0
284
     0
285
     0
286
     0
287
     3
288
     0
  0
DIMSTYLE
105
63
330
A
100
AcDbSymbolTableRecord
100
AcDbDimStyleTableRecord
  2
AM_JIS$SF
 70
     0
  3

  4
"
  5
OPEN30
  6

  7

 40
0.5
 41
2.5
 42
1.0
 43
10.0
 44
1.0
 45
0.0
 46
0.0
 47
0.1
 48
0.1
140
3.2
141
0.0
142
0.0
143
0.0393701
144
1.0
145
0.0
146
0.71
147
1.5
 71
     0
 72
     0
 73
     0
 74
     0
 75
     1
 76
     1
 77
     3
 78
     8
170
     0
171
     2
172
     1
173
     0
174
     0
175
     0
176
   256
177
   256
178
     2
270
     2
271
     2
272
     2
273
     2
274
     2
340
6B
275
     0
280
     0
281
     0
282
     0
283
     0
284
     0
285
     0
286
     0
287
     3
288
     0
  0
DIMSTYLE
105
68
330
A
100
AcDbSymbolTableRecord
100
AcDbDimStyleTableRecord
  2
AM_JIS$SH
 70
     0
  3

  4
"
  5

  6
GENAXEH
  7
OPEN30
 40
0.5
 41
2.5
 42
1.0
 43
10.0
 44
1.0
 45
0.0
 46
0.0
 47
0.1
 48
0.1
140
3.2
141
0.0
142
0.0
143
0.0393701
144
2.0
145
0.0
146
0.71
147
1.5
 71
     0
 72
     0
 73
     0
 74
     0
 75
     1
 76
     1
 77
     3
 78
     8
170
     0
171
     2
172
     1
173
     1
174
     0
175
     0
176
   256
177
   256
178
     2
270
     2
271
     2
272
     2
273
     2
274
     2
340
6B
275
     0
280
     0
281
     0
282
     0
283
     0
284
     0
285
     0
286
     0
287
     3
288
     0
  0
DIMSTYLE
105
B34
102
{ACAD_REACTORS
330
3725
102
}
330
A
100
AcDbSymbolTableRecord
100
AcDbDimStyleTableRecord
  2
AM_JIS$2
 70
     0
  3

  4
"
  5
OPEN30
  6

  7

 40
0.5
 41
2.5
 42
1.0
 43
12.0
 44
1.0
 45
0.0
 46
0.0
 47
0.1
 48
0.1
140
3.2
141
0.0
142
0.0
143
0.0393701
144
1.0
145
0.0
146
0.71
147
1.5
 71
     0
 72
     0
 73
     0
 74
     0
 75
     0
 76
     0
 77
     3
 78
     8
170
     0
171
     2
172
     1
173
     0
174
     0
175
     0
176
   256
177
   256
178
     2
270
     2
271
     3
272
     3
273
     2
274
     2
340
6B
275
     0
280
     0
281
     0
282
     0
283
     0
284
     0
285
     0
286
     0
287
     3
288
     0
  0
DIMSTYLE
105
BA5
102
{ACAD_REACTORS
330
CC6
330
2069
330
2D60
330
324F
102
}
330
A
100
AcDbSymbolTableRecord
100
AcDbDimStyleTableRecord
  2
AM_JIS$0
 70
     0
  3

  4
"
  5
OPEN30
  6

  7

 40
0.5
 41
2.5
 42
0.0
 43
10.0
 44
1.0
 45
0.0
 46
0.0
 47
0.1
 48
0.1000000001
140
3.799999999999999
141
0.0
142
0.0
143
0.0393701
144
1.0
145
0.0
146
0.71
147
1.5
 71
     0
 72
     0
 73
     0
 74
     0
 75
     0
 76
     0
 77
     3
 78
     1
170
     0
171
     2
172
     1
173
     0
174
     0
175
     0
176
     3
177
     3
178
     2
270
     2
271
     2
272
     2
273
     2
274
     2
340
11
275
     1
280
     0
281
     0
282
     0
283
     0
284
     8
285
     0
286
     0
287
     0
288
     0
  0
ENDTAB
  0
TABLE
  2
BLOCK_RECORD
  5
1
330
0
100
AcDbSymbolTable
 70
    10
  0
BLOCK_RECORD
  5
1F
102
{ACAD_XDICTIONARY
360
74
102
}
330
1
100
AcDbSymbolTableRecord
100
AcDbBlockTableRecord
  2
*MODEL_SPACE
  0
BLOCK_RECORD
  5
101
102
{ACAD_XDICTIONARY
360
3A0A
102
}
330
1
100
AcDbSymbolTableRecord
100
AcDbBlockTableRecord
  2
*PAPER_SPACE
  0
BLOCK_RECORD
  5
59
330
1
100
AcDbSymbolTableRecord
100
AcDbBlockTableRecord
  2
_OPEN30
  0
BLOCK_RECORD
  5
64
330
1
100
AcDbSymbolTableRecord
100
AcDbBlockTableRecord
  2
GENAXEH
  0
BLOCK_RECORD
  5
CC8
330
1
100
AcDbSymbolTableRecord
100
AcDbBlockTableRecord
  2
*D5
  0
BLOCK_RECORD
  5
206A
330
1
100
AcDbSymbolTableRecord
100
AcDbBlockTableRecord
  2
*D6
  0
BLOCK_RECORD
  5
2D61
330
1
100
AcDbSymbolTableRecord
100
AcDbBlockTableRecord
  2
*D7
  0
BLOCK_RECORD
  5
3250
330
1
100
AcDbSymbolTableRecord
100
AcDbBlockTableRecord
  2
*D8
  0
BLOCK_RECORD
  5
3726
330
1
100
AcDbSymbolTableRecord
100
AcDbBlockTableRecord
  2
*D9
  0
ENDTAB
  0
ENDSEC
  0
SECTION
  2
BLOCKS
  0
BLOCK
  5
20
330
1F
100
AcDbEntity
  8
0
100
AcDbBlockBegin
  2
*MODEL_SPACE
 70
     0
 10
0.0
 20
0.0
 30
0.0
  3
*MODEL_SPACE
  1

  0
ENDBLK
  5
21
330
1F
100
AcDbEntity
  8
0
100
AcDbBlockEnd
  0
BLOCK
  5
103
330
101
100
AcDbEntity
 67
     1
  8
0
100
AcDbBlockBegin
  2
*PAPER_SPACE
 70
     0
 10
0.0
 20
0.0
 30
0.0
  3
*PAPER_SPACE
  1

  0
ENDBLK
  5
104
330
101
100
AcDbEntity
 67
     1
  8
0
100
AcDbBlockEnd
  0
BLOCK
  5
5D
330
59
100
AcDbEntity
  8
0
100
AcDbBlockBegin
  2
_OPEN30
 70
     0
 10
0.0
 20
0.0
 30
0.0
  3
_OPEN30
  1

  0
LINE
  5
5A
330
59
100
AcDbEntity
  8
0
 62
     0
100
AcDbLine
 10
-1.0
 20
0.26794919
 30
0.0
 11
0.0
 21
0.0
 31
0.0
  0
LINE
  5
5B
330
59
100
AcDbEntity
  8
0
 62
     0
100
AcDbLine
 10
0.0
 20
0.0
 30
0.0
 11
-1.0
 21
-0.26794919
 31
0.0
  0
LINE
  5
5C
330
59
100
AcDbEntity
  8
0
 62
     0
100
AcDbLine
 10
0.0
 20
0.0
 30
0.0
 11
-1.0
 21
0.0
 31
0.0
  0
ENDBLK
  5
5E
330
59
100
AcDbEntity
  8
0
100
AcDbBlockEnd
  0
BLOCK
  5
66
330
64
100
AcDbEntity
  8
0
100
AcDbBlockBegin
  2
GENAXEH
 70
     0
 10
0.0
 20
0.0
 30
0.0
  3
GENAXEH
  1

  0
LINE
  5
65
330
64
100
AcDbEntity
  8
0
100
AcDbLine
 10
-1.0
 20
0.0
 30
0.0
 11
1.0
 21
0.0
 31
0.0
  0
ENDBLK
  5
67
330
64
100
AcDbEntity
  8
0
100
AcDbBlockEnd
  0
BLOCK
  5
CD2
330
CC8
100
AcDbEntity
  8
0
100
AcDbBlockBegin
  2
*D5
 70
     1
 10
0.0
 20
0.0
 30
0.0
  3
*D5
  1

  0
LINE
  5
398C
330
CC8
100
AcDbEntity
  8
AM_5
 62
     3
100
AcDbLine
 10
-130.0
 20
-5.999999999999388
 30
0.0
 11
-130.0
 21
-19.00000099999953
 31
0.0
  0
LINE
  5
398D
330
CC8
100
AcDbEntity
  8
AM_5
 62
     3
100
AcDbLine
 10
-2.000000000000158
 20
-6.099999999999996
 30
0.0
 11
-2.000000000000159
 21
-19.00000099999953
 31
0.0
  0
LINE
  5
398E
330
CC8
100
AcDbEntity
  8
AM_5
 62
     3
100
AcDbLine
 10
-128.75
 20
-18.50000099999953
 30
0.0
 11
-3.250000000000159
 21
-18.50000099999953
 31
0.0
  0
INSERT
  5
398F
330
CC8
100
AcDbEntity
  8
AM_5
 62
     3
100
AcDbBlockReference
  2
_OPEN30
 10
-130.0
 20
-18.50000099999953
 30
0.0
 41
1.25
 42
1.25
 43
1.25
 50
180.0
  0
INSERT
  5
3990
330
CC8
100
AcDbEntity
  8
AM_5
 62
     3
100
AcDbBlockReference
  2
_OPEN30
 10
-2.000000000000159
 20
-18.50000099999953
 30
0.0
 41
1.25
 42
1.25
 43
1.25
  0
MTEXT
  5
3991
330
CC8
100
AcDbEntity
  8
AM_5
 62
     2
100
AcDbMText
 10
-66.0000000000001
 20
-16.80000099999953
 30
0.0
 40
1.9
 41
0.0
 71
     5
 72
     1
  1
128
1001
ACAD
1000
MTEXTBEGIN
1070
    73
1070
     1
1070
    44
1040
1.0
1070
    74
1070
     0
1000
MTEXTEND
  0
POINT
  5
3992
330
CC8
100
AcDbEntity
  8
DEFPOINTS
 62
     0
100
AcDbPoint
 10
-130.0
 20
-5.999999999999388
 30
0.0
  0
POINT
  5
3993
330
CC8
100
AcDbEntity
  8
DEFPOINTS
 62
     0
100
AcDbPoint
 10
-2.000000000000158
 20
-6.099999999999996
 30
0.0
  0
POINT
  5
3994
330
CC8
100
AcDbEntity
  8
DEFPOINTS
 62
     0
100
AcDbPoint
 10
-2.000000000000159
 20
-18.50000099999953
 30
0.0
  0
ENDBLK
  5
CD3
330
CC8
100
AcDbEntity
  8
0
100
AcDbBlockEnd
  0
BLOCK
  5
2074
330
206A
100
AcDbEntity
  8
0
100
AcDbBlockBegin
  2
*D6
 70
     1
 10
0.0
 20
0.0
 30
0.0
  3
*D6
  1

  0
LINE
  5
39A9
330
206A
100
AcDbEntity
  8
AM_5
 62
     3
100
AcDbLine
 10
-66.99999999999961
 20
-6.499999999999652
 30
0.0
 11
-66.99999999999959
 21
-14.00000099999968
 31
0.0
  0
LINE
  5
39AA
330
206A
100
AcDbEntity
  8
AM_5
 62
     3
100
AcDbLine
 10
-2.000000000000141
 20
-6.100000000000002
 30
0.0
 11
-2.000000000000118
 21
-14.00000099999949
 31
0.0
  0
LINE
  5
39AB
330
206A
100
AcDbEntity
  8
AM_5
 62
     3
100
AcDbLine
 10
-65.74999999999959
 20
-13.50000099999968
 30
0.0
 11
-3.25000000000012
 21
-13.50000099999949
 31
0.0
  0
INSERT
  5
39AC
330
206A
100
AcDbEntity
  8
AM_5
 62
     3
100
AcDbBlockReference
  2
_OPEN30
 10
-66.99999999999959
 20
-13.50000099999968
 30
0.0
 41
1.25
 42
1.25
 43
1.25
 50
180.0000000000001
  0
INSERT
  5
39AD
330
206A
100
AcDbEntity
  8
AM_5
 62
     3
100
AcDbBlockReference
  2
_OPEN30
 10
-2.00000000000012
 20
-13.50000099999949
 30
0.0
 41
1.25
 42
1.25
 43
1.25
 50
0.0000000000001527
  0
MTEXT
  5
39AE
330
206A
100
AcDbEntity
  8
AM_5
 62
     2
100
AcDbMText
 10
-34.49999999999985
 20
-11.80000099999959
 30
0.0
 40
1.9
 41
0.0
 71
     5
 72
     1
  1
65
1001
ACAD
1000
MTEXTBEGIN
1070
    73
1070
     1
1070
    44
1040
1.0
1070
    74
1070
     0
1000
MTEXTEND
  0
POINT
  5
39AF
330
206A
100
AcDbEntity
  8
DEFPOINTS
 62
     0
100
AcDbPoint
 10
-66.99999999999963
 20
-6.499999999999458
 30
0.0
  0
POINT
  5
39B0
330
206A
100
AcDbEntity
  8
DEFPOINTS
 62
     0
100
AcDbPoint
 10
-2.000000000000158
 20
-6.099999999999996
 30
0.0
  0
POINT
  5
39B1
330
206A
100
AcDbEntity
  8
DEFPOINTS
 62
     0
100
AcDbPoint
 10
-2.000000000000159
 20
-13.50000099999949
 30
0.0
  0
ENDBLK
  5
2075
330
206A
100
AcDbEntity
  8
0
100
AcDbBlockEnd
  0
BLOCK
  5
2D6B
330
2D61
100
AcDbEntity
  8
0
100
AcDbBlockBegin
  2
*D7
 70
     1
 10
0.0
 20
0.0
 30
0.0
  3
*D7
  1

  0
LINE
  5
39B2
330
2D61
100
AcDbEntity
  8
AM_5
 62
     3
100
AcDbLine
 10
-1.999999999999998
 20
6.099999999999959
 30
0.0
 11
9.819922442923274
 21
6.099958510231075
 31
0.0
  0
LINE
  5
39B3
330
2D61
100
AcDbEntity
  8
AM_5
 62
     3
100
AcDbLine
 10
-2.000000000000141
 20
-6.100000000000002
 30
0.0
 11
9.819879619022964
 21
-6.100041489618568
 31
0.0
  0
LINE
  5
39B4
330
2D61
100
AcDbEntity
  8
AM_5
 62
     3
100
AcDbLine
 10
9.319918055231651
 20
4.849960265316657
 30
0.0
 11
9.319884006720748
 21
-4.850039734548387
 31
0.0
  0
INSERT
  5
39B5
330
2D61
100
AcDbEntity
  8
AM_5
 62
     3
100
AcDbBlockReference
  2
_OPEN30
 10
9.319922442926355
 20
6.099960265308957
 30
0.0
 41
1.25
 42
1.25
 43
1.25
 50
89.99979888288931
  0
INSERT
  5
39B6
330
2D61
100
AcDbEntity
  8
AM_5
 62
     3
100
AcDbBlockReference
  2
_OPEN30
 10
9.319879619026044
 20
-6.100039734540686
 30
0.0
 41
1.25
 42
1.25
 43
1.25
 50
269.9997988828893
  0
MTEXT
  5
39B7
330
2D61
100
AcDbEntity
  8
AM_5
 62
     2
100
AcDbMText
 10
7.619901030986673
 20
-0.0000337673510675
 30
0.0
 40
1.9
 41
0.0
 71
     5
 72
     1
  1
%%c12.2
 11
0.0000035101557632
 21
0.9999999999938395
 31
0.0
1001
ACAD
1000
MTEXTBEGIN
1070
    73
1070
     1
1070
    44
1040
1.0
1070
    74
1070
     0
1000
MTEXTEND
  0
POINT
  5
39B8
330
2D61
100
AcDbEntity
  8
DEFPOINTS
 62
     0
100
AcDbPoint
 10
-1.99999999999998
 20
6.099999999999966
 30
0.0
  0
POINT
  5
39B9
330
2D61
100
AcDbEntity
  8
DEFPOINTS
 62
     0
100
AcDbPoint
 10
-2.000000000000159
 20
-6.099999999999997
 30
0.0
  0
POINT
  5
39BA
330
2D61
100
AcDbEntity
  8
DEFPOINTS
 62
     0
100
AcDbPoint
 10
9.319879619026028
 20
-6.100039734540714
 30
0.0
  0
ENDBLK
  5
2D6C
330
2D61
100
AcDbEntity
  8
0
100
AcDbBlockEnd
  0
BLOCK
  5
325A
330
3250
100
AcDbEntity
  8
0
100
AcDbBlockBegin
  2
*D8
 70
     1
 10
0.0
 20
0.0
 30
0.0
  3
*D8
  1

  0
LINE
  5
3995
330
3250
100
AcDbEntity
  8
AM_5
 62
     3
100
AcDbLine
 10
-129.4999999999999
 20
-6.499999999999993
 30
0.0
 11
-140.000001
 21
-6.500000000000039
 31
0.0
  0
LINE
  5
3996
330
3250
100
AcDbEntity
  8
AM_5
 62
     3
100
AcDbLine
 10
-129.5
 20
6.500000000000001
 30
0.0
 11
-140.0000010000001
 21
6.499999999999955
 31
0.0
  0
LINE
  5
3997
330
3250
100
AcDbEntity
  8
AM_5
 62
     3
100
AcDbLine
 10
-139.500001
 20
-5.250000000000037
 30
0.0
 11
-139.500001
 21
5.249999999999957
 31
0.0
  0
INSERT
  5
3998
330
3250
100
AcDbEntity
  8
AM_5
 62
     3
100
AcDbBlockReference
  2
_OPEN30
 10
-139.500001
 20
-6.500000000000037
 30
0.0
 41
1.25
 42
1.25
 43
1.25
 50
270.0000000000002
  0
INSERT
  5
3999
330
3250
100
AcDbEntity
  8
AM_5
 62
     3
100
AcDbBlockReference
  2
_OPEN30
 10
-139.500001
 20
6.499999999999957
 30
0.0
 41
1.25
 42
1.25
 43
1.25
 50
90.00000000000026
  0
MTEXT
  5
399A
330
3250
100
AcDbEntity
  8
AM_5
 62
     2
100
AcDbMText
 10
-141.200001
 20
0.0000129000658996
 30
0.0
 40
1.9
 41
0.0
 71
     5
 72
     1
  1
%%c13
 11
-0.0000000000000046
 21
1.0
 31
0.0
1001
ACAD
1000
MTEXTBEGIN
1070
    73
1070
     1
1070
    44
1040
1.0
1070
    74
1070
     0
1000
MTEXTEND
  0
POINT
  5
399B
330
3250
100
AcDbEntity
  8
DEFPOINTS
 62
     0
100
AcDbPoint
 10
-129.5
 20
-6.499999999999389
 30
0.0
  0
POINT
  5
399C
330
3250
100
AcDbEntity
  8
DEFPOINTS
 62
     0
100
AcDbPoint
 10
-129.4999999999999
 20
6.500000000000604
 30
0.0
  0
POINT
  5
399D
330
3250
100
AcDbEntity
  8
DEFPOINTS
 62
     0
100
AcDbPoint
 10
-139.500001
 20
6.500000000000608
 30
0.0
  0
ENDBLK
  5
325B
330
3250
100
AcDbEntity
  8
0
100
AcDbBlockEnd
  0
BLOCK
  5
3734
330
3726
100
AcDbEntity
  8
0
100
AcDbBlockBegin
  2
*D9
 70
     1
 10
0.0
 20
0.0
 30
0.0
  3
*D9
  1

  0
LINE
  5
3A0C
330
3726
100
AcDbEntity
  8
AM_5
100
AcDbLine
 10
0.1710100704080551
 20
-0.4698463108496664
 30
0.0
 11
5.189778949485527
 21
-14.25880059415445
 31
0.0
  0
LINE
  5
3A0D
330
3726
100
AcDbEntity
  8
AM_5
100
AcDbLine
 10
0.1710111111829688
 20
0.4698459320372597
 30
0.0
 11
5.189810534711623
 21
14.25878909803277
 31
0.0
  0
ARC
  5
3A0E
330
3726
100
AcDbEntity
  8
AM_5
100
AcDbCircle
 10
-0.0000000000000161
 20
-0.0000000000000073
 30
0.0
 40
14.67389863971624
100
AcDbArc
 50
294.8822331551944
 51
65.11763992663535
  0
INSERT
  5
3A0F
330
3726
100
AcDbEntity
  8
AM_5
100
AcDbBlockReference
  2
_OPEN30
 10
5.018768879077458
 20
-13.7889542833048
 30
0.0
 41
1.25
 42
1.25
 43
1.25
 50
202.4411165010904
  0
INSERT
  5
3A10
330
3726
100
AcDbEntity
  8
AM_5
100
AcDbBlockReference
  2
_OPEN30
 10
5.018799423528641
 20
13.78894316599551
 30
0.0
 41
1.25
 42
1.25
 43
1.25
 50
157.5587565807393
  0
MTEXT
  5
3A11
330
3726
100
AcDbEntity
  8
AM_5
 62
     2
100
AcDbMText
 10
13.12389863970817
 20
-0.0000145356361054
 30
0.0
 40
1.6
 41
0.0
 71
     5
 72
     1
  1
140°
  7
ASAMI
 11
0.0000011075699751
 21
0.9999999999993868
 31
0.0
  0
POINT
  5
3A12
330
3726
100
AcDbEntity
  8
DEFPOINTS
 62
     0
100
AcDbPoint
 10
13.47380578504861
 20
-5.812044300885568
 30
0.0
  0
POINT
  5
3A13
330
3726
100
AcDbEntity
  8
DEFPOINTS
 62
     0
100
AcDbPoint
 10
-0.0000000000000136
 20
-0.0000000000000004
 30
0.0
  0
POINT
  5
3A14
330
3726
100
AcDbEntity
  8
DEFPOINTS
 62
     0
100
AcDbPoint
 10
-0.0000000000000135
 20
-0.0000000000000147
 30
0.0
  0
POINT
  5
3A15
330
3726
100
AcDbEntity
  8
DEFPOINTS
 62
     0
100
AcDbPoint
 10
-0.7533911495306908
 20
2.069925188552325
 30
0.0
  0
POINT
  5
3A16
330
3726
100
AcDbEntity
  8
DEFPOINTS
 62
     0
100
AcDbPoint
 10
-0.7534062090557916
 20
-2.069952297530555
 30
0.0
  0
ENDBLK
  5
3735
330
3726
100
AcDbEntity
  8
0
100
AcDbBlockEnd
  0
ENDSEC
  0
SECTION
  2
ENTITIES
  0
LINE
  5
C1D
330
1F
100
AcDbEntity
  8
AM_0
 48
0.5
100
AcDbLine
 10
-0.0000000000000249
 20
-0.0000000000000124
 30
0.0
 11
-0.7533911495306908
 21
2.069925188552325
 31
0.0
  0
LINE
  5
C20
330
1F
100
AcDbEntity
  8
AM_0
 48
0.5
100
AcDbLine
 10
-0.0000000000000249
 20
-0.0000000000000125
 30
0.0
 11
-0.7534062090557915
 21
-2.069952297530555
 31
0.0
  0
DIMENSION
  5
CC6
330
1F
100
AcDbEntity
  8
AM_5
100
AcDbDimension
  2
*D5
 10
-2.000000000000159
 20
-18.50000099999953
 30
0.0
 11
-66.0000000000001
 21
-16.80000099999953
 31
0.0
 70
    32
  1
<>
  3
AM_JIS$0
100
AcDbAlignedDimension
 13
-130.0
 23
-5.999999999999388
 33
0.0
 14
-2.000000000000158
 24
-6.099999999999996
 34
0.0
 50
0.0000000000001132
100
AcDbRotatedDimension
1001
GENIUS_GENDTOL_13
1000

1000
h7
1000

1040
0.0
1001
ACAD
1000
DSTYLE
1002
{
1070
   271
1070
     0
1002
}
  0
TEXT
  5
19BD
330
1F
100
AcDbEntity
  8
AM_6
100
AcDbText
 10
-77.01190476190472
 20
-29.75000099999956
 30
0.0
 40
2.5
  1
MDW122MHK
 50
0.0000000000001527
 72
     4
 11
-65.99999999999996
 21
-28.50000099999953
 31
0.0
100
AcDbText
  0
DIMENSION
  5
2069
330
1F
100
AcDbEntity
  8
AM_5
100
AcDbDimension
  2
*D6
 10
-2.000000000000159
 20
-13.50000099999949
 30
0.0
 11
-34.49999999999989
 21
-11.80000099999949
 31
0.0
 70
    32
  1
<>
 51
359.9999999999998
  3
AM_JIS$0
100
AcDbAlignedDimension
 13
-66.99999999999963
 23
-6.499999999999458
 33
0.0
 14
-2.000000000000158
 24
-6.099999999999996
 34
0.0
 50
0.0000000000001527
100
AcDbRotatedDimension
1001
ACAD
1000
DSTYLE
1002
{
1070
   271
1070
     0
1070
   174
1070
     1
1002
}
1001
GENIUS_GENDTOL_13
1000

1000
h7
1000

1040
0.0
  0
LINE
  5
23EF
330
1F
100
AcDbEntity
  8
AM_7
100
AcDbLine
 10
-132.4999999999999
 20
0.0000000000006289
 30
0.0
 11
2.319900031072534
 21
-0.0000000000000237
 31
0.0
1001
GENIUS_GENODEF_13
1002
{
1000
HIER
1070
     0
1002
}
1002
{
1000
MANEDIT
1070
     0
1002
}
1002
{
1000
NOSEL
1070
     0
1002
}
1002
{
1000
BEHIND
1070
     0
1002
}
1002
{
1000
REACTOR
1002
}
1001
GENIUS_GENOBJ-N-CEN_13
1002
{
1000
OWNER
1000
GEN
1002
}
  0
LINE
  5
24A7
330
1F
100
AcDbEntity
  8
AM_0
 48
0.5
100
AcDbLine
 10
-1.511951370066579
 20
5.265455106715771
 30
0.0
 11
-1.99999999999998
 21
6.099999999999965
 31
0.0
  0
ELLIPSE
  5
24B7
330
1F
100
AcDbEntity
  8
AM_11
 48
0.5
100
AcDbEllipse
 10
-20.48047175224788
 20
23.75124007712539
 30
0.0
 11
-27.41493431727054
 21
0.0000000000002086
 31
0.0
210
0.0
220
0.0
230
1.0
 40
0.9578947368421056
 41
1.130070686340284
 42
2.011520147323574
  0
ELLIPSE
  5
24B8
330
1F
100
AcDbEntity
  8
AM_11
 48
0.5
100
AcDbEllipse
 10
-20.48047175224918
 20
-23.75122283592521
 30
0.0
 11
-27.4149343172705
 21
0.0000000000001234
 31
0.0
210
0.0
220
0.0
230
1.0
 40
0.9578947368421054
 41
4.271664206181664
 42
5.153113667164971
  0
ELLIPSE
  5
24B9
330
1F
100
AcDbEntity
  8
AM_11
 48
0.5
100
AcDbEllipse
 10
2.909679762903658
 20
23.75124007712477
 30
0.0
 11
-27.41493431727048
 21
0.0000000000021444
 31
0.0
210
0.0
220
0.0
230
1.0
 40
0.9578947368421141
 41
1.130070686340349
 42
1.291800737381041
  0
ELLIPSE
  5
24BE
330
1F
100
AcDbEntity
  8
AM_0
 48
0.5
100
AcDbEllipse
 10
8.843549875891977
 20
7.479628075874678
 30
0.0
 11
6.279624308223261
 21
9.471465715656009
 31
0.0
210
0.0
220
0.0
230
1.0
 40
0.8737399835012123
 41
2.299539807783199
 42
2.612789724792156
  0
ELLIPSE
  5
24C7
330
1F
100
AcDbEntity
  8
AM_11
 48
0.5
100
AcDbEllipse
 10
-90.65092629769585
 20
23.75124007712718
 30
0.0
 11
-27.41493431727054
 21
0.0000000000006104
 31
0.0
210
0.0
220
0.0
230
1.0
 40
0.9578947368421056
 41
1.130070686340301
 42
2.011520147323591
  0
ELLIPSE
  5
24C8
330
1F
100
AcDbEntity
  8
AM_11
 48
0.5
100
AcDbEllipse
 10
-90.6509262976972
 20
-23.75122283592343
 30
0.0
 11
27.4149343172705
 21
0.0000000000004582
 31
0.0
210
0.0
220
0.0
230
1.0
 40
0.957894736842107
 41
1.13007155259185
 42
2.011521013575156
  0
ELLIPSE
  5
24D4
330
1F
100
AcDbEntity
  8
AM_11
 48
0.5
100
AcDbEllipse
 10
-67.26077478254436
 20
23.75124007712661
 30
0.0
 11
-27.41493431727058
 21
0.0000000000001599
 31
0.0
210
0.0
220
0.0
230
1.0
 40
0.9578947368421051
 41
1.130070686340283
 42
2.011520147323574
  0
ELLIPSE
  5
24D5
330
1F
100
AcDbEntity
  8
AM_11
 48
0.5
100
AcDbEllipse
 10
-67.26077478254566
 20
-23.75122283592399
 30
0.0
 11
-27.41493431727046
 21
0.0000000000004948
 31
0.0
210
0.0
220
0.0
230
1.0
 40
0.9578947368421083
 41
4.271664206181676
 42
5.153113667164986
  0
ELLIPSE
  5
24E6
330
1F
100
AcDbEntity
  8
AM_11
 48
0.5
100
AcDbEllipse
 10
-43.8706232674007
 20
-23.75122283592462
 30
0.0
 11
-27.41493431727049
 21
0.0000000000007443
 31
0.0
210
0.0
220
0.0
230
1.0
 40
0.9578947368421058
 41
4.271664206181685
 42
5.153113667164993
  0
ELLIPSE
  5
24E7
330
1F
100
AcDbEntity
  8
AM_11
 48
0.5
100
AcDbEllipse
 10
-43.87062326739938
 20
23.75124007712599
 30
0.0
 11
27.41493431727055
 21
0.0000000000000443
 31
0.0
210
0.0
220
0.0
230
1.0
 40
0.9578947368421051
 41
4.271663339930067
 42
5.153112800913361
  0
LINE
  5
2572
330
1F
100
AcDbEntity
  8
AM_0
100
AcDbLine
 10
-66.3071927445063
 20
6.100007544544708
 30
0.0
 11
-66.30723384718085
 21
-6.100031275184083
 31
0.0
  0
ELLIPSE
  5
2BF3
330
1F
100
AcDbEntity
  8
AM_11
 48
0.5
100
AcDbEllipse
 10
-114.0410778128377
 20
23.75124007712645
 30
0.0
 11
-27.41493431727058
 21
0.0000000000001599
 31
0.0
210
0.0
220
0.0
230
1.0
 40
0.9578947368421051
 41
1.130070686340283
 42
2.011520147323574
  0
ELLIPSE
  5
2BF5
330
1F
100
AcDbEntity
  8
AM_11
 48
0.5
100
AcDbEllipse
 10
-114.041077812839
 20
-23.75122283592415
 30
0.0
 11
-27.41493431727046
 21
0.0000000000004948
 31
0.0
210
0.0
220
0.0
230
1.0
 40
0.9578947368421083
 41
4.271664206181676
 42
5.153113667164986
  0
LINE
  5
2C0E
330
1F
100
AcDbEntity
  8
AM_0
 48
0.5
100
AcDbLine
 10
-67.0
 20
-6.499999999999457
 30
0.0
 11
-67.0
 21
6.500000000000536
 31
0.0
  0
DIMENSION
  5
2D60
330
1F
100
AcDbEntity
  8
AM_5
100
AcDbDimension
  2
*D7
 10
9.319879619026028
 20
-6.100039734540714
 30
0.0
 11
7.619901030986673
 21
-0.0000337673510897
 31
0.0
 70
    32
  1
%%c<>
 51
359.9999999999998
  3
AM_JIS$0
100
AcDbAlignedDimension
 13
-1.99999999999998
 23
6.099999999999965
 33
0.0
 14
-2.000000000000158
 24
-6.099999999999996
 34
0.0
 50
89.99979888288933
100
AcDbRotatedDimension
1001
ACAD
1000
DSTYLE
1002
{
1070
   271
1070
     1
1002
}
1001
GENIUS_GENDTOL_13
1000

1000
h7
1000

1040
0.0
  0
LINE
  5
2FB7
330
1F
100
AcDbEntity
  8
AM_0
100
AcDbLine
 10
-67.0
 20
6.500000000000516
 30
0.0
 11
-66.3071927445063
 21
6.100007544544708
 31
0.0
  0
LINE
  5
2FB9
330
1F
100
AcDbEntity
  8
AM_0
100
AcDbLine
 10
-66.99999999999997
 20
-6.499999999999661
 30
0.0
 11
-66.30717918087646
 21
-6.099999713578523
 31
0.0
  0
LINE
  5
324C
330
1F
100
AcDbEntity
  8
AM_0
100
AcDbLine
 10
-129.5
 20
-6.499999999999389
 30
0.0
 11
-67.0
 21
-6.499999999999458
 31
0.0
  0
DIMENSION
  5
324F
330
1F
100
AcDbEntity
  8
AM_5
100
AcDbDimension
  2
*D8
 10
-139.500001
 20
6.500000000000608
 30
0.0
 11
-139.500001
 21
0.000012900066561
 31
0.0
 70
   160
  1
%%c<>
 51
359.9999999999997
  3
AM_JIS$0
100
AcDbAlignedDimension
 13
-129.5
 23
-6.499999999999389
 33
0.0
 14
-129.4999999999999
 24
6.500000000000604
 34
0.0
 50
270.0
100
AcDbRotatedDimension
1001
ACAD
1000
DSTYLE
1002
{
1070
   271
1070
     0
1002
}
1001
GENIUS_GENDTOL_13
1000

1000
h7
1000

1040
0.0
  0
LINE
  5
325C
330
1F
100
AcDbEntity
  8
AM_0
 48
0.5
100
AcDbLine
 10
-129.5
 20
-6.499999999999382
 30
0.0
 11
-129.4999999999999
 21
6.500000000000604
 31
0.0
  0
LINE
  5
325D
330
1F
100
AcDbEntity
  8
AM_0
 48
0.5
100
AcDbLine
 10
-130.0
 20
-5.999999999999382
 30
0.0
 11
-130.0
 21
6.000000000000608
 31
0.0
  0
LINE
  5
325E
330
1F
100
AcDbEntity
  8
AM_0
100
AcDbLine
 10
-67.0
 20
6.500000000000537
 30
0.0
 11
-129.4999999999999
 21
6.500000000000609
 31
0.0
  0
LINE
  5
3273
330
1F
100
AcDbEntity
  8
AM_0
 48
0.5
100
AcDbLine
 10
-129.5
 20
-6.499999999999389
 30
0.0
 11
-130.0
 21
-5.999999999999388
 31
0.0
1001
GENIUS_GENFIL_13
1070
     0
1040
0.5
1040
0.5
1040
20.0
1040
0.0
1002
{
1002
}
1001
GENIUS_GENODEF_13
1002
{
1000
HIER
1070
     0
1002
}
1002
{
1000
MANEDIT
1070
     0
1002
}
1002
{
1000
NOSEL
1070
     0
1002
}
1002
{
1000
BEHIND
1070
     0
1002
}
1002
{
1000
REACTOR
1002
}
1001
GENIUS_GENOBJ-N-CHA_13
1002
{
1000
OWNER
1000
GEN
1002
}
  0
LINE
  5
327F
330
1F
100
AcDbEntity
  8
AM_0
 48
0.5
100
AcDbLine
 10
-129.4999999999999
 20
6.500000000000609
 30
0.0
 11
-130.0
 21
6.00000000000061
 31
0.0
1001
GENIUS_GENFIL_13
1070
     0
1040
0.5
1040
0.5
1040
20.0
1040
0.0
1002
{
1002
}
1001
GENIUS_GENODEF_13
1002
{
1000
HIER
1070
     0
1002
}
1002
{
1000
MANEDIT
1070
     0
1002
}
1002
{
1000
NOSEL
1070
     0
1002
}
1002
{
1000
BEHIND
1070
     0
1002
}
1002
{
1000
REACTOR
1002
}
1001
GENIUS_GENOBJ-N-CHA_13
1002
{
1000
OWNER
1000
GEN
1002
}
  0
ELLIPSE
  5
353A
330
1F
100
AcDbEntity
  8
AM_11
 48
0.5
100
AcDbEllipse
 10
-137.4311795875309
 20
-23.75122283592358
 30
0.0
 11
27.4149343172705
 21
0.0000000000004582
 31
0.0
210
0.0
220
0.0
230
1.0
 40
0.957894736842107
 41
1.13007155259185
 42
1.296298923048811
  0
ELLIPSE
  5
353B
330
1F
100
AcDbEntity
  8
AM_11
 48
0.5
100
AcDbEllipse
 10
-137.4311795875296
 20
23.75124007712702
 30
0.0
 11
-27.41493431727054
 21
0.0000000000006104
 31
0.0
210
0.0
220
0.0
230
1.0
 40
0.9578947368421056
 41
1.845293730540934
 42
2.011520147323591
  0
ELLIPSE
  5
36E9
330
1F
100
AcDbEntity
  8
AM_0
 48
0.5
100
AcDbEllipse
 10
8.843549875892028
 20
-7.47962807587468
 30
0.0
 11
6.279624308223326
 21
-9.471465715655966
 31
0.0
210
0.0
220
0.0
230
-1.0
 40
0.8737399835012123
 41
2.299539807783199
 42
2.612789724792156
  0
LINE
  5
36EA
330
1F
100
AcDbEntity
  8
AM_0
 48
0.5
100
AcDbLine
 10
-1.511951370066543
 20
-5.265455106715845
 30
0.0
 11
-2.000000000000158
 21
-6.099999999999996
 31
0.0
  0
DIMENSION
  5
3725
330
1F
100
AcDbEntity
  8
AM_5
100
AcDbDimension
  2
*D9
 10
-0.7534062090557915
 20
-2.069952297530555
 30
0.0
 11
13.12389863970817
 21
-0.0000145356361443
 31
0.0
 70
    34
  1
<>
 51
359.9999999999998
  3
AM_JIS$2
100
AcDb2LineAngularDimension
 13
-0.0000000000000135
 23
-0.0000000000000147
 33
0.0
 14
-0.7533911495306908
 24
2.069925188552325
 34
0.0
 15
-0.0000000000000136
 25
-0.0000000000000004
 35
0.0
 16
13.47380578504861
 26
-5.812044300885568
 36
0.0
1001
GENIUS_GENDTOL_13
1000

1000
h7
1000

1040
0.0
1001
ACAD
1000
DSTYLE
1002
{
1070
   271
1070
     1
1070
   179
1070
     1
1002
}
  0
LINE
  5
3906
330
1F
100
AcDbEntity
  8
AM_0
 48
0.5
100
AcDbLine
 10
-66.30717918087646
 20
-6.099999713578523
 30
0.0
 11
-62.31860300880391
 21
-6.099999987491451
 31
0.0
  0
LINE
  5
3907
330
1F
100
AcDbEntity
  8
AM_0
 48
0.5
100
AcDbLine
 10
-61.29482974957006
 20
6.100095744770409
 30
0.0
 11
-66.3071927445063
 21
6.100007544544707
 31
0.0
  0
LINE
  5
3908
330
1F
100
AcDbEntity
  8
AM_0
 48
0.5
100
AcDbLine
 10
-5.946789786811732
 20
6.100000000000087
 30
0.0
 11
-1.99999999999998
 21
6.099999999999965
 31
0.0
  0
LINE
  5
3909
330
1F
100
AcDbEntity
  8
AM_0
 48
0.5
100
AcDbLine
 10
-0.0000000000000249
 20
-0.0000000000000125
 30
0.0
 11
-3.104006132457044
 21
2.34221534224464
 31
0.0
  0
LINE
  5
390A
330
1F
100
AcDbEntity
  8
AM_0
 48
0.5
100
AcDbLine
 10
-5.946789785399627
 20
-6.099999369262013
 30
0.0
 11
-2.000000000000154
 21
-6.099999999999997
 31
0.0
  0
LINE
  5
390B
330
1F
100
AcDbEntity
  8
AM_11
 48
0.5
100
AcDbLine
 10
-61.2946652740584
 20
6.099999999999972
 30
0.0
 11
-48.49827734157674
 21
6.099999999999972
 31
0.0
  0
LINE
  5
390C
330
1F
100
AcDbEntity
  8
AM_0
 48
0.5
100
AcDbLine
 10
-51.39877440017015
 20
2.896797911032739
 30
0.0
 11
-64.5
 21
-0.4936463038115655
 31
0.0
  0
LINE
  5
390D
330
1F
100
AcDbEntity
  8
AM_11
 48
0.5
100
AcDbLine
 10
-62.31860300880391
 20
-6.099999987491451
 30
0.0
 11
-47.30057604680801
 21
-6.099999369261053
 31
0.0
  0
LINE
  5
390E
330
1F
100
AcDbEntity
  8
AM_0
 48
0.5
100
AcDbLine
 10
-48.49829461220631
 20
6.100000630739217
 30
0.0
 11
-25.99874323878536
 21
6.100000000000663
 31
0.0
  0
LINE
  5
390F
330
1F
100
AcDbEntity
  8
AM_0
 48
0.5
100
AcDbLine
 10
-47.49364535373884
 20
-6.099999369261052
 30
0.0
 11
-25.99874748895388
 21
-6.100000000000027
 31
0.0
  0
LINE
  5
3910
330
1F
100
AcDbEntity
  8
AM_11
 48
0.5
100
AcDbLine
 10
-25.99874748895388
 20
-6.100000000000027
 30
0.0
 11
-5.946789785399627
 21
-6.099999369262013
 31
0.0
  0
LINE
  5
3911
330
1F
100
AcDbEntity
  8
AM_11
 48
0.5
100
AcDbLine
 10
-25.99874323878536
 20
6.100000000000663
 30
0.0
 11
-5.946789786811733
 21
6.100000000000088
 31
0.0
  0
SPLINE
  5
3912
330
1F
100
AcDbEntity
  8
AM_0
100
AcDbSpline
210
0.0
220
0.0
230
1.0
 70
     8
 71
     3
 72
    23
 73
    19
 74
     0
 42
0.0000000001
 43
0.0000000001
 40
16.03460024169435
 40
16.03460024169435
 40
16.03460024169435
 40
16.03460024169435
 40
16.35212704903564
 40
17.38177054169784
 40
18.41822485651776
 40
19.46214173629503
 40
20.51396345435107
 40
21.57393551351153
 40
22.64208202342361
 40
23.7182574881101
 40
24.80209208578934
 40
25.89306333925047
 40
26.99048218457928
 40
28.09348763352352
 40
29.20111863782268
 40
30.31232390128032
 40
31.42594612798585
 40
32.5407912310448
 40
32.5407912310486
 40
32.5407912310486
 40
32.5407912310486
 10
-61.2946652740584
 20
6.099999999999969
 30
0.0
 10
-61.18530362860858
 20
6.079407474207624
 30
0.0
 10
-60.72178091995515
 20
5.98973282027523
 30
0.0
 10
-59.90528067686459
 20
5.81402902197223
 30
0.0
 10
-58.84791072458925
 20
5.55275939537369
 30
0.0
 10
-57.79152290726085
 20
5.259397153941288
 30
0.0
 10
-56.73605480208087
 20
4.93564012869808
 30
0.0
 10
-55.68146894861579
 20
4.583293272307773
 30
0.0
 10
-54.62770439433069
 20
4.204370747990783
 30
0.0
 10
-53.57468775906728
 20
3.801077789791323
 30
0.0
 10
-52.52235920663823
 20
3.375698222218196
 30
0.0
 10
-51.47063436804774
 20
2.93070722985945
 30
0.0
 10
-50.41942801275862
 20
2.468691292620297
 30
0.0
 10
-49.36867010188968
 20
1.992306808450369
 30
0.0
 10
-48.31827271980277
 20
1.504323887886916
 30
0.0
 10
-47.26813857745419
 20
1.007591993173894
 30
0.0
 10
-46.21818216428105
 20
0.5049895511309123
 30
0.0
 10
-45.51839923411651
 20
0.1680220957585826
 30
0.0
 10
-45.16831693391248
 20
-0.0005563536611558
 30
0.0
  0
SPLINE
  5
3913
330
1F
100
AcDbEntity
  8
AM_0
100
AcDbSpline
210
0.0
220
0.0
230
1.0
 70
     8
 71
     3
 72
    46
 73
    42
 74
     0
 42
0.0000000001
 43
0.0000000001
 40
0.0
 40
0.0
 40
0.0
 40
0.0
 40
1.685415058684571
 40
2.531036209541119
 40
3.379897699130121
 40
4.232934581347655
 40
5.090970612202441
 40
5.954688180526682
 40
6.824620803463246
 40
7.701151815239689
 40
8.584457046566678
 40
9.474582384070741
 40
10.37139106676737
 40
11.27458944007583
 40
12.18373345430765
 40
13.09824173870457
 40
14.01741343450111
 40
14.9404441545541
 40
15.86644439743314
 40
16.79446029130534
 40
17.7234937712985
 40
18.65252725129241
 40
19.58054314516461
 40
20.50654338804289
 40
21.42957410809586
 40
22.34874580389317
 40
23.26325408828901
 40
24.17239810252111
 40
25.07560240389441
 40
25.97241108659103
 40
26.8625364240951
 40
27.74584165542183
 40
28.62236045019041
 40
29.49229307312697
 40
30.35601064145121
 40
31.21404606334468
 40
32.06708345193547
 40
32.91595755657689
 40
33.76157841950693
 40
34.60498701064689
 40
35.44727335621125
 40
35.44727335621125
 40
35.44727335621125
 40
35.44727335621125
 10
-2.966985239867577
 20
-6.099999369262107
 30
0.0
 10
-3.676841620295163
 20
-6.086103097726503
 30
0.0
 10
-4.74285333840469
 20
-6.065234667571578
 30
0.0
 10
-6.160375606866527
 20
-5.936751576842441
 30
0.0
 10
-7.224749958117777
 20
-5.807206443370265
 30
0.0
 10
-8.28903333069989
 20
-5.640892497290531
 30
0.0
 10
-9.353222920926041
 20
-5.440021275384659
 30
0.0
 10
-10.4173132618456
 20
-5.205553113219703
 30
0.0
 10
-11.48130257126714
 20
-4.939015422032657
 30
0.0
 10
-12.5451861140624
 20
-4.642044782703448
 30
0.0
 10
-13.60896601667945
 20
-4.316483117266828
 30
0.0
 10
-14.67263941787381
 20
-3.964337953266098
 30
0.0
 10
-15.73622340612772
 20
-3.587796761919288
 30
0.0
 10
-16.79972315067203
 20
-3.18917434271295
 30
0.0
 10
-17.86314843137869
 20
-2.770928801986881
 30
0.0
 10
-18.92651106570045
 20
-2.33564044878272
 30
0.0
 10
-19.98982037300122
 20
-1.885986068006105
 30
0.0
 10
-21.05308670196342
 20
-1.424731270797034
 30
0.0
 10
-22.11632132624118
 20
-0.9547148101557208
 30
0.0
 10
-23.17953395855221
 20
-0.478826956922501
 30
0.0
 10
-24.24273765331017
 20
0.0000006306416296
 30
0.0
 10
-25.30594134783453
 20
0.4788282187876325
 30
0.0
 10
-26.36915398084616
 20
0.9547160702760868
 30
0.0
 10
-27.43238860256312
 20
1.424732537293742
 30
0.0
 10
-28.4956549410209
 20
1.885987310855281
 30
0.0
 10
-29.55896421311295
 20
2.335641779314548
 30
0.0
 10
-30.62232697782456
 20
2.770929807799006
 30
0.0
 10
-31.68575408806221
 20
3.189177458914238
 30
0.0
 10
-32.74925796485347
 20
3.587796256433825
 30
0.0
 10
-33.81284385037822
 20
3.964339378554916
 30
0.0
 10
-34.87651722680722
 20
4.316484647337571
 30
0.0
 10
-35.94029275953728
 20
4.642043321140702
 30
0.0
 10
-37.00416921389527
 20
4.939018554354135
 30
0.0
 10
-38.06815418018382
 20
5.205557334376821
 30
0.0
 10
-39.13224390526379
 20
5.440010156403669
 30
0.0
 10
-40.19643427568861
 20
5.640939638879448
 30
0.0
 10
-41.26072444060933
 20
5.807016086511587
 30
0.0
 10
-42.32509330740938
 20
5.937473193590241
 30
0.0
 10
-43.38952802619323
 20
6.030547470125779
 30
0.0
 10
-44.45400138316563
 20
6.089115544072661
 30
0.0
 10
-45.16382338010209
 20
6.096373879254156
 30
0.0
 10
-45.51849809780025
 20
6.10000063073913
 30
0.0
  0
SPLINE
  5
3914
330
1F
100
AcDbEntity
  8
AM_0
100
AcDbSpline
210
0.0
220
0.0
230
1.0
 70
     8
 71
     3
 72
    22
 73
    18
 74
     0
 42
0.0000000001
 43
0.0000000001
 40
17.17441611292
 40
17.17441611292
 40
17.17441611292
 40
17.17441611292
 40
17.38177636558528
 40
18.41823744757437
 40
19.46215659509824
 40
20.51397914882054
 40
21.57394542641293
 40
22.64209583141747
 40
23.71826625065247
 40
24.80210429862395
 40
25.8930771157021
 40
26.99048705697709
 40
28.09349309193389
 40
29.20112995599786
 40
30.31233024745139
 40
31.42594771747373
 40
32.5407895042663
 40
32.54078950426994
 40
32.54078950426994
 40
32.54078950426994
 10
-30.06160556893795
 20
-5.47784351892058
 30
0.0
 10
-30.13288427949984
 20
-5.463722617219376
 30
0.0
 10
-30.5601612217472
 20
-5.377710661504731
 30
0.0
 10
-31.34290850298454
 20
-5.205245495591588
 30
0.0
 10
-32.40689338860692
 20
-4.938707120648815
 30
0.0
 10
-33.47076985640287
 20
-4.641731756683359
 30
0.0
 10
-34.53454541728061
 20
-4.316173197553054
 30
0.0
 10
-35.59821866606661
 20
-3.964027598569744
 30
0.0
 10
-36.6618026953452
 20
-3.587486524520484
 30
0.0
 10
-37.72530242980934
 20
-3.188864075694018
 30
0.0
 10
-38.78872770936054
 20
-2.770618534890279
 30
0.0
 10
-39.85209035861365
 20
-2.335330212174886
 30
0.0
 10
-40.91539960691497
 20
-1.885675708607654
 30
0.0
 10
-41.9786661581911
 20
-1.424421374677009
 30
0.0
 10
-43.04189943737462
 20
-0.9544034024267508
 30
0.0
 10
-44.10511519534196
 20
-0.4785220567941292
 30
0.0
 10
-44.81378656963968
 20
-0.1593585327337387
 30
0.0
 10
-45.16831693391715
 20
0.0003108927841685
 30
0.0
  0
SPLINE
  5
3915
330
1F
100
AcDbEntity
  8
AM_0
100
AcDbSpline
210
0.0
220
0.0
230
1.0
 70
     8
 71
     3
 72
    17
 73
    13
 74
     0
 42
0.0000000001
 43
0.0000000001
 40
1.580019955310467
 40
1.580019955310467
 40
1.580019955310467
 40
1.580019955310467
 40
2.030549285115227
 40
3.082371838836284
 40
4.126290986361125
 40
5.162752068350215
 40
6.192395305374981
 40
7.216039564037012
 40
8.234688489606833
 40
9.249433870634691
 40
10.26152376260694
 40
11.27226744710342
 40
11.27226744710342
 40
11.27226744710342
 40
11.27226744710352
 10
-15.97198429069003
 20
-4.501978993462922
 30
0.0
 10
-16.1225896268081
 20
-4.548345643627109
 30
0.0
 10
-16.62566204714185
 20
-4.700318532691622
 30
0.0
 10
-17.4845314253909
 20
-4.938693446873637
 30
0.0
 10
-18.54836820675157
 20
-5.205641728162023
 30
0.0
 10
-19.61249786138215
 20
-5.439986875970715
 30
0.0
 10
-20.676676274062
 20
-5.640941906623567
 30
0.0
 10
-21.74097062707269
 20
-5.807045063522913
 30
0.0
 10
-22.80533850912621
 20
-5.937348469193688
 30
0.0
 10
-23.86977266724425
 20
-6.031007713967101
 30
0.0
 10
-24.9342468765257
 20
-6.087419902407698
 30
0.0
 10
-25.64406858744568
 20
-6.099999404165978
 30
0.0
 10
-25.99874748895389
 20
-6.100000000000029
 30
0.0
  0
SPLINE
  5
3916
330
1F
100
AcDbEntity
  8
AM_0
100
AcDbSpline
210
0.0
220
0.0
230
1.0
 70
     8
 71
     3
 72
    11
 73
     7
 74
     0
 42
0.0000000001
 43
0.0000000001
 40
11.27226913003534
 40
11.27226913003534
 40
11.27226913003534
 40
11.2722691300354
 40
12.28301561507924
 40
13.29510212255852
 40
14.30984805882082
 40
15.18258238371378
 40
15.18258238371378
 40
15.18258238371378
 40
15.18258238371378
 10
-25.99874748895394
 20
-6.100000000000029
 30
0.0
 10
-26.35206923967153
 20
-6.070144196613002
 30
0.0
 10
-27.05805480424047
 20
-5.997866122981315
 30
0.0
 10
-28.11338757325308
 20
-5.852063370527088
 30
0.0
 10
-29.11491697946047
 20
-5.677917969368828
 30
0.0
 10
-29.76264741079869
 20
-5.544047216598865
 30
0.0
 10
-30.06114003766652
 20
-5.477918762373936
 30
0.0
  0
SPLINE
  5
3917
330
1F
100
AcDbEntity
  8
AM_0
 48
0.5
100
AcDbSpline
210
0.0
220
0.0
230
1.0
 70
     8
 71
     3
 72
    25
 73
    21
 74
     0
 42
0.0000000001
 43
0.0000000001
 40
6.846175049578289
 40
6.846175049578289
 40
6.846175049578289
 40
6.846175049578289
 40
7.604337694224321
 40
8.711974558287883
 40
9.814980593243754
 40
10.91239053451967
 40
12.0033633515982
 40
13.08720139956839
 40
14.16337181880432
 40
15.23152222380919
 40
16.29148850140128
 40
17.34331105512262
 40
18.38723020264746
 40
19.42369128463655
 40
20.45333379090873
 40
21.47697865721768
 40
22.49561244472435
 40
23.5103574802404
 40
24.52244778960836
 40
25.53320666051913
 40
25.53320666051913
 40
25.53320666051913
 40
25.53320666051913
 10
-7.188234661847265
 20
1.104140566528136
 30
0.0
 10
-7.430046769189567
 20
1.211245717718083
 30
0.0
 10
-8.025642907797518
 20
1.473754245156229
 30
0.0
 10
-8.975908196870681
 20
1.885987131774559
 30
0.0
 10
-10.03921738706115
 20
2.335641762401589
 30
0.0
 10
-11.1025800517614
 20
2.77093005128304
 30
0.0
 10
-12.16600532723844
 20
3.189175601228185
 30
0.0
 10
-13.22950506267421
 20
3.587798047064814
 30
0.0
 10
-14.29308909210071
 20
3.964339123986538
 30
0.0
 10
-15.35676233935188
 20
4.316484714531465
 30
0.0
 10
-16.42053790615336
 20
4.64204330422721
 30
0.0
 10
-17.48441435202609
 20
4.939018555570049
 30
0.0
 10
-18.54839931857134
 20
5.205557346101
 30
0.0
 10
-19.61248905093721
 20
5.440010108802033
 30
0.0
 10
-20.67667939225144
 20
5.640939815980882
 30
0.0
 10
-21.74096442079495
 20
5.807014612339667
 30
0.0
 10
-22.80532757672003
 20
5.93747441793469
 30
0.0
 10
-23.86975712966451
 20
6.030547264928745
 30
0.0
 10
-24.93423580072925
 20
6.089115900558174
 30
0.0
 10
-25.6440631611791
 20
6.096373979766644
 30
0.0
 10
-25.99874323878536
 20
6.100000000000663
 30
0.0
  0
SPLINE
  5
3918
330
1F
100
AcDbEntity
  8
AM_0
 48
0.5
100
AcDbSpline
210
0.0
220
0.0
230
1.0
 70
     8
 71
     3
 72
    17
 73
    13
 74
     0
 42
0.0000000001
 43
0.0000000001
 40
0.0
 40
0.0
 40
0.0
 40
0.0
 40
1.010743614677189
 40
2.022833924044153
 40
3.037578959561199
 40
4.056212747067873
 40
5.079857613375832
 40
6.109500119648989
 40
7.14596120163808
 40
8.18989512056258
 40
9.241717674284874
 40
9.693948937866434
 40
9.693948937866434
 40
9.693948937866434
 40
9.693948937866434
 10
-5.946789786811732
 20
6.100000000000087
 30
0.0
 10
-6.301464505965014
 20
6.096373263269317
 30
0.0
 10
-7.011286505813393
 20
6.089114957615945
 30
0.0
 10
-8.075759840902275
 20
6.030546661788659
 30
0.0
 10
-9.14018935224184
 20
5.937473694487074
 30
0.0
 10
-10.2045526651244
 20
5.807014326863951
 30
0.0
 10
-11.26883710329128
 20
5.640937887395382
 30
0.0
 10
-12.33302966756013
 20
5.440014365891051
 30
0.0
 10
-13.39711607467819
 20
5.205537173506644
 30
0.0
 10
-14.46113761546942
 20
4.939084871088573
 30
0.0
 10
-15.320043548917
 20
4.699051623951205
 30
0.0
 10
-15.82444347161968
 20
4.548996326199043
 30
0.0
 10
-15.97583726702463
 20
4.503065404071362
 30
0.0
  0
SPLINE
  5
3919
330
1F
100
AcDbEntity
  8
AM_0
 48
0.5
100
AcDbSpline
210
0.0
220
0.0
230
1.0
 70
     8
 71
     3
 72
    10
 73
     6
 74
     0
 42
0.0000000001
 43
0.0000000001
 40
0.0
 40
0.0
 40
0.0
 40
0.0
 40
2.69986029516136
 40
4.147722969032201
 40
6.285750005020438
 40
6.285750005020438
 40
6.285750005020438
 40
6.285750005020438
 10
-7.188064475852854
 20
1.104068115275667
 30
0.0
 10
-6.430456673848692
 20
0.5373359623758237
 30
0.0
 10
-5.2665641244741
 20
-0.3333194460112518
 30
0.0
 10
-2.514114593703308
 20
0.0881800897848409
 30
0.0
 10
-3.032480900278033
 20
1.507846299036402
 30
0.0
 10
-3.104006132457044
 20
2.34221534224464
 30
0.0
  0
SPLINE
  5
391A
330
1F
100
AcDbEntity
  8
AM_0
 48
0.5
100
AcDbSpline
210
0.0
220
0.0
230
1.0
 70
     8
 71
     3
 72
    26
 73
    22
 74
     0
 42
0.0000000001
 43
0.0000000001
 40
0.0
 40
0.0
 40
0.0
 40
0.0
 40
0.8422864037471089
 40
1.685694647057321
 40
2.531315797913884
 40
3.380177287502886
 40
4.233214169721234
 40
5.09125020057522
 40
5.954967768899448
 40
6.824900391836836
 40
7.701419186604396
 40
8.584724417931369
 40
9.47485577056355
 40
10.37165251267315
 40
11.27486274211709
 40
12.18400675634887
 40
13.09851504074504
 40
14.01768673654235
 40
14.94071745659532
 40
15.8667176994736
 40
16.76607142455336
 40
16.76607142455336
 40
16.76607142455336
 40
16.76607142455336
 10
-44.32088170732813
 20
-6.100310262043582
 30
0.0
 10
-44.67555636197753
 20
-6.09668090998327
 30
0.0
 10
-45.38537806173379
 20
-6.089417371935931
 30
0.0
 10
-46.44985229295168
 20
-6.03086509599994
 30
0.0
 10
-47.51428108886813
 20
-5.937782285678346
 30
0.0
 10
-48.57864399544109
 20
-5.80732313997629
 30
0.0
 10
-49.64293044746607
 20
-5.641255835552192
 30
0.0
 10
-50.70711924022837
 20
-5.440318074171687
 30
0.0
 10
-51.77120966577061
 20
-5.205867469315012
 30
0.0
 10
-52.83519446701944
 20
-4.9393279558773
 30
0.0
 10
-53.89907112861185
 20
-4.64235336700563
 30
0.0
 10
-54.96284840629245
 20
-4.316792097242574
 30
0.0
 10
-56.02652189211562
 20
-3.964654382489401
 30
0.0
 10
-57.09010363780155
 20
-3.58810032280932
 30
0.0
 10
-58.15360786417101
 20
-3.189489362553161
 30
0.0
 10
-59.21703686905731
 20
-2.771239578529242
 30
0.0
 10
-60.28039857976485
 20
-2.335949460906683
 30
0.0
 10
-61.34371252368018
 20
-1.886304655731449
 30
0.0
 10
-62.40696112836009
 20
-1.425013109049318
 30
0.0
 10
-63.45928785983423
 20
-0.9599843140343942
 30
0.0
 10
-64.15649391208543
 20
-0.647574707558161
 30
0.0
 10
-64.50000803112596
 20
-0.4936501820868589
 30
0.0
  0
SPLINE
  5
391B
330
1F
100
AcDbEntity
  8
AM_0
 48
0.5
100
AcDbSpline
210
0.0
220
0.0
230
1.0
 70
     8
 71
     3
 72
    22
 73
    18
 74
     0
 42
0.0000000001
 43
0.0000000001
 40
0.0
 40
0.0
 40
0.0
 40
0.0
 40
1.010743684496582
 40
2.022833993863546
 40
3.037578683882831
 40
4.056212471389632
 40
5.079857945358201
 40
6.109499720892564
 40
7.145961650132166
 40
8.189873411961459
 40
9.241710626092514
 40
10.30166235592959
 40
11.36982472628033
 40
12.44598212828784
 40
13.52983440361964
 40
14.62080578343036
 40
14.90544694398022
 40
14.90544694398022
 40
14.90544694398022
 40
14.90544694398022
 10
-47.30050859126349
 20
-6.100000000000028
 30
0.0
 10
-47.65536097523915
 20
-6.096681994101362
 30
0.0
 10
-48.36518295701063
 20
-6.08942062423604
 30
0.0
 10
-49.42965607350108
 20
-6.030852040268566
 30
0.0
 10
-50.4940860187937
 20
-5.937784891696179
 30
0.0
 10
-51.55844950052878
 20
-5.807325659841466
 30
0.0
 10
-52.62273301918425
 20
-5.641242733774327
 30
0.0
 10
-53.68692547183591
 20
-5.440322345871176
 30
0.0
 10
-54.75101126428729
 20
-5.205863221320533
 30
0.0
 10
-55.81499771356361
 20
-4.939319848937096
 30
0.0
 10
-56.8788752369009
 20
-4.642356480978029
 30
0.0
 10
-57.94264939401866
 20
-4.316780469951706
 30
0.0
 10
-59.00632704235156
 20
-3.964663604871452
 30
0.0
 10
-60.06990738295289
 20
-3.588099205593935
 30
0.0
 10
-61.13341034074723
 20
-3.189486157833346
 30
0.0
 10
-61.93270713582489
 20
-2.875136641337492
 30
0.0
 10
-62.3781032025996
 20
-2.695464562201851
 30
0.0
 10
-62.47019629866187
 20
-2.658130303426457
 30
0.0
  0
SPLINE
  5
391C
330
1F
100
AcDbEntity
  8
AM_0
100
AcDbSpline
210
0.0
220
0.0
230
1.0
 70
     8
 71
     3
 72
    13
 73
     9
 74
     0
 42
0.0000000001
 43
0.0000000001
 40
16.03460056234195
 40
16.03460056234195
 40
16.03460056234195
 40
16.03460056234195
 40
16.35212717791071
 40
17.38177067057215
 40
18.41822498539278
 40
19.46214186516937
 40
20.5139635832251
 40
21.34083983469381
 40
21.34083983469381
 40
21.34083983469381
 40
21.34083983469381
 10
-62.31860137164057
 20
-6.100000000000027
 30
0.0
 10
-62.09385796705301
 20
-6.080273110835245
 30
0.0
 10
-61.63033487484407
 20
-5.990600917286245
 30
0.0
 10
-60.81383507684041
 20
-5.814895067600189
 30
0.0
 10
-59.75646499149981
 20
-5.553626165439794
 30
0.0
 10
-58.70007721020816
 20
-5.260263727817329
 30
0.0
 10
-57.72257099338609
 20
-4.960420986510242
 30
0.0
 10
-57.0989392408448
 20
-4.753957920419921
 30
0.0
 10
-56.82535572869223
 20
-4.660634733255293
 30
0.0
  0
ELLIPSE
  5
391D
330
1F
100
AcDbEntity
  8
AM_0
 48
0.5
100
AcDbEllipse
 10
-10.93319296846195
 20
10.34142627211541
 30
0.0
 11
13.40774815581205
 21
10.77223367668898
 31
0.0
210
0.0
220
0.0
230
1.0
 40
0.8730778584765269
 41
-1.562622042590114
 42
-1.451554523172261
  0
ELLIPSE
  5
391E
330
1F
100
AcDbEntity
  8
AM_0
 48
0.5
100
AcDbEllipse
 10
-7.177617265863119
 20
6.223153255908469
 30
0.0
 11
-0.0000000000066377
 21
9.477256827745826
 31
0.0
210
0.0
220
0.0
230
1.0
 40
0.9918032786885142
 41
3.517054509081979
 42
3.681821570855484
  0
ELLIPSE
  5
391F
330
1F
100
AcDbEntity
  8
AM_0
 48
0.5
100
AcDbEllipse
 10
-1.881686500006535
 20
-1.587583667725253
 30
0.0
 11
-0.1854292297140723
 21
1.000395830772817
 31
0.0
210
0.0
220
0.0
230
0.9999999999999998
 40
0.5157383601392222
 41
1.796274190416416
 42
4.931616080128392
  0
ELLIPSE
  5
3920
330
1F
100
AcDbEntity
  8
AM_0
 48
0.5
100
AcDbEllipse
 10
-1.881777256056879
 20
-1.589747179626298
 30
0.0
 11
-0.9165874214141844
 21
0.499652362001666
 31
0.0
210
0.0
220
0.0
230
1.0
 40
0.4910163690632584
 41
4.464335705884971
 42
7.607776047214484
  0
ELLIPSE
  5
3921
330
1F
100
AcDbEntity
  8
AM_0
 48
0.5
100
AcDbEllipse
 10
3.79241151229168
 20
7.323425923706426
 30
0.0
 11
-12.72941618961274
 21
0.0000000000013518
 31
0.0
210
0.0
220
0.0
230
1.0
 40
0.9658112222705533
 41
0.5303675532341719
 42
0.938488483429063
  0
ELLIPSE
  5
3922
330
1F
100
AcDbEntity
  8
AM_0
 48
0.5
100
AcDbEllipse
 10
6.322707877817673
 20
-1.629094824936571
 30
0.0
 11
-10.15174121292566
 21
0.830210008053188
 31
0.0
210
0.0
220
0.0
230
0.9999999999999998
 40
0.8033026229486949
 41
0.2194302905454333
 42
0.6783539258900766
  0
ELLIPSE
  5
3923
330
1F
100
AcDbEntity
  8
AM_0
 48
0.5
100
AcDbEllipse
 10
-62.39482179370366
 20
-4.066976928709757
 30
0.0
 11
-1.926327864661295
 21
0.9075307916518639
 31
0.0
210
0.0
220
0.0
230
1.0
 40
0.9444361987599044
 41
0.4739648062378468
 42
2.025595036750388
  0
ELLIPSE
  5
3924
330
1F
100
AcDbEntity
  8
AM_0
 48
0.5
100
AcDbEllipse
 10
-62.92153512655355
 20
-4.128928502399436
 30
0.0
 11
1.570283421484139
 21
0.1738127163756614
 31
0.0
210
0.0
220
0.0
230
0.9999999999999998
 40
0.969136878921064
 41
1.174106465499396
 42
3.002352647761214
  0
SPLINE
  5
3925
330
1F
100
AcDbEntity
  8
AM_0
100
AcDbSpline
210
0.0
220
0.0
230
1.0
 70
     8
 71
     3
 72
    55
 73
    51
 74
     0
 42
0.0000000001
 43
0.0000000001
 40
0.0
 40
0.0
 40
0.0
 40
0.0
 40
1.010743684496582
 40
2.022833576467832
 40
3.037578957496688
 40
4.056212745003489
 40
5.079857003664532
 40
6.109500240690281
 40
7.145961322679372
 40
8.189895241603872
 40
9.241717795325891
 40
10.30168407291828
 40
11.36983447792315
 40
12.44600489715814
 40
13.52984294512926
 40
14.62081576220742
 40
15.7182257034828
 40
16.82123173843959
 40
17.92886860250316
 40
19.0400688939571
 40
20.15368796660465
 40
21.26852814259644
 40
22.38336992938901
 40
23.49698739941135
 40
24.6081876908653
 40
25.71582455492886
 40
26.81883757994213
 40
27.91624752121713
 40
29.00722033829659
 40
30.09105838626677
 40
31.16722880550176
 40
32.23537921050758
 40
33.29534548809967
 40
34.347168041821
 40
35.39108718934584
 40
36.42754827133493
 40
37.45720575381954
 40
38.48085062012849
 40
39.49948440763516
 40
40.51422944315121
 40
41.52631975251916
 40
42.53706336719636
 40
43.54780698187354
 40
44.55989729124051
 40
45.57464232675757
 40
46.59327611426424
 40
47.6169209805722
 40
48.64656348684535
 40
49.68302456883444
 40
50.58557219878025
 40
50.58557219878025
 40
50.58557219878025
 40
50.58557219878025
 10
-5.946789785399626
 20
-6.099999369262014
 30
0.0
 10
-6.301464440006359
 20
-6.096370017043541
 30
0.0
 10
-7.011286139676914
 20
-6.08910647867971
 30
0.0
 10
-8.075760371536429
 20
-6.030554205121991
 30
0.0
 10
-9.140189165004546
 20
-5.937471385725554
 30
0.0
 10
-10.20455208078059
 20
-5.807012274135278
 30
0.0
 10
-11.26883849819816
 20
-5.640944841437099
 30
0.0
 10
-12.33302742126581
 20
-5.440007563039583
 30
0.0
 10
-13.39712240964831
 20
-5.20555402407013
 30
0.0
 10
-14.46111402697363
 20
-4.939019905823975
 30
0.0
 10
-15.52499502551969
 20
-4.642041711618135
 30
0.0
 10
-16.58877070814513
 20
-4.316483542878619
 30
0.0
 10
-17.65244392385337
 20
-3.964337837916902
 30
0.0
 10
-18.71602796238924
 20
-3.58779679319749
 30
0.0
 10
-19.77952769323666
 20
-3.189174334116478
 30
0.0
 10
-20.84295297794985
 20
-2.770928804803548
 30
0.0
 10
-21.90631561005913
 20
-2.335640446169863
 30
0.0
 10
-22.96962492220272
 20
-1.885986075670968
 30
0.0
 10
-24.03289123391863
 20
-1.424731242605296
 30
0.0
 10
-25.09612592260823
 20
-0.954714915670557
 30
0.0
 10
-26.15933831385179
 20
-0.4788265620849591
 30
0.0
 10
-27.22254342185525
 20
-0.0000006138829861
 30
0.0
 10
-28.28574375695737
 20
0.4788339534844625
 30
0.0
 10
-29.34895971185712
 20
0.9547148962296418
 30
0.0
 10
-30.41219308796925
 20
1.424732645877044
 30
0.0
 10
-31.47546129547722
 20
1.88598923611804
 30
0.0
 10
-32.53877501873791
 20
2.335639769187578
 30
0.0
 10
-33.60213932911433
 20
2.770930335338893
 30
0.0
 10
-34.66556476735078
 20
3.189175525497821
 30
0.0
 10
-35.72906445950086
 20
3.587798068407637
 30
0.0
 10
-36.79264850076015
 20
3.964339113677856
 30
0.0
 10
-37.85632174356097
 20
4.316484734436222
 30
0.0
 10
-38.92009731639314
 20
4.64204323560058
 30
0.0
 10
-39.98397374276947
 20
4.939018807492767
 30
0.0
 10
-41.04795878053555
 20
5.205556416670879
 30
0.0
 10
-42.11205337419406
 20
5.440014670206049
 30
0.0
 10
-43.17624989592727
 20
5.640928998777068
 30
0.0
 10
-44.24053982944641
 20
5.807047832856277
 30
0.0
 10
-45.30490306074725
 20
5.937352302008468
 30
0.0
 10
-46.36933259381282
 20
6.031000379458591
 30
0.0
 10
-47.43380592312507
 20
6.087430268669772
 30
0.0
 10
-48.49830264359315
 20
6.106281627443758
 30
0.0
 10
-49.56279936249496
 20
6.087430268640274
 30
0.0
 10
-50.62727269651507
 20
6.031000379577271
 30
0.0
 10
-51.69170221224753
 20
5.937352301561751
 30
0.0
 10
-52.75606550853449
 20
5.807047834535691
 30
0.0
 10
-53.82035000912989
 20
5.640929802319133
 30
0.0
 10
-54.8845423383339
 20
5.440016724446788
 30
0.0
 10
-55.90025486008734
 20
5.216199337017473
 30
0.0
 10
-56.559260711464
 20
5.052519565693903
 30
0.0
 10
-56.86500101686376
 20
4.972750428347828
 30
0.0
  0
VIEWPORT
  5
110
330
101
100
AcDbEntity
 67
     1
  8
0
100
AcDbViewport
 10
420.5
 20
297.0
 30
0.0
 40
948.9782706766916
 41
628.452
 68
     1
 69
     1
1001
ACAD
1000
MVIEW
1002
{
1070
    16
1010
0.0
1020
0.0
1030
0.0
1010
0.0
1020
0.0
1030
1.0
1040
0.0
1040
628.452
1040
420.5
1040
297.0
1040
50.0
1040
0.0
1040
0.0
1070
     0
1070
   100
1070
     1
1070
     1
1070
     0
1070
     0
1070
     0
1070
     0
1040
0.0
1040
0.0
1040
0.0
1040
10.0
1040
10.0
1040
10.0
1040
10.0
1070
     0
1002
{
1002
}
1002
}
  0
ENDSEC
  0
SECTION
  2
OBJECTS
  0
DICTIONARY
  5
C
330
0
100
AcDbDictionary
  3
ACAD_GROUP
350
D
  3
ACAD_LAYOUT
350
1A
  3
ACAD_MLINESTYLE
350
17
  3
ACAD_PLOTSETTINGS
350
19
  3
ACAD_PLOTSTYLENAME
350
E
  3
ACDBVARIABLEDICTIONARY
350
34
  3
ACMDICTIONARY
350
43
  3
AMG
350
2B
  3
AMGSNAPSETTINGS
350
6E
  3
DWGPROPS
350
39D5
  3
ACDBHEADERROUNDTRIPXREC
350
39E2
  0
DICTIONARY
  5
74
330
1F
100
AcDbDictionary
280
     1
  3
ACAD_INDEX
360
39D7
  3
ACAD_LAYOUTSELFREF
360
3A05
  0
DICTIONARY
  5
3A0A
330
101
100
AcDbDictionary
280
     1
  3
ACAD_LAYOUTSELFREF
360
3A0B
  0
DICTIONARY
  5
D
102
{ACAD_REACTORS
330
C
102
}
330
C
100
AcDbDictionary
  0
DICTIONARY
  5
1A
102
{ACAD_REACTORS
330
C
102
}
330
C
100
AcDbDictionary
  0
DICTIONARY
  5
17
102
{ACAD_REACTORS
330
C
102
}
330
C
100
AcDbDictionary
  3
STANDARD
350
18
  0
DICTIONARY
  5
19
102
{ACAD_REACTORS
330
C
102
}
330
C
100
AcDbDictionary
  0
ACDBDICTIONARYWDFLT
  5
E
102
{ACAD_REACTORS
330
C
102
}
330
C
100
AcDbDictionary
281
     1
  3
Normal
350
F
100
AcDbDictionaryWithDefault
340
F
  0
DICTIONARY
  5
34
102
{ACAD_REACTORS
330
C
102
}
330
C
100
AcDbDictionary
  3
INDEXCTL
350
35
  3
SORTENTS
350
B5E
  0
DICTIONARY
  5
43
102
{ACAD_REACTORS
330
C
102
}
330
C
100
AcDbDictionary
  3
ACMSTDDICTIONARY
350
260
  0
DICTIONARY
  5
2B
102
{ACAD_REACTORS
330
C
102
}
330
C
100
AcDbDictionary
  3
ACMGSETTINGS
350
2C
  0
DICTIONARY
  5
6E
102
{ACAD_REACTORS
330
C
102
}
330
C
100
AcDbDictionary
  0
XRECORD
  5
39D5
102
{ACAD_REACTORS
330
C
102
}
330
C
100
AcDbXrecord
  1
DWGPROPS COOKIE
  2

  3

  4

  6

  7

  8

  9

300
AmdtFileType=82
301
=
302
=
303
=
304
=
305
=
306
=
307
=
308
=
309
=
 40
0.0778656481481481
 41
2452800.443498622
 42
2452946.634437211
  1

 90
        1
  0
DICTIONARY
  5
39E2
102
{ACAD_REACTORS
330
C
102
}
330
C
100
AcDbDictionary
  3
TSTACKALIGN
350
39E3
  3
TSTACKSIZE
350
39E4
  3
HYPERLINKBASE
350
39E5
  3
STYLESHEET
350
39E6
  3
LAYOUTDICT
350
39E7
  3
PLOTSETDICT
350
39E8
  3
PLOTSTYLNAMDICT
350
39E9
  3
LWETCUNION
350
39EA
  3
INSUNITS
350
39EB
  3
CEPSNTYPE
350
39EC
  3
FINGERPRINTGUID
350
39ED
  3
VERSIONGUID
350
39EE
  3
PSVPSCALE
350
39EF
  3
DIMSTYLEDATA
350
39F0
  3
PUCSORTHOREF
350
39F1
  3
PUCSORTHOVIEW
350
39F2
  3
PUCSBASE
350
39F3
  3
PUCSORGTOP
350
39F4
  3
PUCSORGBOTTOM
350
39F5
  3
PUCSORGLEFT
350
39F6
  3
PUCSORGRIGHT
350
39F7
  3
PUCSORGFRONT
350
39F8
  3
PUCSORGBACK
350
39F9
  3
UCSORTHOREF
350
39FA
  3
UCSORTHOVIEW
350
39FB
  3
UCSBASE
350
39FC
  3
UCSORGTOP
350
39FD
  3
UCSORGBOTTOM
350
39FE
  3
UCSORGLEFT
350
39FF
  3
UCSORGRIGHT
350
3A00
  3
UCSORGFRONT
350
3A01
  3
UCSORGBACK
350
3A02
  0
DICTIONARY
  5
39D7
102
{ACAD_REACTORS
330
74
102
}
330
74
100
AcDbDictionary
  3
*A1
350
39D8
  0
XRECORD
  5
3A05
102
{ACAD_REACTORS
330
74
102
}
330
74
100
AcDbXrecord
340
1F
  0
XRECORD
  5
3A0B
102
{ACAD_REACTORS
330
3A0A
102
}
330
3A0A
100
AcDbXrecord
340
101
  0
MLINESTYLE
  5
18
102
{ACAD_REACTORS
330
17
102
}
330
17
100
AcDbMlineStyle
  2
STANDARD
 70
     0
  3

 62
   256
 51
90.0
 52
90.0
 71
     2
 49
0.5
 62
   256
  6
BYLAYER
 49
-0.5
 62
   256
  6
BYLAYER
  0
ACDBPLACEHOLDER
  5
F
102
{ACAD_REACTORS
330
E
102
}
330
E
100
AcDbPlaceHolder
280
     0
  0
DICTIONARYVAR
  5
35
102
{ACAD_REACTORS
330
34
102
}
330
34
100
DictionaryVariables
280
     0
  1
1
  0
DICTIONARYVAR
  5
B5E
102
{ACAD_REACTORS
330
34
102
}
330
34
100
DictionaryVariables
280
     0
  1
96
  0
DICTIONARY
  5
260
102
{ACAD_REACTORS
330
43
102
}
330
43
100
AcDbDictionary
  0
DICTIONARY
  5
2C
102
{ACAD_REACTORS
330
2B
102
}
330
2B
100
AcDbDictionary
  3
DWGSETTINGS
350
2D
  0
XRECORD
  5
39E3
102
{ACAD_REACTORS
330
39E2
102
}
330
39E2
100
AcDbXrecord
 90
        1
  0
XRECORD
  5
39E4
102
{ACAD_REACTORS
330
39E2
102
}
330
39E2
100
AcDbXrecord
 90
       70
  0
XRECORD
  5
39E5
102
{ACAD_REACTORS
330
39E2
102
}
330
39E2
100
AcDbXrecord
  1

  0
XRECORD
  5
39E6
102
{ACAD_REACTORS
330
39E2
102
}
330
39E2
100
AcDbXrecord
  1
ASAMI.ctb
  0
XRECORD
  5
39E7
102
{ACAD_REACTORS
330
39E2
102
}
330
39E2
100
AcDbXrecord
340
1A
  0
XRECORD
  5
39E8
102
{ACAD_REACTORS
330
39E2
102
}
330
39E2
100
AcDbXrecord
340
19
  0
XRECORD
  5
39E9
102
{ACAD_REACTORS
330
39E2
102
}
330
39E2
100
AcDbXrecord
340
E
  0
XRECORD
  5
39EA
102
{ACAD_REACTORS
330
39E2
102
}
330
39E2
100
AcDbXrecord
 90
    10781
  0
XRECORD
  5
39EB
102
{ACAD_REACTORS
330
39E2
102
}
330
39E2
100
AcDbXrecord
 90
        4
  0
XRECORD
  5
39EC
102
{ACAD_REACTORS
330
39E2
102
}
330
39E2
100
AcDbXrecord
 90
        0
  0
XRECORD
  5
39ED
102
{ACAD_REACTORS
330
39E2
102
}
330
39E2
100
AcDbXrecord
  1
{AFB28963-8C59-40AE-9337-C84526B81ACE}
  0
XRECORD
  5
39EE
102
{ACAD_REACTORS
330
39E2
102
}
330
39E2
100
AcDbXrecord
  1
{6A53B273-1311-4822-886E-C10724D5A067}
  0
XRECORD
  5
39EF
102
{ACAD_REACTORS
330
39E2
102
}
330
39E2
100
AcDbXrecord
 40
0.0
  0
XRECORD
  5
39F0
102
{ACAD_REACTORS
330
39E2
102
}
330
39E2
100
AcDbXrecord
1000
DSTYLE
1002
{
1070
    79
 70
     2
1070
   341
340
59
1070
   342
340
59
1070
   371
 70
    -1
1070
   372
 70
    -1
1002
}
  0
XRECORD
  5
39F1
102
{ACAD_REACTORS
330
39E2
102
}
330
39E2
100
AcDbXrecord
340
0
  0
XRECORD
  5
39F2
102
{ACAD_REACTORS
330
39E2
102
}
330
39E2
100
AcDbXrecord
 70
     0
  0
XRECORD
  5
39F3
102
{ACAD_REACTORS
330
39E2
102
}
330
39E2
100
AcDbXrecord
340
0
  0
XRECORD
  5
39F4
102
{ACAD_REACTORS
330
39E2
102
}
330
39E2
100
AcDbXrecord
 10
0.0
 20
0.0
 30
0.0
  0
XRECORD
  5
39F5
102
{ACAD_REACTORS
330
39E2
102
}
330
39E2
100
AcDbXrecord
 10
0.0
 20
0.0
 30
0.0
  0
XRECORD
  5
39F6
102
{ACAD_REACTORS
330
39E2
102
}
330
39E2
100
AcDbXrecord
 10
0.0
 20
0.0
 30
0.0
  0
XRECORD
  5
39F7
102
{ACAD_REACTORS
330
39E2
102
}
330
39E2
100
AcDbXrecord
 10
0.0
 20
0.0
 30
0.0
  0
XRECORD
  5
39F8
102
{ACAD_REACTORS
330
39E2
102
}
330
39E2
100
AcDbXrecord
 10
0.0
 20
0.0
 30
0.0
  0
XRECORD
  5
39F9
102
{ACAD_REACTORS
330
39E2
102
}
330
39E2
100
AcDbXrecord
 10
0.0
 20
0.0
 30
0.0
  0
XRECORD
  5
39FA
102
{ACAD_REACTORS
330
39E2
102
}
330
39E2
100
AcDbXrecord
340
0
  0
XRECORD
  5
39FB
102
{ACAD_REACTORS
330
39E2
102
}
330
39E2
100
AcDbXrecord
 70
     0
  0
XRECORD
  5
39FC
102
{ACAD_REACTORS
330
39E2
102
}
330
39E2
100
AcDbXrecord
340
0
  0
XRECORD
  5
39FD
102
{ACAD_REACTORS
330
39E2
102
}
330
39E2
100
AcDbXrecord
 10
0.0
 20
0.0
 30
0.0
  0
XRECORD
  5
39FE
102
{ACAD_REACTORS
330
39E2
102
}
330
39E2
100
AcDbXrecord
 10
0.0
 20
0.0
 30
0.0
  0
XRECORD
  5
39FF
102
{ACAD_REACTORS
330
39E2
102
}
330
39E2
100
AcDbXrecord
 10
0.0
 20
0.0
 30
0.0
  0
XRECORD
  5
3A00
102
{ACAD_REACTORS
330
39E2
102
}
330
39E2
100
AcDbXrecord
 10
0.0
 20
0.0
 30
0.0
  0
XRECORD
  5
3A01
102
{ACAD_REACTORS
330
39E2
102
}
330
39E2
100
AcDbXrecord
 10
0.0
 20
0.0
 30
0.0
  0
XRECORD
  5
3A02
102
{ACAD_REACTORS
330
39E2
102
}
330
39E2
100
AcDbXrecord
 10
0.0
 20
0.0
 30
0.0
  0
LAYER_INDEX
  5
39D8
102
{ACAD_REACTORS
330
39D7
102
}
330
39D7
100
AcDbIndex
 40
2453151.56271971
100
AcDbLayerIndex
  8
0
360
39D9
 90
        0
  8
AM_0
360
39DA
 90
       44
  8
AM_7
360
39DB
 90
        1
  8
AM_11
360
39DC
 90
       17
  8
AM_5
360
39DD
 90
        5
  8
Defpoints
360
39DE
 90
        0
  8
AM_6
360
39DF
 90
        1
  8
AM_CL
360
39E0
 90
        0
  0
XRECORD
  5
2D
102
{ACAD_REACTORS
330
2C
102
}
330
2C
100
AcDbXrecord
  1
VERSION
140
15.0
  1
PRODUCT
  2
AutoCAD Mechanical 2000
  0
IDBUFFER
  5
39D9
330
0
100
AcDbIdBuffer
  0
IDBUFFER
  5
39DA
330
0
100
AcDbIdBuffer
330
3906
330
3907
330
3908
330
3909
330
390A
330
390C
330
390E
330
390F
330
3912
330
3913
330
3914
330
3915
330
3916
330
3917
330
3918
330
3919
330
391A
330
391B
330
391C
330
391D
330
391E
330
391F
330
3920
330
3921
330
3922
330
3923
330
3924
330
3925
330
C1D
330
C20
330
24A7
330
24BE
330
2572
330
2C0E
330
2FB7
330
2FB9
330
324C
330
325C
330
325D
330
325E
330
3273
330
327F
330
36E9
330
36EA
  0
IDBUFFER
  5
39DB
330
0
100
AcDbIdBuffer
330
23EF
  0
IDBUFFER
  5
39DC
330
0
100
AcDbIdBuffer
330
3911
330
24B7
330
24B8
330
24B9
330
24C7
330
24C8
330
24D4
330
24D5
330
24E6
330
24E7
330
2BF3
330
2BF5
330
353A
330
353B
330
390B
330
390D
330
3910
  0
IDBUFFER
  5
39DD
330
0
100
AcDbIdBuffer
330
CC6
330
2069
330
2D60
330
324F
330
3725
  0
IDBUFFER
  5
39DE
330
0
100
AcDbIdBuffer
  0
IDBUFFER
  5
39DF
330
0
100
AcDbIdBuffer
330
19BD
  0
IDBUFFER
  5
39E0
330
0
100
AcDbIdBuffer
  0
ENDSEC
  0
EOF
