  0
SECTION
  2
HEADER
  9
$ACADVER
  1
AC1014
  9
$ACADMAINTVER
 70
     9
  9
$DWGCODEPAGE
  3
ANSI_932
  9
$INSBASE
 10
0.0
 20
0.0
 30
0.0
  9
$EXTMIN
 10
-188.2339004497231
 20
-65.14239330363711
 30
-0.00000001
  9
$EXTMAX
 10
40.19847719016172
 20
38.71390632246295
 30
0.00000001
  9
$LIMMIN
 10
-227.0123052879837
 20
-106.5713383567704
  9
$LIMMAX
 10
70.19325742310957
 20
74.35626432644665
  9
$ORTHOMODE
 70
     0
  9
$REGENMODE
 70
     1
  9
$FILLMODE
 70
     1
  9
$QTEXTMODE
 70
     0
  9
$MIRRTEXT
 70
     0
  9
$DRAGMODE
 70
     2
  9
$LTSCALE
 40
1.0
  9
$OSMODE
 70
    55
  9
$ATTMODE
 70
     1
  9
$TEXTSIZE
 40
2.5
  9
$TRACEWID
 40
1.0
  9
$TEXTSTYLE
  7
STANDARD
  9
$CLAYER
  8
AM_0
  9
$CELTYPE
  6
BYLAYER
  9
$CECOLOR
 62
   256
  9
$CELTSCALE
 40
1.0
  9
$DELOBJ
 70
     1
  9
$DISPSILH
 70
     0
  9
$DIMSCALE
 40
1.0
  9
$DIMASZ
 40
2.5
  9
$DIMEXO
 40
1.0
  9
$DIMDLI
 40
12.0
  9
$DIMRND
 40
0.0
  9
$DIMDLE
 40
0.0
  9
$DIMEXE
 40
1.0
  9
$DIMTP
 40
0.1
  9
$DIMTM
 40
0.1
  9
$DIMTXT
 40
3.2
  9
$DIMCEN
 40
0.0
  9
$DIMTSZ
 40
0.0
  9
$DIMTOL
 70
     0
  9
$DIMLIM
 70
     0
  9
$DIMTIH
 70
     0
  9
$DIMTOH
 70
     0
  9
$DIMSE1
 70
     0
  9
$DIMSE2
 70
     0
  9
$DIMTAD
 70
     3
  9
$DIMZIN
 70
     8
  9
$DIMBLK
  1
OPEN30
  9
$DIMASO
 70
     1
  9
$DIMSHO
 70
     1
  9
$DIMPOST
  1

  9
$DIMAPOST
  1
"
  9
$DIMALT
 70
     0
  9
$DIMALTD
 70
     2
  9
$DIMALTF
 40
0.0393701
  9
$DIMLFAC
 40
1.0
  9
$DIMTOFL
 70
     1
  9
$DIMTVP
 40
0.0
  9
$DIMTIX
 70
     0
  9
$DIMSOXD
 70
     0
  9
$DIMSAH
 70
     0
  9
$DIMBLK1
  1

  9
$DIMBLK2
  1

  9
$DIMSTYLE
  2
AM_JIS
  9
$DIMCLRD
 70
   256
  9
$DIMCLRE
 70
   256
  9
$DIMCLRT
 70
     2
  9
$DIMTFAC
 40
0.71
  9
$DIMGAP
 40
1.5
  9
$DIMJUST
 70
     0
  9
$DIMSD1
 70
     0
  9
$DIMSD2
 70
     0
  9
$DIMTOLJ
 70
     0
  9
$DIMTZIN
 70
     0
  9
$DIMALTZ
 70
     0
  9
$DIMALTTZ
 70
     0
  9
$DIMFIT
 70
     3
  9
$DIMUPT
 70
     0
  9
$DIMUNIT
 70
     2
  9
$DIMDEC
 70
     3
  9
$DIMTDEC
 70
     3
  9
$DIMALTU
 70
     2
  9
$DIMALTTD
 70
     2
  9
$DIMTXSTY
  7
ASAMI
  9
$DIMAUNIT
 70
     0
  9
$LUNITS
 70
     2
  9
$LUPREC
 70
     2
  9
$SKETCHINC
 40
1.0
  9
$FILLETRAD
 40
2.5
  9
$AUNITS
 70
     0
  9
$AUPREC
 70
     0
  9
$MENU
  1
.
  9
$ELEVATION
 40
0.0
  9
$PELEVATION
 40
0.0
  9
$THICKNESS
 40
0.0
  9
$LIMCHECK
 70
     0
  9
$BLIPMODE
 70
     0
  9
$CHAMFERA
 40
2.5
  9
$CHAMFERB
 40
2.5
  9
$CHAMFERC
 40
20.0
  9
$CHAMFERD
 40
0.0
  9
$SKPOLY
 70
     0
  9
$TDCREATE
 40
2452800.443498622
  9
$TDUPDATE
 40
2453151.586686724
  9
$TDINDWG
 40
0.1498921759
  9
$TDUSRTIMER
 40
0.1498921759
  9
$USRTIMER
 70
     1
  9
$ANGBASE
 50
0.0
  9
$ANGDIR
 70
     0
  9
$PDMODE
 70
     0
  9
$PDSIZE
 40
0.0
  9
$PLINEWID
 40
0.0
  9
$COORDS
 70
     1
  9
$SPLFRAME
 70
     0
  9
$SPLINETYPE
 70
     6
  9
$SPLINESEGS
 70
     8
  9
$ATTDIA
 70
     1
  9
$ATTREQ
 70
     1
  9
$HANDLING
 70
 12289
  9
$HANDSEED
  5
2F95
  9
$SURFTAB1
 70
     6
  9
$SURFTAB2
 70
     6
  9
$SURFTYPE
 70
     6
  9
$SURFU
 70
     6
  9
$SURFV
 70
     6
  9
$UCSNAME
  2

  9
$UCSORG
 10
0.0
 20
0.0
 30
0.0
  9
$UCSXDIR
 10
1.0
 20
0.0000000000000027
 30
0.0
  9
$UCSYDIR
 10
-0.0000000000000027
 20
1.0
 30
0.0
  9
$PUCSNAME
  2

  9
$PUCSORG
 10
0.0
 20
0.0
 30
0.0
  9
$PUCSXDIR
 10
1.0
 20
0.0
 30
0.0
  9
$PUCSYDIR
 10
0.0
 20
1.0
 30
0.0
  9
$USERI1
 70
     0
  9
$USERI2
 70
     0
  9
$USERI3
 70
     0
  9
$USERI4
 70
     0
  9
$USERI5
 70
     0
  9
$USERR1
 40
0.0
  9
$USERR2
 40
0.0
  9
$USERR3
 40
0.0
  9
$USERR4
 40
0.0
  9
$USERR5
 40
0.0
  9
$WORLDVIEW
 70
     1
  9
$SHADEDGE
 70
     3
  9
$SHADEDIF
 70
    70
  9
$TILEMODE
 70
     1
  9
$MAXACTVP
 70
    64
  9
$PINSBASE
 10
0.0
 20
0.0
 30
0.0
  9
$PLIMCHECK
 70
     0
  9
$PEXTMIN
 10
1.000000000000000E+20
 20
1.000000000000000E+20
 30
1.000000000000000E+20
  9
$PEXTMAX
 10
-1.000000000000000E+20
 20
-1.000000000000000E+20
 30
-1.000000000000000E+20
  9
$PLIMMIN
 10
0.0
 20
0.0
  9
$PLIMMAX
 10
841.0
 20
594.0
  9
$UNITMODE
 70
     0
  9
$VISRETAIN
 70
     1
  9
$PLINEGEN
 70
     0
  9
$PSLTSCALE
 70
     0
  9
$TREEDEPTH
 70
  3020
  9
$PICKSTYLE
 70
     0
  9
$CMLSTYLE
  2
STANDARD
  9
$CMLJUST
 70
     0
  9
$CMLSCALE
 40
20.0
  9
$PROXYGRAPHICS
 70
     1
  9
$MEASUREMENT
 70
     1
  0
ENDSEC
  0
SECTION
  2
CLASSES
  0
CLASS
  1
ACDBDICTIONARYWDFLT
  2
AcDbDictionaryWithDefault
  3
AutoCAD 2000
 90
        0
280
     0
281
     0
  0
CLASS
  1
ACDBPLACEHOLDER
  2
AcDbPlaceHolder
  3
AutoCAD 2000
 90
        0
280
     0
281
     0
  0
CLASS
  1
LAYOUT
  2
AcDbLayout
  3
AutoCAD 2000
 90
        0
280
     0
281
     0
  0
CLASS
  1
AMGSETTINGSOBJ
  2
AmgSettingsObj
  3
"AcadM|Product Description: AutoCAD Mechanical 2000|Company: Autodesk"
 90
        0
280
     0
281
     0
  0
CLASS
  1
ACME_DOCUMENT
  2
AcMeDbDoc
  3
AcMeServices
 90
        0
280
     0
281
     0
  0
CLASS
  1
ACMESCOPE
  2
AcMeScope
  3
AcMeServices
 90
        0
280
     0
281
     0
  0
CLASS
  1
ACMECOMMANDHISTORY
  2
AcMeCommandHistory
  3
AcMeServices
 90
        0
280
     0
281
     0
  0
CLASS
  1
DICTIONARYVAR
  2
AcDbDictionaryVar
  3
AutoCAD 2000
 90
        0
280
     0
281
     0
  0
CLASS
  1
ACIMSYSVARMAN
  2
AcImSysVarManager
  3
AcMeServices
 90
        0
280
     0
281
     0
  0
CLASS
  1
ACIMREALSYSVAR
  2
AcImRealSysVar
  3
AcMeServices
 90
        0
280
     0
281
     0
  0
CLASS
  1
ACIMINTSYSVAR
  2
AcImIntSysVar
  3
AcMeServices
 90
        0
280
     0
281
     0
  0
CLASS
  1
ACMEDRAWINGMAN
  2
AcMeDrawingMan
  3
AcMeServices
 90
        0
280
     0
281
     0
  0
CLASS
  1
ACMEVIEW
  2
AcMeView
  3
AcMeServices
 90
        0
280
     0
281
     0
  0
CLASS
  1
ACDBENTITYCACHE
  2
AcMeEntityCache
  3
AcMeServices
 90
        0
280
     0
281
     0
  0
CLASS
  1
GSMANAGER
  2
AcMeGSManager
  3
AcMeServices
 90
        0
280
     0
281
     0
  0
CLASS
  1
AmdtInternalReactor
  2
AmdtInternalReactor
  3
AcMeServices
 90
        0
280
     0
281
     0
  0
CLASS
  1
ACMESTATEMGR
  2
AcMeStateMgr
  3
AcMeServices
 90
        0
280
     0
281
     0
  0
CLASS
  1
ACME_DATABASE
  2
AcMeDbDatabase
  3
AcMeServices
 90
        0
280
     0
281
     0
  0
CLASS
  1
ACRFINSADJUSTERMGR
  2
AcRfInsAdjusterMgr
  3
AcMeServices
 90
        0
280
     0
281
     0
  0
CLASS
  1
ACMDATADICTIONARY
  2
AcmDataDictionary
  3
"AcmSymBB|Product Description: AutoCAD Mechanical 2000|Company: Autodesk"
 90
        0
280
     0
281
     0
  0
CLASS
  1
ACMDATAENTRYBLOCK
  2
AcmDataEntryBlock
  3
"AcmSymBB|Product Description: AutoCAD Mechanical 2000|Company: Autodesk"
 90
        0
280
     0
281
     0
  0
CLASS
  1
AMGOBJPROPCFG
  2
AmgObjPropCfg
  3
"AmgLay|Product Description: AutoCAD Mechanical 2000|Company: Autodesk"
 90
        1
280
     0
281
     0
  0
CLASS
  1
ACAMGFILTERDAT
  2
AcAmgFilterDat
  3
"AcadM|Product Description: AutoCAD Mechanical 2000|Company: Autodesk"
 90
        0
280
     0
281
     0
  0
CLASS
  1
LAYER_INDEX
  2
AcDbLayerIndex
  3
AutoCAD 2000
 90
        0
280
     0
281
     0
  0
CLASS
  1
IDBUFFER
  2
AcDbIdBuffer
  3
AutoCAD 2000
 90
        0
280
     0
281
     0
  0
CLASS
  1
ACIMSTRSYSVAR
  2
AcImStrSysVar
  3
AcMeServices
 90
        0
280
     0
281
     0
  0
CLASS
  1
ACMSTANDARDJIS
  2
AcmStandardJIS
  3
"AcmSymBB|Product Description: AutoCAD Mechanical 2000|Company: Autodesk"
 90
        0
280
     0
281
     0
  0
CLASS
  1
ACMSURFSTANDARDJIS
  2
AcmSurfTextStdJIS
  3
"AcmSymBB|Product Description: AutoCAD Mechanical 2000|Company: Autodesk"
 90
        0
280
     0
281
     0
  0
CLASS
  1
ACMFCFSTANDARDJIS
  2
AcmFCFStdJIS
  3
"AcmSymBB|Product Description: AutoCAD Mechanical 2000|Company: Autodesk"
 90
        0
280
     0
281
     0
  0
CLASS
  1
ACMWELDSTANDARDJIS
  2
AcmWeldingStdJIS
  3
"AcmSymBB|Product Description: AutoCAD Mechanical 2000|Company: Autodesk"
 90
        0
280
     0
281
     0
  0
CLASS
  1
ACMIDSTANDARDJIS
  2
AcmIdStdJIS
  3
"AcmSymBB|Product Description: AutoCAD Mechanical 2000|Company: Autodesk"
 90
        0
280
     0
281
     0
  0
CLASS
  1
ACMDATUMSTANDARDJIS
  2
AcmDatumStdJIS
  3
"AcmSymBB|Product Description: AutoCAD Mechanical 2000|Company: Autodesk"
 90
        0
280
     0
281
     0
  0
CLASS
  1
ACMBOMSTANDARDJIS
  2
AcmBOMStdJIS
  3
"AcmSymBB|Product Description: AutoCAD Mechanical 2000|Company: Autodesk"
 90
        0
280
     0
281
     0
  0
CLASS
  1
ACMSTANDARDANSI
  2
AcmStandardANSI
  3
"AcmSymBB|Product Description: AutoCAD Mechanical 2000|Company: Autodesk"
 90
        0
280
     0
281
     0
  0
CLASS
  1
ACMSURFSTANDARDANSI
  2
AcmSurfTextStdANSI
  3
"AcmSymBB|Product Description: AutoCAD Mechanical 2000|Company: Autodesk"
 90
        0
280
     0
281
     0
  0
CLASS
  1
ACMFCFSTANDARDANSI
  2
AcmFCFStdANSI
  3
"AcmSymBB|Product Description: AutoCAD Mechanical 2000|Company: Autodesk"
 90
        0
280
     0
281
     0
  0
CLASS
  1
ACMWELDSTANDARDANSI
  2
AcmWeldingStdANSI
  3
"AcmSymBB|Product Description: AutoCAD Mechanical 2000|Company: Autodesk"
 90
        0
280
     0
281
     0
  0
CLASS
  1
ACMIDSTANDARDANSI
  2
AcmIdStdANSI
  3
"AcmSymBB|Product Description: AutoCAD Mechanical 2000|Company: Autodesk"
 90
        0
280
     0
281
     0
  0
CLASS
  1
ACMDATUMSTANDARDANSI
  2
AcmDatumStdANSI
  3
"AcmSymBB|Product Description: AutoCAD Mechanical 2000|Company: Autodesk"
 90
        0
280
     0
281
     0
  0
CLASS
  1
ACMBOMSTANDARDANSI
  2
AcmBOMStdANSI
  3
"AcmSymBB|Product Description: AutoCAD Mechanical 2000|Company: Autodesk"
 90
        0
280
     0
281
     0
  0
CLASS
  1
ACMSTANDARDBSI
  2
AcmStandardBSI
  3
"AcmSymBB|Product Description: AutoCAD Mechanical 2000|Company: Autodesk"
 90
        0
280
     0
281
     0
  0
CLASS
  1
ACMSURFSTANDARDBSI
  2
AcmSurfTextStdBSI
  3
"AcmSymBB|Product Description: AutoCAD Mechanical 2000|Company: Autodesk"
 90
        0
280
     0
281
     0
  0
CLASS
  1
ACMFCFSTANDARDBSI
  2
AcmFCFStdBSI
  3
"AcmSymBB|Product Description: AutoCAD Mechanical 2000|Company: Autodesk"
 90
        0
280
     0
281
     0
  0
CLASS
  1
ACMWELDSTANDARDBSI
  2
AcmWeldingStdBSI
  3
"AcmSymBB|Product Description: AutoCAD Mechanical 2000|Company: Autodesk"
 90
        0
280
     0
281
     0
  0
CLASS
  1
ACMIDSTANDARDBSI
  2
AcmIdStdBSI
  3
"AcmSymBB|Product Description: AutoCAD Mechanical 2000|Company: Autodesk"
 90
        0
280
     0
281
     0
  0
CLASS
  1
ACMDATUMSTANDARDBSI
  2
AcmDatumStdBSI
  3
"AcmSymBB|Product Description: AutoCAD Mechanical 2000|Company: Autodesk"
 90
        0
280
     0
281
     0
  0
CLASS
  1
ACMBOMSTANDARDBSI
  2
AcmBOMStdBSI
  3
"AcmSymBB|Product Description: AutoCAD Mechanical 2000|Company: Autodesk"
 90
        0
280
     0
281
     0
  0
CLASS
  1
LONG_TRANSACTION
  2
AcDbLongTransaction
  3
AutoCAD 2000
 90
        0
280
     0
281
     0
  0
CLASS
  1
LWPOLYLINE
  2
AcDbPolyline
  3
AutoCAD 2000
 90
        0
280
     0
281
     1
  0
CLASS
  1
HATCH
  2
AcDbHatch
  3
AutoCAD 2000
 90
        0
280
     0
281
     1
  0
CLASS
  1
XRECORD
  2
AcDbXrecord
  3
AutoCAD 2000
 90
        0
280
     0
281
     0
  0
ENDSEC
  0
SECTION
  2
TABLES
  0
TABLE
  2
VPORT
  5
8
330
0
100
AcDbSymbolTable
 70
     3
  0
VPORT
  5
2F6A
330
8
100
AcDbSymbolTableRecord
100
AcDbViewportTableRecord
  2
*ACTIVE
 70
     0
 10
0.0
 20
0.0
 11
1.0
 21
1.0
 12
-54.99522025931231
 22
32.62865153067292
 13
0.0
 23
0.0
 14
2.5
 24
2.5
 15
10.0
 25
10.0
 16
0.0
 26
0.0
 36
1.0
 17
0.0
 27
0.0
 37
0.0
 40
378.8459923714482
 41
1.56570841889117
 42
50.0
 43
0.0
 44
0.0
 50
0.0
 51
0.0
 71
     0
 72
   100
 73
     1
 74
     1
 75
     0
 76
     0
 77
     0
 78
     0
  0
ENDTAB
  0
TABLE
  2
LTYPE
  5
5
330
0
100
AcDbSymbolTable
 70
    10
  0
LTYPE
  5
14
330
5
100
AcDbSymbolTableRecord
100
AcDbLinetypeTableRecord
  2
BYBLOCK
 70
     0
  3

 72
    65
 73
     0
 40
0.0
  0
LTYPE
  5
15
330
5
100
AcDbSymbolTableRecord
100
AcDbLinetypeTableRecord
  2
BYLAYER
 70
     0
  3

 72
    65
 73
     0
 40
0.0
  0
LTYPE
  5
16
330
5
100
AcDbSymbolTableRecord
100
AcDbLinetypeTableRecord
  2
CONTINUOUS
 70
     0
  3
Solid line
 72
    65
 73
     0
 40
0.0
  0
LTYPE
  5
4B
330
5
100
AcDbSymbolTableRecord
100
AcDbLinetypeTableRecord
  2
AM_ISO02W050
 70
     0
  3
__ __ __ __ __ __ __ __ __ __ __ __ __ __ __
 72
    65
 73
     2
 40
7.5
 49
6.0
 74
     0
 49
-1.5
 74
     0
  0
LTYPE
  5
4C
330
5
100
AcDbSymbolTableRecord
100
AcDbLinetypeTableRecord
  2
AM_ISO08W050
 70
     0
  3
____ . ____ . ____ . ____ . ____ . ____ . ____
 72
    65
 73
     4
 40
18.0
 49
12.0
 74
     0
 49
-1.5
 74
     0
 49
3.0
 74
     0
 49
-1.5
 74
     0
  0
LTYPE
  5
4D
330
5
100
AcDbSymbolTableRecord
100
AcDbLinetypeTableRecord
  2
AM_ISO09W050
 70
     0
  3
_____ . . _____ . . _____ . . ____ .. ____
 72
    65
 73
     6
 40
22.5
 49
12.0
 74
     0
 49
-1.5
 74
     0
 49
3.0
 74
     0
 49
-1.5
 74
     0
 49
3.0
 74
     0
 49
-1.5
 74
     0
  0
LTYPE
  5
4E
330
5
100
AcDbSymbolTableRecord
100
AcDbLinetypeTableRecord
  2
AMCONSTR
 70
     0
  3
_______________________
 72
    65
 73
     2
 40
9999.0
 49
9999.0
 74
     0
 49
0.0
 74
     0
  0
LTYPE
  5
4F
330
5
100
AcDbSymbolTableRecord
100
AcDbLinetypeTableRecord
  2
AM_ISO02W050X2
 70
     0
  3
 _ _ _ _ _ _ _ _ _ _ _ _
 72
    65
 73
     2
 40
3.75
 49
3.0
 74
     0
 49
-0.75
 74
     0
  0
LTYPE
  5
50
330
5
100
AcDbSymbolTableRecord
100
AcDbLinetypeTableRecord
  2
AM_ISO08W050X2
 70
     0
  3
__ . __ . __ . __ . __ . __
 72
    65
 73
     4
 40
9.0
 49
6.0
 74
     0
 49
-0.75
 74
     0
 49
1.5
 74
     0
 49
-0.75
 74
     0
  0
LTYPE
  5
53
330
5
100
AcDbSymbolTableRecord
100
AcDbLinetypeTableRecord
  2
AMZIGZAG
 70
     0
  3
/\/-/\/-/\/-/\/-/\/-/\/
 72
    65
 73
     2
 40
11.00009999999999
 49
0.0001
 74
     4
 75
   135
340
52
 46
0.04
 50
0.0
 44
0.0
 45
0.0
 49
-11.0
 74
     0
  0
LTYPE
  5
166
330
5
100
AcDbSymbolTableRecord
100
AcDbLinetypeTableRecord
  2
ACJISTGL
 70
     0
  3
_ _ _ _ _
 72
    65
 73
     2
 40
3.0
 49
2.0
 74
     0
 49
-1.0
 74
     0
  0
LTYPE
  5
26A
330
5
100
AcDbSymbolTableRecord
100
AcDbLinetypeTableRecord
  2
ACJISTGB
 70
     0
  3
__ . . __ . .
 72
    65
 73
     6
 40
9.0
 49
4.0
 74
     0
 49
-1.0
 74
     0
 49
1.0
 74
     0
 49
-1.0
 74
     0
 49
1.0
 74
     0
 49
-1.0
 74
     0
  0
ENDTAB
  0
TABLE
  2
LAYER
  5
2
330
0
100
AcDbSymbolTable
 70
    10
  0
LAYER
  5
10
330
2
100
AcDbSymbolTableRecord
100
AcDbLayerTableRecord
  2
0
 70
     0
 62
     7
  6
CONTINUOUS
  0
LAYER
  5
3F9
330
2
100
AcDbSymbolTableRecord
100
AcDbLayerTableRecord
  2
AM_0
 70
     0
 62
     7
  6
CONTINUOUS
  0
LAYER
  5
BA4
330
2
100
AcDbSymbolTableRecord
100
AcDbLayerTableRecord
  2
PV0001_1
 70
     0
 62
     7
  6
CONTINUOUS
  0
LAYER
  5
C6C
330
2
100
AcDbSymbolTableRecord
100
AcDbLayerTableRecord
  2
AM_CL
 70
     0
 62
     1
  6
AMCONSTR
  0
LAYER
  5
C7C
330
2
100
AcDbSymbolTableRecord
100
AcDbLayerTableRecord
  2
AM_7
 70
     0
 62
     4
  6
AM_ISO08W050
  0
LAYER
  5
C97
330
2
100
AcDbSymbolTableRecord
100
AcDbLayerTableRecord
  2
AM_11
 70
     0
 62
     3
  6
AM_ISO09W050
  0
LAYER
  5
CC5
330
2
100
AcDbSymbolTableRecord
100
AcDbLayerTableRecord
  2
AM_5
 70
     0
 62
     3
  6
CONTINUOUS
  0
LAYER
  5
CC7
330
2
100
AcDbSymbolTableRecord
100
AcDbLayerTableRecord
  2
DEFPOINTS
 70
     0
 62
     7
  6
CONTINUOUS
  0
LAYER
  5
19BC
330
2
100
AcDbSymbolTableRecord
100
AcDbLayerTableRecord
  2
AM_6
 70
     0
 62
     2
  6
CONTINUOUS
  0
LAYER
  5
1F8E
330
2
100
AcDbSymbolTableRecord
100
AcDbLayerTableRecord
  2
AM_4
 70
     0
 62
     3
  6
CONTINUOUS
  0
ENDTAB
  0
TABLE
  2
STYLE
  5
3
330
0
100
AcDbSymbolTable
 70
     5
  0
STYLE
  5
11
330
3
100
AcDbSymbolTableRecord
100
AcDbTextStyleTableRecord
  2
STANDARD
 70
     0
 40
0.0
 41
1.0
 50
0.0
 71
     0
 42
2.5
  3
simplex.shx
  4
EXTFONT.SHX
  0
STYLE
  5
52
330
3
100
AcDbSymbolTableRecord
100
AcDbTextStyleTableRecord
  2

 70
     1
 40
0.0
 41
1.0
 50
0.0
 71
     0
 42
2.5
  3
ltypeshp.shx
  4

  0
STYLE
  5
6B
330
3
100
AcDbSymbolTableRecord
100
AcDbTextStyleTableRecord
  2
ASAMI
 70
     0
 40
0.0
 41
1.0
 50
0.0
 71
     0
 42
2.5
  3
simplex.shx
  4
EXTFONT.SHX
  0
STYLE
  5
262
330
3
100
AcDbSymbolTableRecord
100
AcDbTextStyleTableRecord
  2
ACJISTS
 70
     0
 40
1.0
 41
1.0
 50
0.0
 71
     0
 42
2.5
  3
simplex.shx
  4
bigfont.shx
  0
STYLE
  5
269
330
3
100
AcDbSymbolTableRecord
100
AcDbTextStyleTableRecord
  2
ACJISGDT
 70
     0
 40
0.0
 41
1.0
 50
0.0
 71
     0
 42
2.5
  3
amgdtans.shx
  4

  0
ENDTAB
  0
TABLE
  2
VIEW
  5
6
330
0
100
AcDbSymbolTable
 70
     0
  0
ENDTAB
  0
TABLE
  2
UCS
  5
7
330
0
100
AcDbSymbolTable
 70
     0
  0
ENDTAB
  0
TABLE
  2
APPID
  5
9
330
0
100
AcDbSymbolTable
 70
    14
  0
APPID
  5
12
330
9
100
AcDbSymbolTableRecord
100
AcDbRegAppTableRecord
  2
ACAD
 70
     0
  0
APPID
  5
30
330
9
100
AcDbSymbolTableRecord
100
AcDbRegAppTableRecord
  2
MCAD_NO_VIS
 70
     0
  0
APPID
  5
31
330
9
100
AcDbSymbolTableRecord
100
AcDbRegAppTableRecord
  2
ACAD_TEMP_GRAPHIC
 70
     0
  0
APPID
  5
2C2
330
9
100
AcDbSymbolTableRecord
100
AcDbRegAppTableRecord
  2
GENIUS_GENDTOL_13
 70
     0
  0
APPID
  5
339
330
9
100
AcDbSymbolTableRecord
100
AcDbRegAppTableRecord
  2
GENIUS_GENODEF_13
 70
     0
  0
APPID
  5
33A
330
9
100
AcDbSymbolTableRecord
100
AcDbRegAppTableRecord
  2
GENIUS_GENOBJ-N-RSBK_13
 70
     0
  0
APPID
  5
33B
330
9
100
AcDbSymbolTableRecord
100
AcDbRegAppTableRecord
  2
GENIUS_GENOBJ-N-LIB_13
 70
     0
  0
APPID
  5
33C
330
9
100
AcDbSymbolTableRecord
100
AcDbRegAppTableRecord
  2
GENIUS_GENSCALE_13
 70
     0
  0
APPID
  5
378
330
9
100
AcDbSymbolTableRecord
100
AcDbRegAppTableRecord
  2
GENIUS_GENDIMSH_14
 70
     0
  0
APPID
  5
C82
330
9
100
AcDbSymbolTableRecord
100
AcDbRegAppTableRecord
  2
GENIUS_GENOBJ-N-CRS_13
 70
     0
  0
APPID
  5
C83
330
9
100
AcDbSymbolTableRecord
100
AcDbRegAppTableRecord
  2
GENIUS_GENOENT_13
 70
     0
  0
APPID
  5
C84
330
9
100
AcDbSymbolTableRecord
100
AcDbRegAppTableRecord
  2
GENIUS_GENOREF_13
 70
     0
  0
APPID
  5
C85
330
9
100
AcDbSymbolTableRecord
100
AcDbRegAppTableRecord
  2
GENIUS_GENOLIS_13
 70
     0
  0
APPID
  5
CA0
330
9
100
AcDbSymbolTableRecord
100
AcDbRegAppTableRecord
  2
GENIUS_GENOBJ-N-CEN_13
 70
     0
  0
ENDTAB
  0
TABLE
  2
DIMSTYLE
  5
A
330
0
100
AcDbSymbolTable
 70
    10
  0
DIMSTYLE
105
58
330
A
100
AcDbSymbolTableRecord
100
AcDbDimStyleTableRecord
  2
AM_JIS
 70
     0
  3

  4
"
  5
OPEN30
  6

  7

 40
1.0
 41
2.5
 42
1.0
 43
12.0
 44
1.0
 45
0.0
 46
0.0
 47
0.1
 48
0.1
140
3.2
141
0.0
142
0.0
143
0.0393701
144
1.0
145
0.0
146
0.71
147
1.5
 71
     0
 72
     0
 73
     0
 74
     0
 75
     0
 76
     0
 77
     3
 78
     8
170
     0
171
     2
172
     1
173
     0
174
     0
175
     0
176
   256
177
   256
178
     2
270
     2
271
     3
272
     3
273
     2
274
     2
340
6B
275
     0
280
     0
281
     0
282
     0
283
     0
284
     0
285
     0
286
     0
287
     3
288
     0
  0
DIMSTYLE
105
5F
330
A
100
AcDbSymbolTableRecord
100
AcDbDimStyleTableRecord
  2
AM_JIS$3
 70
     0
  3

  4
"
  5
OPEN30
  6

  7

 40
1.0
 41
2.5
 42
1.0
 43
10.0
 44
1.0
 45
0.0
 46
0.0
 47
0.1
 48
0.1
140
3.2
141
0.0
142
0.0
143
0.0393701
144
1.0
145
0.0
146
0.71
147
1.5
 71
     0
 72
     0
 73
     0
 74
     1
 75
     0
 76
     0
 77
     3
 78
     8
170
     0
171
     2
172
     0
173
     0
174
     0
175
     0
176
   256
177
   256
178
     2
270
     2
271
     2
272
     3
273
     2
274
     2
340
6B
275
     0
280
     0
281
     0
282
     0
283
     0
284
     0
285
     0
286
     0
287
     0
288
     1
  0
DIMSTYLE
105
60
330
A
100
AcDbSymbolTableRecord
100
AcDbDimStyleTableRecord
  2
AM_JIS$4
 70
     0
  3

  4
"
  5
OPEN30
  6

  7

 40
1.0
 41
2.5
 42
1.0
 43
10.0
 44
1.0
 45
0.0
 46
0.0
 47
0.1
 48
0.1
140
3.2
141
0.0
142
0.0
143
0.0393701
144
1.0
145
0.0
146
0.71
147
1.5
 71
     0
 72
     0
 73
     0
 74
     1
 75
     0
 76
     0
 77
     3
 78
     8
170
     0
171
     2
172
     0
173
     0
174
     0
175
     0
176
   256
177
   256
178
     2
270
     2
271
     2
272
     3
273
     2
274
     2
340
6B
275
     0
280
     0
281
     0
282
     0
283
     0
284
     0
285
     0
286
     0
287
     0
288
     1
  0
DIMSTYLE
105
61
330
A
100
AcDbSymbolTableRecord
100
AcDbDimStyleTableRecord
  2
AM_JIS$6
 70
     0
  3

  4
"
  5
OPEN30
  6

  7

 40
1.0
 41
2.5
 42
1.0
 43
10.0
 44
1.0
 45
0.0
 46
0.0
 47
0.1
 48
0.1
140
3.2
141
0.0
142
0.0
143
0.0393701
144
1.0
145
0.0
146
0.71
147
1.5
 71
     0
 72
     0
 73
     0
 74
     0
 75
     0
 76
     0
 77
     0
 78
     8
170
     0
171
     2
172
     1
173
     0
174
     0
175
     0
176
   256
177
   256
178
     2
270
     2
271
     2
272
     2
273
     2
274
     2
340
6B
275
     0
280
     0
281
     0
282
     0
283
     0
284
     0
285
     0
286
     0
287
     3
288
     0
  0
DIMSTYLE
105
62
330
A
100
AcDbSymbolTableRecord
100
AcDbDimStyleTableRecord
  2
AM_JIS$7
 70
     0
  3

  4
"
  5
OPEN30
  6

  7

 40
1.0
 41
2.5
 42
1.0
 43
10.0
 44
1.0
 45
0.0
 46
0.0
 47
0.1
 48
0.1
140
3.2
141
0.0
142
0.0
143
0.0393701
144
1.0
145
0.0
146
0.71
147
1.5
 71
     0
 72
     0
 73
     0
 74
     0
 75
     0
 76
     0
 77
     3
 78
     8
170
     0
171
     2
172
     1
173
     0
174
     0
175
     0
176
   256
177
   256
178
     2
270
     2
271
     2
272
     3
273
     2
274
     2
340
6B
275
     0
280
     0
281
     0
282
     0
283
     0
284
     0
285
     0
286
     0
287
     3
288
     0
  0
DIMSTYLE
105
63
330
A
100
AcDbSymbolTableRecord
100
AcDbDimStyleTableRecord
  2
AM_JIS$SF
 70
     0
  3

  4
"
  5
OPEN30
  6

  7

 40
1.0
 41
2.5
 42
1.0
 43
10.0
 44
1.0
 45
0.0
 46
0.0
 47
0.1
 48
0.1
140
3.2
141
0.0
142
0.0
143
0.0393701
144
1.0
145
0.0
146
0.71
147
1.5
 71
     0
 72
     0
 73
     0
 74
     0
 75
     1
 76
     1
 77
     3
 78
     8
170
     0
171
     2
172
     1
173
     0
174
     0
175
     0
176
   256
177
   256
178
     2
270
     2
271
     2
272
     2
273
     2
274
     2
340
6B
275
     0
280
     0
281
     0
282
     0
283
     0
284
     0
285
     0
286
     0
287
     3
288
     0
  0
DIMSTYLE
105
68
330
A
100
AcDbSymbolTableRecord
100
AcDbDimStyleTableRecord
  2
AM_JIS$SH
 70
     0
  3

  4
"
  5

  6
GENAXEH
  7
OPEN30
 40
1.0
 41
2.5
 42
1.0
 43
10.0
 44
1.0
 45
0.0
 46
0.0
 47
0.1
 48
0.1
140
3.2
141
0.0
142
0.0
143
0.0393701
144
2.0
145
0.0
146
0.71
147
1.5
 71
     0
 72
     0
 73
     0
 74
     0
 75
     1
 76
     1
 77
     3
 78
     8
170
     0
171
     2
172
     1
173
     1
174
     0
175
     0
176
   256
177
   256
178
     2
270
     2
271
     2
272
     2
273
     2
274
     2
340
6B
275
     0
280
     0
281
     0
282
     0
283
     0
284
     0
285
     0
286
     0
287
     3
288
     0
  0
DIMSTYLE
105
B34
102
{ACAD_REACTORS
330
11B2
102
}
330
A
100
AcDbSymbolTableRecord
100
AcDbDimStyleTableRecord
  2
AM_JIS$2
 70
     0
  3

  4
"
  5
OPEN30
  6

  7

 40
1.0
 41
2.5
 42
1.0
 43
12.0
 44
1.0
 45
0.0
 46
0.0
 47
0.1
 48
0.1
140
3.2
141
0.0
142
0.0
143
0.0393701
144
1.0
145
0.0
146
0.71
147
1.5
 71
     0
 72
     0
 73
     0
 74
     0
 75
     0
 76
     0
 77
     3
 78
     8
170
     0
171
     2
172
     1
173
     0
174
     0
175
     0
176
   256
177
   256
178
     2
270
     2
271
     3
272
     3
273
     2
274
     2
340
6B
275
     0
280
     0
281
     0
282
     0
283
     0
284
     0
285
     0
286
     0
287
     3
288
     0
  0
DIMSTYLE
105
BA5
102
{ACAD_REACTORS
330
CC6
330
2069
330
23DF
330
246E
102
}
330
A
100
AcDbSymbolTableRecord
100
AcDbDimStyleTableRecord
  2
AM_JIS$0
 70
     0
  3

  4
"
  5
OPEN30
  6

  7

 40
1.0
 41
2.5
 42
0.8
 43
10.0
 44
1.0
 45
0.0
 46
0.0
 47
0.1
 48
0.1000000001
140
3.799999999999999
141
0.0
142
0.0
143
0.0393701
144
1.0
145
0.0
146
0.71
147
1.5
 71
     0
 72
     0
 73
     0
 74
     0
 75
     0
 76
     0
 77
     3
 78
     9
170
     0
171
     2
172
     1
173
     0
174
     0
175
     0
176
     3
177
     3
178
     2
270
     2
271
     2
272
     2
273
     2
274
     2
340
11
275
     1
280
     0
281
     0
282
     0
283
     0
284
     8
285
     0
286
     0
287
     0
288
     0
  0
DIMSTYLE
105
BA6
330
A
100
AcDbSymbolTableRecord
100
AcDbDimStyleTableRecord
  2
AM_JISORG-1P0$2
 70
     0
  3

  4
"
  5
OPEN30
  6

  7

 40
1.0
 41
2.5
 42
0.0
 43
10.0
 44
1.0
 45
0.0
 46
0.0
 47
0.1
 48
0.1000000001
140
3.799999999999999
141
0.0
142
0.0
143
0.0393701
144
-0.999999980146674
145
0.0
146
0.71
147
1.5
 71
     0
 72
     0
 73
     0
 74
     0
 75
     0
 76
     0
 77
     3
 78
     1
170
     0
171
     2
172
     1
173
     0
174
     0
175
     0
176
     3
177
     3
178
     2
270
     2
271
     2
272
     2
273
     2
274
     2
340
11
275
     1
280
     0
281
     0
282
     0
283
     0
284
     8
285
     0
286
     0
287
     0
288
     0
  0
ENDTAB
  0
TABLE
  2
BLOCK_RECORD
  5
1
330
0
100
AcDbSymbolTable
 70
    16
  0
BLOCK_RECORD
  5
1F
102
{ACAD_XDICTIONARY
360
74
102
}
330
1
100
AcDbSymbolTableRecord
100
AcDbBlockTableRecord
  2
*MODEL_SPACE
  0
BLOCK_RECORD
  5
101
102
{ACAD_XDICTIONARY
360
2F93
102
}
330
1
100
AcDbSymbolTableRecord
100
AcDbBlockTableRecord
  2
*PAPER_SPACE
  0
BLOCK_RECORD
  5
59
330
1
100
AcDbSymbolTableRecord
100
AcDbBlockTableRecord
  2
_OPEN30
  0
BLOCK_RECORD
  5
64
330
1
100
AcDbSymbolTableRecord
100
AcDbBlockTableRecord
  2
GENAXEH
  0
BLOCK_RECORD
  5
C31
330
1
100
AcDbSymbolTableRecord
100
AcDbBlockTableRecord
  2
A$C36D02A34
  0
BLOCK_RECORD
  5
CC8
330
1
100
AcDbSymbolTableRecord
100
AcDbBlockTableRecord
  2
*D6
  0
BLOCK_RECORD
  5
11B3
330
1
100
AcDbSymbolTableRecord
100
AcDbBlockTableRecord
  2
*D7
  0
BLOCK_RECORD
  5
206A
330
1
100
AcDbSymbolTableRecord
100
AcDbBlockTableRecord
  2
*D8
  0
BLOCK_RECORD
  5
23E0
330
1
100
AcDbSymbolTableRecord
100
AcDbBlockTableRecord
  2
*D9
  0
BLOCK_RECORD
  5
2453
330
1
100
AcDbSymbolTableRecord
100
AcDbBlockTableRecord
  2
*D10
  0
BLOCK_RECORD
  5
245F
330
1
100
AcDbSymbolTableRecord
100
AcDbBlockTableRecord
  2
A$C4FFC6CC0
  0
BLOCK_RECORD
  5
2479
330
1
100
AcDbSymbolTableRecord
100
AcDbBlockTableRecord
  2
*D12
  0
ENDTAB
  0
ENDSEC
  0
SECTION
  2
BLOCKS
  0
BLOCK
  5
20
330
1F
100
AcDbEntity
  8
0
100
AcDbBlockBegin
  2
*MODEL_SPACE
 70
     0
 10
0.0
 20
0.0
 30
0.0
  3
*MODEL_SPACE
  1

  0
ENDBLK
  5
21
330
1F
100
AcDbEntity
  8
0
100
AcDbBlockEnd
  0
BLOCK
  5
103
330
101
100
AcDbEntity
 67
     1
  8
0
100
AcDbBlockBegin
  2
*PAPER_SPACE
 70
     0
 10
0.0
 20
0.0
 30
0.0
  3
*PAPER_SPACE
  1

  0
ENDBLK
  5
104
330
101
100
AcDbEntity
 67
     1
  8
0
100
AcDbBlockEnd
  0
BLOCK
  5
5D
330
59
100
AcDbEntity
  8
0
100
AcDbBlockBegin
  2
_OPEN30
 70
     0
 10
0.0
 20
0.0
 30
0.0
  3
_OPEN30
  1

  0
LINE
  5
5A
330
59
100
AcDbEntity
  8
0
 62
     0
100
AcDbLine
 10
-1.0
 20
0.26794919
 30
0.0
 11
0.0
 21
0.0
 31
0.0
  0
LINE
  5
5B
330
59
100
AcDbEntity
  8
0
 62
     0
100
AcDbLine
 10
0.0
 20
0.0
 30
0.0
 11
-1.0
 21
-0.26794919
 31
0.0
  0
LINE
  5
5C
330
59
100
AcDbEntity
  8
0
 62
     0
100
AcDbLine
 10
0.0
 20
0.0
 30
0.0
 11
-1.0
 21
0.0
 31
0.0
  0
ENDBLK
  5
5E
330
59
100
AcDbEntity
  8
0
100
AcDbBlockEnd
  0
BLOCK
  5
66
330
64
100
AcDbEntity
  8
0
100
AcDbBlockBegin
  2
GENAXEH
 70
     0
 10
0.0
 20
0.0
 30
0.0
  3
GENAXEH
  1

  0
LINE
  5
65
330
64
100
AcDbEntity
  8
0
100
AcDbLine
 10
-1.0
 20
0.0
 30
0.0
 11
1.0
 21
0.0
 31
0.0
  0
ENDBLK
  5
67
330
64
100
AcDbEntity
  8
0
100
AcDbBlockEnd
  0
BLOCK
  5
C4B
330
C31
100
AcDbEntity
  8
0
100
AcDbBlockBegin
  2
A$C36D02A34
 70
     0
 10
0.0
 20
0.0
 30
0.0
  3
A$C36D02A34
  1

  0
ARC
  5
C32
330
C31
100
AcDbEntity
  8
PV0001_1
  6
CONTINUOUS
 48
0.5
100
AcDbCircle
 10
18.06811523436999
 20
-11.83651161193799
 30
0.0
 40
21.600000381469
100
AcDbArc
 50
123.2290435713209
 51
126.6341524197568
  0
ARC
  5
C33
330
C31
100
AcDbEntity
  8
PV0001_1
  6
CONTINUOUS
 48
0.5
100
AcDbCircle
 10
18.06811523436999
 20
-11.83651161193799
 30
0.0
 40
21.600000381469
100
AcDbArc
 50
135.0736707620117
 51
146.7709980930592
  0
ARC
  5
C34
330
C31
100
AcDbEntity
  8
PV0001_1
  6
CONTINUOUS
 48
0.5
100
AcDbCircle
 10
-18.0680770874
 20
11.8365631103514
 30
0.0
 40
21.600000381469
100
AcDbArc
 50
315.0734847530392
 51
326.770781348241
  0
ARC
  5
C35
330
C31
100
AcDbEntity
  8
PV0001_1
  6
CONTINUOUS
 48
0.5
100
AcDbCircle
 10
-18.0680770874
 20
11.8365631103514
 30
0.0
 40
21.600000381469
100
AcDbArc
 50
303.2288882981993
 51
306.633986901359
  0
ARC
  5
C36
330
C31
100
AcDbEntity
  8
PV0001_1
  6
CONTINUOUS
 48
0.5
100
AcDbCircle
 10
-0.6269836425800009
 20
-2.044216156005997
 30
0.0
 40
2.0
100
AcDbArc
 50
337.4067997351092
 51
43.42231293132884
  0
ARC
  5
C37
330
C31
100
AcDbEntity
  8
PV0001_1
  6
CONTINUOUS
 48
0.5
100
AcDbCircle
 10
0.626953125
 20
2.044223785401001
 30
0.0
 40
2.0
100
AcDbArc
 50
157.4068184044407
 51
223.4222769591536
  0
CIRCLE
  5
C38
330
C31
100
AcDbEntity
  8
PV0001_1
  6
CONTINUOUS
 48
0.5
100
AcDbCircle
 10
3.856727600100001
 20
4.596265792847002
 30
0.0
 40
1.6000000238419
  0
CIRCLE
  5
C39
330
C31
100
AcDbEntity
  8
PV0001_1
  6
CONTINUOUS
 48
0.5
100
AcDbCircle
 10
-3.856727600100001
 20
-4.596265792845997
 30
0.0
 40
1.6000000238419
  0
ARC
  5
C3A
330
C31
100
AcDbEntity
  8
PV0001_1
  6
CONTINUOUS
 48
0.5
100
AcDbCircle
 10
-5.58123779297
 20
5.092639923096001
 30
0.0
 40
5.019082546234099
100
AcDbArc
 50
240.2658959250867
 51
321.5156269706421
  0
ARC
  5
C3B
330
C31
100
AcDbEntity
  8
PV0001_1
  6
CONTINUOUS
 48
0.5
100
AcDbCircle
 10
5.486755371089998
 20
-4.601703643798998
 30
0.0
 40
4.651036739349399
100
AcDbArc
 50
56.25271400417071
 51
145.528859890601
  0
ARC
  5
C3C
330
C31
100
AcDbEntity
  8
PV0001_1
  6
CONTINUOUS
 48
0.5
100
AcDbCircle
 10
-2.11590576172
 20
-3.453323364257997
 30
0.0
 40
4.050000190734899
100
AcDbArc
 50
43.42230610113921
 51
58.50391703385149
  0
ARC
  5
C3D
330
C31
100
AcDbEntity
  8
PV0001_1
  6
CONTINUOUS
 48
0.5
100
AcDbCircle
 10
2.115875244139999
 20
3.453330993653001
 30
0.0
 40
4.050000190734899
100
AcDbArc
 50
223.4222942619974
 51
238.5038164022482
  0
ARC
  5
C3E
330
C31
100
AcDbEntity
  8
PV0001_1
  6
CONTINUOUS
 48
0.5
100
AcDbCircle
 10
-6.70369720459
 20
5.094657897949002
 30
0.0
 40
5.940000057220499
100
AcDbArc
 50
328.2536768887549
 51
31.74641873389623
  0
ARC
  5
C3F
330
C31
100
AcDbEntity
  8
PV0001_1
  6
CONTINUOUS
 48
0.5
100
AcDbCircle
 10
6.703674316410001
 20
-5.094650268553998
 30
0.0
 40
5.940000057220499
100
AcDbArc
 50
148.2533403882529
 51
211.7466423089037
  0
ARC
  5
C40
330
C31
100
AcDbEntity
  8
PV0001_1
  6
CONTINUOUS
 48
0.5
100
AcDbCircle
 10
0.0
 20
0.0
 30
0.0
 40
8.812800407409699
100
AcDbArc
 50
175.2198288164333
 51
272.8622597568298
  0
ARC
  5
C41
330
C31
100
AcDbEntity
  8
PV0001_1
  6
CONTINUOUS
 48
0.5
100
AcDbCircle
 10
0.0
 20
0.0
 30
0.0
 40
9.1800003051758
100
AcDbArc
 50
272.7511362215027
 51
280.3697477877874
  0
ARC
  5
C42
330
C31
100
AcDbEntity
  8
PV0001_1
  6
CONTINUOUS
 48
0.5
100
AcDbCircle
 10
0.0
 20
0.0
 30
0.0
 40
8.812800407409699
100
AcDbArc
 50
355.2198199654955
 51
92.86229572901076
  0
ARC
  5
C43
330
C31
100
AcDbEntity
  8
PV0001_1
  6
CONTINUOUS
 48
0.5
100
AcDbCircle
 10
0.0
 20
0.0
 30
0.0
 40
9.1800003051758
100
AcDbArc
 50
92.75115489083434
 51
100.3697664571193
  0
CIRCLE
  5
C44
330
C31
100
AcDbEntity
  8
PV0001_1
  6
CONTINUOUS
100
AcDbCircle
 10
0.0
 20
0.0
 30
0.0
 40
9.1800003051758
  0
LINE
  5
C45
330
C31
100
AcDbEntity
  8
PV0001_1
  6
CONTINUOUS
 48
0.5
100
AcDbLine
 10
-1.652404785160001
 20
9.030059814453
 30
0.0
 11
-1.652404785160001
 21
8.220062255860002
 31
0.0
  0
LINE
  5
C46
330
C31
100
AcDbEntity
  8
PV0001_1
  6
CONTINUOUS
 48
0.5
100
AcDbLine
 10
1.652404785160001
 20
-8.220058441161999
 30
0.0
 11
1.652404785160001
 21
-9.030055999755997
 31
0.0
  0
LINE
  5
C47
330
C31
100
AcDbEntity
  8
PV0001_1
  6
CONTINUOUS
 48
0.5
100
AcDbLine
 10
-8.78217315674
 20
0.7343807220460015
 30
0.0
 11
-8.070594787600001
 21
0.7343997955320028
 31
0.0
  0
LINE
  5
C48
330
C31
100
AcDbEntity
  8
PV0001_1
  6
CONTINUOUS
 48
0.5
100
AcDbLine
 10
8.07057952881
 20
-0.7343864440919994
 30
0.0
 11
8.78215789795
 21
-0.7343654632569994
 31
0.0
  0
LINE
  5
C49
330
C31
100
AcDbEntity
  8
PV0001_1
  6
CONTINUOUS
 48
0.5
100
AcDbLine
 10
0.4406127929700006
 20
-9.169414520263
 30
0.0
 11
0.4406127929700006
 21
-8.812801361083998
 31
0.0
  0
LINE
  5
C4A
330
C31
100
AcDbEntity
  8
PV0001_1
  6
CONTINUOUS
 48
0.5
100
AcDbLine
 10
-0.4406127929700006
 20
9.169418334961001
 30
0.0
 11
-0.4406127929700006
 21
8.812805175781001
 31
0.0
  0
ENDBLK
  5
C4C
330
C31
100
AcDbEntity
  8
0
100
AcDbBlockEnd
  0
BLOCK
  5
CD2
330
CC8
100
AcDbEntity
  8
0
100
AcDbBlockBegin
  2
*D6
 70
     1
 10
0.0
 20
0.0
 30
0.0
  3
*D6
  1

  0
LINE
  5
2F32
330
CC8
100
AcDbEntity
  8
AM_5
 62
     3
100
AcDbLine
 10
-169.2748187159603
 20
-7.021770960471706
 30
0.0
 11
-169.2748187159603
 21
-43.64239330363704
 31
0.0
  0
LINE
  5
2F33
330
CC8
100
AcDbEntity
  8
AM_5
 62
     3
100
AcDbLine
 10
-2.274818941540315
 20
-7.050013221801763
 30
0.0
 11
-2.274818941540317
 21
-43.64239330363704
 31
0.0
  0
LINE
  5
2F34
330
CC8
100
AcDbEntity
  8
AM_5
 62
     3
100
AcDbLine
 10
-166.7748187159603
 20
-42.64239330363704
 30
0.0
 11
-4.774818941540317
 21
-42.64239330363704
 31
0.0
  0
INSERT
  5
2F35
330
CC8
100
AcDbEntity
  8
AM_5
 62
     3
100
AcDbBlockReference
  2
_OPEN30
 10
-169.2748187159603
 20
-42.64239330363704
 30
0.0
 41
2.5
 42
2.5
 43
2.5
 50
180.0
  0
INSERT
  5
2F36
330
CC8
100
AcDbEntity
  8
AM_5
 62
     3
100
AcDbBlockReference
  2
_OPEN30
 10
-2.274818941540317
 20
-42.64239330363704
 30
0.0
 41
2.5
 42
2.5
 43
2.5
  0
MTEXT
  5
2F37
330
CC8
100
AcDbEntity
  8
AM_5
 62
     2
100
AcDbMText
 10
-85.77481882875034
 20
-39.24239330363704
 30
0.0
 40
3.799999999999999
 41
0.0
 71
     5
 72
     1
  1
167
1001
ACAD
1000
MTEXTBEGIN
1070
    73
1070
     1
1070
    44
1040
1.0
1070
    74
1070
     0
1000
MTEXTEND
  0
POINT
  5
2F38
330
CC8
100
AcDbEntity
  8
DEFPOINTS
 62
     0
100
AcDbPoint
 10
-169.2748187159603
 20
-6.221770960471706
 30
0.0
  0
POINT
  5
2F39
330
CC8
100
AcDbEntity
  8
DEFPOINTS
 62
     0
100
AcDbPoint
 10
-2.274818941540315
 20
-6.250013221801763
 30
0.0
  0
POINT
  5
2F3A
330
CC8
100
AcDbEntity
  8
DEFPOINTS
 62
     0
100
AcDbPoint
 10
-2.274818941540317
 20
-42.64239330363704
 30
0.0
  0
ENDBLK
  5
CD3
330
CC8
100
AcDbEntity
  8
0
100
AcDbBlockEnd
  0
BLOCK
  5
11C1
330
11B3
100
AcDbEntity
  8
0
100
AcDbBlockBegin
  2
*D7
 70
     1
 10
0.0
 20
0.0
 30
0.0
  3
*D7
  1

  0
LINE
  5
2E4B
330
11B3
100
AcDbEntity
  8
AM_5
100
AcDbLine
 10
0.3420137829869789
 20
-0.9396926216993264
 30
0.0
 11
14.09070388310031
 21
-38.71390853272126
 31
0.0
  0
LINE
  5
2E4C
330
11B3
100
AcDbEntity
  8
AM_5
100
AcDbLine
 10
0.342013060370197
 20
0.9396961578450159
 30
0.0
 11
14.09073068792163
 21
38.71390632246295
 31
0.0
  0
ARC
  5
2E4D
330
11B3
100
AcDbEntity
  8
AM_5
100
AcDbCircle
 10
-0.0000077310723222
 20
0.0000037729546026
 30
0.0
 40
40.19848492123638
100
AcDbArc
 50
293.5638790122282
 51
66.43608131719256
  0
INSERT
  5
2E4E
330
11B3
100
AcDbEntity
  8
AM_5
100
AcDbBlockReference
  2
_OPEN30
 10
13.74868374228418
 20
-37.77421591102196
 30
0.0
 41
2.5
 42
2.5
 43
2.5
 50
201.7819394296073
  0
INSERT
  5
2E4F
330
11B3
100
AcDbEntity
  8
AM_5
100
AcDbBlockReference
  2
_OPEN30
 10
13.74870989647911
 20
37.77421393757254
 30
0.0
 41
2.5
 42
2.5
 43
2.5
 50
158.2180208998134
  0
MTEXT
  5
2E50
330
11B3
100
AcDbEntity
  8
AM_5
 62
     2
100
AcDbMText
 10
37.09847719016165
 20
-0.0000101434035756
 30
0.0
 40
3.2
 41
0.0
 71
     5
 72
     1
  1
140°
  7
ASAMI
 11
0.0000000000000001
 21
1.0
 31
0.0
1001
ACAD
1000
MTEXTBEGIN
1070
    73
1070
     1
1070
    44
1040
1.0
1070
    74
1070
     0
1000
MTEXTEND
  0
POINT
  5
2E51
330
11B3
100
AcDbEntity
  8
DEFPOINTS
 62
     0
100
AcDbPoint
 10
36.91089593093048
 20
15.92179327091043
 30
0.0
  0
POINT
  5
2E52
330
11B3
100
AcDbEntity
  8
DEFPOINTS
 62
     0
100
AcDbPoint
 10
-0.0000079472858279
 20
0.0000031789141527
 30
0.0
  0
POINT
  5
2E53
330
11B3
100
AcDbEntity
  8
DEFPOINTS
 62
     0
100
AcDbPoint
 10
-0.000006357829155
 20
-0.0000000000000221
 30
0.0
  0
POINT
  5
2E54
330
11B3
100
AcDbEntity
  8
DEFPOINTS
 62
     0
100
AcDbPoint
 10
-0.6672795613608193
 20
1.833318074544154
 30
0.0
  0
POINT
  5
2E55
330
11B3
100
AcDbEntity
  8
DEFPOINTS
 62
     0
100
AcDbPoint
 10
-0.667290687560822
 20
-1.833337148030858
 30
0.0
  0
ENDBLK
  5
11C2
330
11B3
100
AcDbEntity
  8
0
100
AcDbBlockEnd
  0
BLOCK
  5
2074
330
206A
100
AcDbEntity
  8
0
100
AcDbBlockBegin
  2
*D8
 70
     1
 10
0.0
 20
0.0
 30
0.0
  3
*D8
  1

  0
LINE
  5
2F44
330
206A
100
AcDbEntity
  8
AM_5
 62
     3
100
AcDbLine
 10
-106.2748187159608
 20
-7.299943575309963
 30
0.0
 11
-106.2748187159607
 21
-30.6826785653338
 31
0.0
  0
LINE
  5
2F45
330
206A
100
AcDbEntity
  8
AM_5
 62
     3
100
AcDbLine
 10
-2.274818941540294
 20
-7.050013221801769
 30
0.0
 11
-2.274818941540227
 21
-30.6826785653335
 31
0.0
  0
LINE
  5
2F46
330
206A
100
AcDbEntity
  8
AM_5
 62
     3
100
AcDbLine
 10
-103.7748187159607
 20
-29.68267856533379
 30
0.0
 11
-4.77481894154023
 21
-29.6826785653335
 31
0.0
  0
INSERT
  5
2F47
330
206A
100
AcDbEntity
  8
AM_5
 62
     3
100
AcDbBlockReference
  2
_OPEN30
 10
-106.2748187159607
 20
-29.6826785653338
 30
0.0
 41
2.5
 42
2.5
 43
2.5
 50
180.0000000000001
  0
INSERT
  5
2F48
330
206A
100
AcDbEntity
  8
AM_5
 62
     3
100
AcDbBlockReference
  2
_OPEN30
 10
-2.27481894154023
 20
-29.6826785653335
 30
0.0
 41
2.5
 42
2.5
 43
2.5
 50
0.0000000000001527
  0
MTEXT
  5
2F49
330
206A
100
AcDbEntity
  8
AM_5
 62
     2
100
AcDbMText
 10
-54.27481882875052
 20
-26.28267856533365
 30
0.0
 40
3.799999999999999
 41
0.0
 71
     5
 72
     1
  1
104
1001
ACAD
1000
MTEXTBEGIN
1070
    73
1070
     1
1070
    44
1040
1.0
1070
    74
1070
     0
1000
MTEXTEND
  0
POINT
  5
2F4A
330
206A
100
AcDbEntity
  8
DEFPOINTS
 62
     0
100
AcDbPoint
 10
-106.2748187159608
 20
-6.499943575309654
 30
0.0
  0
POINT
  5
2F4B
330
206A
100
AcDbEntity
  8
DEFPOINTS
 62
     0
100
AcDbPoint
 10
-2.274818941540315
 20
-6.250013221801763
 30
0.0
  0
POINT
  5
2F4C
330
206A
100
AcDbEntity
  8
DEFPOINTS
 62
     0
100
AcDbPoint
 10
-2.274818941540316
 20
-29.68267856533349
 30
0.0
  0
ENDBLK
  5
2075
330
206A
100
AcDbEntity
  8
0
100
AcDbBlockEnd
  0
BLOCK
  5
23EC
330
23E0
100
AcDbEntity
  8
0
100
AcDbBlockBegin
  2
*D9
 70
     1
 10
0.0
 20
0.0
 30
0.0
  3
*D9
  1

  0
LINE
  5
2E40
330
23E0
100
AcDbEntity
  8
AM_5
 62
     3
100
AcDbLine
 10
-1.672608926430697
 20
-6.250012602019299
 30
0.0
 11
22.75022367130009
 21
-6.250012602019306
 31
0.0
  0
LINE
  5
2E41
330
23E0
100
AcDbEntity
  8
AM_5
 62
     3
100
AcDbLine
 10
-1.672621236085563
 20
6.249999318908811
 30
0.0
 11
22.75022367130009
 21
6.249999318908804
 31
0.0
  0
LINE
  5
2E42
330
23E0
100
AcDbEntity
  8
AM_5
 62
     3
100
AcDbLine
 10
21.75022367130008
 20
-8.750012602019305
 30
0.0
 11
21.75022367130008
 21
-11.2500126020193
 31
0.0
  0
LINE
  5
2E43
330
23E0
100
AcDbEntity
  8
AM_5
 62
     3
100
AcDbLine
 10
21.75022367130009
 20
8.749999318908804
 30
0.0
 11
21.75022367130009
 21
28.5452374141469
 31
0.0
  0
LINE
  5
2E44
330
23E0
100
AcDbEntity
  8
AM_5
 62
     3
100
AcDbLine
 10
21.75022367130009
 20
-6.250012602019305
 30
0.0
 11
21.75022367130009
 21
6.249999318908805
 31
0.0
  0
INSERT
  5
2E45
330
23E0
100
AcDbEntity
  8
AM_5
 62
     3
100
AcDbBlockReference
  2
_OPEN30
 10
21.75022367130009
 20
-6.250012602019305
 30
0.0
 41
2.5
 42
2.5
 43
2.5
 50
90.0
  0
INSERT
  5
2E46
330
23E0
100
AcDbEntity
  8
AM_5
 62
     3
100
AcDbBlockReference
  2
_OPEN30
 10
21.75022367130009
 20
6.249999318908805
 30
0.0
 41
2.5
 42
2.5
 43
2.5
 50
270.0
  0
MTEXT
  5
2E47
330
23E0
100
AcDbEntity
  8
AM_5
 62
     2
100
AcDbMText
 10
18.35022367130009
 20
19.89761836652785
 30
0.0
 40
3.799999999999999
 41
0.0
 71
     5
 72
     1
  1
%%c12.5
 11
0.0000000000000001
 21
1.0
 31
0.0
1001
ACAD
1000
MTEXTBEGIN
1070
    73
1070
     1
1070
    44
1040
1.0
1070
    74
1070
     0
1000
MTEXTEND
  0
POINT
  5
2E48
330
23E0
100
AcDbEntity
  8
DEFPOINTS
 62
     0
100
AcDbPoint
 10
-2.472608926430698
 20
-6.250012602019298
 30
0.0
  0
POINT
  5
2E49
330
23E0
100
AcDbEntity
  8
DEFPOINTS
 62
     0
100
AcDbPoint
 10
-2.472621236085563
 20
6.249999318908812
 30
0.0
  0
POINT
  5
2E4A
330
23E0
100
AcDbEntity
  8
DEFPOINTS
 62
     0
100
AcDbPoint
 10
21.75022367130009
 20
6.249999318908805
 30
0.0
  0
ENDBLK
  5
23ED
330
23E0
100
AcDbEntity
  8
0
100
AcDbBlockEnd
  0
BLOCK
  5
245D
330
2453
100
AcDbEntity
  8
0
100
AcDbBlockBegin
  2
*D10
 70
     1
 10
0.0
 20
0.0
 30
0.0
  3
*D10
  1

  0
LINE
  5
2454
330
2453
100
AcDbEntity
  8
AM_5
 62
     3
100
AcDbLine
 10
-137.574381722344
 20
-5.00000294019065
 30
0.0
 11
-152.8199008769066
 21
-5.000002940190694
 31
0.0
  0
LINE
  5
2455
330
2453
100
AcDbEntity
  8
AM_5
 62
     3
100
AcDbLine
 10
-137.5743817223442
 20
5.00002461040103
 30
0.0
 11
-152.8199008769066
 21
5.000024610400987
 31
0.0
  0
LINE
  5
2456
330
2453
100
AcDbEntity
  8
AM_5
 62
     3
100
AcDbLine
 10
-151.8199008769066
 20
-2.500002940190691
 30
0.0
 11
-151.8199008769066
 21
2.50002461040099
 31
0.0
  0
INSERT
  5
2457
330
2453
100
AcDbEntity
  8
AM_5
 62
     3
100
AcDbBlockReference
  2
_OPEN30
 10
-151.8199008769066
 20
-5.00000294019069
 30
0.0
 41
2.5
 42
2.5
 43
2.5
 50
270.0000000000001
  0
INSERT
  5
2458
330
2453
100
AcDbEntity
  8
AM_5
 62
     3
100
AcDbBlockReference
  2
_OPEN30
 10
-151.8199008769066
 20
5.00002461040099
 30
0.0
 41
2.5
 42
2.5
 43
2.5
 50
90.00000000000015
  0
MTEXT
  5
2459
330
2453
100
AcDbEntity
  8
AM_5
 62
     2
100
AcDbMText
 10
-155.2199008769066
 20
0.000010835105146
 30
0.0
 40
3.799999999999999
 41
0.0
 71
     5
 72
     1
  1
%%c10
 11
-0.0000000000000028
 21
1.0
 31
0.0
1001
ACAD
1000
MTEXTBEGIN
1070
    73
1070
     1
1070
    44
1040
1.0
1070
    74
1070
     0
1000
MTEXTEND
  0
POINT
  5
245A
330
2453
100
AcDbEntity
  8
DEFPOINTS
 62
     0
100
AcDbPoint
 10
-137.5743817223441
 20
-5.000002940190223
 30
0.0
  0
POINT
  5
245B
330
2453
100
AcDbEntity
  8
DEFPOINTS
 62
     0
100
AcDbPoint
 10
-137.5743817223441
 20
5.000024610401458
 30
0.0
  0
POINT
  5
245C
330
2453
100
AcDbEntity
  8
DEFPOINTS
 62
     0
100
AcDbPoint
 10
-151.8199008769066
 20
5.000024610401462
 30
0.0
  0
ENDBLK
  5
245E
330
2453
100
AcDbEntity
  8
0
100
AcDbBlockEnd
  0
BLOCK
  5
246B
330
245F
100
AcDbEntity
  8
0
100
AcDbBlockBegin
  2
A$C4FFC6CC0
 70
     0
 10
0.0
 20
0.0
 30
0.0
  3
A$C4FFC6CC0
  1

  0
DIMENSION
  5
2460
330
245F
100
AcDbEntity
  8
AM_5
100
AcDbDimension
  2
*D10
 10
-70.00000100000002
 20
5.000008477104842
 30
0.0
 11
-70.00000100000002
 21
-0.0000052981910228
 31
0.0
 12
81.81989987690661
 22
-0.0000161332966199
 32
0.0
 70
   128
  1
%%c<>
 51
359.9999999999998
  3
AM_JIS$0
100
AcDbAlignedDimension
 13
-55.75448184543748
 23
-5.000019073486843
 33
0.0
 14
-55.75448184543756
 24
5.000008477104838
 34
0.0
 50
270.0
100
AcDbRotatedDimension
1001
ACAD
1000
DSTYLE
1002
{
1070
   271
1070
     0
1002
}
1001
GENIUS_GENDTOL_13
1000

1000
h7
1000

1040
0.0
  0
LINE
  5
2461
330
245F
100
AcDbEntity
  8
AM_0
 48
0.5
100
AcDbLine
 10
-56.0
 20
-4.754495620727796
 30
0.0
 11
-56.00000000000003
 21
4.754485024345811
 31
0.0
  0
LINE
  5
2462
330
245F
100
AcDbEntity
  8
AM_0
 48
0.5
100
AcDbLine
 10
-55.75448184543751
 20
-5.000019073486843
 30
0.0
 11
-55.75448184543754
 21
5.000008477104838
 31
0.0
  0
LINE
  5
2463
330
245F
100
AcDbEntity
  8
AM_0
100
AcDbLine
 10
-0.0000000000000142
 20
4.999995231627903
 30
0.0
 11
-55.75448184543754
 21
4.999995231627746
 31
0.0
  0
LINE
  5
2464
330
245F
100
AcDbEntity
  8
AM_0
 48
0.5
100
AcDbLine
 10
-55.99996821086117
 20
4.754439989725671
 30
0.0
 11
-55.75443945990975
 21
4.999963442484006
 31
0.0
  0
LINE
  5
2465
330
245F
100
AcDbEntity
  8
AM_0
100
AcDbLine
 10
-55.75448184543751
 20
-5.000008477105588
 30
0.0
 11
0.0000000000000142
 21
-5.00000847710543
 31
0.0
  0
LINE
  5
2466
330
245F
100
AcDbEntity
  8
AM_0
 48
0.5
100
AcDbLine
 10
-55.99996821086114
 20
-4.754474427965309
 30
0.0
 11
-55.75443945990972
 21
-4.999997880724334
 31
0.0
  0
LINE
  5
2467
330
245F
100
AcDbEntity
  8
AM_0
100
AcDbLine
 10
0.7794201296714505
 20
4.549985867772141
 30
0.0
 11
0.7794201296714789
 21
-4.550003370497427
 31
0.0
  0
LINE
  5
2468
330
245F
100
AcDbEntity
  8
AM_0
 48
0.5
100
AcDbLine
 10
0.0000000000000142
 20
-5.00000847710543
 30
0.0
 11
-0.0000000000000142
 21
5.000008477104995
 31
0.0
  0
LINE
  5
2469
330
245F
100
AcDbEntity
  8
AM_0
 48
0.5
100
AcDbLine
 10
0.7794201296714647
 20
-4.550003370497435
 30
0.0
 11
-0.0000105963812445
 21
-5.00000847710543
 31
0.0
  0
LINE
  5
246A
330
245F
100
AcDbEntity
  8
AM_0
 48
0.5
100
AcDbLine
 10
0.7794201296714647
 20
4.549985867772141
 30
0.0
 11
-0.0000000000000142
 21
4.999984635246652
 31
0.0
  0
ENDBLK
  5
246C
330
245F
100
AcDbEntity
  8
0
100
AcDbBlockEnd
  0
BLOCK
  5
2483
330
2479
100
AcDbEntity
  8
0
100
AcDbBlockBegin
  2
*D12
 70
     1
 10
0.0
 20
0.0
 30
0.0
  3
*D12
  1

  0
LINE
  5
2E84
330
2479
100
AcDbEntity
  8
AM_5
 62
     3
100
AcDbLine
 10
-169.6498917068624
 20
-6.499943575309643
 30
0.0
 11
-183.9339004497231
 21
-6.499943575309639
 31
0.0
  0
LINE
  5
2E85
330
2479
100
AcDbEntity
  8
AM_5
 62
     3
100
AcDbLine
 10
-169.6498782004488
 20
6.499943461964989
 30
0.0
 11
-183.9339004497231
 21
6.499943461964994
 31
0.0
  0
LINE
  5
2E86
330
2479
100
AcDbEntity
  8
AM_5
 62
     3
100
AcDbLine
 10
-182.9339004497231
 20
-8.999943575309638
 30
0.0
 11
-182.9339004497231
 21
-11.49994357530963
 31
0.0
  0
LINE
  5
2E87
330
2479
100
AcDbEntity
  8
AM_5
 62
     3
100
AcDbLine
 10
-182.9339004497231
 20
8.999943461964994
 30
0.0
 11
-182.9339004497231
 21
11.49994346196499
 31
0.0
  0
LINE
  5
2E88
330
2479
100
AcDbEntity
  8
AM_5
 62
     3
100
AcDbLine
 10
-182.9339004497231
 20
-6.499943575309639
 30
0.0
 11
-182.9339004497231
 21
6.499943461964994
 31
0.0
  0
INSERT
  5
2E89
330
2479
100
AcDbEntity
  8
AM_5
 62
     3
100
AcDbBlockReference
  2
_OPEN30
 10
-182.9339004497231
 20
-6.499943575309639
 30
0.0
 41
2.5
 42
2.5
 43
2.5
 50
90.0
  0
INSERT
  5
2E8A
330
2479
100
AcDbEntity
  8
AM_5
 62
     3
100
AcDbBlockReference
  2
_OPEN30
 10
-182.9339004497231
 20
6.499943461964994
 30
0.0
 41
2.5
 42
2.5
 43
2.5
 50
270.0
  0
MTEXT
  5
2E8B
330
2479
100
AcDbEntity
  8
AM_5
 62
     2
100
AcDbMText
 10
-186.3339004497231
 20
-0.250000056672325
 30
0.0
 40
3.799999999999999
 41
0.0
 71
     5
 72
     1
  1
%%c13
 11
0.0000000000000001
 21
1.0
 31
0.0
1001
ACAD
1000
MTEXTBEGIN
1070
    73
1070
     1
1070
    44
1040
1.0
1070
    74
1070
     0
1000
MTEXTEND
  0
POINT
  5
2E8C
330
2479
100
AcDbEntity
  8
DEFPOINTS
 62
     0
100
AcDbPoint
 10
-168.8498917068624
 20
-6.499943575309643
 30
0.0
  0
POINT
  5
2E8D
330
2479
100
AcDbEntity
  8
DEFPOINTS
 62
     0
100
AcDbPoint
 10
-168.8498782004488
 20
6.499943461964989
 30
0.0
  0
POINT
  5
2E8E
330
2479
100
AcDbEntity
  8
DEFPOINTS
 62
     0
100
AcDbPoint
 10
-182.9339004497231
 20
6.499943461964994
 30
0.0
  0
ENDBLK
  5
2484
330
2479
100
AcDbEntity
  8
0
100
AcDbBlockEnd
  0
ENDSEC
  0
SECTION
  2
ENTITIES
  0
DIMENSION
  5
CC6
330
1F
100
AcDbEntity
  8
AM_5
100
AcDbDimension
  2
*D6
 10
-2.274818941540317
 20
-42.64239330363704
 30
0.0
 11
-85.77481882875034
 21
-39.24239330363704
 31
0.0
 70
    32
  1
<>
  3
AM_JIS$0
100
AcDbAlignedDimension
 13
-169.2748187159603
 23
-6.221770960471706
 33
0.0
 14
-2.274818941540315
 24
-6.250013221801763
 34
0.0
 50
0.0000000000001132
100
AcDbRotatedDimension
1001
GENIUS_GENDTOL_13
1000

1000
h7
1000

1040
0.0
  0
DIMENSION
  5
11B2
330
1F
100
AcDbEntity
  8
AM_5
100
AcDbDimension
  2
*D7
 10
-0.667290687560822
 20
-1.833337148030858
 30
0.0
 11
37.09847719016165
 21
-0.0000101434035816
 31
0.0
 70
    34
  1
<>
  3
AM_JIS$2
100
AcDb2LineAngularDimension
 13
-0.000006357829155
 23
-0.0000000000000221
 33
0.0
 14
-0.6672795613608193
 24
1.833318074544154
 34
0.0
 15
-0.0000079472858279
 25
0.0000031789141527
 35
0.0
 16
36.91089593093048
 26
15.92179327091043
 36
0.0
1001
ACAD
1000
DSTYLE
1002
{
1070
   179
1070
     3
1002
}
1001
GENIUS_GENDTOL_13
1000

1000
h7
1000

1040
0.0
  0
TEXT
  5
19BD
330
1F
100
AcDbEntity
  8
AM_6
100
AcDbText
 10
-111.2510093049407
 20
-65.14239330363711
 30
0.0
 40
5.0
  1
MDW1250LDLH
 50
0.0000000000001527
 72
     4
 11
-85.77481882875028
 21
-62.64239330363704
 31
0.0
100
AcDbText
  0
DIMENSION
  5
2069
330
1F
100
AcDbEntity
  8
AM_5
100
AcDbDimension
  2
*D8
 10
-2.274818941540316
 20
-29.68267856533349
 30
0.0
 11
-54.2748188287506
 21
-26.28267856533349
 31
0.0
 70
    32
  1
<>
 51
359.9999999999998
  3
AM_JIS$0
100
AcDbAlignedDimension
 13
-106.2748187159608
 23
-6.499943575309654
 33
0.0
 14
-2.274818941540315
 24
-6.250013221801763
 34
0.0
 50
0.0000000000001527
100
AcDbRotatedDimension
1001
GENIUS_GENDTOL_13
1000

1000
h7
1000

1040
0.0
1001
ACAD
1000
DSTYLE
1002
{
1070
   174
1070
     1
1002
}
  0
DIMENSION
  5
23DF
330
1F
100
AcDbEntity
  8
AM_5
100
AcDbDimension
  2
*D9
 10
21.75022367130009
 20
6.249999318908805
 30
0.0
 11
21.75022367130009
 21
19.89761836652785
 31
0.0
 70
   160
  1
%%c<>
  3
AM_JIS$0
100
AcDbAlignedDimension
 13
-2.472608926430698
 23
-6.250012602019298
 33
0.0
 14
-2.472621236085563
 24
6.249999318908812
 34
0.0
 50
89.99999999999925
100
AcDbRotatedDimension
1001
ACAD
1000
DSTYLE
1002
{
1070
   271
1070
     1
1002
}
1001
GENIUS_GENDTOL_13
1000

1000
h7
1000

1040
0.0
  0
LINE
  5
23EE
330
1F
100
AcDbEntity
  8
AM_0
 48
0.5
100
AcDbLine
 10
-0.0000010033242141
 20
0.0000032925514743
 30
0.0
 11
-3.150640281893897
 21
2.431532051879892
 31
0.0
  0
LINE
  5
23EF
330
1F
100
AcDbEntity
  8
AM_7
100
AcDbLine
 10
-170.964554918555
 20
-0.0000000566722071
 30
0.0
 11
2.575000114683452
 21
-0.000000056673012
 31
0.0
1001
GENIUS_GENODEF_13
1002
{
1000
HIER
1070
     0
1002
}
1002
{
1000
MANEDIT
1070
     0
1002
}
1002
{
1000
NOSEL
1070
     0
1002
}
1002
{
1000
BEHIND
1070
     0
1002
}
1002
{
1000
REACTOR
1002
}
1001
GENIUS_GENOBJ-N-CEN_13
1002
{
1000
OWNER
1000
GEN
1002
}
  0
ELLIPSE
  5
23F0
330
1F
100
AcDbEntity
  8
AM_0
 48
0.5
100
AcDbEllipse
 10
-11.17186219059535
 20
10.59572231212343
 30
0.0
 11
15.56080606752523
 21
0.0000000000128508
 31
0.0
210
0.0
220
0.0
230
0.9999999999999998
 40
0.9782030834662357
 41
-0.8976689894976418
 42
-0.7699457724871442
  0
LINE
  5
23F3
330
1F
100
AcDbEntity
  8
AM_0
 48
0.5
100
AcDbLine
 10
-5.831901069548552
 20
-6.250000681091106
 30
0.0
 11
-2.274818715960436
 21
-6.250013303906124
 31
0.0
  0
LINE
  5
23F4
330
1F
100
AcDbEntity
  8
AM_0
 48
0.5
100
AcDbLine
 10
-5.831901069548248
 20
6.249999318908897
 30
0.0
 11
-2.274811558814671
 21
6.249999318908805
 31
0.0
  0
ELLIPSE
  5
23F9
330
1F
100
AcDbEntity
  8
AM_0
 48
0.5
100
AcDbEllipse
 10
-11.17186219059533
 20
10.48976512192774
 30
0.0
 11
-15.56080606752283
 21
0.0000000000400916
 31
0.0
210
0.0
220
0.0
230
1.0
 40
0.9684210526316563
 41
2.081379652025842
 42
2.169874429705356
  0
ELLIPSE
  5
23FA
330
1F
100
AcDbEntity
  8
AM_0
 48
0.5
100
AcDbEllipse
 10
-1.922863472610413
 20
-1.628840650726623
 30
0.0
 11
-0.1908512216327445
 21
1.025112857309562
 31
0.0
210
0.0
220
0.0
230
1.0
 40
0.5152501739358818
 41
1.798162171007052
 42
4.933504060719028
  0
ELLIPSE
  5
23FB
330
1F
100
AcDbEntity
  8
AM_0
 48
0.5
100
AcDbEllipse
 10
-1.922863472610413
 20
-1.628840650726623
 30
0.0
 11
-0.9362257909700694
 21
0.512616657495323
 31
0.0
210
0.0
220
0.0
230
0.9999999999999998
 40
0.4917327715137214
 41
4.465806703923373
 42
7.609247045252885
  0
ELLIPSE
  5
2406
330
1F
100
AcDbEntity
  8
AM_0
 48
0.5
100
AcDbEllipse
 10
6.705426986424901
 20
-1.669155861085464
 30
0.0
 11
10.18706487873725
 21
1.755429134914404
 31
0.0
210
0.0
220
0.0
230
1.0
 40
0.7942690286321142
 41
3.047630762756404
 42
3.514242806610301
  0
DIMENSION
  5
246E
330
1F
100
AcDbEntity
  8
AM_5
100
AcDbDimension
  2
*D12
 10
-182.9339004497231
 20
6.499943461964994
 30
0.0
 11
-182.9339004497231
 21
-0.2500000566723254
 31
0.0
 70
   160
  1
%%c<>
  3
AM_JIS$0
100
AcDbAlignedDimension
 13
-168.8498917068624
 23
-6.499943575309643
 33
0.0
 14
-168.8498782004488
 24
6.499943461964989
 34
0.0
 50
270.0
100
AcDbRotatedDimension
1001
GENIUS_GENDTOL_13
1000

1000
h7
1000

1040
0.0
  0
LINE
  5
246F
330
1F
100
AcDbEntity
  8
AM_0
 48
0.5
100
AcDbLine
 10
-169.2748187159603
 20
-6.221770960471706
 30
0.0
 11
-169.2748187159604
 21
6.221770847127055
 31
0.0
  0
LINE
  5
2470
330
1F
100
AcDbEntity
  8
AM_0
 48
0.5
100
AcDbLine
 10
-168.996646646841
 20
-6.499943575309668
 30
0.0
 11
-168.9966466468411
 21
6.499948919102248
 31
0.0
  0
LINE
  5
2471
330
1F
100
AcDbEntity
  8
AM_0
100
AcDbLine
 10
-106.2748187159604
 20
6.499943461965334
 30
0.0
 11
-168.9965986240381
 21
6.499943461964988
 31
0.0
  0
LINE
  5
2472
330
1F
100
AcDbEntity
  8
AM_0
 48
0.5
100
AcDbLine
 10
-169.274782698866
 20
6.221770847127054
 30
0.0
 11
-168.9965986240381
 21
6.499948919102249
 31
0.0
  0
LINE
  5
2538
330
1F
100
AcDbEntity
  8
AM_0
100
AcDbLine
 10
-2.274811558814669
 20
6.249999318908805
 30
0.0
 11
0.0000017048525319
 21
0.000001243507387
 31
0.0
  0
LINE
  5
2539
330
1F
100
AcDbEntity
  8
AM_0
100
AcDbLine
 10
-2.274818941540315
 20
-6.250013221801763
 30
0.0
 11
0.0000017048525319
 21
0.0000051374718419
 31
0.0
  0
LINE
  5
2B39
330
1F
100
AcDbEntity
  8
AM_0
 48
0.5
100
AcDbLine
 10
-169.274782698866
 20
-6.221770960471707
 30
0.0
 11
-168.996598624038
 21
-6.499949032446898
 31
0.0
  0
LINE
  5
2B3A
330
1F
100
AcDbEntity
  8
AM_0
100
AcDbLine
 10
-106.2748187159604
 20
-6.499943575309654
 30
0.0
 11
-168.996598624038
 21
-6.499943575309643
 31
0.0
  0
LINE
  5
2BF5
330
1F
100
AcDbEntity
  8
AM_0
100
AcDbLine
 10
-99.33567429262362
 20
6.24999931891275
 30
0.0
 11
-105.8434406939555
 21
6.250887244838084
 31
0.0
  0
LINE
  5
2BF8
330
1F
100
AcDbEntity
  8
AM_0
100
AcDbLine
 10
-102.1097898349331
 20
-6.233189495836988
 30
0.0
 11
-105.8434406939555
 21
-6.25088866841777
 31
0.0
  0
LINE
  5
2EB1
330
1F
100
AcDbEntity
  8
AM_0
100
AcDbLine
 10
-106.2748187159604
 20
6.499943461965335
 30
0.0
 11
-106.2748187159604
 21
-6.499943575309654
 31
0.0
  0
LINE
  5
2EB7
330
1F
100
AcDbEntity
  8
AM_0
100
AcDbLine
 10
-106.2748187159604
 20
6.499943461965092
 30
0.0
 11
-105.8434406939555
 21
6.250887244838084
 31
0.0
  0
LINE
  5
2EB8
330
1F
100
AcDbEntity
  8
AM_0
100
AcDbLine
 10
-106.2748187159604
 20
-6.499943575309411
 30
0.0
 11
-105.8434406939555
 21
-6.2508873581824
 31
0.0
  0
LINE
  5
2EB9
330
1F
100
AcDbEntity
  8
AM_0
100
AcDbLine
 10
-105.8434406939555
 20
6.250887244838084
 30
0.0
 11
-105.8434406939555
 21
-6.2508873581824
 31
0.0
  0
ELLIPSE
  5
2EF5
330
1F
100
AcDbEntity
  8
AM_0
 48
0.5
100
AcDbEllipse
 10
4.051339861398364
 20
7.503508840392917
 30
0.0
 11
-9.832128898953344
 21
8.762734533237328
 31
0.0
210
0.0
220
0.0
230
1.0
 40
0.9640697965702072
 41
1.262405431719343
 42
1.652350206403141
  0
SPLINE
  5
2EF6
330
1F
100
AcDbEntity
  8
AM_0
 48
0.5
100
AcDbSpline
210
0.0
220
0.0
230
1.0
 70
     8
 71
     3
 72
    10
 73
     6
 74
     0
 42
0.0000000001
 43
0.0000000001
 40
0.0
 40
0.0
 40
0.0
 40
0.0
 40
2.69986029516136
 40
4.147722969032201
 40
6.285750005020438
 40
6.285750005020438
 40
6.285750005020438
 40
6.285750005020438
 10
-6.982119544085745
 20
1.131216003886166
 30
0.0
 10
-6.220856103619605
 20
0.5505478144395931
 30
0.0
 10
-5.051347494909492
 20
-0.3415171531701335
 30
0.0
 10
-2.285616738228986
 20
0.0903471253094257
 30
0.0
 10
-2.806484285950757
 20
1.544923159378656
 30
0.0
 10
-3.150640281893897
 20
2.431532051879893
 30
0.0
  0
SPLINE
  5
2EF7
330
1F
100
AcDbEntity
  8
AM_0
100
AcDbSpline
210
0.0
220
0.0
230
1.0
 70
     8
 71
     3
 72
    11
 73
     7
 74
     0
 42
0.0000000001
 43
0.0000000001
 40
11.27226913003534
 40
11.27226913003534
 40
11.27226913003534
 40
11.2722691300354
 40
12.28301561507924
 40
13.29510212255852
 40
14.30984805882082
 40
15.18258238371378
 40
15.18258238371378
 40
15.18258238371378
 40
15.18258238371378
 10
-25.88356432015212
 20
-6.250000681090079
 30
0.0
 10
-26.23859520473937
 20
-6.21941136485192
 30
0.0
 10
-26.94798731815406
 20
-6.14535596154075
 30
0.0
 10
-28.00841231965213
 20
-5.995967895501569
 30
0.0
 10
-29.01477434427825
 20
-5.817540230380382
 30
0.0
 10
-29.66563022954072
 20
-5.68037757385377
 30
0.0
 10
-29.96556315457404
 20
-5.612623010098712
 30
0.0
  0
SPLINE
  5
2EF8
330
1F
100
AcDbEntity
  8
AM_0
100
AcDbSpline
210
0.0
220
0.0
230
1.0
 70
     8
 71
     3
 72
    17
 73
    13
 74
     0
 42
0.0000000001
 43
0.0000000001
 40
1.580019955310467
 40
1.580019955310467
 40
1.580019955310467
 40
1.580019955310467
 40
2.030549285115227
 40
3.082371838836284
 40
4.126290986361125
 40
5.162752068350215
 40
6.192395305374981
 40
7.216039564037012
 40
8.234688489606833
 40
9.249433870634691
 40
10.26152376260694
 40
11.27226744710342
 40
11.27226744710342
 40
11.27226744710342
 40
11.27226744710352
 10
-15.80842386847693
 20
-4.61268472228028
 30
0.0
 10
-15.95975591128655
 20
-4.660191535973091
 30
0.0
 10
-16.46525577611609
 20
-4.815901463293282
 30
0.0
 10
-17.3282694041005
 20
-5.060138055692873
 30
0.0
 10
-18.39723945183585
 20
-5.333650638980135
 30
0.0
 10
-19.46650378602454
 20
-5.573758372390664
 30
0.0
 10
-20.53581711353172
 20
-5.779654920190702
 30
0.0
 10
-21.6052469408095
 20
-5.94984258094821
 30
0.0
 10
-22.67475065192532
 20
-6.083350168725627
 30
0.0
 10
-23.74432095890347
 20
-6.179312509681976
 30
0.0
 10
-24.81393151030143
 20
-6.237111883084208
 30
0.0
 10
-25.52717828038888
 20
-6.250000716852927
 30
0.0
 10
-25.88356432015205
 20
-6.250000681090079
 30
0.0
  0
SPLINE
  5
2EF9
330
1F
100
AcDbEntity
  8
AM_0
 48
0.5
100
AcDbSpline
210
0.0
220
0.0
230
1.0
 70
     8
 71
     3
 72
    16
 73
    12
 74
     0
 42
0.0000000001
 43
0.0000000001
 40
0.0
 40
0.0
 40
0.0
 40
0.0
 40
1.010743614677189
 40
2.022833924044153
 40
3.037578959561199
 40
4.056212747067873
 40
5.079857613375832
 40
6.109500119648989
 40
7.14596120163808
 40
8.18989512056258
 40
8.545190612624931
 40
8.545190612624931
 40
8.545190612624931
 40
8.545190612624931
 10
-5.734855406997133
 20
6.249999318909019
 30
0.0
 10
-6.091221703572699
 20
6.249961761726126
 30
0.0
 10
-6.804497786287782
 20
6.237137308621655
 30
0.0
 10
-7.874095765009114
 20
6.179297625399639
 30
0.0
 10
-8.943664589580881
 20
6.083352789553425
 30
0.0
 10
-10.01316269461157
 20
5.949842104856517
 30
0.0
 10
-11.08258342049809
 20
5.779641157790567
 30
0.0
 10
-12.1519085234121
 20
5.573781747801344
 30
0.0
 10
-13.22113839958469
 20
5.333560535556273
 30
0.0
 10
-14.05251418553775
 20
5.121193062004488
 30
0.0
 10
-14.52771158652465
 20
4.990581807572796
 30
0.0
 10
-14.64821899348807
 20
4.956876625389878
 30
0.0
  0
SPLINE
  5
2EFA
330
1F
100
AcDbEntity
  8
AM_0
 48
0.5
100
AcDbSpline
210
0.0
220
0.0
230
1.0
 70
     8
 71
     3
 72
    17
 73
    13
 74
     0
 42
0.0000000001
 43
0.0000000001
 40
0.0
 40
0.0
 40
0.0
 40
0.0
 40
1.010743614677189
 40
2.022833924044153
 40
3.037578959561199
 40
4.056212747067873
 40
5.079857613375832
 40
6.109500119648989
 40
7.14596120163808
 40
8.18989512056258
 40
9.241717674284874
 40
9.693948937866434
 40
9.693948937866434
 40
9.693948937866434
 40
9.693948937866434
 10
-5.734855406997133
 20
6.249999318909019
 30
0.0
 10
-6.091241516320108
 20
6.246283400127496
 30
0.0
 10
-6.804488576730095
 20
6.238846611548235
 30
0.0
 10
-7.874098249717325
 20
6.178838111725211
 30
0.0
 10
-8.94366388749518
 20
6.083476464899834
 30
0.0
 10
-10.01316300739268
 20
5.949809080040094
 30
0.0
 10
-11.08258287198517
 20
5.779648793699362
 30
0.0
 10
-12.15191041936615
 20
5.573784529862979
 30
0.0
 10
-13.22113129736276
 20
5.333541504878972
 30
0.0
 10
-14.29028699603702
 20
5.060537096663752
 30
0.0
 10
-15.15333735560751
 20
4.814601392629576
 30
0.0
 10
-15.66017112832174
 20
4.660856210506463
 30
0.0
 10
-15.81229543492248
 20
4.613795839474009
 30
0.0
  0
LINE
  5
2EFB
330
1F
100
AcDbEntity
  8
AM_11
 48
0.5
100
AcDbLine
 10
-25.88356432015214
 20
-6.250000681090078
 30
0.0
 11
-5.7348554069977
 21
-6.250000681090983
 31
0.0
  0
SPLINE
  5
2EFC
330
1F
100
AcDbEntity
  8
AM_0
 48
0.5
100
AcDbSpline
210
0.0
220
0.0
230
1.0
 70
     8
 71
     3
 72
    25
 73
    21
 74
     0
 42
0.0000000001
 43
0.0000000001
 40
6.846175049578289
 40
6.846175049578289
 40
6.846175049578289
 40
6.846175049578289
 40
7.604337694224321
 40
8.711974558287883
 40
9.814980593243754
 40
10.91239053451967
 40
12.0033633515982
 40
13.08720139956839
 40
14.16337181880432
 40
15.23152222380919
 40
16.29148850140128
 40
17.34331105512262
 40
18.38723020264746
 40
19.42369128463655
 40
20.45333379090873
 40
21.47697865721768
 40
22.49561244472435
 40
23.5103574802404
 40
24.52244778960836
 40
25.53320666051913
 40
25.53320666051913
 40
25.53320666051913
 40
25.53320666051913
 10
-6.982290551268198
 20
1.131290236726811
 30
0.0
 10
-7.225269459741426
 20
1.241029121142744
 30
0.0
 10
-7.823739491868349
 20
1.509992776304788
 30
0.0
 10
-8.778590037759927
 20
1.93236253718424
 30
0.0
 10
-9.847029948571767
 20
2.393074248892278
 30
0.0
 10
-10.91552359192063
 20
2.839066348156078
 30
0.0
 10
-11.98408014815824
 20
3.267596624739234
 30
0.0
 10
-13.05271152364165
 20
3.676021261866946
 30
0.0
 10
-14.12142759985442
 20
4.061821545598236
 30
0.0
 10
-15.19023332438916
 20
4.422626453943466
 30
0.0
 10
-16.25914186219045
 20
4.756190582730108
 30
0.0
 10
-17.32815176582859
 20
5.060468504187951
 30
0.0
 10
-18.39727071377739
 20
5.333561527272961
 30
0.0
 10
-19.46649493306691
 20
5.573779521843709
 30
0.0
 10
-20.53582024676697
 20
5.779650123461395
 30
0.0
 10
-21.6052407045848
 20
5.94980872628804
 30
0.0
 10
-22.67473966676746
 20
6.083476559889512
 30
0.0
 10
-23.74430534635097
 20
6.178838083449014
 30
0.0
 10
-24.81392038106142
 20
6.238846931430002
 30
0.0
 10
-25.52717282793906
 20
6.24628348799607
 30
0.0
 10
-25.88356432015155
 20
6.249999318909928
 30
0.0
  0
LINE
  5
2EFD
330
1F
100
AcDbEntity
  8
AM_11
 48
0.5
100
AcDbLine
 10
-25.88356432015156
 20
6.249999318909926
 30
0.0
 11
-5.734855406997135
 21
6.24999931890902
 31
0.0
  0
SPLINE
  5
2EFE
330
1F
100
AcDbEntity
  8
AM_0
100
AcDbSpline
210
0.0
220
0.0
230
1.0
 70
     8
 71
     3
 72
    11
 73
     7
 74
     0
 42
0.0000000001
 43
0.0000000001
 40
11.27226913003534
 40
11.27226913003534
 40
11.27226913003534
 40
11.2722691300354
 40
12.28301561507924
 40
13.29510212255852
 40
14.30984805882082
 40
15.18258238371378
 40
15.18258238371378
 40
15.18258238371378
 40
15.18258238371378
 10
-63.96148982703618
 20
-6.250000681088482
 30
0.0
 10
-64.31652071162345
 20
-6.219411364850332
 30
0.0
 10
-65.02591282503814
 20
-6.145355961539158
 30
0.0
 10
-66.08633782653623
 20
-5.995967895499975
 30
0.0
 10
-67.09269985116236
 20
-5.817540230378791
 30
0.0
 10
-67.7435557364248
 20
-5.68037757385218
 30
0.0
 10
-68.04348866145815
 20
-5.61262301009712
 30
0.0
  0
LINE
  5
2EFF
330
1F
100
AcDbEntity
  8
AM_11
 48
0.5
100
AcDbLine
 10
-61.34979760469828
 20
6.250887244837268
 30
0.0
 11
-48.49166404634427
 21
6.249999318910949
 31
0.0
  0
SPLINE
  5
2F00
330
1F
100
AcDbEntity
  8
AM_0
100
AcDbSpline
210
0.0
220
0.0
230
1.0
 70
     8
 71
     3
 72
    17
 73
    13
 74
     0
 42
0.0000000001
 43
0.0000000001
 40
1.580019955310467
 40
1.580019955310467
 40
1.580019955310467
 40
1.580019955310467
 40
2.030549285115227
 40
3.082371838836284
 40
4.126290986361125
 40
5.162752068350215
 40
6.192395305374981
 40
7.216039564037012
 40
8.234688489606833
 40
9.249433870634691
 40
10.26152376260694
 40
11.27226744710342
 40
11.27226744710342
 40
11.27226744710342
 40
11.27226744710352
 10
-53.88634937536097
 20
-4.612684722278689
 30
0.0
 10
-54.03768141817062
 20
-4.660191535971498
 30
0.0
 10
-54.54318128300016
 20
-4.815901463291688
 30
0.0
 10
-55.40619491098457
 20
-5.060138055691279
 30
0.0
 10
-56.47516495871996
 20
-5.333650638978542
 30
0.0
 10
-57.54442929290864
 20
-5.573758372389074
 30
0.0
 10
-58.61374262041584
 20
-5.779654920189106
 30
0.0
 10
-59.68317244769362
 20
-5.949842580946619
 30
0.0
 10
-60.75267615880941
 20
-6.083350168724035
 30
0.0
 10
-61.82224646578755
 20
-6.17931250968038
 30
0.0
 10
-62.89185701718551
 20
-6.237111883082619
 30
0.0
 10
-63.60510378727296
 20
-6.250000716851329
 30
0.0
 10
-63.96148982703613
 20
-6.250000681088482
 30
0.0
  0
SPLINE
  5
2F01
330
1F
100
AcDbEntity
  8
AM_0
100
AcDbSpline
210
0.0
220
0.0
230
1.0
 70
     8
 71
     3
 72
    23
 73
    19
 74
     0
 42
0.0000000001
 43
0.0000000001
 40
16.03460024169435
 40
16.03460024169435
 40
16.03460024169435
 40
16.03460024169435
 40
16.35212704903564
 40
17.38177054169784
 40
18.41822485651776
 40
19.46214173629503
 40
20.51396345435107
 40
21.57393551351153
 40
22.64208202342361
 40
23.7182574881101
 40
24.80209208578934
 40
25.89306333925047
 40
26.99048218457928
 40
28.09348763352352
 40
29.20111863782268
 40
30.31232390128032
 40
31.42594612798585
 40
32.5407912310448
 40
32.5407912310486
 40
32.5407912310486
 40
32.5407912310486
 10
-61.34979760469832
 20
6.250887244837267
 30
0.0
 10
-61.23990826320799
 20
6.22978834545986
 30
0.0
 10
-60.77414894685691
 20
6.137908577086502
 30
0.0
 10
-59.95370889522035
 20
5.957884193579316
 30
0.0
 10
-58.89123688056411
 20
5.690189904031616
 30
0.0
 10
-57.82975173989028
 20
5.389613836990204
 30
0.0
 10
-56.76919074919556
 20
5.057895573421329
 30
0.0
 10
-55.7095162672908
 20
4.696884450070585
 30
0.0
 10
-54.65066704753064
 20
4.308644158762177
 30
0.0
 10
-53.59256935567987
 20
3.895434160606974
 30
0.0
 10
-52.53516306682742
 20
3.45959443973285
 30
0.0
 10
-51.47836340487684
 20
3.003661045922644
 30
0.0
 10
-50.42208472803335
 20
2.530284061046446
 30
0.0
 10
-49.36625665946136
 20
2.042185204314946
 30
0.0
 10
-48.31079085930884
 20
1.542202703737621
 30
0.0
 10
-47.25558956908926
 20
1.033256090302131
 30
0.0
 10
-46.20056686563074
 20
0.5182945718154528
 30
0.0
 10
-45.49740731581183
 20
0.1730410314749401
 30
0.0
 10
-45.14563578495558
 20
0.0003172103481534
 30
0.0
  0
LINE
  5
2F02
330
1F
100
AcDbEntity
  8
AM_11
 48
0.5
100
AcDbLine
 10
-63.96148982703365
 20
-6.250000681088481
 30
0.0
 11
-43.81278091388177
 21
-6.250888607015109
 31
0.0
  0
SPLINE
  5
2F03
330
1F
100
AcDbEntity
  8
AM_0
100
AcDbSpline
210
0.0
220
0.0
230
1.0
 70
     8
 71
     3
 72
    46
 73
    42
 74
     0
 42
0.0000000001
 43
0.0000000001
 40
0.0
 40
0.0
 40
0.0
 40
0.0
 40
1.685415058684571
 40
2.531036209541119
 40
3.379897699130121
 40
4.232934581347655
 40
5.090970612202441
 40
5.954688180526682
 40
6.824620803463246
 40
7.701151815239689
 40
8.584457046566678
 40
9.474582384070741
 40
10.37139106676737
 40
11.27458944007583
 40
12.18373345430765
 40
13.09824173870457
 40
14.01741343450111
 40
14.9404441545541
 40
15.86644439743314
 40
16.79446029130534
 40
17.7234937712985
 40
18.65252725129241
 40
19.58054314516461
 40
20.50654338804289
 40
21.42957410809586
 40
22.34874580389317
 40
23.26325408828901
 40
24.17239810252111
 40
25.07560240389441
 40
25.97241108659103
 40
26.8625364240951
 40
27.74584165542183
 40
28.62236045019041
 40
29.49229307312697
 40
30.35601064145121
 40
31.21404606334468
 40
32.06708345193547
 40
32.91595755657689
 40
33.76157841950693
 40
34.60498701064689
 40
35.44727335621125
 40
35.44727335621125
 40
35.44727335621125
 40
35.44727335621125
 10
-2.73830680016642
 20
-6.250000681091142
 30
0.0
 10
-3.450972745693871
 20
-6.235762697960391
 30
0.0
 10
-4.521203668422568
 20
-6.214381109686893
 30
0.0
 10
-5.94433639725859
 20
-6.082738598693906
 30
0.0
 10
-7.012923472538139
 20
-5.950007929152734
 30
0.0
 10
-8.081419209060928
 20
-5.779604295874307
 30
0.0
 10
-9.149820792043321
 20
-5.573793617692048
 30
0.0
 10
-10.21812273289687
 20
-5.333559844982042
 30
0.0
 10
-11.28632324237633
 20
-5.06046794827399
 30
0.0
 10
-12.35441756661215
 20
-4.756194752239954
 30
0.0
 10
-13.42240784046869
 20
-4.422627472079474
 30
0.0
 10
-14.49029119137689
 20
-4.06182300076724
 30
0.0
 10
-15.55808477545407
 20
-3.676022599797138
 30
0.0
 10
-16.62579378239056
 20
-3.267597989954568
 30
0.0
 10
-17.69342803076642
 20
-2.83906772281719
 30
0.0
 10
-18.76099938480706
 20
-2.393075557648981
 30
0.0
 10
-19.82851720076186
 20
-1.932364101935225
 30
0.0
 10
-20.89599186827265
 20
-1.459766973647232
 30
0.0
 10
-21.96343470561394
 20
-0.9781927311868583
 30
0.0
 10
-23.0308554639457
 20
-0.4906027176282202
 30
0.0
 10
-24.09826724935015
 20
-0.0000006811895509
 30
0.0
 10
-25.1656790345201
 20
0.4906013558452993
 30
0.0
 10
-26.23309979355524
 20
0.9781913676162675
 30
0.0
 10
-27.3005426283256
 20
1.459765616609779
 30
0.0
 10
-28.36801730536953
 20
1.932362720668743
 30
0.0
 10
-29.43553508597626
 20
2.39307426622128
 30
0.0
 10
-30.50310657092284
 20
2.839066098684877
 30
0.0
 10
-31.57074265607085
 20
3.267598528106231
 30
0.0
 10
-32.63845581160945
 20
3.67601942720418
 30
0.0
 10
-33.70625130046674
 20
4.061821806426621
 30
0.0
 10
-34.77413462651155
 20
4.422626385097386
 30
0.0
 10
-35.8421205131854
 20
4.756190600059622
 30
0.0
 10
-36.91020772092837
 20
5.060468502942252
 30
0.0
 10
-37.97840387008502
 20
5.333561515260587
 30
0.0
 10
-39.04670519266152
 20
5.573779570615978
 30
0.0
 10
-40.11510755893058
 20
5.779649942005103
 30
0.0
 10
-41.18361011467559
 20
5.949810236710175
 30
0.0
 10
-42.25219168379685
 20
6.083475305438316
 30
0.0
 10
-43.32083936553973
 20
6.178838293691954
 30
0.0
 10
-44.38952583839861
 20
6.238846566178519
 30
0.0
 10
-45.10215726434733
 20
6.24628338501203
 30
0.0
 10
-45.45823576136776
 20
6.249999318910569
 30
0.0
  0
LINE
  5
2F04
330
1F
100
AcDbEntity
  8
AM_0
 48
0.5
100
AcDbLine
 10
-43.81278091388177
 20
-6.250000681089392
 30
0.0
 11
-25.88356432015214
 21
-6.250000681090078
 31
0.0
  0
SPLINE
  5
2F05
330
1F
100
AcDbEntity
  8
AM_0
100
AcDbSpline
210
0.0
220
0.0
230
1.0
 70
     8
 71
     3
 72
    22
 73
    18
 74
     0
 42
0.0000000001
 43
0.0000000001
 40
17.17441611292
 40
17.17441611292
 40
17.17441611292
 40
17.17441611292
 40
17.38177636558528
 40
18.41823744757437
 40
19.46215659509824
 40
20.51397914882054
 40
21.57394542641293
 40
22.64209583141747
 40
23.71826625065247
 40
24.80210429862395
 40
25.8930771157021
 40
26.99048705697709
 40
28.09349309193389
 40
29.20112995599786
 40
30.31233024745139
 40
31.42594771747373
 40
32.5407895042663
 40
32.54078950426994
 40
32.54078950426994
 40
32.54078950426994
 10
-29.96603093214496
 20
-5.612545916396507
 30
0.0
 10
-30.03765357949729
 20
-5.598077779407568
 30
0.0
 10
-30.46699223496867
 20
-5.509950775601572
 30
0.0
 10
-31.25351645865531
 20
-5.333244662985634
 30
0.0
 10
-32.32263532529076
 20
-5.060152065708185
 30
0.0
 10
-33.39164525095791
 20
-4.755874028858318
 30
0.0
 10
-34.4605537828069
 20
-4.422309931388729
 30
0.0
 10
-35.52935950888388
 20
-4.061505014397615
 30
0.0
 10
-36.59807558494798
 20
-3.675704733609422
 30
0.0
 10
-37.6667069594551
 20
-3.267280093418353
 30
0.0
 10
-38.73526351978654
 20
-2.838749826201392
 30
0.0
 10
-39.80375714761375
 20
-2.392757692271668
 30
0.0
 10
-40.87219711681686
 20
-1.932046110747847
 30
0.0
 10
-41.94059418297135
 20
-1.459449457130367
 30
0.0
 10
-43.0089578164875
 20
-0.9778736658903309
 30
0.0
 10
-44.07730384424342
 20
-0.4902903199552508
 30
0.0
 10
-44.78939472705987
 20
-0.1632785125163149
 30
0.0
 10
-45.1456357849603
 20
0.0003172103503989
 30
0.0
  0
LINE
  5
2F06
330
1F
100
AcDbEntity
  8
AM_0
 48
0.5
100
AcDbLine
 10
-48.49168140030873
 20
6.249999318910949
 30
0.0
 11
-25.88356432015156
 21
6.249999318909926
 31
0.0
  0
SPLINE
  5
2F07
330
1F
100
AcDbEntity
  8
AM_0
100
AcDbSpline
210
0.0
220
0.0
230
1.0
 70
     8
 71
     3
 72
    55
 73
    51
 74
     0
 42
0.0000000001
 43
0.0000000001
 40
0.0
 40
0.0
 40
0.0
 40
0.0
 40
1.010743684496582
 40
2.022833576467832
 40
3.037578957496688
 40
4.056212745003489
 40
5.079857003664532
 40
6.109500240690281
 40
7.145961322679372
 40
8.189895241603872
 40
9.241717795325891
 40
10.30168407291828
 40
11.36983447792315
 40
12.44600489715814
 40
13.52984294512926
 40
14.62081576220742
 40
15.7182257034828
 40
16.82123173843959
 40
17.92886860250316
 40
19.0400688939571
 40
20.15368796660465
 40
21.26852814259644
 40
22.38336992938901
 40
23.49698739941135
 40
24.6081876908653
 40
25.71582455492886
 40
26.81883757994213
 40
27.91624752121713
 40
29.00722033829659
 40
30.09105838626677
 40
31.16722880550176
 40
32.23537921050758
 40
33.29534548809967
 40
34.347168041821
 40
35.39108718934584
 40
36.42754827133493
 40
37.45720575381954
 40
38.48085062012849
 40
39.49948440763516
 40
40.51422944315121
 40
41.52631975251916
 40
42.53706336719636
 40
43.54780698187354
 40
44.55989729124051
 40
45.57464232675757
 40
46.59327611426424
 40
47.6169209805722
 40
48.64656348684535
 40
49.68302456883444
 40
50.58557219878025
 40
50.58557219878025
 40
50.58557219878025
 40
50.58557219878025
 10
-5.7348554069977
 20
-6.250000681090983
 30
0.0
 10
-6.091241451462673
 20
-6.246282082506477
 30
0.0
 10
-6.804488210246409
 20
-6.238839932543521
 30
0.0
 10
-7.874098784331398
 20
-6.178847848980272
 30
0.0
 10
-8.943663700773901
 20
-6.083476107795378
 30
0.0
 10
-10.01316242164875
 20
-5.949808985264342
 30
0.0
 10
-11.08258427504229
 20
-5.779657927171929
 30
0.0
 10
-12.1519081636524
 20
-5.573779568158061
 30
0.0
 10
-13.22113766432008
 20
-5.333560778230328
 30
0.0
 10
-14.29026329514055
 20
-5.060472542322365
 30
0.0
 10
-15.35927777341976
 20
-4.756191605636036
 30
0.0
 10
-16.42818642760389
 20
-4.422627908157008
 30
0.0
 10
-17.49699212044349
 20
-4.061822882581464
 30
0.0
 10
-18.56570820580958
 20
-3.676022631844343
 30
0.0
 10
-19.6343395766825
 20
-3.267597981146569
 30
0.0
 10
-20.70289614220084
 20
-2.839067725702976
 30
0.0
 10
-21.77138975280148
 20
-2.393075554971726
 30
0.0
 10
-22.83982978615487
 20
-1.932364109788414
 30
0.0
 10
-23.90822661159328
 20
-1.459766944762094
 30
0.0
 10
-24.97659166141669
 20
-0.9781928392961557
 30
0.0
 10
-26.04493430620359
 20
-0.4906023130813865
 30
0.0
 10
-27.11326963260702
 20
-0.0000019563170531
 30
0.0
 10
-28.18160016307873
 20
0.490607231559448
 30
0.0
 10
-29.24994638871729
 20
0.9781901647000172
 30
0.0
 10
-30.31831011962975
 20
1.459765727863356
 30
0.0
 10
-31.38670885000788
 20
1.932364693274229
 30
0.0
 10
-32.45515331576304
 20
2.393072206665166
 30
0.0
 10
-33.52364861272889
 20
2.839066639197267
 30
0.0
 10
-34.59220533251126
 20
3.267596547147007
 30
0.0
 10
-35.6608366645001
 20
3.676021283734949
 30
0.0
 10
-36.72955275260277
 20
4.061821535036421
 30
0.0
 10
-37.79835847266566
 20
4.422626474338042
 30
0.0
 10
-38.86726701652676
 20
4.756190512416297
 30
0.0
 10
-39.93627690057443
 20
5.060468762305848
 30
0.0
 10
-41.00539592008773
 20
5.333560574988359
 30
0.0
 10
-42.07462502412677
 20
5.573784195413753
 30
0.0
 10
-43.14395654806783
 20
5.779639040261124
 30
0.0
 10
-44.21338193452896
 20
5.949842763702957
 30
0.0
 10
-45.28288097245109
 20
6.083351441113006
 30
0.0
 10
-46.35244663205983
 20
6.179302340139786
 30
0.0
 10
-47.42205629924251
 20
6.23711984957749
 30
0.0
 10
-48.49168947044898
 20
6.256434766354132
 30
0.0
 10
-49.5613226400816
 20
6.237119849547301
 30
0.0
 10
-50.6309323119949
 20
6.179302340261456
 30
0.0
 10
-51.70049795418684
 20
6.083351440655405
 30
0.0
 10
-52.76999705740866
 20
5.949842765423802
 30
0.0
 10
-53.83941698473092
 20
5.779639863562591
 30
0.0
 10
-54.90874429591282
 20
5.573786300168814
 30
0.0
 10
-55.92935787300255
 20
5.344465206491253
 30
0.0
 10
-56.59154358489622
 20
5.176760522758097
 30
0.0
 10
-56.89875916024018
 20
5.095029849247778
 30
0.0
  0
SPLINE
  5
2F08
330
1F
100
AcDbEntity
  8
AM_0
100
AcDbSpline
210
0.0
220
0.0
230
1.0
 70
     8
 71
     3
 72
    23
 73
    19
 74
     0
 42
0.0000000001
 43
0.0000000001
 40
16.03460024169435
 40
16.03460024169435
 40
16.03460024169435
 40
16.03460024169435
 40
16.35212704903564
 40
17.38177054169784
 40
18.41822485651776
 40
19.46214173629503
 40
20.51396345435107
 40
21.57393551351153
 40
22.64208202342361
 40
23.7182574881101
 40
24.80209208578934
 40
25.89306333925047
 40
26.99048218457928
 40
28.09348763352352
 40
29.20111863782268
 40
30.31232390128032
 40
31.42594612798585
 40
32.5407912310448
 40
32.5407912310486
 40
32.5407912310486
 40
32.5407912310486
 10
-99.36618797844017
 20
6.250887244838898
 30
0.0
 10
-99.25671693657038
 20
6.249999318913165
 30
0.0
 10
-98.79273055781867
 20
6.13790857708813
 30
0.0
 10
-97.97541355485659
 20
5.957884193580943
 30
0.0
 10
-96.91698589640942
 20
5.690189904033242
 30
0.0
 10
-95.85954135535644
 20
5.389613836991822
 30
0.0
 10
-94.80301744645645
 20
5.057895573422947
 30
0.0
 10
-93.74737667180365
 20
4.696884450072202
 30
0.0
 10
-92.69255801789114
 20
4.30864415876379
 30
0.0
 10
-91.63848803115719
 20
3.895434160608586
 30
0.0
 10
-90.58510681555938
 20
3.459594439734461
 30
0.0
 10
-89.53232991770589
 20
3.003661045924249
 30
0.0
 10
-88.48007202180188
 20
2.530284061048051
 30
0.0
 10
-87.42826301890502
 20
2.042185204316547
 30
0.0
 10
-86.3768149054335
 20
1.542202703739219
 30
0.0
 10
-85.32563029502389
 20
1.033256090303726
 30
0.0
 10
-84.27462359157541
 20
0.5182945718170449
 30
0.0
 10
-83.5741406559657
 20
0.1730410314765305
 30
0.0
 10
-83.22370816214325
 20
0.0003172103497428
 30
0.0
  0
ELLIPSE
  5
2F09
330
1F
100
AcDbEntity
  8
AM_0
 48
0.5
100
AcDbEllipse
 10
-101.8216893489538
 20
-4.101667469896868
 30
0.0
 11
0.2881004859792421
 21
2.13152202594012
 31
0.0
210
0.0
220
0.0
230
0.9999999999999998
 40
0.9059554324702647
 41
1.692640383110131
 42
3.373950968033102
  0
ELLIPSE
  5
2F0A
330
1F
100
AcDbEntity
  8
AM_0
 48
0.5
100
AcDbEllipse
 10
-102.3391060914192
 20
-4.165142442939562
 30
0.0
 11
-0.1438298512747507
 21
1.595806975659198
 31
0.0
210
0.0
220
0.0
230
1.0
 40
0.894467097122666
 41
-0.5299215969430997
 42
1.450694252969427
  0
LINE
  5
2F0B
330
1F
100
AcDbEntity
  8
AM_0
 48
0.5
100
AcDbLine
 10
-89.91017403682823
 20
3.166758333041877
 30
0.0
 11
-103.7735432287215
 21
-0.5054679369970369
 31
0.0
  0
SPLINE
  5
2F0C
330
1F
100
AcDbEntity
  8
AM_0
 48
0.5
100
AcDbSpline
210
0.0
220
0.0
230
1.0
 70
     8
 71
     3
 72
    22
 73
    18
 74
     0
 42
0.0000000001
 43
0.0000000001
 40
0.0
 40
0.0
 40
0.0
 40
0.0
 40
1.010743684496582
 40
2.022833993863546
 40
3.037578683882831
 40
4.056212471389632
 40
5.079857945358201
 40
6.109499720892564
 40
7.145961650132166
 40
8.189873411961459
 40
9.241710626092514
 40
10.30166235592959
 40
11.36982472628033
 40
12.44598212828784
 40
13.52983440361964
 40
14.62080578343036
 40
14.90544694398022
 40
14.90544694398022
 40
14.90544694398022
 40
14.90544694398022
 10
-86.5570246719904
 20
-6.250000681087453
 30
0.0
 10
-86.91205418242404
 20
-6.246283193441811
 30
0.0
 10
-87.62258621299277
 20
-6.2388432653011
 30
0.0
 10
-88.68812414273994
 20
-6.178834470252439
 30
0.0
 10
-89.75361885810428
 20
-6.083478785239726
 30
0.0
 10
-90.81904704342631
 20
-5.949811539486923
 30
0.0
 10
-91.88439518568007
 20
-5.77964460704107
 30
0.0
 10
-92.94965217083497
 20
-5.57378355386159
 30
0.0
 10
-94.01480238909524
 20
-5.333559041002304
 30
0.0
 10
-95.07985316480551
 20
-5.060461323396304
 30
0.0
 10
-96.14479490561604
 20
-4.756195577536585
 30
0.0
 10
-97.20963317680782
 20
-4.422613599025989
 30
0.0
 10
-98.27437484267511
 20
-4.061838122509317
 30
0.0
 10
-99.33901910347197
 20
-3.676013942921678
 30
0.0
 10
-100.4035859040543
 20
-3.267598934970237
 30
0.0
 10
-101.203682251333
 20
-2.945519512331027
 30
0.0
 10
-101.6495238564958
 20
-2.761429267314991
 30
0.0
 10
-101.7417090750814
 20
-2.723176952995937
 30
0.0
  0
LINE
  5
2F0D
330
1F
100
AcDbEntity
  8
AM_11
 48
0.5
100
AcDbLine
 10
-101.871892748014
 20
-6.250000681086715
 30
0.0
 11
-86.55701663283078
 21
-6.250000681087454
 31
0.0
  0
SPLINE
  5
2F0E
330
1F
100
AcDbEntity
  8
AM_0
 48
0.5
100
AcDbSpline
210
0.0
220
0.0
230
1.0
 70
     8
 71
     3
 72
    26
 73
    22
 74
     0
 42
0.0000000001
 43
0.0000000001
 40
0.0
 40
0.0
 40
0.0
 40
0.0
 40
0.8422864037471089
 40
1.685694647057321
 40
2.531315797913884
 40
3.380177287502886
 40
4.233214169721234
 40
5.09125020057522
 40
5.954967768899448
 40
6.824900391836836
 40
7.701419186604396
 40
8.584724417931369
 40
9.47485577056355
 40
10.37165251267315
 40
11.27486274211709
 40
12.18400675634887
 40
13.09851504074504
 40
14.01768673654235
 40
14.94071745659532
 40
15.8667176994736
 40
16.76607142455336
 40
16.76607142455336
 40
16.76607142455336
 40
16.76607142455336
 10
-83.57423961854506
 20
-6.25000068108759
 30
0.0
 10
-83.92926906062752
 20
-6.246282082665133
 30
0.0
 10
-84.63980080779068
 20
-6.238839933026453
 30
0.0
 10
-85.70533985171829
 20
-6.178847847026443
 30
0.0
 10
-86.77083341489476
 20
-6.08347611513954
 30
0.0
 10
-87.83626102281742
 20
-5.949808957657911
 30
0.0
 10
-88.90161209971322
 20
-5.779658030993854
 30
0.0
 10
-89.96686541965607
 20
-5.573779177120365
 30
0.0
 10
-91.03202027398031
 20
-5.33356339345572
 30
0.0
 10
-92.09706939835333
 20
-5.060469629687551
 30
0.0
 10
-93.16201027489581
 20
-4.75619238699115
 30
0.0
 10
-94.22685166811099
 20
-4.422625512233901
 30
0.0
 10
-95.29158916564394
 20
-4.061828673347435
 30
0.0
 10
-96.35623483127027
 20
-3.676015087609628
 30
0.0
 10
-97.4208029000362
 20
-3.26760221849469
 30
0.0
 10
-98.48529567207348
 20
-2.839067603716067
 30
0.0
 10
-99.54972108261642
 20
-2.393073630742114
 30
0.0
 10
-100.6140986785853
 20
-1.932371986095336
 30
0.0
 10
-101.6784108699586
 20
-1.459737204658707
 30
0.0
 10
-102.7317902627801
 20
-0.9832732753401185
 30
0.0
 10
-103.4296937427792
 20
-0.6631814654259324
 30
0.0
 10
-103.7735514851684
 20
-0.5054719106397556
 30
0.0
  0
SPLINE
  5
2F0F
330
1F
100
AcDbEntity
  8
AM_0
100
AcDbSpline
210
0.0
220
0.0
230
1.0
 70
     8
 71
     3
 72
    13
 73
     9
 74
     0
 42
0.0000000001
 43
0.0000000001
 40
16.03460056234195
 40
16.03460056234195
 40
16.03460056234195
 40
16.03460056234195
 40
16.35212717791071
 40
17.38177067057215
 40
18.41822498539278
 40
19.46214186516937
 40
20.5139635832251
 40
21.34083983469381
 40
21.34083983469381
 40
21.34083983469381
 40
21.34083983469381
 10
-101.6573753534042
 20
-6.236009775916105
 30
0.0
 10
-101.3448916378162
 20
-6.198097843500562
 30
0.0
 10
-100.9010075214717
 20
-6.13759356555721
 30
0.0
 10
-100.0836909627669
 20
-5.957567080223151
 30
0.0
 10
-99.02526316947053
 20
-5.689873532927685
 30
0.0
 10
-97.9678186628409
 20
-5.389297264871899
 30
0.0
 10
-96.98933462745108
 20
-5.082081341401541
 30
0.0
 10
-96.36507904388285
 20
-4.870541314669668
 30
0.0
 10
-96.09122186079767
 20
-4.774923295033784
 30
0.0
  0
LINE
  5
2F10
330
1F
100
AcDbEntity
  8
AM_11
 48
0.5
100
AcDbLine
 10
-102.5895574932895
 20
6.250443281875417
 30
0.0
 11
-86.56975377749642
 21
6.249999318912542
 31
0.0
  0
SPLINE
  5
2F11
330
1F
100
AcDbEntity
  8
AM_0
100
AcDbSpline
210
0.0
220
0.0
230
1.0
 70
     8
 71
     3
 72
    22
 73
    18
 74
     0
 42
0.0000000001
 43
0.0000000001
 40
17.17441611292
 40
17.17441611292
 40
17.17441611292
 40
17.17441611292
 40
17.38177636558528
 40
18.41823744757437
 40
19.46215659509824
 40
20.51397914882054
 40
21.57394542641293
 40
22.64209583141747
 40
23.71826625065247
 40
24.80210429862395
 40
25.8930771157021
 40
26.99048705697709
 40
28.09349309193389
 40
29.20112995599786
 40
30.31233024745139
 40
31.42594771747373
 40
32.5407895042663
 40
32.54078950426994
 40
32.54078950426994
 40
32.54078950426994
 10
-68.04395643902907
 20
-5.612545916394911
 30
0.0
 10
-68.11557908638143
 20
-5.598077779405972
 30
0.0
 10
-68.5449177418528
 20
-5.509950775599973
 30
0.0
 10
-69.33144196553944
 20
-5.333244662984037
 30
0.0
 10
-70.40056083217482
 20
-5.060152065706592
 30
0.0
 10
-71.46957075784197
 20
-4.755874028856723
 30
0.0
 10
-72.53847928969093
 20
-4.422309931387135
 30
0.0
 10
-73.60728501576794
 20
-4.06150501439602
 30
0.0
 10
-74.67600109183205
 20
-3.675704733607827
 30
0.0
 10
-75.74463246633915
 20
-3.26728009341676
 30
0.0
 10
-76.81318902667055
 20
-2.838749826199801
 30
0.0
 10
-77.88168265449781
 20
-2.392757692270076
 30
0.0
 10
-78.95012262370079
 20
-1.932046110746253
 30
0.0
 10
-80.01851968985532
 20
-1.459449457128774
 30
0.0
 10
-81.08688332337154
 20
-0.9778736658887378
 30
0.0
 10
-82.15522935112742
 20
-0.4902903199536576
 30
0.0
 10
-82.86732023394391
 20
-0.1632785125147216
 30
0.0
 10
-83.22356129184433
 20
0.0003172103519922
 30
0.0
  0
SPLINE
  5
2F12
330
1F
100
AcDbEntity
  8
AM_0
100
AcDbSpline
210
0.0
220
0.0
230
1.0
 70
     8
 71
     3
 72
    46
 73
    42
 74
     0
 42
0.0000000001
 43
0.0000000001
 40
0.0
 40
0.0
 40
0.0
 40
0.0
 40
1.685415058684573
 40
2.531036209541122
 40
3.379897699130124
 40
4.232934581347651
 40
5.090970612202446
 40
5.954688180526682
 40
6.824620803463244
 40
7.701151815239691
 40
8.584457046566678
 40
9.474582384070743
 40
10.37139106676737
 40
11.27458944007583
 40
12.18373345430765
 40
13.09824173870457
 40
14.0174134345011
 40
14.94044415455409
 40
15.86644439743313
 40
16.79446029130533
 40
17.72349377129849
 40
18.65252725129241
 40
19.5805431451646
 40
20.5065433880429
 40
21.42957410809586
 40
22.34874580389317
 40
23.26325408828901
 40
24.17239810252111
 40
25.07560240389441
 40
25.97241108659103
 40
26.8625364240951
 40
27.74584165542183
 40
28.62236045019041
 40
29.49229307312697
 40
30.35601064145121
 40
31.21404606334469
 40
32.06708345193547
 40
32.91595755657689
 40
33.76157841950692
 40
34.60498701064691
 40
35.44727335621125
 40
35.44727335621125
 40
35.44727335621125
 40
35.44727335621125
 10
-40.81859810023127
 20
-6.250000681089533
 30
0.0
 10
-41.53187970711496
 20
-6.235762697958786
 30
0.0
 10
-42.60303518618807
 20
-6.214381109685277
 30
0.0
 10
-44.02739733791352
 20
-6.08273859869228
 30
0.0
 10
-45.09690754944251
 20
-5.950007929151106
 30
0.0
 10
-46.16632634330851
 20
-5.779604295872667
 30
0.0
 10
-47.23565090229634
 20
-5.573793617690408
 30
0.0
 10
-48.30487573307596
 20
-5.333559844980394
 30
0.0
 10
-49.37399904485642
 20
-5.060467948272337
 30
0.0
 10
-50.44301607966142
 20
-4.756194752238294
 30
0.0
 10
-51.51192897419961
 20
-4.422627472077809
 30
0.0
 10
-52.58073485342037
 20
-4.061823000765571
 30
0.0
 10
-53.6494508882619
 20
-3.67602259979546
 30
0.0
 10
-54.71808227289778
 20
-3.267597989952879
 30
0.0
 10
-55.7866388343903
 20
-2.839067722815507
 30
0.0
 10
-56.85513244721409
 20
-2.393075557647283
 30
0.0
 10
-57.92357247570137
 20
-1.932364101933527
 30
0.0
 10
-58.99196931846912
 20
-1.459766973645523
 30
0.0
 10
-60.06033430356989
 20
-0.9781927311851479
 30
0.0
 10
-61.12867719058756
 20
-0.4906027176265018
 30
0.0
 10
-62.1970110969262
 20
-0.0000006811878272
 30
0.0
 10
-63.26534500303019
 20
0.490601355847028
 30
0.0
 10
-64.33368789075176
 20
0.9781913676180051
 30
0.0
 10
-65.4020528732794
 20
1.459765616611517
 30
0.0
 10
-66.47044972558858
 20
1.932362720670488
 30
0.0
 10
-67.53888971869722
 20
2.393074266223035
 30
0.0
 10
-68.60738346254004
 20
2.839066098686635
 30
0.0
 10
-69.67594186239143
 20
3.267598528107995
 30
0.0
 10
-70.74457739921337
 20
3.676019427205953
 30
0.0
 10
-71.81329534048052
 20
4.061821806428396
 30
0.0
 10
-72.88210119481639
 20
4.422626385099167
 30
0.0
 10
-73.95100969838188
 20
4.756190600061409
 30
0.0
 10
-75.02001961054621
 20
5.060468502944044
 30
0.0
 10
-76.08913855823701
 20
5.333561515262389
 30
0.0
 10
-77.15836277020549
 20
5.573779570617785
 30
0.0
 10
-78.22768811315654
 20
5.779649942006917
 30
0.0
 10
-79.29711373213589
 20
5.949810236711988
 30
0.0
 10
-80.36661843274982
 20
6.083475305440132
 30
0.0
 10
-81.43618930309923
 20
6.178838293693786
 30
0.0
 10
-82.50579899807553
 20
6.238846566180352
 30
0.0
 10
-83.21904605555953
 20
6.246283385013864
 30
0.0
 10
-83.57543216342035
 20
6.24999931891241
 30
0.0
  0
LINE
  5
2F13
330
1F
100
AcDbEntity
  8
AM_0
 48
0.5
100
AcDbLine
 10
-86.56976184741211
 20
-6.250000681087378
 30
0.0
 11
-65.77400208097445
 21
-6.250000681088275
 31
0.0
  0
LINE
  5
2F14
330
1F
100
AcDbEntity
  8
AM_0
100
AcDbLine
 10
-86.56975377749642
 20
6.249999318912542
 30
0.0
 11
-61.34979760469828
 21
6.250887244837268
 31
0.0
  0
SPLINE
  5
2F15
330
1F
100
AcDbEntity
  8
AM_0
100
AcDbSpline
210
0.0
220
0.0
230
1.0
 70
     8
 71
     3
 72
    55
 73
    51
 74
     0
 42
0.0000000001
 43
0.0000000001
 40
0.0
 40
0.0
 40
0.0
 40
0.0
 40
1.010743684496582
 40
2.022833576467832
 40
3.037578957496688
 40
4.056212745003489
 40
5.079857003664532
 40
6.109500240690281
 40
7.145961322679372
 40
8.189895241603872
 40
9.241717795325891
 40
10.30168407291828
 40
11.36983447792315
 40
12.44600489715814
 40
13.52984294512926
 40
14.62081576220742
 40
15.7182257034828
 40
16.82123173843959
 40
17.92886860250316
 40
19.0400688939571
 40
20.15368796660465
 40
21.26852814259644
 40
22.38336992938901
 40
23.49698739941135
 40
24.6081876908653
 40
25.71582455492886
 40
26.81883757994213
 40
27.91624752121713
 40
29.00722033829659
 40
30.09105838626677
 40
31.16722880550176
 40
32.23537921050758
 40
33.29534548809967
 40
34.347168041821
 40
35.39108718934584
 40
36.42754827133493
 40
37.45720575381954
 40
38.48085062012849
 40
39.49948440763516
 40
40.51422944315121
 40
41.52631975251916
 40
42.53706336719636
 40
43.54780698187354
 40
44.55989729124051
 40
45.57464232675757
 40
46.59327611426424
 40
47.6169209805722
 40
48.64656348684535
 40
49.68302456883444
 40
50.58557219878025
 40
50.58557219878025
 40
50.58557219878025
 40
50.58557219878025
 10
-43.81278091388179
 20
-6.250000681089393
 30
0.0
 10
-44.16916695834674
 20
-6.246282082504885
 30
0.0
 10
-44.8824137171305
 20
-6.238839932541925
 30
0.0
 10
-45.95202429121549
 20
-6.178847848978677
 30
0.0
 10
-47.021589207658
 20
-6.083476107793786
 30
0.0
 10
-48.09108792853286
 20
-5.949808985262746
 30
0.0
 10
-49.1605097819264
 20
-5.779657927170338
 30
0.0
 10
-50.22983367053654
 20
-5.573779568156467
 30
0.0
 10
-51.29906317120422
 20
-5.333560778228735
 30
0.0
 10
-52.36818880202463
 20
-5.060472542320772
 30
0.0
 10
-53.43720328030381
 20
-4.756191605634445
 30
0.0
 10
-54.50611193448795
 20
-4.422627908155413
 30
0.0
 10
-55.57491762732755
 20
-4.06182288257987
 30
0.0
 10
-56.64363371269366
 20
-3.67602263184275
 30
0.0
 10
-57.71226508356659
 20
-3.267597981144975
 30
0.0
 10
-58.78082164908493
 20
-2.839067725701382
 30
0.0
 10
-59.84931525968562
 20
-2.393075554970131
 30
0.0
 10
-60.91775529303901
 20
-1.93236410978682
 30
0.0
 10
-61.9861521184773
 20
-1.459766944760501
 30
0.0
 10
-63.05451716830073
 20
-0.978192839294563
 30
0.0
 10
-64.12285981308766
 20
-0.4906023130797931
 30
0.0
 10
-65.19119513949107
 20
-0.0000019563154598
 30
0.0
 10
-66.25952566996281
 20
0.4906072315610413
 30
0.0
 10
-67.32787189560145
 20
0.9781901647016109
 30
0.0
 10
-68.39623562651391
 20
1.459765727864951
 30
0.0
 10
-69.46463435689188
 20
1.932364693275823
 30
0.0
 10
-70.5330788226471
 20
2.39307220666676
 30
0.0
 10
-71.60157411961295
 20
2.839066639198861
 30
0.0
 10
-72.6701308393953
 20
3.2675965471486
 30
0.0
 10
-73.73876217138416
 20
3.676021283736541
 30
0.0
 10
-74.80747825948681
 20
4.061821535038015
 30
0.0
 10
-75.87628397954972
 20
4.422626474339637
 30
0.0
 10
-76.94519252341082
 20
4.756190512417894
 30
0.0
 10
-78.01420240745848
 20
5.060468762307443
 30
0.0
 10
-79.08332142697176
 20
5.333560574989952
 30
0.0
 10
-80.15255053101073
 20
5.573784195415347
 30
0.0
 10
-81.22188205495186
 20
5.779639040262717
 30
0.0
 10
-82.29130744141299
 20
5.949842763704545
 30
0.0
 10
-83.36080647933515
 20
6.083351441114595
 30
0.0
 10
-84.43037213894383
 20
6.179302340141384
 30
0.0
 10
-85.49998180612652
 20
6.237119849579081
 30
0.0
 10
-86.569614977333
 20
6.256434766355721
 30
0.0
 10
-87.63924814696565
 20
6.237119849548895
 30
0.0
 10
-88.70885781887896
 20
6.179302340263046
 30
0.0
 10
-89.77842346107086
 20
6.083351440657001
 30
0.0
 10
-90.8479225642927
 20
5.9498427654254
 30
0.0
 10
-91.91734249161497
 20
5.779639863564183
 30
0.0
 10
-92.98666980279685
 20
5.573786300170409
 30
0.0
 10
-94.0072833798866
 20
5.344465206492842
 30
0.0
 10
-94.66946909178016
 20
5.176760522759692
 30
0.0
 10
-94.97668466712418
 20
5.095029849249373
 30
0.0
  0
VIEWPORT
  5
110
330
101
100
AcDbEntity
 67
     1
  8
0
100
AcDbViewport
 10
420.5
 20
297.0
 30
0.0
 40
948.9782706766916
 41
628.452
 68
     1
 69
     1
1001
ACAD
1000
MVIEW
1002
{
1070
    16
1010
0.0
1020
0.0
1030
0.0
1010
0.0
1020
0.0
1030
1.0
1040
0.0
1040
628.452
1040
420.5
1040
297.0
1040
50.0
1040
0.0
1040
0.0
1070
     0
1070
   100
1070
     1
1070
     1
1070
     0
1070
     0
1070
     0
1070
     0
1040
0.0
1040
0.0
1040
0.0
1040
10.0
1040
10.0
1040
10.0
1040
10.0
1070
     0
1002
{
1002
}
1002
}
  0
ENDSEC
  0
SECTION
  2
OBJECTS
  0
DICTIONARY
  5
C
330
0
100
AcDbDictionary
  3
ACAD_GROUP
350
D
  3
ACAD_LAYOUT
350
1A
  3
ACAD_MLINESTYLE
350
17
  3
ACAD_PLOTSETTINGS
350
19
  3
ACAD_PLOTSTYLENAME
350
E
  3
ACDBVARIABLEDICTIONARY
350
34
  3
ACMDICTIONARY
350
43
  3
AMG
350
2B
  3
AMGSNAPSETTINGS
350
6E
  3
DWGPROPS
350
2F5C
  3
ACDBHEADERROUNDTRIPXREC
350
2F6B
  0
DICTIONARY
  5
74
330
1F
100
AcDbDictionary
280
     1
  3
ACAD_INDEX
360
2F5E
  3
ACAD_LAYOUTSELFREF
360
2F8E
  0
DICTIONARY
  5
2F93
330
101
100
AcDbDictionary
280
     1
  3
ACAD_LAYOUTSELFREF
360
2F94
  0
DICTIONARY
  5
D
102
{ACAD_REACTORS
330
C
102
}
330
C
100
AcDbDictionary
  0
DICTIONARY
  5
1A
102
{ACAD_REACTORS
330
C
102
}
330
C
100
AcDbDictionary
  0
DICTIONARY
  5
17
102
{ACAD_REACTORS
330
C
102
}
330
C
100
AcDbDictionary
  3
STANDARD
350
18
  0
DICTIONARY
  5
19
102
{ACAD_REACTORS
330
C
102
}
330
C
100
AcDbDictionary
  0
ACDBDICTIONARYWDFLT
  5
E
102
{ACAD_REACTORS
330
C
102
}
330
C
100
AcDbDictionary
281
     1
  3
Normal
350
F
100
AcDbDictionaryWithDefault
340
F
  0
DICTIONARY
  5
34
102
{ACAD_REACTORS
330
C
102
}
330
C
100
AcDbDictionary
  3
INDEXCTL
350
35
  3
SORTENTS
350
B5E
  0
DICTIONARY
  5
43
102
{ACAD_REACTORS
330
C
102
}
330
C
100
AcDbDictionary
  3
ACMSTDDICTIONARY
350
260
  0
DICTIONARY
  5
2B
102
{ACAD_REACTORS
330
C
102
}
330
C
100
AcDbDictionary
  3
ACMGSETTINGS
350
2C
  0
DICTIONARY
  5
6E
102
{ACAD_REACTORS
330
C
102
}
330
C
100
AcDbDictionary
  0
XRECORD
  5
2F5C
102
{ACAD_REACTORS
330
C
102
}
330
C
100
AcDbXrecord
  1
DWGPROPS COOKIE
  2

  3

  4

  6

  7

  8

  9

300
AmdtFileType=82
301
=
302
=
303
=
304
=
305
=
306
=
307
=
308
=
309
=
 40
0.1497907175925926
 41
2452800.443498622
 42
2452983.623401122
  1

 90
        1
  0
DICTIONARY
  5
2F6B
102
{ACAD_REACTORS
330
C
102
}
330
C
100
AcDbDictionary
  3
TSTACKALIGN
350
2F6C
  3
TSTACKSIZE
350
2F6D
  3
HYPERLINKBASE
350
2F6E
  3
STYLESHEET
350
2F6F
  3
LAYOUTDICT
350
2F70
  3
PLOTSETDICT
350
2F71
  3
PLOTSTYLNAMDICT
350
2F72
  3
LWETCUNION
350
2F73
  3
INSUNITS
350
2F74
  3
CEPSNTYPE
350
2F75
  3
FINGERPRINTGUID
350
2F76
  3
VERSIONGUID
350
2F77
  3
PSVPSCALE
350
2F78
  3
DIMSTYLEDATA
350
2F79
  3
PUCSORTHOREF
350
2F7A
  3
PUCSORTHOVIEW
350
2F7B
  3
PUCSBASE
350
2F7C
  3
PUCSORGTOP
350
2F7D
  3
PUCSORGBOTTOM
350
2F7E
  3
PUCSORGLEFT
350
2F7F
  3
PUCSORGRIGHT
350
2F80
  3
PUCSORGFRONT
350
2F81
  3
PUCSORGBACK
350
2F82
  3
UCSORTHOREF
350
2F83
  3
UCSORTHOVIEW
350
2F84
  3
UCSBASE
350
2F85
  3
UCSORGTOP
350
2F86
  3
UCSORGBOTTOM
350
2F87
  3
UCSORGLEFT
350
2F88
  3
UCSORGRIGHT
350
2F89
  3
UCSORGFRONT
350
2F8A
  3
UCSORGBACK
350
2F8B
  0
DICTIONARY
  5
2F5E
102
{ACAD_REACTORS
330
74
102
}
330
74
100
AcDbDictionary
  3
*A1
350
2F5F
  0
XRECORD
  5
2F8E
102
{ACAD_REACTORS
330
74
102
}
330
74
100
AcDbXrecord
340
1F
  0
XRECORD
  5
2F94
102
{ACAD_REACTORS
330
2F93
102
}
330
2F93
100
AcDbXrecord
340
101
  0
MLINESTYLE
  5
18
102
{ACAD_REACTORS
330
17
102
}
330
17
100
AcDbMlineStyle
  2
STANDARD
 70
     0
  3

 62
   256
 51
90.0
 52
90.0
 71
     2
 49
0.5
 62
   256
  6
BYLAYER
 49
-0.5
 62
   256
  6
BYLAYER
  0
ACDBPLACEHOLDER
  5
F
102
{ACAD_REACTORS
330
E
102
}
330
E
100
AcDbPlaceHolder
280
     0
  0
DICTIONARYVAR
  5
35
102
{ACAD_REACTORS
330
34
102
}
330
34
100
DictionaryVariables
280
     0
  1
1
  0
DICTIONARYVAR
  5
B5E
102
{ACAD_REACTORS
330
34
102
}
330
34
100
DictionaryVariables
280
     0
  1
96
  0
DICTIONARY
  5
260
102
{ACAD_REACTORS
330
43
102
}
330
43
100
AcDbDictionary
  0
DICTIONARY
  5
2C
102
{ACAD_REACTORS
330
2B
102
}
330
2B
100
AcDbDictionary
  3
DWGSETTINGS
350
2D
  0
XRECORD
  5
2F6C
102
{ACAD_REACTORS
330
2F6B
102
}
330
2F6B
100
AcDbXrecord
 90
        1
  0
XRECORD
  5
2F6D
102
{ACAD_REACTORS
330
2F6B
102
}
330
2F6B
100
AcDbXrecord
 90
       70
  0
XRECORD
  5
2F6E
102
{ACAD_REACTORS
330
2F6B
102
}
330
2F6B
100
AcDbXrecord
  1

  0
XRECORD
  5
2F6F
102
{ACAD_REACTORS
330
2F6B
102
}
330
2F6B
100
AcDbXrecord
  1
ASAMI.ctb
  0
XRECORD
  5
2F70
102
{ACAD_REACTORS
330
2F6B
102
}
330
2F6B
100
AcDbXrecord
340
1A
  0
XRECORD
  5
2F71
102
{ACAD_REACTORS
330
2F6B
102
}
330
2F6B
100
AcDbXrecord
340
19
  0
XRECORD
  5
2F72
102
{ACAD_REACTORS
330
2F6B
102
}
330
2F6B
100
AcDbXrecord
340
E
  0
XRECORD
  5
2F73
102
{ACAD_REACTORS
330
2F6B
102
}
330
2F6B
100
AcDbXrecord
 90
    10781
  0
XRECORD
  5
2F74
102
{ACAD_REACTORS
330
2F6B
102
}
330
2F6B
100
AcDbXrecord
 90
        4
  0
XRECORD
  5
2F75
102
{ACAD_REACTORS
330
2F6B
102
}
330
2F6B
100
AcDbXrecord
 90
        0
  0
XRECORD
  5
2F76
102
{ACAD_REACTORS
330
2F6B
102
}
330
2F6B
100
AcDbXrecord
  1
{AFB28963-8C59-40AE-9337-C84526B81ACE}
  0
XRECORD
  5
2F77
102
{ACAD_REACTORS
330
2F6B
102
}
330
2F6B
100
AcDbXrecord
  1
{D5E4BA11-D2F7-4F36-BA94-71D5725A7964}
  0
XRECORD
  5
2F78
102
{ACAD_REACTORS
330
2F6B
102
}
330
2F6B
100
AcDbXrecord
 40
0.0
  0
XRECORD
  5
2F79
102
{ACAD_REACTORS
330
2F6B
102
}
330
2F6B
100
AcDbXrecord
1000
DSTYLE
1002
{
1070
    79
 70
     2
1070
   341
340
59
1070
   342
340
59
1070
   371
 70
    -1
1070
   372
 70
    -1
1002
}
  0
XRECORD
  5
2F7A
102
{ACAD_REACTORS
330
2F6B
102
}
330
2F6B
100
AcDbXrecord
340
0
  0
XRECORD
  5
2F7B
102
{ACAD_REACTORS
330
2F6B
102
}
330
2F6B
100
AcDbXrecord
 70
     0
  0
XRECORD
  5
2F7C
102
{ACAD_REACTORS
330
2F6B
102
}
330
2F6B
100
AcDbXrecord
340
0
  0
XRECORD
  5
2F7D
102
{ACAD_REACTORS
330
2F6B
102
}
330
2F6B
100
AcDbXrecord
 10
0.0
 20
0.0
 30
0.0
  0
XRECORD
  5
2F7E
102
{ACAD_REACTORS
330
2F6B
102
}
330
2F6B
100
AcDbXrecord
 10
0.0
 20
0.0
 30
0.0
  0
XRECORD
  5
2F7F
102
{ACAD_REACTORS
330
2F6B
102
}
330
2F6B
100
AcDbXrecord
 10
0.0
 20
0.0
 30
0.0
  0
XRECORD
  5
2F80
102
{ACAD_REACTORS
330
2F6B
102
}
330
2F6B
100
AcDbXrecord
 10
0.0
 20
0.0
 30
0.0
  0
XRECORD
  5
2F81
102
{ACAD_REACTORS
330
2F6B
102
}
330
2F6B
100
AcDbXrecord
 10
0.0
 20
0.0
 30
0.0
  0
XRECORD
  5
2F82
102
{ACAD_REACTORS
330
2F6B
102
}
330
2F6B
100
AcDbXrecord
 10
0.0
 20
0.0
 30
0.0
  0
XRECORD
  5
2F83
102
{ACAD_REACTORS
330
2F6B
102
}
330
2F6B
100
AcDbXrecord
340
0
  0
XRECORD
  5
2F84
102
{ACAD_REACTORS
330
2F6B
102
}
330
2F6B
100
AcDbXrecord
 70
     0
  0
XRECORD
  5
2F85
102
{ACAD_REACTORS
330
2F6B
102
}
330
2F6B
100
AcDbXrecord
340
0
  0
XRECORD
  5
2F86
102
{ACAD_REACTORS
330
2F6B
102
}
330
2F6B
100
AcDbXrecord
 10
0.0
 20
0.0
 30
0.0
  0
XRECORD
  5
2F87
102
{ACAD_REACTORS
330
2F6B
102
}
330
2F6B
100
AcDbXrecord
 10
0.0
 20
0.0
 30
0.0
  0
XRECORD
  5
2F88
102
{ACAD_REACTORS
330
2F6B
102
}
330
2F6B
100
AcDbXrecord
 10
0.0
 20
0.0
 30
0.0
  0
XRECORD
  5
2F89
102
{ACAD_REACTORS
330
2F6B
102
}
330
2F6B
100
AcDbXrecord
 10
0.0
 20
0.0
 30
0.0
  0
XRECORD
  5
2F8A
102
{ACAD_REACTORS
330
2F6B
102
}
330
2F6B
100
AcDbXrecord
 10
0.0
 20
0.0
 30
0.0
  0
XRECORD
  5
2F8B
102
{ACAD_REACTORS
330
2F6B
102
}
330
2F6B
100
AcDbXrecord
 10
0.0
 20
0.0
 30
0.0
  0
LAYER_INDEX
  5
2F5F
102
{ACAD_REACTORS
330
2F5E
102
}
330
2F5E
100
AcDbIndex
 40
2453151.586686724
100
AcDbLayerIndex
  8
0
360
2F60
 90
        0
  8
AM_0
360
2F61
 90
       49
  8
PV0001_1
360
2F62
 90
        0
  8
AM_CL
360
2F63
 90
        0
  8
AM_7
360
2F64
 90
        1
  8
AM_11
360
2F65
 90
        6
  8
AM_5
360
2F66
 90
        5
  8
Defpoints
360
2F67
 90
        0
  8
AM_6
360
2F68
 90
        1
  8
AM_4
360
2F69
 90
        0
  0
XRECORD
  5
2D
102
{ACAD_REACTORS
330
2C
102
}
330
2C
100
AcDbXrecord
  1
VERSION
140
15.0
  1
PRODUCT
  2
AutoCAD Mechanical 2000
  0
IDBUFFER
  5
2F60
330
0
100
AcDbIdBuffer
  0
IDBUFFER
  5
2F61
330
0
100
AcDbIdBuffer
330
2F15
330
23EE
330
23F0
330
23F3
330
23F4
330
23F9
330
23FA
330
23FB
330
2406
330
246F
330
2470
330
2471
330
2472
330
2538
330
2539
330
2B39
330
2B3A
330
2BF5
330
2BF8
330
2EB1
330
2EB7
330
2EB8
330
2EB9
330
2EF5
330
2EF6
330
2EF7
330
2EF8
330
2EF9
330
2EFA
330
2EFC
330
2EFE
330
2F00
330
2F01
330
2F03
330
2F04
330
2F05
330
2F06
330
2F07
330
2F08
330
2F09
330
2F0A
330
2F0B
330
2F0C
330
2F0E
330
2F0F
330
2F11
330
2F12
330
2F13
330
2F14
  0
IDBUFFER
  5
2F62
330
0
100
AcDbIdBuffer
  0
IDBUFFER
  5
2F63
330
0
100
AcDbIdBuffer
  0
IDBUFFER
  5
2F64
330
0
100
AcDbIdBuffer
330
23EF
  0
IDBUFFER
  5
2F65
330
0
100
AcDbIdBuffer
330
2EFB
330
2EFD
330
2EFF
330
2F02
330
2F0D
330
2F10
  0
IDBUFFER
  5
2F66
330
0
100
AcDbIdBuffer
330
CC6
330
11B2
330
2069
330
23DF
330
246E
  0
IDBUFFER
  5
2F67
330
0
100
AcDbIdBuffer
  0
IDBUFFER
  5
2F68
330
0
100
AcDbIdBuffer
330
19BD
  0
IDBUFFER
  5
2F69
330
0
100
AcDbIdBuffer
  0
ENDSEC
  0
EOF
