  0
SECTION
  2
HEADER
  9
$ACADVER
  1
AC1014
  9
$ACADMAINTVER
 70
     9
  9
$DWGCODEPAGE
  3
ANSI_932
  9
$INSBASE
 10
0.0
 20
0.0
 30
0.0
  9
$EXTMIN
 10
-190.3000009999999
 20
-52.50000305448098
 30
-0.00000001
  9
$EXTMAX
 10
35.16147156405551
 20
33.98064263711914
 30
0.00000001
  9
$LIMMIN
 10
-204.9481783985751
 20
-88.05709827321306
  9
$LIMMAX
 10
45.46559379740722
 20
54.22958895053546
  9
$ORTHOMODE
 70
     0
  9
$REGENMODE
 70
     1
  9
$FILLMODE
 70
     1
  9
$QTEXTMODE
 70
     0
  9
$MIRRTEXT
 70
     0
  9
$DRAGMODE
 70
     2
  9
$LTSCALE
 40
1.0
  9
$OSMODE
 70
    55
  9
$ATTMODE
 70
     1
  9
$TEXTSIZE
 40
2.5
  9
$TRACEWID
 40
1.0
  9
$TEXTSTYLE
  7
STANDARD
  9
$CLAYER
  8
AM_0
  9
$CELTYPE
  6
BYLAYER
  9
$CECOLOR
 62
   256
  9
$CELTSCALE
 40
1.0
  9
$DELOBJ
 70
     1
  9
$DISPSILH
 70
     0
  9
$DIMSCALE
 40
1.0
  9
$DIMASZ
 40
2.5
  9
$DIMEXO
 40
1.0
  9
$DIMDLI
 40
12.0
  9
$DIMRND
 40
0.0
  9
$DIMDLE
 40
0.0
  9
$DIMEXE
 40
1.0
  9
$DIMTP
 40
0.1
  9
$DIMTM
 40
0.1
  9
$DIMTXT
 40
3.2
  9
$DIMCEN
 40
0.0
  9
$DIMTSZ
 40
0.0
  9
$DIMTOL
 70
     0
  9
$DIMLIM
 70
     0
  9
$DIMTIH
 70
     0
  9
$DIMTOH
 70
     0
  9
$DIMSE1
 70
     0
  9
$DIMSE2
 70
     0
  9
$DIMTAD
 70
     3
  9
$DIMZIN
 70
     8
  9
$DIMBLK
  1
OPEN30
  9
$DIMASO
 70
     1
  9
$DIMSHO
 70
     1
  9
$DIMPOST
  1

  9
$DIMAPOST
  1
"
  9
$DIMALT
 70
     0
  9
$DIMALTD
 70
     2
  9
$DIMALTF
 40
0.0393701
  9
$DIMLFAC
 40
1.0
  9
$DIMTOFL
 70
     1
  9
$DIMTVP
 40
0.0
  9
$DIMTIX
 70
     0
  9
$DIMSOXD
 70
     0
  9
$DIMSAH
 70
     0
  9
$DIMBLK1
  1

  9
$DIMBLK2
  1

  9
$DIMSTYLE
  2
AM_JIS
  9
$DIMCLRD
 70
   256
  9
$DIMCLRE
 70
   256
  9
$DIMCLRT
 70
     2
  9
$DIMTFAC
 40
0.71
  9
$DIMGAP
 40
1.5
  9
$DIMJUST
 70
     0
  9
$DIMSD1
 70
     0
  9
$DIMSD2
 70
     0
  9
$DIMTOLJ
 70
     0
  9
$DIMTZIN
 70
     0
  9
$DIMALTZ
 70
     0
  9
$DIMALTTZ
 70
     0
  9
$DIMFIT
 70
     3
  9
$DIMUPT
 70
     0
  9
$DIMUNIT
 70
     2
  9
$DIMDEC
 70
     3
  9
$DIMTDEC
 70
     3
  9
$DIMALTU
 70
     2
  9
$DIMALTTD
 70
     2
  9
$DIMTXSTY
  7
ASAMI
  9
$DIMAUNIT
 70
     0
  9
$LUNITS
 70
     2
  9
$LUPREC
 70
     2
  9
$SKETCHINC
 40
1.0
  9
$FILLETRAD
 40
2.5
  9
$AUNITS
 70
     0
  9
$AUPREC
 70
     0
  9
$MENU
  1
.
  9
$ELEVATION
 40
0.0
  9
$PELEVATION
 40
0.0
  9
$THICKNESS
 40
0.0
  9
$LIMCHECK
 70
     0
  9
$BLIPMODE
 70
     0
  9
$CHAMFERA
 40
0.5
  9
$CHAMFERB
 40
0.5
  9
$CHAMFERC
 40
20.0
  9
$CHAMFERD
 40
0.0
  9
$SKPOLY
 70
     0
  9
$TDCREATE
 40
2452800.443498622
  9
$TDUPDATE
 40
2453151.666296458
  9
$TDINDWG
 40
0.0714529167
  9
$TDUSRTIMER
 40
0.0714529167
  9
$USRTIMER
 70
     1
  9
$ANGBASE
 50
0.0
  9
$ANGDIR
 70
     0
  9
$PDMODE
 70
     3
  9
$PDSIZE
 40
0.0
  9
$PLINEWID
 40
0.0
  9
$COORDS
 70
     1
  9
$SPLFRAME
 70
     0
  9
$SPLINETYPE
 70
     6
  9
$SPLINESEGS
 70
     8
  9
$ATTDIA
 70
     1
  9
$ATTREQ
 70
     1
  9
$HANDLING
 70
 12289
  9
$HANDSEED
  5
3562
  9
$SURFTAB1
 70
     6
  9
$SURFTAB2
 70
     6
  9
$SURFTYPE
 70
     6
  9
$SURFU
 70
     6
  9
$SURFV
 70
     6
  9
$UCSNAME
  2

  9
$UCSORG
 10
0.0
 20
0.0
 30
0.0
  9
$UCSXDIR
 10
1.0
 20
0.0000000000000027
 30
0.0
  9
$UCSYDIR
 10
-0.0000000000000027
 20
1.0
 30
0.0
  9
$PUCSNAME
  2

  9
$PUCSORG
 10
0.0
 20
0.0
 30
0.0
  9
$PUCSXDIR
 10
1.0
 20
0.0
 30
0.0
  9
$PUCSYDIR
 10
0.0
 20
1.0
 30
0.0
  9
$USERI1
 70
     0
  9
$USERI2
 70
     0
  9
$USERI3
 70
     0
  9
$USERI4
 70
     0
  9
$USERI5
 70
     0
  9
$USERR1
 40
0.0
  9
$USERR2
 40
0.0
  9
$USERR3
 40
0.0
  9
$USERR4
 40
0.0
  9
$USERR5
 40
0.0
  9
$WORLDVIEW
 70
     1
  9
$SHADEDGE
 70
     3
  9
$SHADEDIF
 70
    70
  9
$TILEMODE
 70
     1
  9
$MAXACTVP
 70
    64
  9
$PINSBASE
 10
0.0
 20
0.0
 30
0.0
  9
$PLIMCHECK
 70
     0
  9
$PEXTMIN
 10
1.000000000000000E+20
 20
1.000000000000000E+20
 30
1.000000000000000E+20
  9
$PEXTMAX
 10
-1.000000000000000E+20
 20
-1.000000000000000E+20
 30
-1.000000000000000E+20
  9
$PLIMMIN
 10
0.0
 20
0.0
  9
$PLIMMAX
 10
841.0
 20
594.0
  9
$UNITMODE
 70
     0
  9
$VISRETAIN
 70
     1
  9
$PLINEGEN
 70
     0
  9
$PSLTSCALE
 70
     0
  9
$TREEDEPTH
 70
  3020
  9
$PICKSTYLE
 70
     0
  9
$CMLSTYLE
  2
STANDARD
  9
$CMLJUST
 70
     0
  9
$CMLSCALE
 40
20.0
  9
$PROXYGRAPHICS
 70
     1
  9
$MEASUREMENT
 70
     1
  0
ENDSEC
  0
SECTION
  2
CLASSES
  0
CLASS
  1
ACDBDICTIONARYWDFLT
  2
AcDbDictionaryWithDefault
  3
AutoCAD 2000
 90
        0
280
     0
281
     0
  0
CLASS
  1
ACDBPLACEHOLDER
  2
AcDbPlaceHolder
  3
AutoCAD 2000
 90
        0
280
     0
281
     0
  0
CLASS
  1
LAYOUT
  2
AcDbLayout
  3
AutoCAD 2000
 90
        0
280
     0
281
     0
  0
CLASS
  1
AMGSETTINGSOBJ
  2
AmgSettingsObj
  3
"AcadM|Product Description: AutoCAD Mechanical 2000|Company: Autodesk"
 90
        0
280
     0
281
     0
  0
CLASS
  1
ACME_DOCUMENT
  2
AcMeDbDoc
  3
AcMeServices
 90
        0
280
     0
281
     0
  0
CLASS
  1
ACMESCOPE
  2
AcMeScope
  3
AcMeServices
 90
        0
280
     0
281
     0
  0
CLASS
  1
ACMECOMMANDHISTORY
  2
AcMeCommandHistory
  3
AcMeServices
 90
        0
280
     0
281
     0
  0
CLASS
  1
DICTIONARYVAR
  2
AcDbDictionaryVar
  3
AutoCAD 2000
 90
        0
280
     0
281
     0
  0
CLASS
  1
ACIMSYSVARMAN
  2
AcImSysVarManager
  3
AcMeServices
 90
        0
280
     0
281
     0
  0
CLASS
  1
ACIMREALSYSVAR
  2
AcImRealSysVar
  3
AcMeServices
 90
        0
280
     0
281
     0
  0
CLASS
  1
ACIMINTSYSVAR
  2
AcImIntSysVar
  3
AcMeServices
 90
        0
280
     0
281
     0
  0
CLASS
  1
ACMEDRAWINGMAN
  2
AcMeDrawingMan
  3
AcMeServices
 90
        0
280
     0
281
     0
  0
CLASS
  1
ACMEVIEW
  2
AcMeView
  3
AcMeServices
 90
        0
280
     0
281
     0
  0
CLASS
  1
ACDBENTITYCACHE
  2
AcMeEntityCache
  3
AcMeServices
 90
        0
280
     0
281
     0
  0
CLASS
  1
GSMANAGER
  2
AcMeGSManager
  3
AcMeServices
 90
        0
280
     0
281
     0
  0
CLASS
  1
AmdtInternalReactor
  2
AmdtInternalReactor
  3
AcMeServices
 90
        0
280
     0
281
     0
  0
CLASS
  1
ACMESTATEMGR
  2
AcMeStateMgr
  3
AcMeServices
 90
        0
280
     0
281
     0
  0
CLASS
  1
ACME_DATABASE
  2
AcMeDbDatabase
  3
AcMeServices
 90
        0
280
     0
281
     0
  0
CLASS
  1
ACRFINSADJUSTERMGR
  2
AcRfInsAdjusterMgr
  3
AcMeServices
 90
        0
280
     0
281
     0
  0
CLASS
  1
ACMDATADICTIONARY
  2
AcmDataDictionary
  3
"AcmSymBB|Product Description: AutoCAD Mechanical 2000|Company: Autodesk"
 90
        0
280
     0
281
     0
  0
CLASS
  1
ACMDATAENTRYBLOCK
  2
AcmDataEntryBlock
  3
"AcmSymBB|Product Description: AutoCAD Mechanical 2000|Company: Autodesk"
 90
        0
280
     0
281
     0
  0
CLASS
  1
AMGOBJPROPCFG
  2
AmgObjPropCfg
  3
"AmgLay|Product Description: AutoCAD Mechanical 2000|Company: Autodesk"
 90
        1
280
     0
281
     0
  0
CLASS
  1
ACAMGFILTERDAT
  2
AcAmgFilterDat
  3
"AcadM|Product Description: AutoCAD Mechanical 2000|Company: Autodesk"
 90
        0
280
     0
281
     0
  0
CLASS
  1
LAYER_INDEX
  2
AcDbLayerIndex
  3
AutoCAD 2000
 90
        0
280
     0
281
     0
  0
CLASS
  1
IDBUFFER
  2
AcDbIdBuffer
  3
AutoCAD 2000
 90
        0
280
     0
281
     0
  0
CLASS
  1
ACIMSTRSYSVAR
  2
AcImStrSysVar
  3
AcMeServices
 90
        0
280
     0
281
     0
  0
CLASS
  1
ACMSTANDARDJIS
  2
AcmStandardJIS
  3
"AcmSymBB|Product Description: AutoCAD Mechanical 2000|Company: Autodesk"
 90
        0
280
     0
281
     0
  0
CLASS
  1
ACMSURFSTANDARDJIS
  2
AcmSurfTextStdJIS
  3
"AcmSymBB|Product Description: AutoCAD Mechanical 2000|Company: Autodesk"
 90
        0
280
     0
281
     0
  0
CLASS
  1
ACMFCFSTANDARDJIS
  2
AcmFCFStdJIS
  3
"AcmSymBB|Product Description: AutoCAD Mechanical 2000|Company: Autodesk"
 90
        0
280
     0
281
     0
  0
CLASS
  1
ACMWELDSTANDARDJIS
  2
AcmWeldingStdJIS
  3
"AcmSymBB|Product Description: AutoCAD Mechanical 2000|Company: Autodesk"
 90
        0
280
     0
281
     0
  0
CLASS
  1
ACMIDSTANDARDJIS
  2
AcmIdStdJIS
  3
"AcmSymBB|Product Description: AutoCAD Mechanical 2000|Company: Autodesk"
 90
        0
280
     0
281
     0
  0
CLASS
  1
ACMDATUMSTANDARDJIS
  2
AcmDatumStdJIS
  3
"AcmSymBB|Product Description: AutoCAD Mechanical 2000|Company: Autodesk"
 90
        0
280
     0
281
     0
  0
CLASS
  1
ACMBOMSTANDARDJIS
  2
AcmBOMStdJIS
  3
"AcmSymBB|Product Description: AutoCAD Mechanical 2000|Company: Autodesk"
 90
        0
280
     0
281
     0
  0
CLASS
  1
ACMSTANDARDANSI
  2
AcmStandardANSI
  3
"AcmSymBB|Product Description: AutoCAD Mechanical 2000|Company: Autodesk"
 90
        0
280
     0
281
     0
  0
CLASS
  1
ACMSURFSTANDARDANSI
  2
AcmSurfTextStdANSI
  3
"AcmSymBB|Product Description: AutoCAD Mechanical 2000|Company: Autodesk"
 90
        0
280
     0
281
     0
  0
CLASS
  1
ACMFCFSTANDARDANSI
  2
AcmFCFStdANSI
  3
"AcmSymBB|Product Description: AutoCAD Mechanical 2000|Company: Autodesk"
 90
        0
280
     0
281
     0
  0
CLASS
  1
ACMWELDSTANDARDANSI
  2
AcmWeldingStdANSI
  3
"AcmSymBB|Product Description: AutoCAD Mechanical 2000|Company: Autodesk"
 90
        0
280
     0
281
     0
  0
CLASS
  1
ACMIDSTANDARDANSI
  2
AcmIdStdANSI
  3
"AcmSymBB|Product Description: AutoCAD Mechanical 2000|Company: Autodesk"
 90
        0
280
     0
281
     0
  0
CLASS
  1
ACMDATUMSTANDARDANSI
  2
AcmDatumStdANSI
  3
"AcmSymBB|Product Description: AutoCAD Mechanical 2000|Company: Autodesk"
 90
        0
280
     0
281
     0
  0
CLASS
  1
ACMBOMSTANDARDANSI
  2
AcmBOMStdANSI
  3
"AcmSymBB|Product Description: AutoCAD Mechanical 2000|Company: Autodesk"
 90
        0
280
     0
281
     0
  0
CLASS
  1
ACMSTANDARDBSI
  2
AcmStandardBSI
  3
"AcmSymBB|Product Description: AutoCAD Mechanical 2000|Company: Autodesk"
 90
        0
280
     0
281
     0
  0
CLASS
  1
ACMSURFSTANDARDBSI
  2
AcmSurfTextStdBSI
  3
"AcmSymBB|Product Description: AutoCAD Mechanical 2000|Company: Autodesk"
 90
        0
280
     0
281
     0
  0
CLASS
  1
ACMFCFSTANDARDBSI
  2
AcmFCFStdBSI
  3
"AcmSymBB|Product Description: AutoCAD Mechanical 2000|Company: Autodesk"
 90
        0
280
     0
281
     0
  0
CLASS
  1
ACMWELDSTANDARDBSI
  2
AcmWeldingStdBSI
  3
"AcmSymBB|Product Description: AutoCAD Mechanical 2000|Company: Autodesk"
 90
        0
280
     0
281
     0
  0
CLASS
  1
ACMIDSTANDARDBSI
  2
AcmIdStdBSI
  3
"AcmSymBB|Product Description: AutoCAD Mechanical 2000|Company: Autodesk"
 90
        0
280
     0
281
     0
  0
CLASS
  1
ACMDATUMSTANDARDBSI
  2
AcmDatumStdBSI
  3
"AcmSymBB|Product Description: AutoCAD Mechanical 2000|Company: Autodesk"
 90
        0
280
     0
281
     0
  0
CLASS
  1
ACMBOMSTANDARDBSI
  2
AcmBOMStdBSI
  3
"AcmSymBB|Product Description: AutoCAD Mechanical 2000|Company: Autodesk"
 90
        0
280
     0
281
     0
  0
CLASS
  1
LONG_TRANSACTION
  2
AcDbLongTransaction
  3
AutoCAD 2000
 90
        0
280
     0
281
     0
  0
CLASS
  1
LWPOLYLINE
  2
AcDbPolyline
  3
AutoCAD 2000
 90
        0
280
     0
281
     1
  0
CLASS
  1
HATCH
  2
AcDbHatch
  3
AutoCAD 2000
 90
        0
280
     0
281
     1
  0
CLASS
  1
XRECORD
  2
AcDbXrecord
  3
AutoCAD 2000
 90
        0
280
     0
281
     0
  0
ENDSEC
  0
SECTION
  2
TABLES
  0
TABLE
  2
VPORT
  5
8
330
0
100
AcDbSymbolTable
 70
     3
  0
VPORT
  5
352C
330
8
100
AcDbSymbolTableRecord
100
AcDbViewportTableRecord
  2
*ACTIVE
 70
     0
 10
0.0
 20
0.0
 11
1.0
 21
1.0
 12
-73.38530476367378
 22
-9.260547343851754
 13
0.0
 23
0.0
 14
2.5
 24
2.5
 15
10.0
 25
10.0
 16
0.0
 26
0.0
 36
1.0
 17
0.0
 27
0.0
 37
0.0
 40
150.0631788290935
 41
1.56570841889117
 42
50.0
 43
0.0
 44
0.0
 50
0.0
 51
0.0
 71
     0
 72
   100
 73
     1
 74
     1
 75
     0
 76
     0
 77
     0
 78
     0
  0
ENDTAB
  0
TABLE
  2
LTYPE
  5
5
330
0
100
AcDbSymbolTable
 70
    10
  0
LTYPE
  5
14
330
5
100
AcDbSymbolTableRecord
100
AcDbLinetypeTableRecord
  2
BYBLOCK
 70
     0
  3

 72
    65
 73
     0
 40
0.0
  0
LTYPE
  5
15
330
5
100
AcDbSymbolTableRecord
100
AcDbLinetypeTableRecord
  2
BYLAYER
 70
     0
  3

 72
    65
 73
     0
 40
0.0
  0
LTYPE
  5
16
330
5
100
AcDbSymbolTableRecord
100
AcDbLinetypeTableRecord
  2
CONTINUOUS
 70
     0
  3
Solid line
 72
    65
 73
     0
 40
0.0
  0
LTYPE
  5
4B
330
5
100
AcDbSymbolTableRecord
100
AcDbLinetypeTableRecord
  2
AM_ISO02W050
 70
     0
  3
__ __ __ __ __ __ __ __ __ __ __ __ __ __ __
 72
    65
 73
     2
 40
7.5
 49
6.0
 74
     0
 49
-1.5
 74
     0
  0
LTYPE
  5
4C
330
5
100
AcDbSymbolTableRecord
100
AcDbLinetypeTableRecord
  2
AM_ISO08W050
 70
     0
  3
____ . ____ . ____ . ____ . ____ . ____ . ____
 72
    65
 73
     4
 40
18.0
 49
12.0
 74
     0
 49
-1.5
 74
     0
 49
3.0
 74
     0
 49
-1.5
 74
     0
  0
LTYPE
  5
4D
330
5
100
AcDbSymbolTableRecord
100
AcDbLinetypeTableRecord
  2
AM_ISO09W050
 70
     0
  3
_____ . . _____ . . _____ . . ____ .. ____
 72
    65
 73
     6
 40
22.5
 49
12.0
 74
     0
 49
-1.5
 74
     0
 49
3.0
 74
     0
 49
-1.5
 74
     0
 49
3.0
 74
     0
 49
-1.5
 74
     0
  0
LTYPE
  5
4E
330
5
100
AcDbSymbolTableRecord
100
AcDbLinetypeTableRecord
  2
AMCONSTR
 70
     0
  3
_______________________
 72
    65
 73
     2
 40
9999.0
 49
9999.0
 74
     0
 49
0.0
 74
     0
  0
LTYPE
  5
4F
330
5
100
AcDbSymbolTableRecord
100
AcDbLinetypeTableRecord
  2
AM_ISO02W050X2
 70
     0
  3
 _ _ _ _ _ _ _ _ _ _ _ _
 72
    65
 73
     2
 40
3.75
 49
3.0
 74
     0
 49
-0.75
 74
     0
  0
LTYPE
  5
50
330
5
100
AcDbSymbolTableRecord
100
AcDbLinetypeTableRecord
  2
AM_ISO08W050X2
 70
     0
  3
__ . __ . __ . __ . __ . __
 72
    65
 73
     4
 40
9.0
 49
6.0
 74
     0
 49
-0.75
 74
     0
 49
1.5
 74
     0
 49
-0.75
 74
     0
  0
LTYPE
  5
53
330
5
100
AcDbSymbolTableRecord
100
AcDbLinetypeTableRecord
  2
AMZIGZAG
 70
     0
  3
/\/-/\/-/\/-/\/-/\/-/\/
 72
    65
 73
     2
 40
11.00009999999999
 49
0.0001
 74
     4
 75
   135
340
52
 46
0.04
 50
0.0
 44
0.0
 45
0.0
 49
-11.0
 74
     0
  0
LTYPE
  5
166
330
5
100
AcDbSymbolTableRecord
100
AcDbLinetypeTableRecord
  2
ACJISTGL
 70
     0
  3
_ _ _ _ _
 72
    65
 73
     2
 40
3.0
 49
2.0
 74
     0
 49
-1.0
 74
     0
  0
LTYPE
  5
26A
330
5
100
AcDbSymbolTableRecord
100
AcDbLinetypeTableRecord
  2
ACJISTGB
 70
     0
  3
__ . . __ . .
 72
    65
 73
     6
 40
9.0
 49
4.0
 74
     0
 49
-1.0
 74
     0
 49
1.0
 74
     0
 49
-1.0
 74
     0
 49
1.0
 74
     0
 49
-1.0
 74
     0
  0
ENDTAB
  0
TABLE
  2
LAYER
  5
2
330
0
100
AcDbSymbolTable
 70
     8
  0
LAYER
  5
10
330
2
100
AcDbSymbolTableRecord
100
AcDbLayerTableRecord
  2
0
 70
     0
 62
     7
  6
CONTINUOUS
  0
LAYER
  5
3F9
330
2
100
AcDbSymbolTableRecord
100
AcDbLayerTableRecord
  2
AM_0
 70
     0
 62
     7
  6
CONTINUOUS
  0
LAYER
  5
C7C
330
2
100
AcDbSymbolTableRecord
100
AcDbLayerTableRecord
  2
AM_7
 70
     0
 62
     4
  6
AM_ISO08W050
  0
LAYER
  5
C97
330
2
100
AcDbSymbolTableRecord
100
AcDbLayerTableRecord
  2
AM_11
 70
     0
 62
     3
  6
AM_ISO09W050
  0
LAYER
  5
CC5
330
2
100
AcDbSymbolTableRecord
100
AcDbLayerTableRecord
  2
AM_5
 70
     0
 62
     3
  6
CONTINUOUS
  0
LAYER
  5
CC7
330
2
100
AcDbSymbolTableRecord
100
AcDbLayerTableRecord
  2
DEFPOINTS
 70
     0
 62
     7
  6
CONTINUOUS
  0
LAYER
  5
19BC
330
2
100
AcDbSymbolTableRecord
100
AcDbLayerTableRecord
  2
AM_6
 70
     0
 62
     2
  6
CONTINUOUS
  0
LAYER
  5
33A1
330
2
100
AcDbSymbolTableRecord
100
AcDbLayerTableRecord
  2
AM_CL
 70
     0
 62
     1
  6
AMCONSTR
  0
ENDTAB
  0
TABLE
  2
STYLE
  5
3
330
0
100
AcDbSymbolTable
 70
     5
  0
STYLE
  5
11
330
3
100
AcDbSymbolTableRecord
100
AcDbTextStyleTableRecord
  2
STANDARD
 70
     0
 40
0.0
 41
1.0
 50
0.0
 71
     0
 42
2.5
  3
simplex.shx
  4
EXTFONT.SHX
  0
STYLE
  5
52
330
3
100
AcDbSymbolTableRecord
100
AcDbTextStyleTableRecord
  2

 70
     1
 40
0.0
 41
1.0
 50
0.0
 71
     0
 42
2.5
  3
ltypeshp.shx
  4

  0
STYLE
  5
6B
330
3
100
AcDbSymbolTableRecord
100
AcDbTextStyleTableRecord
  2
ASAMI
 70
     0
 40
0.0
 41
1.0
 50
0.0
 71
     0
 42
2.5
  3
simplex.shx
  4
EXTFONT.SHX
  0
STYLE
  5
262
330
3
100
AcDbSymbolTableRecord
100
AcDbTextStyleTableRecord
  2
ACJISTS
 70
     0
 40
1.0
 41
1.0
 50
0.0
 71
     0
 42
2.5
  3
simplex.shx
  4
bigfont.shx
  0
STYLE
  5
269
330
3
100
AcDbSymbolTableRecord
100
AcDbTextStyleTableRecord
  2
ACJISGDT
 70
     0
 40
0.0
 41
1.0
 50
0.0
 71
     0
 42
2.5
  3
amgdtans.shx
  4

  0
ENDTAB
  0
TABLE
  2
VIEW
  5
6
330
0
100
AcDbSymbolTable
 70
     0
  0
ENDTAB
  0
TABLE
  2
UCS
  5
7
330
0
100
AcDbSymbolTable
 70
     0
  0
ENDTAB
  0
TABLE
  2
APPID
  5
9
330
0
100
AcDbSymbolTable
 70
    16
  0
APPID
  5
12
330
9
100
AcDbSymbolTableRecord
100
AcDbRegAppTableRecord
  2
ACAD
 70
     0
  0
APPID
  5
30
330
9
100
AcDbSymbolTableRecord
100
AcDbRegAppTableRecord
  2
MCAD_NO_VIS
 70
     0
  0
APPID
  5
31
330
9
100
AcDbSymbolTableRecord
100
AcDbRegAppTableRecord
  2
ACAD_TEMP_GRAPHIC
 70
     0
  0
APPID
  5
2C2
330
9
100
AcDbSymbolTableRecord
100
AcDbRegAppTableRecord
  2
GENIUS_GENDTOL_13
 70
     0
  0
APPID
  5
339
330
9
100
AcDbSymbolTableRecord
100
AcDbRegAppTableRecord
  2
GENIUS_GENODEF_13
 70
     0
  0
APPID
  5
33A
330
9
100
AcDbSymbolTableRecord
100
AcDbRegAppTableRecord
  2
GENIUS_GENOBJ-N-RSBK_13
 70
     0
  0
APPID
  5
33B
330
9
100
AcDbSymbolTableRecord
100
AcDbRegAppTableRecord
  2
GENIUS_GENOBJ-N-LIB_13
 70
     0
  0
APPID
  5
33C
330
9
100
AcDbSymbolTableRecord
100
AcDbRegAppTableRecord
  2
GENIUS_GENSCALE_13
 70
     0
  0
APPID
  5
378
330
9
100
AcDbSymbolTableRecord
100
AcDbRegAppTableRecord
  2
GENIUS_GENDIMSH_14
 70
     0
  0
APPID
  5
C82
330
9
100
AcDbSymbolTableRecord
100
AcDbRegAppTableRecord
  2
GENIUS_GENOBJ-N-CRS_13
 70
     0
  0
APPID
  5
C83
330
9
100
AcDbSymbolTableRecord
100
AcDbRegAppTableRecord
  2
GENIUS_GENOENT_13
 70
     0
  0
APPID
  5
C84
330
9
100
AcDbSymbolTableRecord
100
AcDbRegAppTableRecord
  2
GENIUS_GENOREF_13
 70
     0
  0
APPID
  5
C85
330
9
100
AcDbSymbolTableRecord
100
AcDbRegAppTableRecord
  2
GENIUS_GENOLIS_13
 70
     0
  0
APPID
  5
CA0
330
9
100
AcDbSymbolTableRecord
100
AcDbRegAppTableRecord
  2
GENIUS_GENOBJ-N-CEN_13
 70
     0
  0
APPID
  5
1E1E
330
9
100
AcDbSymbolTableRecord
100
AcDbRegAppTableRecord
  2
GENIUS_GENFIL_13
 70
     0
  0
APPID
  5
1E1F
330
9
100
AcDbSymbolTableRecord
100
AcDbRegAppTableRecord
  2
GENIUS_GENOBJ-N-CHA_13
 70
     0
  0
ENDTAB
  0
TABLE
  2
DIMSTYLE
  5
A
330
0
100
AcDbSymbolTable
 70
     9
  0
DIMSTYLE
105
58
330
A
100
AcDbSymbolTableRecord
100
AcDbDimStyleTableRecord
  2
AM_JIS
 70
     0
  3

  4
"
  5
OPEN30
  6

  7

 40
1.0
 41
2.5
 42
1.0
 43
12.0
 44
1.0
 45
0.0
 46
0.0
 47
0.1
 48
0.1
140
3.2
141
0.0
142
0.0
143
0.0393701
144
1.0
145
0.0
146
0.71
147
1.5
 71
     0
 72
     0
 73
     0
 74
     0
 75
     0
 76
     0
 77
     3
 78
     8
170
     0
171
     2
172
     1
173
     0
174
     0
175
     0
176
   256
177
   256
178
     2
270
     2
271
     3
272
     3
273
     2
274
     2
340
6B
275
     0
280
     0
281
     0
282
     0
283
     0
284
     0
285
     0
286
     0
287
     3
288
     0
  0
DIMSTYLE
105
5F
330
A
100
AcDbSymbolTableRecord
100
AcDbDimStyleTableRecord
  2
AM_JIS$3
 70
     0
  3

  4
"
  5
OPEN30
  6

  7

 40
1.0
 41
2.5
 42
1.0
 43
10.0
 44
1.0
 45
0.0
 46
0.0
 47
0.1
 48
0.1
140
3.2
141
0.0
142
0.0
143
0.0393701
144
1.0
145
0.0
146
0.71
147
1.5
 71
     0
 72
     0
 73
     0
 74
     1
 75
     0
 76
     0
 77
     3
 78
     8
170
     0
171
     2
172
     0
173
     0
174
     0
175
     0
176
   256
177
   256
178
     2
270
     2
271
     2
272
     3
273
     2
274
     2
340
6B
275
     0
280
     0
281
     0
282
     0
283
     0
284
     0
285
     0
286
     0
287
     0
288
     1
  0
DIMSTYLE
105
60
330
A
100
AcDbSymbolTableRecord
100
AcDbDimStyleTableRecord
  2
AM_JIS$4
 70
     0
  3

  4
"
  5
OPEN30
  6

  7

 40
1.0
 41
2.5
 42
1.0
 43
10.0
 44
1.0
 45
0.0
 46
0.0
 47
0.1
 48
0.1
140
3.2
141
0.0
142
0.0
143
0.0393701
144
1.0
145
0.0
146
0.71
147
1.5
 71
     0
 72
     0
 73
     0
 74
     1
 75
     0
 76
     0
 77
     3
 78
     8
170
     0
171
     2
172
     0
173
     0
174
     0
175
     0
176
   256
177
   256
178
     2
270
     2
271
     2
272
     3
273
     2
274
     2
340
6B
275
     0
280
     0
281
     0
282
     0
283
     0
284
     0
285
     0
286
     0
287
     0
288
     1
  0
DIMSTYLE
105
61
330
A
100
AcDbSymbolTableRecord
100
AcDbDimStyleTableRecord
  2
AM_JIS$6
 70
     0
  3

  4
"
  5
OPEN30
  6

  7

 40
1.0
 41
2.5
 42
1.0
 43
10.0
 44
1.0
 45
0.0
 46
0.0
 47
0.1
 48
0.1
140
3.2
141
0.0
142
0.0
143
0.0393701
144
1.0
145
0.0
146
0.71
147
1.5
 71
     0
 72
     0
 73
     0
 74
     0
 75
     0
 76
     0
 77
     0
 78
     8
170
     0
171
     2
172
     1
173
     0
174
     0
175
     0
176
   256
177
   256
178
     2
270
     2
271
     2
272
     2
273
     2
274
     2
340
6B
275
     0
280
     0
281
     0
282
     0
283
     0
284
     0
285
     0
286
     0
287
     3
288
     0
  0
DIMSTYLE
105
62
330
A
100
AcDbSymbolTableRecord
100
AcDbDimStyleTableRecord
  2
AM_JIS$7
 70
     0
  3

  4
"
  5
OPEN30
  6

  7

 40
1.0
 41
2.5
 42
1.0
 43
10.0
 44
1.0
 45
0.0
 46
0.0
 47
0.1
 48
0.1
140
3.2
141
0.0
142
0.0
143
0.0393701
144
1.0
145
0.0
146
0.71
147
1.5
 71
     0
 72
     0
 73
     0
 74
     0
 75
     0
 76
     0
 77
     3
 78
     8
170
     0
171
     2
172
     1
173
     0
174
     0
175
     0
176
   256
177
   256
178
     2
270
     2
271
     2
272
     3
273
     2
274
     2
340
6B
275
     0
280
     0
281
     0
282
     0
283
     0
284
     0
285
     0
286
     0
287
     3
288
     0
  0
DIMSTYLE
105
63
330
A
100
AcDbSymbolTableRecord
100
AcDbDimStyleTableRecord
  2
AM_JIS$SF
 70
     0
  3

  4
"
  5
OPEN30
  6

  7

 40
1.0
 41
2.5
 42
1.0
 43
10.0
 44
1.0
 45
0.0
 46
0.0
 47
0.1
 48
0.1
140
3.2
141
0.0
142
0.0
143
0.0393701
144
1.0
145
0.0
146
0.71
147
1.5
 71
     0
 72
     0
 73
     0
 74
     0
 75
     1
 76
     1
 77
     3
 78
     8
170
     0
171
     2
172
     1
173
     0
174
     0
175
     0
176
   256
177
   256
178
     2
270
     2
271
     2
272
     2
273
     2
274
     2
340
6B
275
     0
280
     0
281
     0
282
     0
283
     0
284
     0
285
     0
286
     0
287
     3
288
     0
  0
DIMSTYLE
105
68
330
A
100
AcDbSymbolTableRecord
100
AcDbDimStyleTableRecord
  2
AM_JIS$SH
 70
     0
  3

  4
"
  5

  6
GENAXEH
  7
OPEN30
 40
1.0
 41
2.5
 42
1.0
 43
10.0
 44
1.0
 45
0.0
 46
0.0
 47
0.1
 48
0.1
140
3.2
141
0.0
142
0.0
143
0.0393701
144
2.0
145
0.0
146
0.71
147
1.5
 71
     0
 72
     0
 73
     0
 74
     0
 75
     1
 76
     1
 77
     3
 78
     8
170
     0
171
     2
172
     1
173
     1
174
     0
175
     0
176
   256
177
   256
178
     2
270
     2
271
     2
272
     2
273
     2
274
     2
340
6B
275
     0
280
     0
281
     0
282
     0
283
     0
284
     0
285
     0
286
     0
287
     3
288
     0
  0
DIMSTYLE
105
B34
102
{ACAD_REACTORS
330
33F8
102
}
330
A
100
AcDbSymbolTableRecord
100
AcDbDimStyleTableRecord
  2
AM_JIS$2
 70
     0
  3

  4
"
  5
OPEN30
  6

  7

 40
1.0
 41
2.5
 42
1.0
 43
12.0
 44
1.0
 45
0.0
 46
0.0
 47
0.1
 48
0.1
140
3.2
141
0.0
142
0.0
143
0.0393701
144
1.0
145
0.0
146
0.71
147
1.5
 71
     0
 72
     0
 73
     0
 74
     0
 75
     0
 76
     0
 77
     3
 78
     8
170
     0
171
     2
172
     1
173
     0
174
     0
175
     0
176
   256
177
   256
178
     2
270
     2
271
     3
272
     3
273
     2
274
     2
340
6B
275
     0
280
     0
281
     0
282
     0
283
     0
284
     0
285
     0
286
     0
287
     3
288
     0
  0
DIMSTYLE
105
BA5
102
{ACAD_REACTORS
330
CC6
330
DF5
330
1FB6
330
2216
102
}
330
A
100
AcDbSymbolTableRecord
100
AcDbDimStyleTableRecord
  2
AM_JIS$0
 70
     0
  3

  4
"
  5
OPEN30
  6

  7

 40
1.0
 41
2.5
 42
0.0
 43
10.0
 44
1.0
 45
0.0
 46
0.0
 47
0.1
 48
0.1000000001
140
3.799999999999999
141
0.0
142
0.0
143
0.0393701
144
1.0
145
0.0
146
0.71
147
1.5
 71
     0
 72
     0
 73
     0
 74
     0
 75
     0
 76
     0
 77
     3
 78
     1
170
     0
171
     2
172
     1
173
     0
174
     0
175
     0
176
     3
177
     3
178
     2
270
     2
271
     2
272
     2
273
     2
274
     2
340
11
275
     1
280
     0
281
     0
282
     0
283
     0
284
     8
285
     0
286
     0
287
     0
288
     0
  0
ENDTAB
  0
TABLE
  2
BLOCK_RECORD
  5
1
330
0
100
AcDbSymbolTable
 70
    10
  0
BLOCK_RECORD
  5
1F
102
{ACAD_XDICTIONARY
360
74
102
}
330
1
100
AcDbSymbolTableRecord
100
AcDbBlockTableRecord
  2
*MODEL_SPACE
  0
BLOCK_RECORD
  5
101
102
{ACAD_XDICTIONARY
360
3555
102
}
330
1
100
AcDbSymbolTableRecord
100
AcDbBlockTableRecord
  2
*PAPER_SPACE
  0
BLOCK_RECORD
  5
59
330
1
100
AcDbSymbolTableRecord
100
AcDbBlockTableRecord
  2
_OPEN30
  0
BLOCK_RECORD
  5
64
330
1
100
AcDbSymbolTableRecord
100
AcDbBlockTableRecord
  2
GENAXEH
  0
BLOCK_RECORD
  5
CC8
330
1
100
AcDbSymbolTableRecord
100
AcDbBlockTableRecord
  2
*D5
  0
BLOCK_RECORD
  5
DF6
330
1
100
AcDbSymbolTableRecord
100
AcDbBlockTableRecord
  2
*D6
  0
BLOCK_RECORD
  5
1FB7
330
1
100
AcDbSymbolTableRecord
100
AcDbBlockTableRecord
  2
*D7
  0
BLOCK_RECORD
  5
2217
330
1
100
AcDbSymbolTableRecord
100
AcDbBlockTableRecord
  2
*D8
  0
BLOCK_RECORD
  5
33F9
330
1
100
AcDbSymbolTableRecord
100
AcDbBlockTableRecord
  2
*D9
  0
ENDTAB
  0
ENDSEC
  0
SECTION
  2
BLOCKS
  0
BLOCK
  5
20
330
1F
100
AcDbEntity
  8
0
100
AcDbBlockBegin
  2
*MODEL_SPACE
 70
     0
 10
0.0
 20
0.0
 30
0.0
  3
*MODEL_SPACE
  1

  0
ENDBLK
  5
21
330
1F
100
AcDbEntity
  8
0
100
AcDbBlockEnd
  0
BLOCK
  5
103
330
101
100
AcDbEntity
 67
     1
  8
0
100
AcDbBlockBegin
  2
*PAPER_SPACE
 70
     0
 10
0.0
 20
0.0
 30
0.0
  3
*PAPER_SPACE
  1

  0
ENDBLK
  5
104
330
101
100
AcDbEntity
 67
     1
  8
0
100
AcDbBlockEnd
  0
BLOCK
  5
5D
330
59
100
AcDbEntity
  8
0
100
AcDbBlockBegin
  2
_OPEN30
 70
     0
 10
0.0
 20
0.0
 30
0.0
  3
_OPEN30
  1

  0
LINE
  5
5A
330
59
100
AcDbEntity
  8
0
 62
     0
100
AcDbLine
 10
-1.0
 20
0.26794919
 30
0.0
 11
0.0
 21
0.0
 31
0.0
  0
LINE
  5
5B
330
59
100
AcDbEntity
  8
0
 62
     0
100
AcDbLine
 10
0.0
 20
0.0
 30
0.0
 11
-1.0
 21
-0.26794919
 31
0.0
  0
LINE
  5
5C
330
59
100
AcDbEntity
  8
0
 62
     0
100
AcDbLine
 10
0.0
 20
0.0
 30
0.0
 11
-1.0
 21
0.0
 31
0.0
  0
ENDBLK
  5
5E
330
59
100
AcDbEntity
  8
0
100
AcDbBlockEnd
  0
BLOCK
  5
66
330
64
100
AcDbEntity
  8
0
100
AcDbBlockBegin
  2
GENAXEH
 70
     0
 10
0.0
 20
0.0
 30
0.0
  3
GENAXEH
  1

  0
LINE
  5
65
330
64
100
AcDbEntity
  8
0
100
AcDbLine
 10
-1.0
 20
0.0
 30
0.0
 11
1.0
 21
0.0
 31
0.0
  0
ENDBLK
  5
67
330
64
100
AcDbEntity
  8
0
100
AcDbBlockEnd
  0
BLOCK
  5
CD2
330
CC8
100
AcDbEntity
  8
0
100
AcDbBlockBegin
  2
*D5
 70
     1
 10
0.0
 20
0.0
 30
0.0
  3
*D5
  1

  0
LINE
  5
33C3
330
CC8
100
AcDbEntity
  8
AM_5
 62
     3
100
AcDbLine
 10
-168.9999999999999
 20
-6.000002054481082
 30
0.0
 11
-168.9999999999999
 21
-31.50000305448096
 31
0.0
  0
LINE
  5
33C4
330
CC8
100
AcDbEntity
  8
AM_5
 62
     3
100
AcDbLine
 10
-1.999999999999632
 20
-6.300000549680609
 30
0.0
 11
-1.999999999999634
 21
-31.50000305448097
 31
0.0
  0
LINE
  5
33C5
330
CC8
100
AcDbEntity
  8
AM_5
 62
     3
100
AcDbLine
 10
-166.4999999999999
 20
-30.50000305448096
 30
0.0
 11
-4.499999999999634
 21
-30.50000305448096
 31
0.0
  0
INSERT
  5
33C6
330
CC8
100
AcDbEntity
  8
AM_5
 62
     3
100
AcDbBlockReference
  2
_OPEN30
 10
-168.9999999999999
 20
-30.50000305448096
 30
0.0
 41
2.5
 42
2.5
 43
2.5
 50
180.0
  0
INSERT
  5
33C7
330
CC8
100
AcDbEntity
  8
AM_5
 62
     3
100
AcDbBlockReference
  2
_OPEN30
 10
-1.999999999999634
 20
-30.50000305448096
 30
0.0
 41
2.5
 42
2.5
 43
2.5
  0
MTEXT
  5
33C8
330
CC8
100
AcDbEntity
  8
AM_5
 62
     2
100
AcDbMText
 10
-85.49999999999977
 20
-27.10000305448097
 30
0.0
 40
3.799999999999999
 41
0.0
 71
     5
 72
     1
  1
167
1001
ACAD
1000
MTEXTBEGIN
1070
    73
1070
     1
1070
    44
1040
1.0
1070
    74
1070
     0
1000
MTEXTEND
  0
POINT
  5
33C9
330
CC8
100
AcDbEntity
  8
DEFPOINTS
 62
     0
100
AcDbPoint
 10
-168.9999999999999
 20
-6.000002054481082
 30
0.0
  0
POINT
  5
33CA
330
CC8
100
AcDbEntity
  8
DEFPOINTS
 62
     0
100
AcDbPoint
 10
-1.999999999999632
 20
-6.300000549680609
 30
0.0
  0
POINT
  5
33CB
330
CC8
100
AcDbEntity
  8
DEFPOINTS
 62
     0
100
AcDbPoint
 10
-1.999999999999634
 20
-30.50000305448096
 30
0.0
  0
ENDBLK
  5
CD3
330
CC8
100
AcDbEntity
  8
0
100
AcDbBlockEnd
  0
BLOCK
  5
E00
330
DF6
100
AcDbEntity
  8
0
100
AcDbBlockBegin
  2
*D6
 70
     1
 10
0.0
 20
0.0
 30
0.0
  3
*D6
  1

  0
LINE
  5
33BA
330
DF6
100
AcDbEntity
  8
AM_5
 62
     3
100
AcDbLine
 10
-105.9999999999998
 20
-6.500002054481113
 30
0.0
 11
-105.9999999999998
 21
-21.50000305448085
 31
0.0
  0
LINE
  5
33BB
330
DF6
100
AcDbEntity
  8
AM_5
 62
     3
100
AcDbLine
 10
-1.999999999999632
 20
-6.300000549680609
 30
0.0
 11
-1.999999999999633
 21
-21.50000305448085
 31
0.0
  0
LINE
  5
33BC
330
DF6
100
AcDbEntity
  8
AM_5
 62
     3
100
AcDbLine
 10
-103.4999999999999
 20
-20.50000305448085
 30
0.0
 11
-4.499999999999634
 21
-20.50000305448085
 31
0.0
  0
INSERT
  5
33BD
330
DF6
100
AcDbEntity
  8
AM_5
 62
     3
100
AcDbBlockReference
  2
_OPEN30
 10
-105.9999999999998
 20
-20.50000305448085
 30
0.0
 41
2.5
 42
2.5
 43
2.5
 50
180.0
  0
INSERT
  5
33BE
330
DF6
100
AcDbEntity
  8
AM_5
 62
     3
100
AcDbBlockReference
  2
_OPEN30
 10
-1.999999999999633
 20
-20.50000305448085
 30
0.0
 41
2.5
 42
2.5
 43
2.5
  0
MTEXT
  5
33BF
330
DF6
100
AcDbEntity
  8
AM_5
 62
     2
100
AcDbMText
 10
-53.99999999999977
 20
-17.10000305448085
 30
0.0
 40
3.799999999999999
 41
0.0
 71
     5
 72
     1
  1
104
1001
ACAD
1000
MTEXTBEGIN
1070
    73
1070
     1
1070
    44
1040
1.0
1070
    74
1070
     0
1000
MTEXTEND
  0
POINT
  5
33C0
330
DF6
100
AcDbEntity
  8
DEFPOINTS
 62
     0
100
AcDbPoint
 10
-105.9999999999998
 20
-6.500002054481113
 30
0.0
  0
POINT
  5
33C1
330
DF6
100
AcDbEntity
  8
DEFPOINTS
 62
     0
100
AcDbPoint
 10
-1.999999999999632
 20
-6.300000549680609
 30
0.0
  0
POINT
  5
33C2
330
DF6
100
AcDbEntity
  8
DEFPOINTS
 62
     0
100
AcDbPoint
 10
-1.999999999999633
 20
-20.50000305448085
 30
0.0
  0
ENDBLK
  5
E01
330
DF6
100
AcDbEntity
  8
0
100
AcDbBlockEnd
  0
BLOCK
  5
1FC3
330
1FB7
100
AcDbEntity
  8
0
100
AcDbBlockBegin
  2
*D7
 70
     1
 10
0.0
 20
0.0
 30
0.0
  3
*D7
  1

  0
LINE
  5
33E0
330
1FB7
100
AcDbEntity
  8
AM_5
 62
     3
100
AcDbLine
 10
-2.00000000000003
 20
-6.300000549680609
 30
0.0
 11
16.5559210248581
 21
-6.300000549680614
 31
0.0
  0
LINE
  5
33E1
330
1FB7
100
AcDbEntity
  8
AM_5
 62
     3
100
AcDbLine
 10
-1.999999999999914
 20
6.29999945031911
 30
0.0
 11
16.5559210248581
 21
6.299999450319106
 31
0.0
  0
LINE
  5
33E2
330
1FB7
100
AcDbEntity
  8
AM_5
 62
     3
100
AcDbLine
 10
15.5559210248581
 20
-8.800000549680614
 30
0.0
 11
15.5559210248581
 21
-11.30000054968061
 31
0.0
  0
LINE
  5
33E3
330
1FB7
100
AcDbEntity
  8
AM_5
 62
     3
100
AcDbLine
 10
15.5559210248581
 20
8.799999450319106
 30
0.0
 11
15.5559210248581
 21
28.49523755428228
 31
0.0
  0
LINE
  5
33E4
330
1FB7
100
AcDbEntity
  8
AM_5
 62
     3
100
AcDbLine
 10
15.5559210248581
 20
-6.300000549680614
 30
0.0
 11
15.5559210248581
 21
6.299999450319106
 31
0.0
  0
INSERT
  5
33E5
330
1FB7
100
AcDbEntity
  8
AM_5
 62
     3
100
AcDbBlockReference
  2
_OPEN30
 10
15.5559210248581
 20
-6.300000549680614
 30
0.0
 41
2.5
 42
2.5
 43
2.5
 50
90.0
  0
INSERT
  5
33E6
330
1FB7
100
AcDbEntity
  8
AM_5
 62
     3
100
AcDbBlockReference
  2
_OPEN30
 10
15.5559210248581
 20
6.299999450319106
 30
0.0
 41
2.5
 42
2.5
 43
2.5
 50
270.0
  0
MTEXT
  5
33E7
330
1FB7
100
AcDbEntity
  8
AM_5
 62
     2
100
AcDbMText
 10
12.1559210248581
 20
19.93809469713943
 30
0.0
 40
3.799999999999999
 41
0.0
 71
     5
 72
     1
  1
%%c12.6
 11
0.0000000000000001
 21
1.0
 31
0.0
1001
ACAD
1000
MTEXTBEGIN
1070
    73
1070
     1
1070
    44
1040
1.0
1070
    74
1070
     0
1000
MTEXTEND
  0
POINT
  5
33E8
330
1FB7
100
AcDbEntity
  8
DEFPOINTS
 62
     0
100
AcDbPoint
 10
-2.00000000000003
 20
-6.300000549680609
 30
0.0
  0
POINT
  5
33E9
330
1FB7
100
AcDbEntity
  8
DEFPOINTS
 62
     0
100
AcDbPoint
 10
-1.999999999999914
 20
6.29999945031911
 30
0.0
  0
POINT
  5
33EA
330
1FB7
100
AcDbEntity
  8
DEFPOINTS
 62
     0
100
AcDbPoint
 10
15.5559210248581
 20
6.299999450319106
 30
0.0
  0
ENDBLK
  5
1FC4
330
1FB7
100
AcDbEntity
  8
0
100
AcDbBlockEnd
  0
BLOCK
  5
2221
330
2217
100
AcDbEntity
  8
0
100
AcDbBlockBegin
  2
*D8
 70
     1
 10
0.0
 20
0.0
 30
0.0
  3
*D8
  1

  0
LINE
  5
33CC
330
2217
100
AcDbEntity
  8
AM_5
 62
     3
100
AcDbLine
 10
-168.5000000000004
 20
6.499999999998721
 30
0.0
 11
-186.0000009999999
 21
6.499999999998671
 31
0.0
  0
LINE
  5
33CD
330
2217
100
AcDbEntity
  8
AM_5
 62
     3
100
AcDbLine
 10
-168.4999999999998
 20
-6.500002054481606
 30
0.0
 11
-186.0000009999998
 21
-6.500002054481655
 31
0.0
  0
LINE
  5
33CE
330
2217
100
AcDbEntity
  8
AM_5
 62
     3
100
AcDbLine
 10
-185.0000009999999
 20
3.999999999998674
 30
0.0
 11
-185.0000009999999
 21
-4.000002054481652
 31
0.0
  0
INSERT
  5
33CF
330
2217
100
AcDbEntity
  8
AM_5
 62
     3
100
AcDbBlockReference
  2
_OPEN30
 10
-185.0000009999999
 20
6.499999999998674
 30
0.0
 41
2.5
 42
2.5
 43
2.5
 50
90.00000000000017
  0
INSERT
  5
33D0
330
2217
100
AcDbEntity
  8
AM_5
 62
     3
100
AcDbBlockReference
  2
_OPEN30
 10
-185.0000009999998
 20
-6.500002054481652
 30
0.0
 41
2.5
 42
2.5
 43
2.5
 50
270.0000000000001
  0
MTEXT
  5
33D1
330
2217
100
AcDbEntity
  8
AM_5
 62
     2
100
AcDbMText
 10
-188.4000009999999
 20
-0.0000010272414914
 30
0.0
 40
3.799999999999999
 41
0.0
 71
     5
 72
     1
  1
%%c13
 11
-0.0000000000000028
 21
1.0
 31
0.0
1001
ACAD
1000
MTEXTBEGIN
1070
    73
1070
     1
1070
    44
1040
1.0
1070
    74
1070
     0
1000
MTEXTEND
  0
POINT
  5
33D2
330
2217
100
AcDbEntity
  8
DEFPOINTS
 62
     0
100
AcDbPoint
 10
-168.5000000000004
 20
6.499999999999245
 30
0.0
  0
POINT
  5
33D3
330
2217
100
AcDbEntity
  8
DEFPOINTS
 62
     0
100
AcDbPoint
 10
-168.4999999999999
 20
-6.500002054481082
 30
0.0
  0
POINT
  5
33D4
330
2217
100
AcDbEntity
  8
DEFPOINTS
 62
     0
100
AcDbPoint
 10
-185.0000009999999
 20
-6.500002054481077
 30
0.0
  0
ENDBLK
  5
2222
330
2217
100
AcDbEntity
  8
0
100
AcDbBlockEnd
  0
BLOCK
  5
3407
330
33F9
100
AcDbEntity
  8
0
100
AcDbBlockBegin
  2
*D9
 70
     1
 10
0.0
 20
0.0
 30
0.0
  3
*D9
  1

  0
LINE
  5
3557
330
33F9
100
AcDbEntity
  8
AM_5
100
AcDbLine
 10
0.3420201408161958
 20
-0.9396926216992815
 30
0.0
 11
12.36795159646341
 21
-33.98066801854935
 31
0.0
  0
LINE
  5
3558
330
33F9
100
AcDbEntity
  8
AM_5
100
AcDbLine
 10
0.3420220692411434
 20
0.9396919198078673
 30
0.0
 11
12.3680213311482
 21
33.98064263711914
 31
0.0
  0
ARC
  5
3559
330
33F9
100
AcDbEntity
  8
AM_5
100
AcDbCircle
 10
0.0000000000000323
 20
0.0000000000000888
 30
0.0
 40
35.16147156407395
100
AcDbArc
 50
294.0746199101295
 51
65.92526250817332
  0
INSERT
  5
355A
330
33F9
100
AcDbEntity
  8
AM_5
100
AcDbBlockReference
  2
_OPEN30
 10
12.02593145564727
 20
-33.04097539685004
 30
0.0
 41
2.5
 42
2.5
 43
2.5
 50
202.037309878558
  0
INSERT
  5
355B
330
33F9
100
AcDbEntity
  8
AM_5
100
AcDbBlockReference
  2
_OPEN30
 10
12.02599926190709
 20
33.04095071731136
 30
0.0
 41
2.5
 42
2.5
 43
2.5
 50
157.9625725397446
  0
MTEXT
  5
355C
330
33F9
100
AcDbEntity
  8
AM_5
 62
     2
100
AcDbMText
 10
32.06147156405711
 20
-0.0000328980795846
 30
0.0
 40
3.2
 41
0.0
 71
     5
 72
     1
  1
140°
  7
ASAMI
 11
0.0000010260938772
 21
0.9999999999994738
 31
0.0
  0
POINT
  5
355D
330
33F9
100
AcDbEntity
  8
DEFPOINTS
 62
     0
100
AcDbPoint
 10
32.28581999257349
 20
-13.92676954495632
 30
0.0
  0
POINT
  5
355E
330
33F9
100
AcDbEntity
  8
DEFPOINTS
 62
     0
100
AcDbPoint
 10
0.0000000000000001
 20
0.0000000000000002
 30
0.0
  0
POINT
  5
355F
330
33F9
100
AcDbEntity
  8
DEFPOINTS
 62
     0
100
AcDbPoint
 10
0.0000000000000569
 20
0.0000000000000213
 30
0.0
  0
POINT
  5
3560
330
33F9
100
AcDbEntity
  8
DEFPOINTS
 62
     0
100
AcDbPoint
 10
-0.7147573352033661
 20
1.963779655178807
 30
0.0
  0
POINT
  5
3561
330
33F9
100
AcDbEntity
  8
DEFPOINTS
 62
     0
100
AcDbPoint
 10
-0.7147729829006514
 20
-1.963810107397323
 30
0.0
  0
ENDBLK
  5
3408
330
33F9
100
AcDbEntity
  8
0
100
AcDbBlockEnd
  0
ENDSEC
  0
SECTION
  2
ENTITIES
  0
LINE
  5
C9F
330
1F
100
AcDbEntity
  8
AM_7
100
AcDbLine
 10
-170.9999999999999
 20
-0.0000000000002515
 30
0.0
 11
1.555920024858115
 21
0.0000000000000236
 31
0.0
1001
GENIUS_GENODEF_13
1002
{
1000
HIER
1070
     0
1002
}
1002
{
1000
MANEDIT
1070
     0
1002
}
1002
{
1000
NOSEL
1070
     0
1002
}
1002
{
1000
BEHIND
1070
     0
1002
}
1002
{
1000
REACTOR
1002
}
1001
GENIUS_GENOBJ-N-CEN_13
1002
{
1000
OWNER
1000
GEN
1002
}
  0
DIMENSION
  5
CC6
330
1F
100
AcDbEntity
  8
AM_5
100
AcDbDimension
  2
*D5
 10
-1.999999999999634
 20
-30.50000305448096
 30
0.0
 11
-85.49999999999977
 21
-27.10000305448097
 31
0.0
 70
    32
  1
<>
  3
AM_JIS$0
100
AcDbAlignedDimension
 13
-168.9999999999999
 23
-6.000002054481082
 33
0.0
 14
-1.999999999999632
 24
-6.300000549680609
 34
0.0
 50
0.0000000000001132
100
AcDbRotatedDimension
1001
GENIUS_GENDTOL_13
1000

1000
h7
1000

1040
0.0
1001
ACAD
1000
DSTYLE
1002
{
1070
   271
1070
     0
1002
}
  0
DIMENSION
  5
DF5
330
1F
100
AcDbEntity
  8
AM_5
100
AcDbDimension
  2
*D6
 10
-1.999999999999633
 20
-20.50000305448085
 30
0.0
 11
-53.99999999999977
 21
-17.10000305448085
 31
0.0
 70
    32
  1
<>
  3
AM_JIS$0
100
AcDbAlignedDimension
 13
-105.9999999999998
 23
-6.500002054481113
 33
0.0
 14
-1.999999999999632
 24
-6.300000549680609
 34
0.0
 50
0.0000000000001527
100
AcDbRotatedDimension
1001
GENIUS_GENDTOL_13
1000

1000
h7
1000

1040
0.0
1001
ACAD
1000
DSTYLE
1002
{
1070
   271
1070
     0
1002
}
  0
TEXT
  5
19BD
330
1F
100
AcDbEntity
  8
AM_6
100
AcDbText
 10
-106.690476190476
 20
-52.50000305448098
 30
0.0
 40
5.0
  1
MDW126LHK
 50
0.0000000000001527
 72
     4
 11
-85.49999999999988
 21
-50.00000305448093
 31
0.0
100
AcDbText
  0
LINE
  5
1E25
330
1F
100
AcDbEntity
  8
AM_0
100
AcDbLine
 10
-105.9999999999999
 20
-6.500002054481128
 30
0.0
 11
-105.6535843612824
 21
-6.299998892216088
 31
0.0
  0
LINE
  5
1E26
330
1F
100
AcDbEntity
  8
AM_0
100
AcDbLine
 10
-105.6535888864149
 20
6.299999450321148
 30
0.0
 11
-106.0000192404468
 21
6.500011108476934
 31
0.0
  0
DIMENSION
  5
1FB6
330
1F
100
AcDbEntity
  8
AM_5
100
AcDbDimension
  2
*D7
 10
15.5559210248581
 20
6.299999450319106
 30
0.0
 11
15.5559210248581
 21
19.93809469713943
 31
0.0
 70
   160
  1
%%c<>
  3
AM_JIS$0
100
AcDbAlignedDimension
 13
-2.00000000000003
 23
-6.300000549680609
 33
0.0
 14
-1.999999999999914
 24
6.29999945031911
 34
0.0
 50
89.99999999999969
100
AcDbRotatedDimension
1001
ACAD
1000
DSTYLE
1002
{
1070
   271
1070
     1
1002
}
1001
GENIUS_GENDTOL_13
1000

1000
h7
1000

1040
0.0
  0
LINE
  5
1FD9
330
1F
100
AcDbEntity
  8
AM_0
100
AcDbLine
 10
-105.6535843612824
 20
-6.299998892216077
 30
0.0
 11
-105.6535847428475
 21
-5.237550625264212
 31
0.0
  0
LINE
  5
21D7
330
1F
100
AcDbEntity
  8
AM_0
 48
0.5
100
AcDbLine
 10
-105.9999999999999
 20
-6.500002054481131
 30
0.0
 11
-105.9999999999999
 21
6.499999999999685
 31
0.0
  0
LINE
  5
21D8
330
1F
100
AcDbEntity
  8
AM_0
 48
0.5
100
AcDbLine
 10
-168.4999999999999
 20
6.499999999999747
 30
0.0
 11
-105.9999999999999
 21
6.499999999999716
 31
0.0
1001
GENIUS_GENODEF_13
1002
{
1000
HIER
1070
     0
1002
}
1002
{
1000
MANEDIT
1070
     0
1002
}
1002
{
1000
NOSEL
1070
     0
1002
}
1002
{
1000
BEHIND
1070
     0
1002
}
1002
{
1000
REACTOR
1002
}
1001
GENIUS_GENOBJ-N-CEN_13
1002
{
1000
OWNER
1000
GEN
1002
}
  0
LINE
  5
21D9
330
1F
100
AcDbEntity
  8
AM_0
 48
0.5
100
AcDbLine
 10
-168.4999999999999
 20
-6.500002054481082
 30
0.0
 11
-105.9999999999999
 21
-6.500002054481113
 31
0.0
1001
GENIUS_GENODEF_13
1002
{
1000
HIER
1070
     0
1002
}
1002
{
1000
MANEDIT
1070
     0
1002
}
1002
{
1000
NOSEL
1070
     0
1002
}
1002
{
1000
BEHIND
1070
     0
1002
}
1002
{
1000
REACTOR
1002
}
1001
GENIUS_GENOBJ-N-CEN_13
1002
{
1000
OWNER
1000
GEN
1002
}
  0
LINE
  5
21DC
330
1F
100
AcDbEntity
  8
AM_0
100
AcDbLine
 10
-168.5000000000004
 20
-6.500002054480548
 30
0.0
 11
-168.5000000000004
 21
6.499999999999245
 31
0.0
  0
LINE
  5
21DD
330
1F
100
AcDbEntity
  8
AM_0
 48
0.5
100
AcDbLine
 10
-168.9999999999999
 20
-6.000002054481079
 30
0.0
 11
-168.9999999999999
 21
5.999999999999758
 31
0.0
  0
DIMENSION
  5
2216
330
1F
100
AcDbEntity
  8
AM_5
100
AcDbDimension
  2
*D8
 10
-185.0000009999999
 20
-6.500002054481077
 30
0.0
 11
-188.4000009999999
 21
-0.0000010272409432
 31
0.0
 70
    32
  1
%%c<>
 51
359.9999999999998
  3
AM_JIS$0
100
AcDbAlignedDimension
 13
-168.5000000000004
 23
6.499999999999245
 33
0.0
 14
-168.4999999999999
 24
-6.500002054481082
 34
0.0
 50
269.9999999999999
100
AcDbRotatedDimension
1001
ACAD
1000
DSTYLE
1002
{
1070
   271
1070
     0
1002
}
1001
GENIUS_GENDTOL_13
1000

1000
h7
1000

1040
0.0
  0
ELLIPSE
  5
2694
330
1F
100
AcDbEntity
  8
AM_0
 48
0.5
100
AcDbEllipse
 10
7.70879070242527
 20
6.738403143387866
 30
0.0
 11
9.706495919543959
 21
0.0000000000009575
 31
0.0
210
0.0
220
0.0
230
1.0
 40
0.9899999999999973
 41
3.323896559076802
 42
3.661579236128986
  0
LINE
  5
2695
330
1F
100
AcDbEntity
  8
AM_0
 48
0.5
100
AcDbLine
 10
-1.83686265000292
 20
4.996270538370921
 30
0.0
 11
-1.999999999999914
 21
6.29999945031911
 31
0.0
  0
LINE
  5
2696
330
1F
100
AcDbEntity
  8
AM_0
 48
0.5
100
AcDbLine
 10
0.0000000000000569
 20
0.0000000000000213
 30
0.0
 11
-0.7147573352033661
 21
1.963779655178806
 31
0.0
  0
ELLIPSE
  5
2697
330
1F
100
AcDbEntity
  8
AM_0
 48
0.5
100
AcDbEllipse
 10
7.7087907024254
 20
-6.738406538684531
 30
0.0
 11
-9.706495919543957
 21
0.0000000000014037
 31
0.0
210
0.0
220
0.0
230
1.0
 40
0.989999999999997
 41
-0.5199833380394914
 42
-0.1823047399519406
  0
LINE
  5
2698
330
1F
100
AcDbEntity
  8
AM_0
 48
0.5
100
AcDbLine
 10
-1.836855649391155
 20
-4.996239280637528
 30
0.0
 11
-2.00000000000003
 21
-6.300000549680609
 31
0.0
  0
LINE
  5
2699
330
1F
100
AcDbEntity
  8
AM_0
 48
0.5
100
AcDbLine
 10
0.0000000000000001
 20
0.0000000000000002
 30
0.0
 11
-0.7147729829006514
 21
-1.963810107397323
 31
0.0
  0
LINE
  5
2CB4
330
1F
100
AcDbEntity
  8
AM_0
 48
0.5
100
AcDbLine
 10
-168.9999999999999
 20
5.999999999999747
 30
0.0
 11
-168.4999999999999
 21
6.499999999999747
 31
0.0
1001
GENIUS_GENFIL_13
1070
     0
1040
0.5
1040
0.5
1040
20.0
1040
0.0
1002
{
1002
}
1001
GENIUS_GENODEF_13
1002
{
1000
HIER
1070
     0
1002
}
1002
{
1000
MANEDIT
1070
     0
1002
}
1002
{
1000
NOSEL
1070
     0
1002
}
1002
{
1000
BEHIND
1070
     0
1002
}
1002
{
1000
REACTOR
1002
}
1001
GENIUS_GENOBJ-N-CHA_13
1002
{
1000
OWNER
1000
GEN
1002
}
  0
LINE
  5
2CB7
330
1F
100
AcDbEntity
  8
AM_0
 48
0.5
100
AcDbLine
 10
-168.4999999999999
 20
-6.500002054481082
 30
0.0
 11
-168.9999999999999
 21
-6.000002054481082
 31
0.0
1001
GENIUS_GENFIL_13
1070
     0
1040
0.5
1040
0.5
1040
20.0
1040
0.0
1002
{
1002
}
1001
GENIUS_GENODEF_13
1002
{
1000
HIER
1070
     0
1002
}
1002
{
1000
MANEDIT
1070
     0
1002
}
1002
{
1000
NOSEL
1070
     0
1002
}
1002
{
1000
BEHIND
1070
     0
1002
}
1002
{
1000
REACTOR
1002
}
1001
GENIUS_GENOBJ-N-CHA_13
1002
{
1000
OWNER
1000
GEN
1002
}
  0
LINE
  5
332F
330
1F
100
AcDbEntity
  8
AM_0
 48
0.5
100
AcDbLine
 10
-89.0811483423948
 20
3.73944239837299
 30
0.0
 11
-105.9999999999999
 21
-0.0287999181708202
 31
0.0
  0
LINE
  5
3330
330
1F
100
AcDbEntity
  8
AM_0
100
AcDbLine
 10
-99.79486288629018
 20
-6.300000549678913
 30
0.0
 11
-105.6535872320921
 21
-6.300000549678838
 31
0.0
  0
LINE
  5
3331
330
1F
100
AcDbEntity
  8
AM_0
100
AcDbLine
 10
-99.29970600118554
 20
6.299999450321042
 30
0.0
 11
-105.6535888864149
 21
6.29999945032115
 31
0.0
  0
LINE
  5
3332
330
1F
100
AcDbEntity
  8
AM_0
 48
0.5
100
AcDbLine
 10
-6.484855401193442
 20
6.299999450319199
 30
0.0
 11
-1.999999999999914
 21
6.29999945031911
 31
0.0
  0
LINE
  5
3333
330
1F
100
AcDbEntity
  8
AM_0
 48
0.5
100
AcDbLine
 10
0.0000000000000569
 20
0.0000000000000213
 30
0.0
 11
-3.957468226792876
 21
2.419008086793309
 31
0.0
  0
LINE
  5
3334
330
1F
100
AcDbEntity
  8
AM_0
 48
0.5
100
AcDbLine
 10
-6.484855401193705
 20
-6.3000005496808
 30
0.0
 11
-2.000000000000007
 21
-6.300000549680627
 31
0.0
  0
LINE
  5
3335
330
1F
100
AcDbEntity
  8
AM_11
 48
0.5
100
AcDbLine
 10
-25.95207905833711
 20
6.299999450319625
 30
0.0
 11
-6.484855401193442
 21
6.299999450319199
 31
0.0
  0
LINE
  5
3336
330
1F
100
AcDbEntity
  8
AM_11
 48
0.5
100
AcDbLine
 10
-25.95207905833739
 20
-6.300000549680375
 30
0.0
 11
-6.484855401193705
 21
-6.3000005496808
 31
0.0
  0
LINE
  5
3337
330
1F
100
AcDbEntity
  8
AM_11
 48
0.5
100
AcDbLine
 10
-62.74210344340191
 20
-6.300000549679708
 30
0.0
 11
-43.27487978626069
 21
-6.300895579013259
 31
0.0
  0
LINE
  5
3338
330
1F
100
AcDbEntity
  8
AM_11
 48
0.5
100
AcDbLine
 10
-60.21874590049627
 20
6.300894479653508
 30
0.0
 11
-47.79551010544827
 21
6.299999450320096
 31
0.0
  0
LINE
  5
3339
330
1F
100
AcDbEntity
  8
AM_0
 48
0.5
100
AcDbLine
 10
-47.79552687245351
 20
6.299999450320096
 30
0.0
 11
-25.95207905833711
 21
6.299999450319625
 31
0.0
  0
LINE
  5
333A
330
1F
100
AcDbEntity
  8
AM_0
 48
0.5
100
AcDbLine
 10
-43.27487978626068
 20
-6.300000549680134
 30
0.0
 11
-25.95207905833739
 21
-6.300000549680375
 31
0.0
  0
SPLINE
  5
333B
330
1F
100
AcDbEntity
  8
AM_0
100
AcDbSpline
210
0.0
220
0.0
230
1.0
 70
     8
 71
     3
 72
    46
 73
    42
 74
     0
 42
0.0000000001
 43
0.0000000001
 40
0.0
 40
0.0
 40
0.0
 40
0.0
 40
1.348332046947657
 40
2.024828967632895
 40
2.703918159304097
 40
3.386347665078124
 40
4.072776489761952
 40
4.763750544421347
 40
5.459696642770596
 40
6.160921452191754
 40
6.867565637253344
 40
7.579665907256596
 40
8.297112853413899
 40
9.019671552060676
 40
9.746986763446127
 40
10.47859339096366
 40
11.21393074760089
 40
11.95235532364328
 40
12.69315551794651
 40
13.43556823304427
 40
14.1787950170388
 40
14.92202180103393
 40
15.66443451613169
 40
16.40523471043432
 40
17.14365928647669
 40
17.87899664311455
 40
18.61060327063121
 40
19.3379184820169
 40
20.06048192311554
 40
20.77792886927283
 40
21.49002913927608
 40
22.19667332433747
 40
22.89788836015233
 40
23.59383445850158
 40
24.28480851316097
 40
24.97123685067576
 40
25.65366676154838
 40
26.33276604526152
 40
27.00926273560555
 40
27.68398960851751
 40
28.357818684969
 40
28.357818684969
 40
28.357818684969
 40
28.357818684969
 10
-3.591944160332221
 20
-6.300000549680865
 30
0.0
 10
-4.281100603634962
 20
-6.285648662685085
 30
0.0
 10
-5.316026631529346
 20
-6.264096021705422
 30
0.0
 10
-6.692212902119965
 20
-6.131400370624515
 30
0.0
 10
-7.725549309984798
 20
-5.997607855727035
 30
0.0
 10
-8.758797392185787
 20
-5.825840993382401
 30
0.0
 10
-9.791954426793679
 20
-5.618383829774708
 30
0.0
 10
-10.82501510627817
 20
-5.376228186883039
 30
0.0
 10
-11.85797770041786
 20
-5.100951555001343
 30
0.0
 10
-12.89083761216434
 20
-4.79424417339906
 30
0.0
 10
-13.92359690595685
 20
-4.458008354997316
 30
0.0
 10
-14.95625280398694
 20
-4.094317447914602
 30
0.0
 10
-15.98882189642406
 20
-3.705430643736757
 30
0.0
 10
-17.02130920176045
 20
-3.293738637015469
 30
0.0
 10
-18.05372421467982
 20
-2.861780127741011
 30
0.0
 10
-19.08607840802917
 20
-2.412220025251478
 30
0.0
 10
-20.11838082941293
 20
-1.947822877892029
 30
0.0
 10
-21.15064152573824
 20
-1.471444972577758
 30
0.0
 10
-22.18287144191117
 20
-0.9860181361777183
 30
0.0
 10
-23.2150800074194
 20
-0.4945274025106318
 30
0.0
 10
-24.2472798960002
 20
-0.0000005497804743
 30
0.0
 10
-25.27947978435423
 20
0.4945263035506335
 30
0.0
 10
-26.31168835054265
 20
0.9860170354157514
 30
0.0
 10
-27.34391826422944
 20
1.471443878401187
 30
0.0
 10
-28.37617896977344
 20
1.947821759292606
 30
0.0
 10
-29.40848135697518
 20
2.41221899720954
 30
0.0
 10
-30.44083567691216
 20
2.861778764332827
 30
0.0
 10
-31.47325246601202
 20
3.293739453189532
 30
0.0
 10
-32.50574378309598
 20
3.705427719480244
 30
0.0
 10
-33.53831471747812
 20
4.094316517736444
 30
0.0
 10
-34.570970591465
 20
4.458007533036546
 30
0.0
 10
-35.60372564279969
 20
4.79424026171846
 30
0.0
 10
-36.63657867281296
 20
5.100952387824137
 30
0.0
 10
-37.66953705046862
 20
5.376230144240999
 30
0.0
 10
-38.70259713207185
 20
5.618369944039211
 30
0.0
 10
-39.73575492412727
 20
5.825887278399427
 30
0.0
 10
-40.76900960059723
 20
5.99740885546212
 30
0.0
 10
-41.80234068394153
 20
6.132143244740063
 30
0.0
 10
-42.8357356989771
 20
6.228269136899712
 30
0.0
 10
-43.86916822548301
 20
6.288757475566147
 30
0.0
 10
-44.55829128794265
 20
6.296253788950309
 30
0.0
 10
-44.90262342852443
 20
6.299999450320032
 30
0.0
  0
SPLINE
  5
333C
330
1F
100
AcDbEntity
  8
AM_0
100
AcDbSpline
210
0.0
220
0.0
230
1.0
 70
     8
 71
     3
 72
    23
 73
    19
 74
     0
 42
0.0000000001
 43
0.0000000001
 40
16.03460024169435
 40
16.03460024169435
 40
16.03460024169435
 40
16.03460024169435
 40
16.35212704903564
 40
17.38177054169784
 40
18.41822485651776
 40
19.46214173629503
 40
20.51396345435107
 40
21.57393551351153
 40
22.64208202342361
 40
23.7182574881101
 40
24.80209208578934
 40
25.89306333925047
 40
26.99048218457928
 40
28.09348763352352
 40
29.20111863782268
 40
30.31232390128032
 40
31.42594612798585
 40
32.5407912310448
 40
32.5407912310486
 40
32.5407912310486
 40
32.5407912310486
 10
-60.21874590049627
 20
6.30089447965351
 30
0.0
 10
-60.11257332152118
 20
6.279626789081085
 30
0.0
 10
-59.66256727791382
 20
6.187011982560749
 30
0.0
 10
-58.86987678586646
 20
6.005547403985524
 30
0.0
 10
-57.84334052352232
 20
5.73571156012147
 30
0.0
 10
-56.8177577563436
 20
5.432730884543749
 30
0.0
 10
-55.79306788182672
 20
5.098358874866355
 30
0.0
 10
-54.76923453191215
 20
4.734459662528829
 30
0.0
 10
-53.74619853148601
 20
4.343113448889982
 30
0.0
 10
-52.72388864020966
 20
3.926597770749566
 30
0.0
 10
-51.70224676676327
 20
3.487271332108477
 30
0.0
 10
-50.68119100241331
 20
3.027690471147813
 30
0.0
 10
-49.66063860200818
 20
2.550526470392632
 30
0.0
 10
-48.6405215690522
 20
2.058522822807307
 30
0.0
 10
-47.62075455159219
 20
1.554540462225387
 30
0.0
 10
-46.6012430976052
 20
1.041522275882439
 30
0.0
 10
-45.58190419007936
 20
0.5224410652478941
 30
0.0
 10
-44.90252744777879
 20
0.1744254965846748
 30
0.0
 10
-44.56265380640003
 20
0.0003198848888825
 30
0.0
  0
SPLINE
  5
333D
330
1F
100
AcDbEntity
  8
AM_0
100
AcDbSpline
210
0.0
220
0.0
230
1.0
 70
     8
 71
     3
 72
    11
 73
     7
 74
     0
 42
0.0000000001
 43
0.0000000001
 40
11.27226913003534
 40
11.27226913003534
 40
11.27226913003534
 40
11.2722691300354
 40
12.28301561507924
 40
13.29510212255852
 40
14.30984805882082
 40
15.18258238371378
 40
15.18258238371378
 40
15.18258238371378
 40
15.18258238371378
 10
-62.74210344340434
 20
-6.30000054967971
 30
0.0
 10
-63.08512619812493
 20
-6.269166518911657
 30
0.0
 10
-63.77052470142264
 20
-6.194518672374019
 30
0.0
 10
-64.79508318627487
 20
-6.043935501806544
 30
0.0
 10
-65.76740725417895
 20
-5.864080415364418
 30
0.0
 10
-66.39624938702154
 20
-5.725820457585608
 30
0.0
 10
-66.68603774809875
 20
-5.657523857320518
 30
0.0
  0
SPLINE
  5
333E
330
1F
100
AcDbEntity
  8
AM_0
100
AcDbSpline
210
0.0
220
0.0
230
1.0
 70
     8
 71
     3
 72
    17
 73
    13
 74
     0
 42
0.0000000001
 43
0.0000000001
 40
1.580019955310467
 40
1.580019955310467
 40
1.580019955310467
 40
1.580019955310467
 40
2.030549285115227
 40
3.082371838836284
 40
4.126290986361125
 40
5.162752068350215
 40
6.192395305374981
 40
7.216039564037012
 40
8.234688489606833
 40
9.249433870634691
 40
10.26152376260694
 40
11.27226744710342
 40
11.27226744710342
 40
11.27226744710342
 40
11.27226744710352
 10
-53.00773220427026
 20
-4.64958606319919
 30
0.0
 10
-53.15394577738629
 20
-4.697472931401548
 30
0.0
 10
-53.64234823382695
 20
-4.85442853814031
 30
0.0
 10
-54.47617234571168
 20
-5.100619023279117
 30
0.0
 10
-55.50898685962159
 20
-5.376319707232706
 30
0.0
 10
-56.54208570640019
 20
-5.618348302510547
 30
0.0
 10
-57.57523188940731
 20
-5.825892022693014
 30
0.0
 10
-58.60849063183944
 20
-5.99744118473661
 30
0.0
 10
-59.64182075915312
 20
-6.132016833216267
 30
0.0
 10
-60.67521522987227
 20
-6.228746872900288
 30
0.0
 10
-61.70864858383326
 20
-6.287008641289773
 30
0.0
 10
-62.3977713686169
 20
-6.300000585728648
 30
0.0
 10
-62.74210344340428
 20
-6.30000054967971
 30
0.0
  0
SPLINE
  5
333F
330
1F
100
AcDbEntity
  8
AM_0
 48
0.5
100
AcDbSpline
210
0.0
220
0.0
230
1.0
 70
     8
 71
     3
 72
    17
 73
    13
 74
     0
 42
0.0000000001
 43
0.0000000001
 40
0.0
 40
0.0
 40
0.0
 40
0.0
 40
1.010743614677189
 40
2.022833924044153
 40
3.037578959561199
 40
4.056212747067873
 40
5.079857613375832
 40
6.109500119648989
 40
7.14596120163808
 40
8.18989512056258
 40
9.241717674284874
 40
9.693948937866434
 40
9.693948937866434
 40
9.693948937866434
 40
9.693948937866434
 10
-6.484855401193441
 20
6.299999450319199
 30
0.0
 10
-6.829187543187916
 20
6.296253804187417
 30
0.0
 10
-7.518310608474568
 20
6.288757521299504
 30
0.0
 10
-8.551743113735117
 20
6.228268953477869
 30
0.0
 10
-9.585133073179283
 20
6.132144413477864
 30
0.0
 10
-10.61845876456242
 20
5.997407689539224
 30
0.0
 10
-11.65170788127493
 20
5.825886120907738
 30
0.0
 10
-12.68486780320024
 20
5.618374942960637
 30
0.0
 10
-13.71792466359579
 20
5.376209973776734
 30
0.0
 10
-14.75091854921458
 20
5.101021530295761
 30
0.0
 10
-15.58477815032123
 20
4.853118340629287
 30
0.0
 10
-16.07446939817981
 20
4.698143197049185
 30
0.0
 10
-16.22144843852672
 20
4.650706343048463
 30
0.0
  0
SPLINE
  5
3340
330
1F
100
AcDbEntity
  8
AM_0
 48
0.5
100
AcDbSpline
210
0.0
220
0.0
230
1.0
 70
     8
 71
     3
 72
    16
 73
    12
 74
     0
 42
0.0000000001
 43
0.0000000001
 40
0.0
 40
0.0
 40
0.0
 40
0.0
 40
1.010743614677189
 40
2.022833924044153
 40
3.037578959561199
 40
4.056212747067873
 40
5.079857613375832
 40
6.109500119648989
 40
7.14596120163808
 40
8.18989512056258
 40
8.545190612624931
 40
8.545190612624931
 40
8.545190612624931
 40
8.545190612624931
 10
-6.484855401193441
 20
6.299999450319199
 30
0.0
 10
-6.82916840056261
 20
6.299961592678837
 30
0.0
 10
-7.518319506539452
 20
6.287034543949515
 30
0.0
 10
-8.551740713066633
 20
6.228732143261693
 30
0.0
 10
-9.585133751518496
 20
6.132019748728684
 30
0.0
 10
-10.61845846236043
 20
5.997440978554179
 30
0.0
 10
-11.65170841123562
 20
5.825878423911674
 30
0.0
 10
-12.68486597137261
 20
5.61837213864251
 30
0.0
 10
-13.71793152560087
 20
5.376229156699454
 30
0.0
 10
-14.52118787507919
 20
5.162162743359233
 30
0.0
 10
-14.9803127811056
 20
5.030506598892076
 30
0.0
 10
-15.0967442931102
 20
4.996531775251691
 30
0.0
  0
SPLINE
  5
3341
330
1F
100
AcDbEntity
  8
AM_0
 48
0.5
100
AcDbSpline
210
0.0
220
0.0
230
1.0
 70
     8
 71
     3
 72
    25
 73
    21
 74
     0
 42
0.0000000001
 43
0.0000000001
 40
6.846175049578289
 40
6.846175049578289
 40
6.846175049578289
 40
6.846175049578289
 40
7.604337694224321
 40
8.711974558287883
 40
9.814980593243754
 40
10.91239053451967
 40
12.0033633515982
 40
13.08720139956839
 40
14.16337181880432
 40
15.23152222380919
 40
16.29148850140128
 40
17.34331105512262
 40
18.38723020264746
 40
19.42369128463655
 40
20.45333379090873
 40
21.47697865721768
 40
22.49561244472435
 40
23.5103574802404
 40
24.52244778960836
 40
25.53320666051913
 40
25.53320666051913
 40
25.53320666051913
 40
25.53320666051913
 10
-7.690098826763484
 20
1.140340695479509
 30
0.0
 10
-7.924859514190394
 20
1.250957490970763
 30
0.0
 10
-8.503087628841786
 20
1.52207285537409
 30
0.0
 10
-9.425642479186642
 20
1.947821574340553
 30
0.0
 10
-10.45794478687512
 20
2.412218979742231
 30
0.0
 10
-11.49029900971711
 20
2.861779015800111
 30
0.0
 10
-12.52271401755934
 20
3.293737534595907
 30
0.0
 10
-13.55520131405281
 20
3.705429568820615
 30
0.0
 10
-14.58777044646191
 20
4.094316254821729
 30
0.0
 10
-15.62042619503789
 20
4.458007602433695
 30
0.0
 10
-16.65318127945043
 20
4.794240244250601
 30
0.0
 10
-17.68603430122588
 20
5.100952389080083
 30
0.0
 10
-18.71899267913076
 20
5.376230156349748
 30
0.0
 10
-19.75205276780744
 20
5.618369894877035
 30
0.0
 10
-20.78521053160113
 20
5.825887461307631
 30
0.0
 10
-21.81846022147446
 20
5.997407332956862
 30
0.0
 10
-22.85178576047712
 20
6.132144509227121
 30
0.0
 10
-23.88517576031297
 20
6.228268924975077
 30
0.0
 10
-24.91861344594837
 20
6.288757843739881
 30
0.0
 10
-25.60774171551739
 20
6.296253892758462
 30
0.0
 10
-25.95207905833711
 20
6.299999450319625
 30
0.0
  0
SPLINE
  5
3342
330
1F
100
AcDbEntity
  8
AM_0
 48
0.5
100
AcDbSpline
210
0.0
220
0.0
230
1.0
 70
     8
 71
     3
 72
    10
 73
     6
 74
     0
 42
0.0000000001
 43
0.0000000001
 40
0.0
 40
0.0
 40
0.0
 40
0.0
 40
2.69986029516136
 40
4.147722969032201
 40
6.285750005020438
 40
6.285750005020438
 40
6.285750005020438
 40
6.285750005020438
 10
-7.689933603518555
 20
1.140265868776139
 30
0.0
 10
-6.954418205413502
 20
0.5549523338140127
 30
0.0
 10
-5.824465623694921
 20
-0.344249153536563
 30
0.0
 10
-3.152279557192702
 20
0.0910700391709006
 30
0.0
 10
-3.65552991883887
 20
1.557282681512672
 30
0.0
 10
-3.988045603831395
 20
2.45098444515391
 30
0.0
  0
SPLINE
  5
3343
330
1F
100
AcDbEntity
  8
AM_0
100
AcDbSpline
210
0.0
220
0.0
230
1.0
 70
     8
 71
     3
 72
    55
 73
    51
 74
     0
 42
0.0000000001
 43
0.0000000001
 40
0.0
 40
0.0
 40
0.0
 40
0.0
 40
1.010743684496582
 40
2.022833576467832
 40
3.037578957496688
 40
4.056212745003489
 40
5.079857003664532
 40
6.109500240690281
 40
7.145961322679372
 40
8.189895241603872
 40
9.241717795325891
 40
10.30168407291828
 40
11.36983447792315
 40
12.44600489715814
 40
13.52984294512926
 40
14.62081576220742
 40
15.7182257034828
 40
16.82123173843959
 40
17.92886860250316
 40
19.0400688939571
 40
20.15368796660465
 40
21.26852814259644
 40
22.38336992938901
 40
23.49698739941135
 40
24.6081876908653
 40
25.71582455492886
 40
26.81883757994213
 40
27.91624752121713
 40
29.00722033829659
 40
30.09105838626677
 40
31.16722880550176
 40
32.23537921050758
 40
33.29534548809967
 40
34.347168041821
 40
35.39108718934584
 40
36.42754827133493
 40
37.45720575381954
 40
38.48085062012849
 40
39.49948440763516
 40
40.51422944315121
 40
41.52631975251916
 40
42.53706336719636
 40
43.54780698187354
 40
44.55989729124051
 40
45.57464232675757
 40
46.59327611426424
 40
47.6169209805722
 40
48.64656348684535
 40
49.68302456883444
 40
50.58557219878025
 40
50.58557219878025
 40
50.58557219878025
 40
50.58557219878025
 10
-6.484855401193705
 20
-6.3000005496808
 30
0.0
 10
-6.829187480523853
 20
-6.296252202307623
 30
0.0
 10
-7.518310254386093
 20
-6.28875051514498
 30
0.0
 10
-8.551743630266777
 20
-6.228278494913253
 30
0.0
 10
-9.585132892773161
 20
-6.13214377979891
 30
0.0
 10
-10.6184581986297
 20
-5.997407320287642
 30
0.0
 10
-11.65170923687649
 20
-5.825895053730516
 30
0.0
 10
-12.68486562378073
 20
-5.618369667844571
 30
0.0
 10
-13.71793081520471
 20
-5.376229127597437
 30
0.0
 10
-14.75089564994799
 20
-5.100956185802242
 30
0.0
 10
-15.78375309163744
 20
-4.794241001622452
 30
0.0
 10
-16.81650828849642
 20
-4.458008794563615
 30
0.0
 10
-17.84916400644931
 20
-4.094317328783493
 30
0.0
 10
-18.88173314770214
 20
-3.705430676040497
 30
0.0
 10
-19.91422043974105
 20
-3.293738628137169
 30
0.0
 10
-20.9466354565501
 20
-2.861780130650052
 30
0.0
 10
-21.97898964775151
 20
-2.412220022552978
 30
0.0
 10
-23.01129207383685
 20
-1.947822885808228
 30
0.0
 10
-24.04355275341879
 20
-1.471444943461724
 30
0.0
 10
-25.07578273212526
 20
-0.9860182451520838
 30
0.0
 10
-26.10799106359574
 20
-0.4945269947276234
 30
0.0
 10
-27.14019232421076
 20
-0.0000018351092015
 30
0.0
 10
-28.17238895110579
 20
0.4945322262702853
 30
0.0
 10
-29.20460074231361
 20
0.9860158228759532
 30
0.0
 10
-30.23682944671833
 20
1.471443990544573
 30
0.0
 10
-31.26909196680964
 20
1.947823747678705
 30
0.0
 10
-32.30139867538062
 20
2.412216921176745
 30
0.0
 10
-33.3337544959097
 20
2.861779309169076
 30
0.0
 10
-34.36616966176513
 20
3.293737456382387
 30
0.0
 10
-35.39865691623515
 20
3.705429590863005
 30
0.0
 10
-36.43122606013196
 20
4.094316244174861
 30
0.0
 10
-37.4638818043874
 20
4.458007622990868
 30
0.0
 10
-38.49663689465477
 20
4.79424017337372
 30
0.0
 10
-39.52948989750236
 20
5.100952649262365
 30
0.0
 10
-40.56244834455123
 20
5.376229196446307
 30
0.0
 10
-41.59551315276162
 20
5.618374605835084
 30
0.0
 10
-42.62867691674874
 20
5.825876289441209
 30
0.0
 10
-43.66193136856499
 20
5.997441642670544
 30
0.0
 10
-44.69525698074538
 20
6.132018389499846
 30
0.0
 10
-45.72864696128204
 20
6.228736895718815
 30
0.0
 10
-46.76207946093437
 20
6.287016945231998
 30
0.0
 10
-47.79553466963917
 20
6.306486381342823
 30
0.0
 10
-48.82898987682336
 20
6.287016945201513
 30
0.0
 10
-49.8624223810463
 20
6.228736895841346
 30
0.0
 10
-50.89581234475527
 20
6.132018389038427
 30
0.0
 10
-51.92913802002674
 20
5.997441644404943
 30
0.0
 10
-52.96238719734735
 20
5.825877119328824
 30
0.0
 10
-53.99554689106247
 20
5.618376727427865
 30
0.0
 10
-54.98164048437217
 20
5.38722106500086
 30
0.0
 10
-55.62142923766455
 20
5.218174743797822
 30
0.0
 10
-55.91825392960666
 20
5.13579022489941
 30
0.0
  0
SPLINE
  5
3344
330
1F
100
AcDbEntity
  8
AM_0
100
AcDbSpline
210
0.0
220
0.0
230
1.0
 70
     8
 71
     3
 72
    11
 73
     7
 74
     0
 42
0.0000000001
 43
0.0000000001
 40
11.27226913003534
 40
11.27226913003534
 40
11.27226913003534
 40
11.2722691300354
 40
12.28301561507924
 40
13.29510212255852
 40
14.30984805882082
 40
15.18258238371378
 40
15.18258238371378
 40
15.18258238371378
 40
15.18258238371378
 10
-25.95207905833736
 20
-6.300000549680375
 30
0.0
 10
-26.29510181305796
 20
-6.269166518912324
 30
0.0
 10
-26.98050031635569
 20
-6.194518672374687
 30
0.0
 10
-28.00505880120791
 20
-6.043935501807212
 30
0.0
 10
-28.97738286911197
 20
-5.864080415365084
 30
0.0
 10
-29.60622500195455
 20
-5.725820457586279
 30
0.0
 10
-29.89601336303178
 20
-5.657523857321189
 30
0.0
  0
SPLINE
  5
3345
330
1F
100
AcDbEntity
  8
AM_0
100
AcDbSpline
210
0.0
220
0.0
230
1.0
 70
     8
 71
     3
 72
    22
 73
    18
 74
     0
 42
0.0000000001
 43
0.0000000001
 40
17.17441611292
 40
17.17441611292
 40
17.17441611292
 40
17.17441611292
 40
17.38177636558528
 40
18.41823744757437
 40
19.46215659509824
 40
20.51397914882054
 40
21.57394542641293
 40
22.64209583141747
 40
23.71826625065247
 40
24.80210429862395
 40
25.8930771157021
 40
26.99048705697709
 40
28.09349309193389
 40
29.20112995599786
 40
30.31233024745139
 40
31.42594771747373
 40
32.5407895042663
 40
32.54078950426994
 40
32.54078950426994
 40
32.54078950426994
 10
-29.89646531906699
 20
-5.657446146869363
 30
0.0
 10
-29.96566548970495
 20
-5.642862264784508
 30
0.0
 10
-30.38048272026515
 20
-5.554030244948078
 30
0.0
 10
-31.14040451179358
 20
-5.375910483431232
 30
0.0
 10
-32.17336281113535
 20
-5.100633145375593
 30
0.0
 10
-33.20621585419472
 20
-4.793920884230954
 30
0.0
 10
-34.23897093285628
 20
-4.457688273981635
 30
0.0
 10
-35.27162668292236
 20
-4.093996917654616
 30
0.0
 10
-36.30419581518782
 20
-3.70511023462014
 30
0.0
 10
-37.33668311073801
 20
-3.293418197307572
 30
0.0
 10
-38.36909812253557
 20
-2.861459687952899
 30
0.0
 10
-39.40145233038091
 20
-2.411899616951763
 30
0.0
 10
-40.43375469448566
 20
-1.94750234277578
 30
0.0
 10
-41.46601560664211
 20
-1.471124915929388
 30
0.0
 10
-42.49824421694473
 20
-0.9856965183594567
 30
0.0
 10
-43.53045581696281
 20
-0.4942125056569227
 30
0.0
 10
-44.21846180979095
 20
-0.1645846037584928
 30
0.0
 10
-44.5626538064046
 20
0.000319884891146
 30
0.0
  0
SPLINE
  5
3346
330
1F
100
AcDbEntity
  8
AM_0
100
AcDbSpline
210
0.0
220
0.0
230
1.0
 70
     8
 71
     3
 72
    17
 73
    13
 74
     0
 42
0.0000000001
 43
0.0000000001
 40
1.580019955310467
 40
1.580019955310467
 40
1.580019955310467
 40
1.580019955310467
 40
2.030549285115227
 40
3.082371838836284
 40
4.126290986361125
 40
5.162752068350215
 40
6.192395305374981
 40
7.216039564037012
 40
8.234688489606833
 40
9.249433870634691
 40
10.26152376260694
 40
11.27226744710342
 40
11.27226744710342
 40
11.27226744710342
 40
11.27226744710352
 10
-16.21770781920326
 20
-4.649586063199859
 30
0.0
 10
-16.3639213923193
 20
-4.697472931402215
 30
0.0
 10
-16.85232384875996
 20
-4.854428538140981
 30
0.0
 10
-17.6861479606447
 20
-5.100619023279786
 30
0.0
 10
-18.71896247455461
 20
-5.376319707233371
 30
0.0
 10
-19.75206132133321
 20
-5.618348302511214
 30
0.0
 10
-20.78520750434033
 20
-5.825892022693679
 30
0.0
 10
-21.81846624677246
 20
-5.997441184737275
 30
0.0
 10
-22.85179637408616
 20
-6.132016833216939
 30
0.0
 10
-23.88519084480531
 20
-6.22874687290096
 30
0.0
 10
-24.91862419876631
 20
-6.287008641290444
 30
0.0
 10
-25.60774698354992
 20
-6.30000058572932
 30
0.0
 10
-25.9520790583373
 20
-6.300000549680375
 30
0.0
  0
ELLIPSE
  5
3347
330
1F
100
AcDbEntity
  8
AM_0
 48
0.5
100
AcDbEllipse
 10
3.604752153594327
 20
-9.956102280434125
 30
0.0
 11
-0.0003373493942093
 21
10.64021364753185
 31
0.0
210
0.0
220
0.0
230
1.0
 40
0.9603162416519316
 41
0.360513378871528
 42
0.6210561854746013
  0
ELLIPSE
  5
3348
330
1F
100
AcDbEntity
  8
AM_0
 48
0.5
100
AcDbEllipse
 10
-11.55835018351175
 20
10.57368337976219
 30
0.0
 11
0.0000000000138164
 21
15.18996748924233
 31
0.0
210
0.0
220
0.0
230
1.0
 40
0.9732947232947323
 41
3.652175978819092
 42
3.740670756498584
  0
ELLIPSE
  5
3349
330
1F
100
AcDbEntity
  8
AM_0
 48
0.5
100
AcDbEllipse
 10
2.970343582695694
 20
7.563537047975215
 30
0.0
 11
-0.0000000000006398
 21
12.69730195999126
 31
0.0
210
0.0
220
0.0
230
1.0
 40
0.9732947232947239
 41
2.101163880028918
 42
2.509284810223814
  0
ELLIPSE
  5
334A
330
1F
100
AcDbEntity
  8
AM_0
 48
0.5
100
AcDbEllipse
 10
-2.77088044849539
 20
-1.641871239073386
 30
0.0
 11
-0.8808500700505922
 21
0.5321978054557198
 31
0.0
210
0.0
220
0.0
230
1.0
 40
0.5065764682827851
 41
4.499815641810994
 42
7.643255983140504
  0
ELLIPSE
  5
334B
330
1F
100
AcDbEntity
  8
AM_0
 48
0.5
100
AcDbEllipse
 10
-2.77088044849539
 20
-1.641871239073386
 30
0.0
 11
-0.1744764476077707
 21
1.034567871215366
 31
0.0
210
0.0
220
0.0
230
0.9999999999999998
 40
0.4874070093617198
 41
1.811781473710625
 42
4.9471233634226
  0
ELLIPSE
  5
334C
330
1F
100
AcDbEntity
  8
AM_0
 48
0.5
100
AcDbEllipse
 10
5.39810545960033
 20
-1.400403763181644
 30
0.0
 11
9.720888538908972
 21
1.360395846888071
 31
0.0
210
0.0
220
0.0
230
1.0
 40
0.6738497416230607
 41
3.129113183636818
 42
3.758597288540076
  0
LINE
  5
334D
330
1F
100
AcDbEntity
  8
AM_11
 48
0.5
100
AcDbLine
 10
-99.79486288629018
 20
-6.300000549678913
 30
0.0
 11
-84.58569316026308
 21
-6.300000549679237
 31
0.0
  0
LINE
  5
334E
330
1F
100
AcDbEntity
  8
AM_11
 48
0.5
100
AcDbLine
 10
-99.29970600118554
 20
6.299999450321042
 30
0.0
 11
-84.58569316026284
 21
6.299999450320763
 31
0.0
  0
SPLINE
  5
334F
330
1F
100
AcDbEntity
  8
AM_0
100
AcDbSpline
210
0.0
220
0.0
230
1.0
 70
     8
 71
     3
 72
    13
 73
     9
 74
     0
 42
0.0000000001
 43
0.0000000001
 40
16.03460056234195
 40
16.03460056234195
 40
16.03460056234195
 40
16.03460056234195
 40
16.35212717791071
 40
17.38177067057215
 40
18.41822498539278
 40
19.46214186516937
 40
20.5139635832251
 40
21.34083983469381
 40
21.34083983469381
 40
21.34083983469381
 40
21.34083983469381
 10
-104.1736712472619
 20
-6.300000549678894
 30
0.0
 10
-102.4790036495264
 20
-6.260600199239922
 30
0.0
 10
-102.0289972335483
 20
-6.186694177225144
 30
0.0
 10
-101.2363071736087
 20
-6.005227480008386
 30
0.0
 10
-100.2097707820796
 20
-5.735392384334523
 30
0.0
 10
-99.18418804988686
 20
-5.432411506134267
 30
0.0
 10
-98.23518663739601
 20
-5.122737855276118
 30
0.0
 10
-97.62974044805119
 20
-4.909505508330373
 30
0.0
 10
-96.77748049534578
 20
-4.664898772536218
 30
0.0
  0
SPLINE
  5
3350
330
1F
100
AcDbEntity
  8
AM_0
100
AcDbSpline
210
0.0
220
0.0
230
1.0
 70
     8
 71
     3
 72
    23
 73
    19
 74
     0
 42
0.0000000001
 43
0.0000000001
 40
16.03460024169435
 40
16.03460024169435
 40
16.03460024169435
 40
16.03460024169435
 40
16.35212704903564
 40
17.38177054169784
 40
18.41822485651776
 40
19.46214173629503
 40
20.51396345435107
 40
21.57393551351153
 40
22.64208202342361
 40
23.7182574881101
 40
24.80209208578934
 40
25.89306333925047
 40
26.99048218457928
 40
28.09348763352352
 40
29.20111863782268
 40
30.31232390128032
 40
31.42594612798585
 40
32.5407912310448
 40
32.5407912310486
 40
32.5407912310486
 40
32.5407912310486
 10
-99.29970600118554
 20
6.299999450321042
 30
0.0
 10
-99.29970600118554
 20
6.299999450321042
 30
0.0
 10
-99.29970600118554
 20
6.299999450321042
 30
0.0
 10
-95.66004307367578
 20
6.00554740398619
 30
0.0
 10
-94.63350681133162
 20
5.735711560122137
 30
0.0
 10
-93.60792404415292
 20
5.432730884544412
 30
0.0
 10
-92.58323416963602
 20
5.098358874867016
 30
0.0
 10
-91.55940081972145
 20
4.734459662529491
 30
0.0
 10
-90.53636481929533
 20
4.343113448890647
 30
0.0
 10
-89.51405492801894
 20
3.926597770750228
 30
0.0
 10
-88.49241305457253
 20
3.48727133210914
 30
0.0
 10
-87.47135729022259
 20
3.027690471148479
 30
0.0
 10
-86.45080488981752
 20
2.550526470393297
 30
0.0
 10
-85.43068785686157
 20
2.058522822807971
 30
0.0
 10
-84.41092083940155
 20
1.554540462226052
 30
0.0
 10
-83.39140938541452
 20
1.041522275883103
 30
0.0
 10
-82.37207047788867
 20
0.5224410652485585
 30
0.0
 10
-81.6926937355881
 20
0.1744254965853391
 30
0.0
 10
-81.35282009420933
 20
0.0003198848895467
 30
0.0
  0
SPLINE
  5
3351
330
1F
100
AcDbEntity
  8
AM_0
 48
0.5
100
AcDbSpline
210
0.0
220
0.0
230
1.0
 70
     8
 71
     3
 72
    22
 73
    18
 74
     0
 42
0.0000000001
 43
0.0000000001
 40
0.0
 40
0.0
 40
0.0
 40
0.0
 40
1.010743684496582
 40
2.022833993863546
 40
3.037578683882831
 40
4.056212471389632
 40
5.079857945358201
 40
6.109499720892564
 40
7.145961650132166
 40
8.189873411961459
 40
9.241710626092514
 40
10.30166235592959
 40
11.36982472628033
 40
12.44598212828784
 40
13.52983440361964
 40
14.62080578343036
 40
14.90544694398022
 40
14.90544694398022
 40
14.90544694398022
 40
14.90544694398022
 10
-87.08570095719535
 20
-6.300000549679239
 30
0.0
 10
-87.43003310232143
 20
-6.296253322132439
 30
0.0
 10
-88.11915615005833
 20
-6.288753874566622
 30
0.0
 10
-89.15258844309494
 20
-6.228265009157601
 30
0.0
 10
-90.18597882383778
 20
-6.13214647866482
 30
0.0
 10
-91.21930467914955
 20
-5.997409894946024
 30
0.0
 10
-92.25255290316431
 20
-5.825881627040624
 30
0.0
 10
-93.28571271672727
 20
-5.618373685435747
 30
0.0
 10
-94.31876898038028
 20
-5.376227376473611
 30
0.0
 10
-95.35172879777865
 20
-5.100944877126796
 30
0.0
 10
-96.38458286559904
 20
-4.794245005300231
 30
0.0
 10
-97.41733658143525
 20
-4.457994370961579
 30
0.0
 10
-98.44999660275419
 20
-4.0943326906328
 30
0.0
 10
-99.48256215390697
 20
-3.705421917608486
 30
0.0
 10
-100.5150525787928
 20
-3.293739589593462
 30
0.0
 10
-101.2910412880965
 20
-2.969083531573162
 30
0.0
 10
-101.7234492761103
 20
-2.783520564597009
 30
0.0
 10
-103.53618458209
 20
-2.247949228961633
 30
0.0
  0
ELLIPSE
  5
3352
330
1F
100
AcDbEntity
  8
AM_0
 48
0.5
100
AcDbEllipse
 10
-103.958412385789
 20
-4.200000549678929
 30
0.0
 11
-1.273475369184005
 21
1.75477623914613
 31
0.0
210
0.0
220
0.0
230
1.0
 40
0.916212552489887
 41
0.9967300791024298
 42
2.471695414466934
  0
ELLIPSE
  5
3353
330
1F
100
AcDbEntity
  8
AM_0
 48
0.5
100
AcDbEllipse
 10
-104.3099026500598
 20
-4.042560805380307
 30
0.0
 11
1.189056512832753
 21
1.59571900508789
 31
0.0
210
0.0
220
0.0
230
1.0
 40
0.7692233500922825
 41
0.2996656591518076
 42
2.191611514991914
  0
SPLINE
  5
3354
330
1F
100
AcDbEntity
  8
AM_0
100
AcDbSpline
210
0.0
220
0.0
230
1.0
 70
     8
 71
     3
 72
    22
 73
    18
 74
     0
 42
0.0000000001
 43
0.0000000001
 40
17.17441611292
 40
17.17441611292
 40
17.17441611292
 40
17.17441611292
 40
17.38177636558528
 40
18.41823744757437
 40
19.46215659509824
 40
20.51397914882054
 40
21.57394542641293
 40
22.64209583141747
 40
23.71826625065247
 40
24.80210429862395
 40
25.8930771157021
 40
26.99048705697709
 40
28.09349309193389
 40
29.20112995599786
 40
30.31233024745139
 40
31.42594771747373
 40
32.5407895042663
 40
32.54078950426994
 40
32.54078950426994
 40
32.54078950426994
 10
-66.68648970413397
 20
-5.65744614686869
 30
0.0
 10
-66.75568987477191
 20
-5.642862264783842
 30
0.0
 10
-67.17050710533214
 20
-5.554030244947409
 30
0.0
 10
-67.93042889686057
 20
-5.375910483430565
 30
0.0
 10
-68.96338719620235
 20
-5.100633145374922
 30
0.0
 10
-69.99624023926171
 20
-4.793920884230284
 30
0.0
 10
-71.02899531792326
 20
-4.457688273980965
 30
0.0
 10
-72.06165106798938
 20
-4.093996917653946
 30
0.0
 10
-73.09422020025485
 20
-3.705110234619472
 30
0.0
 10
-74.12670749580503
 20
-3.293418197306903
 30
0.0
 10
-75.15912250760262
 20
-2.861459687952232
 30
0.0
 10
-76.19147671544787
 20
-2.411899616951096
 30
0.0
 10
-77.2237790795526
 20
-1.947502342775112
 30
0.0
 10
-78.25603999170903
 20
-1.471124915928719
 30
0.0
 10
-79.28826860201173
 20
-0.9856965183587885
 30
0.0
 10
-80.3204802020298
 20
-0.4942125056562543
 30
0.0
 10
-81.00848619485795
 20
-0.1645846037578245
 30
0.0
 10
-81.35267819147159
 20
0.0003198848918142
 30
0.0
  0
SPLINE
  5
3355
330
1F
100
AcDbEntity
  8
AM_0
100
AcDbSpline
210
0.0
220
0.0
230
1.0
 70
     8
 71
     3
 72
    46
 73
    42
 74
     0
 42
0.0000000001
 43
0.0000000001
 40
0.0
 40
0.0
 40
0.0
 40
0.0
 40
1.348332046947654
 40
2.024828967632893
 40
2.703918159304094
 40
3.386347665078122
 40
4.072776489761951
 40
4.763750544421345
 40
5.459696642770595
 40
6.160921452191748
 40
6.867565637253344
 40
7.579665907256597
 40
8.297112853413899
 40
9.019671552060666
 40
9.746986763446125
 40
10.47859339096365
 40
11.21393074760088
 40
11.95235532364327
 40
12.69315551794651
 40
13.43556823304427
 40
14.1787950170388
 40
14.92202180103393
 40
15.66443451613169
 40
16.40523471043432
 40
17.14365928647669
 40
17.87899664311455
 40
18.61060327063121
 40
19.33791848201689
 40
20.06048192311554
 40
20.77792886927282
 40
21.49002913927608
 40
22.19667332433747
 40
22.89788836015233
 40
23.59383445850157
 40
24.28480851316097
 40
24.97123685067575
 40
25.65366676154837
 40
26.33276604526151
 40
27.00926273560554
 40
27.68398960851752
 40
28.35781868496899
 40
28.35781868496899
 40
28.35781868496899
 40
28.35781868496899
 10
-40.3819685453992
 20
-6.300000549680195
 30
0.0
 10
-41.07112498870193
 20
-6.28564866268442
 30
0.0
 10
-42.10605101659632
 20
-6.264096021704754
 30
0.0
 10
-43.48223728718693
 20
-6.131400370623847
 30
0.0
 10
-44.51557369505178
 20
-5.99760785572637
 30
0.0
 10
-45.54882177725277
 20
-5.825840993381731
 30
0.0
 10
-46.58197881186068
 20
-5.618383829774042
 30
0.0
 10
-47.61503949134517
 20
-5.376228186882368
 30
0.0
 10
-48.64800208548483
 20
-5.100951555000674
 30
0.0
 10
-49.68086199723134
 20
-4.794244173398384
 30
0.0
 10
-50.71362129102386
 20
-4.458008354996647
 30
0.0
 10
-51.74627718905392
 20
-4.094317447913932
 30
0.0
 10
-52.77884628149106
 20
-3.705430643736092
 30
0.0
 10
-53.81133358682743
 20
-3.293738637014792
 30
0.0
 10
-54.84374859974683
 20
-2.861780127740355
 30
0.0
 10
-55.87610279309619
 20
-2.4122200252508
 30
0.0
 10
-56.90840521447992
 20
-1.947822877891368
 30
0.0
 10
-57.94066591080522
 20
-1.471444972577082
 30
0.0
 10
-58.97289582697812
 20
-0.9860181361770536
 30
0.0
 10
-60.00510439248639
 20
-0.4945274025099632
 30
0.0
 10
-61.0373042810672
 20
-0.0000005497798046
 30
0.0
 10
-62.06950416942123
 20
0.4945263035513005
 30
0.0
 10
-63.10171273560967
 20
0.9860170354164196
 30
0.0
 10
-64.13394264929647
 20
1.471443878401855
 30
0.0
 10
-65.16620335484046
 20
1.947821759293272
 30
0.0
 10
-66.1985057420422
 20
2.41221899721021
 30
0.0
 10
-67.2308600619791
 20
2.861778764333496
 30
0.0
 10
-68.26327685107897
 20
3.2937394531902
 30
0.0
 10
-69.29576816816293
 20
3.705427719480913
 30
0.0
 10
-70.32833910254509
 20
4.094316517737111
 30
0.0
 10
-71.360994976532
 20
4.458007533037219
 30
0.0
 10
-72.39375002786667
 20
4.794240261719131
 30
0.0
 10
-73.42660305787997
 20
5.100952387824805
 30
0.0
 10
-74.45956143553565
 20
5.376230144241665
 30
0.0
 10
-75.49262151713886
 20
5.618369944039875
 30
0.0
 10
-76.52577930919427
 20
5.825887278400097
 30
0.0
 10
-77.55903398566423
 20
5.997408855462786
 30
0.0
 10
-78.59236506900853
 20
6.13214324474073
 30
0.0
 10
-79.62576008404411
 20
6.228269136900384
 30
0.0
 10
-80.65919261055004
 20
6.288757475566817
 30
0.0
 10
-81.34831567300967
 20
6.296253788950981
 30
0.0
 10
-81.69264781359144
 20
6.299999450320702
 30
0.0
  0
LINE
  5
3356
330
1F
100
AcDbEntity
  8
AM_0
100
AcDbLine
 10
-84.58569316026284
 20
6.299999450320763
 30
0.0
 11
-60.21874590049627
 21
6.300894479653508
 31
0.0
  0
LINE
  5
3357
330
1F
100
AcDbEntity
  8
AM_0
 48
0.5
100
AcDbLine
 10
-84.58570095723123
 20
-6.300000549679153
 30
0.0
 11
-62.74210057524187
 21
-6.300000549679555
 31
0.0
  0
SPLINE
  5
3358
330
1F
100
AcDbEntity
  8
AM_0
100
AcDbSpline
210
0.0
220
0.0
230
1.0
 70
     8
 71
     3
 72
    55
 73
    51
 74
     0
 42
0.0000000001
 43
0.0000000001
 40
0.0
 40
0.0
 40
0.0
 40
0.0
 40
1.010743684496582
 40
2.022833576467832
 40
3.037578957496688
 40
4.056212745003489
 40
5.079857003664532
 40
6.109500240690281
 40
7.145961322679372
 40
8.189895241603872
 40
9.241717795325891
 40
10.30168407291828
 40
11.36983447792315
 40
12.44600489715814
 40
13.52984294512926
 40
14.62081576220742
 40
15.7182257034828
 40
16.82123173843959
 40
17.92886860250316
 40
19.0400688939571
 40
20.15368796660465
 40
21.26852814259644
 40
22.38336992938901
 40
23.49698739941135
 40
24.6081876908653
 40
25.71582455492886
 40
26.81883757994213
 40
27.91624752121713
 40
29.00722033829659
 40
30.09105838626677
 40
31.16722880550176
 40
32.23537921050758
 40
33.29534548809967
 40
34.347168041821
 40
35.39108718934584
 40
36.42754827133493
 40
37.45720575381954
 40
38.48085062012849
 40
39.49948440763516
 40
40.51422944315121
 40
41.52631975251916
 40
42.53706336719636
 40
43.54780698187354
 40
44.55989729124051
 40
45.57464232675757
 40
46.59327611426424
 40
47.6169209805722
 40
48.64656348684535
 40
49.68302456883444
 40
50.58557219878025
 40
50.58557219878025
 40
50.58557219878025
 40
50.58557219878025
 10
-43.27487978626068
 20
-6.300000549680135
 30
0.0
 10
-43.61921186559083
 20
-6.296252202306953
 30
0.0
 10
-44.30833463945307
 20
-6.288750515144307
 30
0.0
 10
-45.34176801533376
 20
-6.228278494912582
 30
0.0
 10
-46.37515727784013
 20
-6.132143779798239
 30
0.0
 10
-47.40848258369669
 20
-5.997407320286976
 30
0.0
 10
-48.44173362194348
 20
-5.825895053729851
 30
0.0
 10
-49.47489000884772
 20
-5.618369667843904
 30
0.0
 10
-50.50795520027168
 20
-5.376229127596771
 30
0.0
 10
-51.54092003501496
 20
-5.100956185801574
 30
0.0
 10
-52.57377747670444
 20
-4.794241001621784
 30
0.0
 10
-53.60653267356343
 20
-4.458008794562947
 30
0.0
 10
-54.63918839151631
 20
-4.094317328782823
 30
0.0
 10
-55.67175753276911
 20
-3.70543067603983
 30
0.0
 10
-56.70424482480805
 20
-3.2937386281365
 30
0.0
 10
-57.7366598416171
 20
-2.861780130649384
 30
0.0
 10
-58.76901403281852
 20
-2.412220022552311
 30
0.0
 10
-59.80131645890383
 20
-1.947822885807561
 30
0.0
 10
-60.8335771384858
 20
-1.471444943461056
 30
0.0
 10
-61.86580711719223
 20
-0.9860182451514159
 30
0.0
 10
-62.89801544866273
 20
-0.4945269947269551
 30
0.0
 10
-63.93021670927776
 20
-0.0000018351085333
 30
0.0
 10
-64.96241333617277
 20
0.4945322262709535
 30
0.0
 10
-65.99462512738063
 20
0.9860158228766218
 30
0.0
 10
-67.02685383178536
 20
1.471443990545241
 30
0.0
 10
-68.05911635187666
 20
1.947823747679372
 30
0.0
 10
-69.09142306044763
 20
2.412216921177414
 30
0.0
 10
-70.12377888097664
 20
2.861779309169744
 30
0.0
 10
-71.15619404683207
 20
3.293737456383053
 30
0.0
 10
-72.18868130130212
 20
3.705429590863673
 30
0.0
 10
-73.22125044519895
 20
4.094316244175529
 30
0.0
 10
-74.25390618945439
 20
4.458007622991535
 30
0.0
 10
-75.28666127972176
 20
4.794240173374391
 30
0.0
 10
-76.31951428256934
 20
5.100952649263037
 30
0.0
 10
-77.35247272961823
 20
5.376229196446979
 30
0.0
 10
-78.38553753782864
 20
5.618374605835755
 30
0.0
 10
-79.41870130181576
 20
5.825876289441876
 30
0.0
 10
-80.451955753632
 20
5.99744164267121
 30
0.0
 10
-81.48528136581241
 20
6.132018389500511
 30
0.0
 10
-82.51867134634904
 20
6.228736895719481
 30
0.0
 10
-83.55210384600137
 20
6.287016945232664
 30
0.0
 10
-84.58555905470616
 20
6.306486381343488
 30
0.0
 10
-85.61901426189036
 20
6.287016945202182
 30
0.0
 10
-86.65244676611331
 20
6.228736895842018
 30
0.0
 10
-87.68583672982229
 20
6.132018389039099
 30
0.0
 10
-88.71916240509376
 20
5.997441644405616
 30
0.0
 10
-89.75241158241436
 20
5.82587711932949
 30
0.0
 10
-90.78557127612944
 20
5.618376727428532
 30
0.0
 10
-91.77166486943916
 20
5.387221065001527
 30
0.0
 10
-92.41145362273153
 20
5.218174743798489
 30
0.0
 10
-92.70846869673382
 20
5.135854440882787
 30
0.0
  0
SPLINE
  5
3384
330
1F
100
AcDbEntity
  8
AM_0
100
AcDbSpline
210
0.0
220
0.0
230
1.0
 70
     8
 71
     3
 72
    22
 73
    18
 74
     0
 42
0.0000000001
 43
0.0000000001
 40
17.17441611292
 40
17.17441611292
 40
17.17441611292
 40
17.17441611292
 40
17.38177636558528
 40
18.41823744757437
 40
19.46215659509824
 40
20.51397914882054
 40
21.57394542641293
 40
22.64209583141747
 40
23.71826625065247
 40
24.80210429862395
 40
25.8930771157021
 40
26.99048705697709
 40
28.09349309193389
 40
29.20112995599786
 40
30.31233024745139
 40
31.42594771747373
 40
32.5407895042663
 40
32.54078950426994
 40
32.54078950426994
 40
32.54078950426994
 10
-84.58569316026308
 20
-6.300000549679237
 30
0.0
 10
-87.98992718856785
 20
-6.103343923554184
 30
0.0
 10
-88.47864947290345
 20
-6.040208851641544
 30
0.0
 10
-89.30700784987564
 20
-5.901600971153076
 30
0.0
 10
-90.89672541689626
 20
-5.63041424314314
 30
0.0
 10
-94.51425466722884
 20
-4.79424076912117
 30
0.0
 10
-95.54700974589039
 20
-4.45800815887185
 30
0.0
 10
-96.5796654959565
 20
-4.094316802544833
 30
0.0
 10
-97.61223462822199
 20
-3.705430119510358
 30
0.0
 10
-98.64472192377217
 20
-3.293738082197789
 30
0.0
 10
-99.67713693556975
 20
-2.861779572843119
 30
0.0
 10
-100.709491143415
 20
-2.412219501841983
 30
0.0
 10
-101.7417935075197
 20
-1.947822227665998
 30
0.0
 10
-102.8648682121909
 20
-1.562258593334374
 30
0.0
 10
-103.8062830299788
 20
-1.137535886025801
 30
0.0
 10
-104.9388943674407
 20
-0.5949321279909496
 30
0.0
 10
-105.526500622825
 20
-0.2855422230326923
 30
0.0
 10
-105.9999999999999
 20
-0.0287999181708144
 30
0.0
  0
LINE
  5
3388
330
1F
100
AcDbEntity
  8
AM_0
100
AcDbLine
 10
-105.6535866412146
 20
0.0483548145503106
 30
0.0
 11
-105.6535888864149
 21
6.29999945032115
 31
0.0
  0
LINE
  5
3389
330
1F
100
AcDbEntity
  8
AM_0
100
AcDbLine
 10
-105.653585439567
 20
-3.29757093330482
 30
0.0
 11
-105.6535866412146
 21
-0.2155413047722626
 31
0.0
  0
DIMENSION
  5
33F8
330
1F
100
AcDbEntity
  8
AM_5
100
AcDbDimension
  2
*D9
 10
-0.7147729829006514
 20
-1.963810107397323
 30
0.0
 11
32.06147156405711
 21
-0.0000328980796723
 31
0.0
 70
    34
  1
<>
 51
359.9999999999998
  3
AM_JIS$2
100
AcDb2LineAngularDimension
 13
0.0000000000000569
 23
0.0000000000000213
 33
0.0
 14
-0.7147573352033661
 24
1.963779655178806
 34
0.0
 15
0.0000000000000001
 25
0.0000000000000002
 35
0.0
 16
32.28581999257349
 26
-13.92676954495632
 36
0.0
1001
GENIUS_GENDTOL_13
1000

1000
h7
1000

1040
0.0
1001
ACAD
1000
DSTYLE
1002
{
1070
   271
1070
     0
1002
}
  0
ELLIPSE
  5
34F8
330
1F
100
AcDbEntity
  8
AM_11
 48
0.5
100
AcDbEllipse
 10
-169.2742953927129
 20
-25.83924168993583
 30
0.0
 11
-28.85782559712684
 21
0.0000000000017703
 31
0.0
210
0.0
220
0.0
230
1.0
 40
0.9900000000000011
 41
4.271664206181739
 42
4.702883776251653
  0
ELLIPSE
  5
34F9
330
1F
100
AcDbEntity
  8
AM_11
 48
0.5
100
AcDbEllipse
 10
-120.031926350999
 20
-25.83924168993557
 30
0.0
 11
-28.85782559712684
 21
0.0000000000017703
 31
0.0
210
0.0
220
0.0
230
1.0
 40
0.9900000000000011
 41
4.271664206181739
 42
5.153113667165048
  0
ELLIPSE
  5
34FA
330
1F
100
AcDbEntity
  8
AM_11
 48
0.5
100
AcDbEllipse
 10
-144.6531384722112
 20
-25.83924168993539
 30
0.0
 11
-28.85782559712679
 21
0.0000000000015012
 31
0.0
210
0.0
220
0.0
230
1.0
 40
0.9900000000000032
 41
4.271664206181728
 42
5.153113667165039
  0
ELLIPSE
  5
34FB
330
1F
100
AcDbEntity
  8
AM_11
 48
0.5
100
AcDbEllipse
 10
-169.2742953927125
 20
25.83926191876755
 30
0.0
 11
-28.85782559712688
 21
0.0000000000010911
 31
0.0
210
0.0
220
0.0
230
1.0
 40
0.9899999999999995
 41
1.580301530928017
 42
2.011520147323624
  0
ELLIPSE
  5
34FC
330
1F
100
AcDbEntity
  8
AM_11
 48
0.5
100
AcDbEllipse
 10
-120.0319263509986
 20
25.83926191876781
 30
0.0
 11
-28.85782559712688
 21
0.0000000000010911
 31
0.0
210
0.0
220
0.0
230
1.0
 40
0.9899999999999995
 41
1.130070686340335
 42
2.011520147323624
  0
ELLIPSE
  5
34FD
330
1F
100
AcDbEntity
  8
AM_11
 48
0.5
100
AcDbEllipse
 10
-144.6531384722107
 20
25.839261918768
 30
0.0
 11
-28.85782559712687
 21
0.0000000000002773
 31
0.0
210
0.0
220
0.0
230
1.0
 40
0.9900000000000002
 41
1.130070686340306
 42
2.011520147323597
  0
ELLIPSE
  5
34FE
330
1F
100
AcDbEntity
  8
AM_11
 48
0.5
100
AcDbEllipse
 10
-95.41076943049667
 20
-25.83924168993542
 30
0.0
 11
-28.85782559712679
 21
0.0000000000015012
 31
0.0
210
0.0
220
0.0
230
1.0
 40
0.9900000000000032
 41
4.271664206181728
 42
5.153113667165039
  0
ELLIPSE
  5
34FF
330
1F
100
AcDbEntity
  8
AM_11
 48
0.5
100
AcDbEllipse
 10
-95.41076943049624
 20
25.83926191876797
 30
0.0
 11
-28.85782559712687
 21
0.0000000000002773
 31
0.0
210
0.0
220
0.0
230
1.0
 40
0.9900000000000002
 41
1.130070686340306
 42
2.011520147323597
  0
ELLIPSE
  5
3500
330
1F
100
AcDbEntity
  8
AM_11
 48
0.5
100
AcDbEllipse
 10
-70.78955730928455
 20
-25.8392416899356
 30
0.0
 11
-28.85782559712684
 21
0.0000000000017703
 31
0.0
210
0.0
220
0.0
230
1.0
 40
0.9900000000000011
 41
4.271664206181739
 42
5.153113667165048
  0
ELLIPSE
  5
3501
330
1F
100
AcDbEntity
  8
AM_11
 48
0.5
100
AcDbEllipse
 10
-70.78955730928412
 20
25.83926191876777
 30
0.0
 11
-28.85782559712688
 21
0.0000000000010911
 31
0.0
210
0.0
220
0.0
230
1.0
 40
0.9899999999999995
 41
1.130070686340335
 42
2.011520147323624
  0
ELLIPSE
  5
3502
330
1F
100
AcDbEntity
  8
AM_11
 48
0.5
100
AcDbEllipse
 10
-46.16840038878287
 20
-25.83924168993497
 30
0.0
 11
-28.85782559712679
 21
0.0000000000015012
 31
0.0
210
0.0
220
0.0
230
1.0
 40
0.9900000000000032
 41
4.271664206181728
 42
5.153113667165039
  0
ELLIPSE
  5
3503
330
1F
100
AcDbEntity
  8
AM_11
 48
0.5
100
AcDbEllipse
 10
-46.16840038878246
 20
25.83926191876842
 30
0.0
 11
-28.85782559712687
 21
0.0000000000002773
 31
0.0
210
0.0
220
0.0
230
1.0
 40
0.9900000000000002
 41
1.130070686340306
 42
2.011520147323597
  0
ELLIPSE
  5
3504
330
1F
100
AcDbEntity
  8
AM_11
 48
0.5
100
AcDbEllipse
 10
-21.5471882675703
 20
25.83926191876823
 30
0.0
 11
-28.85782559712688
 21
0.0000000000010911
 31
0.0
210
0.0
220
0.0
230
1.0
 40
0.9899999999999995
 41
1.130070686340335
 42
2.011520147323624
  0
ELLIPSE
  5
3505
330
1F
100
AcDbEntity
  8
AM_11
 48
0.5
100
AcDbEllipse
 10
-21.54718826757076
 20
-25.83924168993515
 30
0.0
 11
-28.85782559712684
 21
0.0000000000017703
 31
0.0
210
0.0
220
0.0
230
1.0
 40
0.9900000000000011
 41
4.271664206181739
 42
5.153113667165048
  0
ELLIPSE
  5
3506
330
1F
100
AcDbEntity
  8
AM_11
 48
0.5
100
AcDbEllipse
 10
3.074023853641818
 20
25.83926191876801
 30
0.0
 11
-28.85782559712738
 21
0.0000000000269591
 31
0.0
210
0.0
220
0.0
230
1.0
 40
0.9899999999999861
 41
1.130070686341231
 42
1.291800737381917
  0
VIEWPORT
  5
110
330
101
100
AcDbEntity
 67
     1
  8
0
100
AcDbViewport
 10
420.5
 20
297.0
 30
0.0
 40
948.9782706766916
 41
628.452
 68
     1
 69
     1
1001
ACAD
1000
MVIEW
1002
{
1070
    16
1010
0.0
1020
0.0
1030
0.0
1010
0.0
1020
0.0
1030
1.0
1040
0.0
1040
628.452
1040
420.5
1040
297.0
1040
50.0
1040
0.0
1040
0.0
1070
     0
1070
   100
1070
     1
1070
     1
1070
     0
1070
     0
1070
     0
1070
     0
1040
0.0
1040
0.0
1040
0.0
1040
10.0
1040
10.0
1040
10.0
1040
10.0
1070
     0
1002
{
1002
}
1002
}
  0
ENDSEC
  0
SECTION
  2
OBJECTS
  0
DICTIONARY
  5
C
330
0
100
AcDbDictionary
  3
ACAD_GROUP
350
D
  3
ACAD_LAYOUT
350
1A
  3
ACAD_MLINESTYLE
350
17
  3
ACAD_PLOTSETTINGS
350
19
  3
ACAD_PLOTSTYLENAME
350
E
  3
ACDBVARIABLEDICTIONARY
350
34
  3
ACMDICTIONARY
350
43
  3
AMG
350
2B
  3
AMGSNAPSETTINGS
350
6E
  3
DWGPROPS
350
3520
  3
ACDBHEADERROUNDTRIPXREC
350
352D
  0
DICTIONARY
  5
74
330
1F
100
AcDbDictionary
280
     1
  3
ACAD_INDEX
360
3522
  3
ACAD_LAYOUTSELFREF
360
3550
  0
DICTIONARY
  5
3555
330
101
100
AcDbDictionary
280
     1
  3
ACAD_LAYOUTSELFREF
360
3556
  0
DICTIONARY
  5
D
102
{ACAD_REACTORS
330
C
102
}
330
C
100
AcDbDictionary
  0
DICTIONARY
  5
1A
102
{ACAD_REACTORS
330
C
102
}
330
C
100
AcDbDictionary
  0
DICTIONARY
  5
17
102
{ACAD_REACTORS
330
C
102
}
330
C
100
AcDbDictionary
  3
STANDARD
350
18
  0
DICTIONARY
  5
19
102
{ACAD_REACTORS
330
C
102
}
330
C
100
AcDbDictionary
  0
ACDBDICTIONARYWDFLT
  5
E
102
{ACAD_REACTORS
330
C
102
}
330
C
100
AcDbDictionary
281
     1
  3
Normal
350
F
100
AcDbDictionaryWithDefault
340
F
  0
DICTIONARY
  5
34
102
{ACAD_REACTORS
330
C
102
}
330
C
100
AcDbDictionary
  3
INDEXCTL
350
35
  3
SORTENTS
350
B5E
  0
DICTIONARY
  5
43
102
{ACAD_REACTORS
330
C
102
}
330
C
100
AcDbDictionary
  3
ACMSTDDICTIONARY
350
260
  0
DICTIONARY
  5
2B
102
{ACAD_REACTORS
330
C
102
}
330
C
100
AcDbDictionary
  3
ACMGSETTINGS
350
2C
  0
DICTIONARY
  5
6E
102
{ACAD_REACTORS
330
C
102
}
330
C
100
AcDbDictionary
  0
XRECORD
  5
3520
102
{ACAD_REACTORS
330
C
102
}
330
C
100
AcDbXrecord
  1
DWGPROPS COOKIE
  2

  3

  4

  6

  7

  8

  9

300
AmdtFileType=82
301
=
302
=
303
=
304
=
305
=
306
=
307
=
308
=
309
=
 40
0.0713046180555556
 41
2452800.443498622
 42
2452948.65892162
  1

 90
        1
  0
DICTIONARY
  5
352D
102
{ACAD_REACTORS
330
C
102
}
330
C
100
AcDbDictionary
  3
TSTACKALIGN
350
352E
  3
TSTACKSIZE
350
352F
  3
HYPERLINKBASE
350
3530
  3
STYLESHEET
350
3531
  3
LAYOUTDICT
350
3532
  3
PLOTSETDICT
350
3533
  3
PLOTSTYLNAMDICT
350
3534
  3
LWETCUNION
350
3535
  3
INSUNITS
350
3536
  3
CEPSNTYPE
350
3537
  3
FINGERPRINTGUID
350
3538
  3
VERSIONGUID
350
3539
  3
PSVPSCALE
350
353A
  3
DIMSTYLEDATA
350
353B
  3
PUCSORTHOREF
350
353C
  3
PUCSORTHOVIEW
350
353D
  3
PUCSBASE
350
353E
  3
PUCSORGTOP
350
353F
  3
PUCSORGBOTTOM
350
3540
  3
PUCSORGLEFT
350
3541
  3
PUCSORGRIGHT
350
3542
  3
PUCSORGFRONT
350
3543
  3
PUCSORGBACK
350
3544
  3
UCSORTHOREF
350
3545
  3
UCSORTHOVIEW
350
3546
  3
UCSBASE
350
3547
  3
UCSORGTOP
350
3548
  3
UCSORGBOTTOM
350
3549
  3
UCSORGLEFT
350
354A
  3
UCSORGRIGHT
350
354B
  3
UCSORGFRONT
350
354C
  3
UCSORGBACK
350
354D
  0
DICTIONARY
  5
3522
102
{ACAD_REACTORS
330
74
102
}
330
74
100
AcDbDictionary
  3
*A1
350
3523
  0
XRECORD
  5
3550
102
{ACAD_REACTORS
330
74
102
}
330
74
100
AcDbXrecord
340
1F
  0
XRECORD
  5
3556
102
{ACAD_REACTORS
330
3555
102
}
330
3555
100
AcDbXrecord
340
101
  0
MLINESTYLE
  5
18
102
{ACAD_REACTORS
330
17
102
}
330
17
100
AcDbMlineStyle
  2
STANDARD
 70
     0
  3

 62
   256
 51
90.0
 52
90.0
 71
     2
 49
0.5
 62
   256
  6
BYLAYER
 49
-0.5
 62
   256
  6
BYLAYER
  0
ACDBPLACEHOLDER
  5
F
102
{ACAD_REACTORS
330
E
102
}
330
E
100
AcDbPlaceHolder
280
     0
  0
DICTIONARYVAR
  5
35
102
{ACAD_REACTORS
330
34
102
}
330
34
100
DictionaryVariables
280
     0
  1
1
  0
DICTIONARYVAR
  5
B5E
102
{ACAD_REACTORS
330
34
102
}
330
34
100
DictionaryVariables
280
     0
  1
96
  0
DICTIONARY
  5
260
102
{ACAD_REACTORS
330
43
102
}
330
43
100
AcDbDictionary
  0
DICTIONARY
  5
2C
102
{ACAD_REACTORS
330
2B
102
}
330
2B
100
AcDbDictionary
  3
DWGSETTINGS
350
2D
  0
XRECORD
  5
352E
102
{ACAD_REACTORS
330
352D
102
}
330
352D
100
AcDbXrecord
 90
        1
  0
XRECORD
  5
352F
102
{ACAD_REACTORS
330
352D
102
}
330
352D
100
AcDbXrecord
 90
       70
  0
XRECORD
  5
3530
102
{ACAD_REACTORS
330
352D
102
}
330
352D
100
AcDbXrecord
  1

  0
XRECORD
  5
3531
102
{ACAD_REACTORS
330
352D
102
}
330
352D
100
AcDbXrecord
  1
ASAMI.ctb
  0
XRECORD
  5
3532
102
{ACAD_REACTORS
330
352D
102
}
330
352D
100
AcDbXrecord
340
1A
  0
XRECORD
  5
3533
102
{ACAD_REACTORS
330
352D
102
}
330
352D
100
AcDbXrecord
340
19
  0
XRECORD
  5
3534
102
{ACAD_REACTORS
330
352D
102
}
330
352D
100
AcDbXrecord
340
E
  0
XRECORD
  5
3535
102
{ACAD_REACTORS
330
352D
102
}
330
352D
100
AcDbXrecord
 90
    10781
  0
XRECORD
  5
3536
102
{ACAD_REACTORS
330
352D
102
}
330
352D
100
AcDbXrecord
 90
        4
  0
XRECORD
  5
3537
102
{ACAD_REACTORS
330
352D
102
}
330
352D
100
AcDbXrecord
 90
        0
  0
XRECORD
  5
3538
102
{ACAD_REACTORS
330
352D
102
}
330
352D
100
AcDbXrecord
  1
{AFB28963-8C59-40AE-9337-C84526B81ACE}
  0
XRECORD
  5
3539
102
{ACAD_REACTORS
330
352D
102
}
330
352D
100
AcDbXrecord
  1
{D154E3A6-8395-4909-B322-753319FFFD7A}
  0
XRECORD
  5
353A
102
{ACAD_REACTORS
330
352D
102
}
330
352D
100
AcDbXrecord
 40
0.0
  0
XRECORD
  5
353B
102
{ACAD_REACTORS
330
352D
102
}
330
352D
100
AcDbXrecord
1000
DSTYLE
1002
{
1070
    79
 70
     2
1070
   341
340
59
1070
   342
340
59
1070
   371
 70
    -1
1070
   372
 70
    -1
1002
}
  0
XRECORD
  5
353C
102
{ACAD_REACTORS
330
352D
102
}
330
352D
100
AcDbXrecord
340
0
  0
XRECORD
  5
353D
102
{ACAD_REACTORS
330
352D
102
}
330
352D
100
AcDbXrecord
 70
     0
  0
XRECORD
  5
353E
102
{ACAD_REACTORS
330
352D
102
}
330
352D
100
AcDbXrecord
340
0
  0
XRECORD
  5
353F
102
{ACAD_REACTORS
330
352D
102
}
330
352D
100
AcDbXrecord
 10
0.0
 20
0.0
 30
0.0
  0
XRECORD
  5
3540
102
{ACAD_REACTORS
330
352D
102
}
330
352D
100
AcDbXrecord
 10
0.0
 20
0.0
 30
0.0
  0
XRECORD
  5
3541
102
{ACAD_REACTORS
330
352D
102
}
330
352D
100
AcDbXrecord
 10
0.0
 20
0.0
 30
0.0
  0
XRECORD
  5
3542
102
{ACAD_REACTORS
330
352D
102
}
330
352D
100
AcDbXrecord
 10
0.0
 20
0.0
 30
0.0
  0
XRECORD
  5
3543
102
{ACAD_REACTORS
330
352D
102
}
330
352D
100
AcDbXrecord
 10
0.0
 20
0.0
 30
0.0
  0
XRECORD
  5
3544
102
{ACAD_REACTORS
330
352D
102
}
330
352D
100
AcDbXrecord
 10
0.0
 20
0.0
 30
0.0
  0
XRECORD
  5
3545
102
{ACAD_REACTORS
330
352D
102
}
330
352D
100
AcDbXrecord
340
0
  0
XRECORD
  5
3546
102
{ACAD_REACTORS
330
352D
102
}
330
352D
100
AcDbXrecord
 70
     0
  0
XRECORD
  5
3547
102
{ACAD_REACTORS
330
352D
102
}
330
352D
100
AcDbXrecord
340
0
  0
XRECORD
  5
3548
102
{ACAD_REACTORS
330
352D
102
}
330
352D
100
AcDbXrecord
 10
0.0
 20
0.0
 30
0.0
  0
XRECORD
  5
3549
102
{ACAD_REACTORS
330
352D
102
}
330
352D
100
AcDbXrecord
 10
0.0
 20
0.0
 30
0.0
  0
XRECORD
  5
354A
102
{ACAD_REACTORS
330
352D
102
}
330
352D
100
AcDbXrecord
 10
0.0
 20
0.0
 30
0.0
  0
XRECORD
  5
354B
102
{ACAD_REACTORS
330
352D
102
}
330
352D
100
AcDbXrecord
 10
0.0
 20
0.0
 30
0.0
  0
XRECORD
  5
354C
102
{ACAD_REACTORS
330
352D
102
}
330
352D
100
AcDbXrecord
 10
0.0
 20
0.0
 30
0.0
  0
XRECORD
  5
354D
102
{ACAD_REACTORS
330
352D
102
}
330
352D
100
AcDbXrecord
 10
0.0
 20
0.0
 30
0.0
  0
LAYER_INDEX
  5
3523
102
{ACAD_REACTORS
330
3522
102
}
330
3522
100
AcDbIndex
 40
2453151.666296458
100
AcDbLayerIndex
  8
0
360
3524
 90
        0
  8
AM_0
360
3525
 90
       55
  8
AM_7
360
3526
 90
        1
  8
AM_11
360
3527
 90
       21
  8
AM_5
360
3528
 90
        5
  8
Defpoints
360
3529
 90
        0
  8
AM_6
360
352A
 90
        1
  8
AM_CL
360
352B
 90
        0
  0
XRECORD
  5
2D
102
{ACAD_REACTORS
330
2C
102
}
330
2C
100
AcDbXrecord
  1
VERSION
140
15.0
  1
PRODUCT
  2
AutoCAD Mechanical 2000
  0
IDBUFFER
  5
3524
330
0
100
AcDbIdBuffer
  0
IDBUFFER
  5
3525
330
0
100
AcDbIdBuffer
330
3355
330
3356
330
3357
330
3358
330
3384
330
3388
330
3389
330
1E25
330
1E26
330
1FD9
330
21D7
330
21D8
330
21D9
330
21DC
330
21DD
330
2694
330
2695
330
2696
330
2697
330
2698
330
2699
330
2CB4
330
2CB7
330
332F
330
3330
330
3331
330
3332
330
3333
330
3334
330
3339
330
333A
330
333B
330
333C
330
333D
330
333E
330
333F
330
3340
330
3341
330
3342
330
3343
330
3344
330
3345
330
3346
330
3347
330
3348
330
3349
330
334A
330
334B
330
334C
330
334F
330
3350
330
3351
330
3352
330
3353
330
3354
  0
IDBUFFER
  5
3526
330
0
100
AcDbIdBuffer
330
C9F
  0
IDBUFFER
  5
3527
330
0
100
AcDbIdBuffer
330
3502
330
3503
330
3504
330
3505
330
3506
330
3335
330
3336
330
3337
330
3338
330
334D
330
334E
330
34F8
330
34F9
330
34FA
330
34FB
330
34FC
330
34FD
330
34FE
330
34FF
330
3500
330
3501
  0
IDBUFFER
  5
3528
330
0
100
AcDbIdBuffer
330
CC6
330
DF5
330
1FB6
330
2216
330
33F8
  0
IDBUFFER
  5
3529
330
0
100
AcDbIdBuffer
  0
IDBUFFER
  5
352A
330
0
100
AcDbIdBuffer
330
19BD
  0
IDBUFFER
  5
352B
330
0
100
AcDbIdBuffer
  0
ENDSEC
  0
EOF
