  0
SECTION
  2
HEADER
  9
$ACADVER
  1
AC1014
  9
$ACADMAINTVER
 70
     9
  9
$DWGCODEPAGE
  3
ANSI_932
  9
$INSBASE
 10
0.0
 20
0.0
 30
0.0
  9
$EXTMIN
 10
-142.150001
 20
-29.75000099999954
 30
-0.00000001
  9
$EXTMAX
 10
14.61785916258746
 20
14.25878909803282
 30
0.00000001
  9
$LIMMIN
 10
-156.1444050923396
 20
-44.51020785580943
  9
$LIMMAX
 10
20.31336096277607
 20
28.16015358894219
  9
$ORTHOMODE
 70
     0
  9
$REGENMODE
 70
     1
  9
$FILLMODE
 70
     1
  9
$QTEXTMODE
 70
     0
  9
$MIRRTEXT
 70
     0
  9
$DRAGMODE
 70
     2
  9
$LTSCALE
 40
1.0
  9
$OSMODE
 70
    55
  9
$ATTMODE
 70
     1
  9
$TEXTSIZE
 40
2.5
  9
$TRACEWID
 40
1.0
  9
$TEXTSTYLE
  7
STANDARD
  9
$CLAYER
  8
AM_0
  9
$CELTYPE
  6
BYLAYER
  9
$CECOLOR
 62
   256
  9
$CELTSCALE
 40
1.0
  9
$DELOBJ
 70
     1
  9
$DISPSILH
 70
     0
  9
$DIMSCALE
 40
0.5
  9
$DIMASZ
 40
2.5
  9
$DIMEXO
 40
1.0
  9
$DIMDLI
 40
12.0
  9
$DIMRND
 40
0.0
  9
$DIMDLE
 40
0.0
  9
$DIMEXE
 40
1.0
  9
$DIMTP
 40
0.1
  9
$DIMTM
 40
0.1
  9
$DIMTXT
 40
3.2
  9
$DIMCEN
 40
0.0
  9
$DIMTSZ
 40
0.0
  9
$DIMTOL
 70
     0
  9
$DIMLIM
 70
     0
  9
$DIMTIH
 70
     0
  9
$DIMTOH
 70
     0
  9
$DIMSE1
 70
     0
  9
$DIMSE2
 70
     0
  9
$DIMTAD
 70
     3
  9
$DIMZIN
 70
     8
  9
$DIMBLK
  1
OPEN30
  9
$DIMASO
 70
     1
  9
$DIMSHO
 70
     1
  9
$DIMPOST
  1

  9
$DIMAPOST
  1
"
  9
$DIMALT
 70
     0
  9
$DIMALTD
 70
     2
  9
$DIMALTF
 40
0.0393701
  9
$DIMLFAC
 40
1.0
  9
$DIMTOFL
 70
     1
  9
$DIMTVP
 40
0.0
  9
$DIMTIX
 70
     0
  9
$DIMSOXD
 70
     0
  9
$DIMSAH
 70
     0
  9
$DIMBLK1
  1

  9
$DIMBLK2
  1

  9
$DIMSTYLE
  2
AM_JIS
  9
$DIMCLRD
 70
   256
  9
$DIMCLRE
 70
   256
  9
$DIMCLRT
 70
     2
  9
$DIMTFAC
 40
0.71
  9
$DIMGAP
 40
1.5
  9
$DIMJUST
 70
     0
  9
$DIMSD1
 70
     0
  9
$DIMSD2
 70
     0
  9
$DIMTOLJ
 70
     0
  9
$DIMTZIN
 70
     0
  9
$DIMALTZ
 70
     0
  9
$DIMALTTZ
 70
     0
  9
$DIMFIT
 70
     3
  9
$DIMUPT
 70
     0
  9
$DIMUNIT
 70
     2
  9
$DIMDEC
 70
     3
  9
$DIMTDEC
 70
     3
  9
$DIMALTU
 70
     2
  9
$DIMALTTD
 70
     2
  9
$DIMTXSTY
  7
ASAMI
  9
$DIMAUNIT
 70
     0
  9
$LUNITS
 70
     2
  9
$LUPREC
 70
     2
  9
$SKETCHINC
 40
1.0
  9
$FILLETRAD
 40
2.5
  9
$AUNITS
 70
     0
  9
$AUPREC
 70
     0
  9
$MENU
  1
.
  9
$ELEVATION
 40
0.0
  9
$PELEVATION
 40
0.0
  9
$THICKNESS
 40
0.0
  9
$LIMCHECK
 70
     0
  9
$BLIPMODE
 70
     0
  9
$CHAMFERA
 40
0.5
  9
$CHAMFERB
 40
0.5
  9
$CHAMFERC
 40
20.0
  9
$CHAMFERD
 40
0.0
  9
$SKPOLY
 70
     0
  9
$TDCREATE
 40
2452800.443498622
  9
$TDUPDATE
 40
2453151.563149398
  9
$TDINDWG
 40
0.0792547106
  9
$TDUSRTIMER
 40
0.0792547106
  9
$USRTIMER
 70
     1
  9
$ANGBASE
 50
0.0
  9
$ANGDIR
 70
     0
  9
$PDMODE
 70
     0
  9
$PDSIZE
 40
0.0
  9
$PLINEWID
 40
0.0
  9
$COORDS
 70
     1
  9
$SPLFRAME
 70
     0
  9
$SPLINETYPE
 70
     6
  9
$SPLINESEGS
 70
     8
  9
$ATTDIA
 70
     1
  9
$ATTREQ
 70
     1
  9
$HANDLING
 70
 12289
  9
$HANDSEED
  5
3BFC
  9
$SURFTAB1
 70
     6
  9
$SURFTAB2
 70
     6
  9
$SURFTYPE
 70
     6
  9
$SURFU
 70
     6
  9
$SURFV
 70
     6
  9
$UCSNAME
  2

  9
$UCSORG
 10
0.0
 20
0.0
 30
0.0
  9
$UCSXDIR
 10
1.0
 20
0.0000000000000027
 30
0.0
  9
$UCSYDIR
 10
-0.0000000000000027
 20
1.0
 30
0.0
  9
$PUCSNAME
  2

  9
$PUCSORG
 10
0.0
 20
0.0
 30
0.0
  9
$PUCSXDIR
 10
1.0
 20
0.0
 30
0.0
  9
$PUCSYDIR
 10
0.0
 20
1.0
 30
0.0
  9
$USERI1
 70
     0
  9
$USERI2
 70
     0
  9
$USERI3
 70
     0
  9
$USERI4
 70
     0
  9
$USERI5
 70
     0
  9
$USERR1
 40
0.0
  9
$USERR2
 40
0.0
  9
$USERR3
 40
0.0
  9
$USERR4
 40
0.0
  9
$USERR5
 40
0.0
  9
$WORLDVIEW
 70
     1
  9
$SHADEDGE
 70
     3
  9
$SHADEDIF
 70
    70
  9
$TILEMODE
 70
     1
  9
$MAXACTVP
 70
    64
  9
$PINSBASE
 10
0.0
 20
0.0
 30
0.0
  9
$PLIMCHECK
 70
     0
  9
$PEXTMIN
 10
1.000000000000000E+20
 20
1.000000000000000E+20
 30
1.000000000000000E+20
  9
$PEXTMAX
 10
-1.000000000000000E+20
 20
-1.000000000000000E+20
 30
-1.000000000000000E+20
  9
$PLIMMIN
 10
0.0
 20
0.0
  9
$PLIMMAX
 10
841.0
 20
594.0
  9
$UNITMODE
 70
     0
  9
$VISRETAIN
 70
     1
  9
$PLINEGEN
 70
     0
  9
$PSLTSCALE
 70
     0
  9
$TREEDEPTH
 70
  3020
  9
$PICKSTYLE
 70
     0
  9
$CMLSTYLE
  2
STANDARD
  9
$CMLJUST
 70
     0
  9
$CMLSCALE
 40
20.0
  9
$PROXYGRAPHICS
 70
     1
  9
$MEASUREMENT
 70
     1
  0
ENDSEC
  0
SECTION
  2
CLASSES
  0
CLASS
  1
ACDBDICTIONARYWDFLT
  2
AcDbDictionaryWithDefault
  3
AutoCAD 2000
 90
        0
280
     0
281
     0
  0
CLASS
  1
ACDBPLACEHOLDER
  2
AcDbPlaceHolder
  3
AutoCAD 2000
 90
        0
280
     0
281
     0
  0
CLASS
  1
LAYOUT
  2
AcDbLayout
  3
AutoCAD 2000
 90
        0
280
     0
281
     0
  0
CLASS
  1
AMGSETTINGSOBJ
  2
AmgSettingsObj
  3
"AcadM|Product Description: AutoCAD Mechanical 2000|Company: Autodesk"
 90
        0
280
     0
281
     0
  0
CLASS
  1
ACME_DOCUMENT
  2
AcMeDbDoc
  3
AcMeServices
 90
        0
280
     0
281
     0
  0
CLASS
  1
ACMESCOPE
  2
AcMeScope
  3
AcMeServices
 90
        0
280
     0
281
     0
  0
CLASS
  1
ACMECOMMANDHISTORY
  2
AcMeCommandHistory
  3
AcMeServices
 90
        0
280
     0
281
     0
  0
CLASS
  1
DICTIONARYVAR
  2
AcDbDictionaryVar
  3
AutoCAD 2000
 90
        0
280
     0
281
     0
  0
CLASS
  1
ACIMSYSVARMAN
  2
AcImSysVarManager
  3
AcMeServices
 90
        0
280
     0
281
     0
  0
CLASS
  1
ACIMREALSYSVAR
  2
AcImRealSysVar
  3
AcMeServices
 90
        0
280
     0
281
     0
  0
CLASS
  1
ACIMINTSYSVAR
  2
AcImIntSysVar
  3
AcMeServices
 90
        0
280
     0
281
     0
  0
CLASS
  1
ACMEDRAWINGMAN
  2
AcMeDrawingMan
  3
AcMeServices
 90
        0
280
     0
281
     0
  0
CLASS
  1
ACMEVIEW
  2
AcMeView
  3
AcMeServices
 90
        0
280
     0
281
     0
  0
CLASS
  1
ACDBENTITYCACHE
  2
AcMeEntityCache
  3
AcMeServices
 90
        0
280
     0
281
     0
  0
CLASS
  1
GSMANAGER
  2
AcMeGSManager
  3
AcMeServices
 90
        0
280
     0
281
     0
  0
CLASS
  1
AmdtInternalReactor
  2
AmdtInternalReactor
  3
AcMeServices
 90
        0
280
     0
281
     0
  0
CLASS
  1
ACMESTATEMGR
  2
AcMeStateMgr
  3
AcMeServices
 90
        0
280
     0
281
     0
  0
CLASS
  1
ACME_DATABASE
  2
AcMeDbDatabase
  3
AcMeServices
 90
        0
280
     0
281
     0
  0
CLASS
  1
ACRFINSADJUSTERMGR
  2
AcRfInsAdjusterMgr
  3
AcMeServices
 90
        0
280
     0
281
     0
  0
CLASS
  1
ACMDATADICTIONARY
  2
AcmDataDictionary
  3
"AcmSymBB|Product Description: AutoCAD Mechanical 2000|Company: Autodesk"
 90
        0
280
     0
281
     0
  0
CLASS
  1
ACMDATAENTRYBLOCK
  2
AcmDataEntryBlock
  3
"AcmSymBB|Product Description: AutoCAD Mechanical 2000|Company: Autodesk"
 90
        0
280
     0
281
     0
  0
CLASS
  1
AMGOBJPROPCFG
  2
AmgObjPropCfg
  3
"AmgLay|Product Description: AutoCAD Mechanical 2000|Company: Autodesk"
 90
        1
280
     0
281
     0
  0
CLASS
  1
ACAMGFILTERDAT
  2
AcAmgFilterDat
  3
"AcadM|Product Description: AutoCAD Mechanical 2000|Company: Autodesk"
 90
        0
280
     0
281
     0
  0
CLASS
  1
LAYER_INDEX
  2
AcDbLayerIndex
  3
AutoCAD 2000
 90
        0
280
     0
281
     0
  0
CLASS
  1
IDBUFFER
  2
AcDbIdBuffer
  3
AutoCAD 2000
 90
        0
280
     0
281
     0
  0
CLASS
  1
ACIMSTRSYSVAR
  2
AcImStrSysVar
  3
AcMeServices
 90
        0
280
     0
281
     0
  0
CLASS
  1
ACMSTANDARDJIS
  2
AcmStandardJIS
  3
"AcmSymBB|Product Description: AutoCAD Mechanical 2000|Company: Autodesk"
 90
        0
280
     0
281
     0
  0
CLASS
  1
ACMSURFSTANDARDJIS
  2
AcmSurfTextStdJIS
  3
"AcmSymBB|Product Description: AutoCAD Mechanical 2000|Company: Autodesk"
 90
        0
280
     0
281
     0
  0
CLASS
  1
ACMFCFSTANDARDJIS
  2
AcmFCFStdJIS
  3
"AcmSymBB|Product Description: AutoCAD Mechanical 2000|Company: Autodesk"
 90
        0
280
     0
281
     0
  0
CLASS
  1
ACMWELDSTANDARDJIS
  2
AcmWeldingStdJIS
  3
"AcmSymBB|Product Description: AutoCAD Mechanical 2000|Company: Autodesk"
 90
        0
280
     0
281
     0
  0
CLASS
  1
ACMIDSTANDARDJIS
  2
AcmIdStdJIS
  3
"AcmSymBB|Product Description: AutoCAD Mechanical 2000|Company: Autodesk"
 90
        0
280
     0
281
     0
  0
CLASS
  1
ACMDATUMSTANDARDJIS
  2
AcmDatumStdJIS
  3
"AcmSymBB|Product Description: AutoCAD Mechanical 2000|Company: Autodesk"
 90
        0
280
     0
281
     0
  0
CLASS
  1
ACMBOMSTANDARDJIS
  2
AcmBOMStdJIS
  3
"AcmSymBB|Product Description: AutoCAD Mechanical 2000|Company: Autodesk"
 90
        0
280
     0
281
     0
  0
CLASS
  1
ACMSTANDARDANSI
  2
AcmStandardANSI
  3
"AcmSymBB|Product Description: AutoCAD Mechanical 2000|Company: Autodesk"
 90
        0
280
     0
281
     0
  0
CLASS
  1
ACMSURFSTANDARDANSI
  2
AcmSurfTextStdANSI
  3
"AcmSymBB|Product Description: AutoCAD Mechanical 2000|Company: Autodesk"
 90
        0
280
     0
281
     0
  0
CLASS
  1
ACMFCFSTANDARDANSI
  2
AcmFCFStdANSI
  3
"AcmSymBB|Product Description: AutoCAD Mechanical 2000|Company: Autodesk"
 90
        0
280
     0
281
     0
  0
CLASS
  1
ACMWELDSTANDARDANSI
  2
AcmWeldingStdANSI
  3
"AcmSymBB|Product Description: AutoCAD Mechanical 2000|Company: Autodesk"
 90
        0
280
     0
281
     0
  0
CLASS
  1
ACMIDSTANDARDANSI
  2
AcmIdStdANSI
  3
"AcmSymBB|Product Description: AutoCAD Mechanical 2000|Company: Autodesk"
 90
        0
280
     0
281
     0
  0
CLASS
  1
ACMDATUMSTANDARDANSI
  2
AcmDatumStdANSI
  3
"AcmSymBB|Product Description: AutoCAD Mechanical 2000|Company: Autodesk"
 90
        0
280
     0
281
     0
  0
CLASS
  1
ACMBOMSTANDARDANSI
  2
AcmBOMStdANSI
  3
"AcmSymBB|Product Description: AutoCAD Mechanical 2000|Company: Autodesk"
 90
        0
280
     0
281
     0
  0
CLASS
  1
ACMSTANDARDBSI
  2
AcmStandardBSI
  3
"AcmSymBB|Product Description: AutoCAD Mechanical 2000|Company: Autodesk"
 90
        0
280
     0
281
     0
  0
CLASS
  1
ACMSURFSTANDARDBSI
  2
AcmSurfTextStdBSI
  3
"AcmSymBB|Product Description: AutoCAD Mechanical 2000|Company: Autodesk"
 90
        0
280
     0
281
     0
  0
CLASS
  1
ACMFCFSTANDARDBSI
  2
AcmFCFStdBSI
  3
"AcmSymBB|Product Description: AutoCAD Mechanical 2000|Company: Autodesk"
 90
        0
280
     0
281
     0
  0
CLASS
  1
ACMWELDSTANDARDBSI
  2
AcmWeldingStdBSI
  3
"AcmSymBB|Product Description: AutoCAD Mechanical 2000|Company: Autodesk"
 90
        0
280
     0
281
     0
  0
CLASS
  1
ACMIDSTANDARDBSI
  2
AcmIdStdBSI
  3
"AcmSymBB|Product Description: AutoCAD Mechanical 2000|Company: Autodesk"
 90
        0
280
     0
281
     0
  0
CLASS
  1
ACMDATUMSTANDARDBSI
  2
AcmDatumStdBSI
  3
"AcmSymBB|Product Description: AutoCAD Mechanical 2000|Company: Autodesk"
 90
        0
280
     0
281
     0
  0
CLASS
  1
ACMBOMSTANDARDBSI
  2
AcmBOMStdBSI
  3
"AcmSymBB|Product Description: AutoCAD Mechanical 2000|Company: Autodesk"
 90
        0
280
     0
281
     0
  0
CLASS
  1
LONG_TRANSACTION
  2
AcDbLongTransaction
  3
AutoCAD 2000
 90
        0
280
     0
281
     0
  0
CLASS
  1
LWPOLYLINE
  2
AcDbPolyline
  3
AutoCAD 2000
 90
        0
280
     0
281
     1
  0
CLASS
  1
HATCH
  2
AcDbHatch
  3
AutoCAD 2000
 90
        0
280
     0
281
     1
  0
CLASS
  1
XRECORD
  2
AcDbXrecord
  3
AutoCAD 2000
 90
        0
280
     0
281
     0
  0
ENDSEC
  0
SECTION
  2
TABLES
  0
TABLE
  2
VPORT
  5
8
330
0
100
AcDbSymbolTable
 70
     3
  0
VPORT
  5
3BC6
330
8
100
AcDbSymbolTableRecord
100
AcDbViewportTableRecord
  2
*ACTIVE
 70
     0
 10
0.0
 20
0.0
 11
1.0
 21
1.0
 12
-60.83591783395362
 22
-7.745343048636854
 13
0.0
 23
0.0
 14
2.5
 24
2.5
 15
10.0
 25
10.0
 16
0.0
 26
0.0
 36
1.0
 17
0.0
 27
0.0
 37
0.0
 40
104.382338784874
 41
1.56570841889117
 42
50.0
 43
0.0
 44
0.0
 50
0.0
 51
0.0
 71
     0
 72
   100
 73
     1
 74
     1
 75
     0
 76
     0
 77
     0
 78
     0
  0
ENDTAB
  0
TABLE
  2
LTYPE
  5
5
330
0
100
AcDbSymbolTable
 70
    10
  0
LTYPE
  5
14
330
5
100
AcDbSymbolTableRecord
100
AcDbLinetypeTableRecord
  2
BYBLOCK
 70
     0
  3

 72
    65
 73
     0
 40
0.0
  0
LTYPE
  5
15
330
5
100
AcDbSymbolTableRecord
100
AcDbLinetypeTableRecord
  2
BYLAYER
 70
     0
  3

 72
    65
 73
     0
 40
0.0
  0
LTYPE
  5
16
330
5
100
AcDbSymbolTableRecord
100
AcDbLinetypeTableRecord
  2
CONTINUOUS
 70
     0
  3
Solid line
 72
    65
 73
     0
 40
0.0
  0
LTYPE
  5
4B
330
5
100
AcDbSymbolTableRecord
100
AcDbLinetypeTableRecord
  2
AM_ISO02W050
 70
     0
  3
__ __ __ __ __ __ __ __ __ __ __ __ __ __ __
 72
    65
 73
     2
 40
7.5
 49
6.0
 74
     0
 49
-1.5
 74
     0
  0
LTYPE
  5
4C
330
5
100
AcDbSymbolTableRecord
100
AcDbLinetypeTableRecord
  2
AM_ISO08W050
 70
     0
  3
____ . ____ . ____ . ____ . ____ . ____ . ____
 72
    65
 73
     4
 40
18.0
 49
12.0
 74
     0
 49
-1.5
 74
     0
 49
3.0
 74
     0
 49
-1.5
 74
     0
  0
LTYPE
  5
4D
330
5
100
AcDbSymbolTableRecord
100
AcDbLinetypeTableRecord
  2
AM_ISO09W050
 70
     0
  3
_____ . . _____ . . _____ . . ____ .. ____
 72
    65
 73
     6
 40
22.5
 49
12.0
 74
     0
 49
-1.5
 74
     0
 49
3.0
 74
     0
 49
-1.5
 74
     0
 49
3.0
 74
     0
 49
-1.5
 74
     0
  0
LTYPE
  5
4E
330
5
100
AcDbSymbolTableRecord
100
AcDbLinetypeTableRecord
  2
AMCONSTR
 70
     0
  3
_______________________
 72
    65
 73
     2
 40
9999.0
 49
9999.0
 74
     0
 49
0.0
 74
     0
  0
LTYPE
  5
4F
330
5
100
AcDbSymbolTableRecord
100
AcDbLinetypeTableRecord
  2
AM_ISO02W050X2
 70
     0
  3
 _ _ _ _ _ _ _ _ _ _ _ _
 72
    65
 73
     2
 40
3.75
 49
3.0
 74
     0
 49
-0.75
 74
     0
  0
LTYPE
  5
50
330
5
100
AcDbSymbolTableRecord
100
AcDbLinetypeTableRecord
  2
AM_ISO08W050X2
 70
     0
  3
__ . __ . __ . __ . __ . __
 72
    65
 73
     4
 40
9.0
 49
6.0
 74
     0
 49
-0.75
 74
     0
 49
1.5
 74
     0
 49
-0.75
 74
     0
  0
LTYPE
  5
53
330
5
100
AcDbSymbolTableRecord
100
AcDbLinetypeTableRecord
  2
AMZIGZAG
 70
     0
  3
/\/-/\/-/\/-/\/-/\/-/\/
 72
    65
 73
     2
 40
11.00009999999999
 49
0.0001
 74
     4
 75
   135
340
52
 46
0.04
 50
0.0
 44
0.0
 45
0.0
 49
-11.0
 74
     0
  0
LTYPE
  5
166
330
5
100
AcDbSymbolTableRecord
100
AcDbLinetypeTableRecord
  2
ACJISTGL
 70
     0
  3
_ _ _ _ _
 72
    65
 73
     2
 40
3.0
 49
2.0
 74
     0
 49
-1.0
 74
     0
  0
LTYPE
  5
26A
330
5
100
AcDbSymbolTableRecord
100
AcDbLinetypeTableRecord
  2
ACJISTGB
 70
     0
  3
__ . . __ . .
 72
    65
 73
     6
 40
9.0
 49
4.0
 74
     0
 49
-1.0
 74
     0
 49
1.0
 74
     0
 49
-1.0
 74
     0
 49
1.0
 74
     0
 49
-1.0
 74
     0
  0
ENDTAB
  0
TABLE
  2
LAYER
  5
2
330
0
100
AcDbSymbolTable
 70
     8
  0
LAYER
  5
10
330
2
100
AcDbSymbolTableRecord
100
AcDbLayerTableRecord
  2
0
 70
     0
 62
     7
  6
CONTINUOUS
  0
LAYER
  5
3F9
330
2
100
AcDbSymbolTableRecord
100
AcDbLayerTableRecord
  2
AM_0
 70
     0
 62
     7
  6
CONTINUOUS
  0
LAYER
  5
C7C
330
2
100
AcDbSymbolTableRecord
100
AcDbLayerTableRecord
  2
AM_7
 70
     0
 62
     4
  6
AM_ISO08W050
  0
LAYER
  5
C97
330
2
100
AcDbSymbolTableRecord
100
AcDbLayerTableRecord
  2
AM_11
 70
     0
 62
     3
  6
AM_ISO09W050
  0
LAYER
  5
CC5
330
2
100
AcDbSymbolTableRecord
100
AcDbLayerTableRecord
  2
AM_5
 70
     0
 62
     3
  6
CONTINUOUS
  0
LAYER
  5
CC7
330
2
100
AcDbSymbolTableRecord
100
AcDbLayerTableRecord
  2
DEFPOINTS
 70
     0
 62
     7
  6
CONTINUOUS
  0
LAYER
  5
19BC
330
2
100
AcDbSymbolTableRecord
100
AcDbLayerTableRecord
  2
AM_6
 70
     0
 62
     2
  6
CONTINUOUS
  0
LAYER
  5
3B55
330
2
100
AcDbSymbolTableRecord
100
AcDbLayerTableRecord
  2
AM_CL
 70
     0
 62
     1
  6
AMCONSTR
  0
ENDTAB
  0
TABLE
  2
STYLE
  5
3
330
0
100
AcDbSymbolTable
 70
     5
  0
STYLE
  5
11
330
3
100
AcDbSymbolTableRecord
100
AcDbTextStyleTableRecord
  2
STANDARD
 70
     0
 40
0.0
 41
1.0
 50
0.0
 71
     0
 42
2.5
  3
simplex.shx
  4
EXTFONT.SHX
  0
STYLE
  5
52
330
3
100
AcDbSymbolTableRecord
100
AcDbTextStyleTableRecord
  2

 70
     1
 40
0.0
 41
1.0
 50
0.0
 71
     0
 42
2.5
  3
ltypeshp.shx
  4

  0
STYLE
  5
6B
330
3
100
AcDbSymbolTableRecord
100
AcDbTextStyleTableRecord
  2
ASAMI
 70
     0
 40
0.0
 41
1.0
 50
0.0
 71
     0
 42
2.5
  3
simplex.shx
  4
EXTFONT.SHX
  0
STYLE
  5
262
330
3
100
AcDbSymbolTableRecord
100
AcDbTextStyleTableRecord
  2
ACJISTS
 70
     0
 40
1.0
 41
1.0
 50
0.0
 71
     0
 42
2.5
  3
simplex.shx
  4
bigfont.shx
  0
STYLE
  5
269
330
3
100
AcDbSymbolTableRecord
100
AcDbTextStyleTableRecord
  2
ACJISGDT
 70
     0
 40
0.0
 41
1.0
 50
0.0
 71
     0
 42
2.5
  3
amgdtans.shx
  4

  0
ENDTAB
  0
TABLE
  2
VIEW
  5
6
330
0
100
AcDbSymbolTable
 70
     0
  0
ENDTAB
  0
TABLE
  2
UCS
  5
7
330
0
100
AcDbSymbolTable
 70
     0
  0
ENDTAB
  0
TABLE
  2
APPID
  5
9
330
0
100
AcDbSymbolTable
 70
    16
  0
APPID
  5
12
330
9
100
AcDbSymbolTableRecord
100
AcDbRegAppTableRecord
  2
ACAD
 70
     0
  0
APPID
  5
30
330
9
100
AcDbSymbolTableRecord
100
AcDbRegAppTableRecord
  2
MCAD_NO_VIS
 70
     0
  0
APPID
  5
31
330
9
100
AcDbSymbolTableRecord
100
AcDbRegAppTableRecord
  2
ACAD_TEMP_GRAPHIC
 70
     0
  0
APPID
  5
2C2
330
9
100
AcDbSymbolTableRecord
100
AcDbRegAppTableRecord
  2
GENIUS_GENDTOL_13
 70
     0
  0
APPID
  5
339
330
9
100
AcDbSymbolTableRecord
100
AcDbRegAppTableRecord
  2
GENIUS_GENODEF_13
 70
     0
  0
APPID
  5
33A
330
9
100
AcDbSymbolTableRecord
100
AcDbRegAppTableRecord
  2
GENIUS_GENOBJ-N-RSBK_13
 70
     0
  0
APPID
  5
33B
330
9
100
AcDbSymbolTableRecord
100
AcDbRegAppTableRecord
  2
GENIUS_GENOBJ-N-LIB_13
 70
     0
  0
APPID
  5
33C
330
9
100
AcDbSymbolTableRecord
100
AcDbRegAppTableRecord
  2
GENIUS_GENSCALE_13
 70
     0
  0
APPID
  5
378
330
9
100
AcDbSymbolTableRecord
100
AcDbRegAppTableRecord
  2
GENIUS_GENDIMSH_14
 70
     0
  0
APPID
  5
C82
330
9
100
AcDbSymbolTableRecord
100
AcDbRegAppTableRecord
  2
GENIUS_GENOBJ-N-CRS_13
 70
     0
  0
APPID
  5
C83
330
9
100
AcDbSymbolTableRecord
100
AcDbRegAppTableRecord
  2
GENIUS_GENOENT_13
 70
     0
  0
APPID
  5
C84
330
9
100
AcDbSymbolTableRecord
100
AcDbRegAppTableRecord
  2
GENIUS_GENOREF_13
 70
     0
  0
APPID
  5
C85
330
9
100
AcDbSymbolTableRecord
100
AcDbRegAppTableRecord
  2
GENIUS_GENOLIS_13
 70
     0
  0
APPID
  5
CA0
330
9
100
AcDbSymbolTableRecord
100
AcDbRegAppTableRecord
  2
GENIUS_GENOBJ-N-CEN_13
 70
     0
  0
APPID
  5
2796
330
9
100
AcDbSymbolTableRecord
100
AcDbRegAppTableRecord
  2
GENIUS_GENFIL_13
 70
     0
  0
APPID
  5
2797
330
9
100
AcDbSymbolTableRecord
100
AcDbRegAppTableRecord
  2
GENIUS_GENOBJ-N-CHA_13
 70
     0
  0
ENDTAB
  0
TABLE
  2
DIMSTYLE
  5
A
330
0
100
AcDbSymbolTable
 70
     9
  0
DIMSTYLE
105
58
330
A
100
AcDbSymbolTableRecord
100
AcDbDimStyleTableRecord
  2
AM_JIS
 70
     0
  3

  4
"
  5
OPEN30
  6

  7

 40
0.5
 41
2.5
 42
1.0
 43
12.0
 44
1.0
 45
0.0
 46
0.0
 47
0.1
 48
0.1
140
3.2
141
0.0
142
0.0
143
0.0393701
144
1.0
145
0.0
146
0.71
147
1.5
 71
     0
 72
     0
 73
     0
 74
     0
 75
     0
 76
     0
 77
     3
 78
     8
170
     0
171
     2
172
     1
173
     0
174
     0
175
     0
176
   256
177
   256
178
     2
270
     2
271
     3
272
     3
273
     2
274
     2
340
6B
275
     0
280
     0
281
     0
282
     0
283
     0
284
     0
285
     0
286
     0
287
     3
288
     0
  0
DIMSTYLE
105
5F
330
A
100
AcDbSymbolTableRecord
100
AcDbDimStyleTableRecord
  2
AM_JIS$3
 70
     0
  3

  4
"
  5
OPEN30
  6

  7

 40
0.5
 41
2.5
 42
1.0
 43
10.0
 44
1.0
 45
0.0
 46
0.0
 47
0.1
 48
0.1
140
3.2
141
0.0
142
0.0
143
0.0393701
144
1.0
145
0.0
146
0.71
147
1.5
 71
     0
 72
     0
 73
     0
 74
     1
 75
     0
 76
     0
 77
     3
 78
     8
170
     0
171
     2
172
     0
173
     0
174
     0
175
     0
176
   256
177
   256
178
     2
270
     2
271
     2
272
     3
273
     2
274
     2
340
6B
275
     0
280
     0
281
     0
282
     0
283
     0
284
     0
285
     0
286
     0
287
     0
288
     1
  0
DIMSTYLE
105
60
330
A
100
AcDbSymbolTableRecord
100
AcDbDimStyleTableRecord
  2
AM_JIS$4
 70
     0
  3

  4
"
  5
OPEN30
  6

  7

 40
0.5
 41
2.5
 42
1.0
 43
10.0
 44
1.0
 45
0.0
 46
0.0
 47
0.1
 48
0.1
140
3.2
141
0.0
142
0.0
143
0.0393701
144
1.0
145
0.0
146
0.71
147
1.5
 71
     0
 72
     0
 73
     0
 74
     1
 75
     0
 76
     0
 77
     3
 78
     8
170
     0
171
     2
172
     0
173
     0
174
     0
175
     0
176
   256
177
   256
178
     2
270
     2
271
     2
272
     3
273
     2
274
     2
340
6B
275
     0
280
     0
281
     0
282
     0
283
     0
284
     0
285
     0
286
     0
287
     0
288
     1
  0
DIMSTYLE
105
61
330
A
100
AcDbSymbolTableRecord
100
AcDbDimStyleTableRecord
  2
AM_JIS$6
 70
     0
  3

  4
"
  5
OPEN30
  6

  7

 40
0.5
 41
2.5
 42
1.0
 43
10.0
 44
1.0
 45
0.0
 46
0.0
 47
0.1
 48
0.1
140
3.2
141
0.0
142
0.0
143
0.0393701
144
1.0
145
0.0
146
0.71
147
1.5
 71
     0
 72
     0
 73
     0
 74
     0
 75
     0
 76
     0
 77
     0
 78
     8
170
     0
171
     2
172
     1
173
     0
174
     0
175
     0
176
   256
177
   256
178
     2
270
     2
271
     2
272
     2
273
     2
274
     2
340
6B
275
     0
280
     0
281
     0
282
     0
283
     0
284
     0
285
     0
286
     0
287
     3
288
     0
  0
DIMSTYLE
105
62
330
A
100
AcDbSymbolTableRecord
100
AcDbDimStyleTableRecord
  2
AM_JIS$7
 70
     0
  3

  4
"
  5
OPEN30
  6

  7

 40
0.5
 41
2.5
 42
1.0
 43
10.0
 44
1.0
 45
0.0
 46
0.0
 47
0.1
 48
0.1
140
3.2
141
0.0
142
0.0
143
0.0393701
144
1.0
145
0.0
146
0.71
147
1.5
 71
     0
 72
     0
 73
     0
 74
     0
 75
     0
 76
     0
 77
     3
 78
     8
170
     0
171
     2
172
     1
173
     0
174
     0
175
     0
176
   256
177
   256
178
     2
270
     2
271
     2
272
     3
273
     2
274
     2
340
6B
275
     0
280
     0
281
     0
282
     0
283
     0
284
     0
285
     0
286
     0
287
     3
288
     0
  0
DIMSTYLE
105
63
330
A
100
AcDbSymbolTableRecord
100
AcDbDimStyleTableRecord
  2
AM_JIS$SF
 70
     0
  3

  4
"
  5
OPEN30
  6

  7

 40
0.5
 41
2.5
 42
1.0
 43
10.0
 44
1.0
 45
0.0
 46
0.0
 47
0.1
 48
0.1
140
3.2
141
0.0
142
0.0
143
0.0393701
144
1.0
145
0.0
146
0.71
147
1.5
 71
     0
 72
     0
 73
     0
 74
     0
 75
     1
 76
     1
 77
     3
 78
     8
170
     0
171
     2
172
     1
173
     0
174
     0
175
     0
176
   256
177
   256
178
     2
270
     2
271
     2
272
     2
273
     2
274
     2
340
6B
275
     0
280
     0
281
     0
282
     0
283
     0
284
     0
285
     0
286
     0
287
     3
288
     0
  0
DIMSTYLE
105
68
330
A
100
AcDbSymbolTableRecord
100
AcDbDimStyleTableRecord
  2
AM_JIS$SH
 70
     0
  3

  4
"
  5

  6
GENAXEH
  7
OPEN30
 40
0.5
 41
2.5
 42
1.0
 43
10.0
 44
1.0
 45
0.0
 46
0.0
 47
0.1
 48
0.1
140
3.2
141
0.0
142
0.0
143
0.0393701
144
2.0
145
0.0
146
0.71
147
1.5
 71
     0
 72
     0
 73
     0
 74
     0
 75
     1
 76
     1
 77
     3
 78
     8
170
     0
171
     2
172
     1
173
     1
174
     0
175
     0
176
   256
177
   256
178
     2
270
     2
271
     2
272
     2
273
     2
274
     2
340
6B
275
     0
280
     0
281
     0
282
     0
283
     0
284
     0
285
     0
286
     0
287
     3
288
     0
  0
DIMSTYLE
105
B34
102
{ACAD_REACTORS
330
3725
102
}
330
A
100
AcDbSymbolTableRecord
100
AcDbDimStyleTableRecord
  2
AM_JIS$2
 70
     0
  3

  4
"
  5
OPEN30
  6

  7

 40
0.5
 41
2.5
 42
1.0
 43
12.0
 44
1.0
 45
0.0
 46
0.0
 47
0.1
 48
0.1
140
3.2
141
0.0
142
0.0
143
0.0393701
144
1.0
145
0.0
146
0.71
147
1.5
 71
     0
 72
     0
 73
     0
 74
     0
 75
     0
 76
     0
 77
     3
 78
     8
170
     0
171
     2
172
     1
173
     0
174
     0
175
     0
176
   256
177
   256
178
     2
270
     2
271
     3
272
     3
273
     2
274
     2
340
6B
275
     0
280
     0
281
     0
282
     0
283
     0
284
     0
285
     0
286
     0
287
     3
288
     0
  0
DIMSTYLE
105
BA5
102
{ACAD_REACTORS
330
CC6
330
2069
330
2D60
330
324F
102
}
330
A
100
AcDbSymbolTableRecord
100
AcDbDimStyleTableRecord
  2
AM_JIS$0
 70
     0
  3

  4
"
  5
OPEN30
  6

  7

 40
0.5
 41
2.5
 42
0.0
 43
10.0
 44
1.0
 45
0.0
 46
0.0
 47
0.1
 48
0.1000000001
140
3.799999999999999
141
0.0
142
0.0
143
0.0393701
144
1.0
145
0.0
146
0.71
147
1.5
 71
     0
 72
     0
 73
     0
 74
     0
 75
     0
 76
     0
 77
     3
 78
     1
170
     0
171
     2
172
     1
173
     0
174
     0
175
     0
176
     3
177
     3
178
     2
270
     2
271
     2
272
     2
273
     2
274
     2
340
11
275
     1
280
     0
281
     0
282
     0
283
     0
284
     8
285
     0
286
     0
287
     0
288
     0
  0
ENDTAB
  0
TABLE
  2
BLOCK_RECORD
  5
1
330
0
100
AcDbSymbolTable
 70
    10
  0
BLOCK_RECORD
  5
1F
102
{ACAD_XDICTIONARY
360
74
102
}
330
1
100
AcDbSymbolTableRecord
100
AcDbBlockTableRecord
  2
*MODEL_SPACE
  0
BLOCK_RECORD
  5
101
102
{ACAD_XDICTIONARY
360
3BEF
102
}
330
1
100
AcDbSymbolTableRecord
100
AcDbBlockTableRecord
  2
*PAPER_SPACE
  0
BLOCK_RECORD
  5
59
330
1
100
AcDbSymbolTableRecord
100
AcDbBlockTableRecord
  2
_OPEN30
  0
BLOCK_RECORD
  5
64
330
1
100
AcDbSymbolTableRecord
100
AcDbBlockTableRecord
  2
GENAXEH
  0
BLOCK_RECORD
  5
CC8
330
1
100
AcDbSymbolTableRecord
100
AcDbBlockTableRecord
  2
*D5
  0
BLOCK_RECORD
  5
206A
330
1
100
AcDbSymbolTableRecord
100
AcDbBlockTableRecord
  2
*D6
  0
BLOCK_RECORD
  5
2D61
330
1
100
AcDbSymbolTableRecord
100
AcDbBlockTableRecord
  2
*D7
  0
BLOCK_RECORD
  5
3250
330
1
100
AcDbSymbolTableRecord
100
AcDbBlockTableRecord
  2
*D8
  0
BLOCK_RECORD
  5
3726
330
1
100
AcDbSymbolTableRecord
100
AcDbBlockTableRecord
  2
*D9
  0
ENDTAB
  0
ENDSEC
  0
SECTION
  2
BLOCKS
  0
BLOCK
  5
20
330
1F
100
AcDbEntity
  8
0
100
AcDbBlockBegin
  2
*MODEL_SPACE
 70
     0
 10
0.0
 20
0.0
 30
0.0
  3
*MODEL_SPACE
  1

  0
ENDBLK
  5
21
330
1F
100
AcDbEntity
  8
0
100
AcDbBlockEnd
  0
BLOCK
  5
103
330
101
100
AcDbEntity
 67
     1
  8
0
100
AcDbBlockBegin
  2
*PAPER_SPACE
 70
     0
 10
0.0
 20
0.0
 30
0.0
  3
*PAPER_SPACE
  1

  0
ENDBLK
  5
104
330
101
100
AcDbEntity
 67
     1
  8
0
100
AcDbBlockEnd
  0
BLOCK
  5
5D
330
59
100
AcDbEntity
  8
0
100
AcDbBlockBegin
  2
_OPEN30
 70
     0
 10
0.0
 20
0.0
 30
0.0
  3
_OPEN30
  1

  0
LINE
  5
5A
330
59
100
AcDbEntity
  8
0
 62
     0
100
AcDbLine
 10
-1.0
 20
0.26794919
 30
0.0
 11
0.0
 21
0.0
 31
0.0
  0
LINE
  5
5B
330
59
100
AcDbEntity
  8
0
 62
     0
100
AcDbLine
 10
0.0
 20
0.0
 30
0.0
 11
-1.0
 21
-0.26794919
 31
0.0
  0
LINE
  5
5C
330
59
100
AcDbEntity
  8
0
 62
     0
100
AcDbLine
 10
0.0
 20
0.0
 30
0.0
 11
-1.0
 21
0.0
 31
0.0
  0
ENDBLK
  5
5E
330
59
100
AcDbEntity
  8
0
100
AcDbBlockEnd
  0
BLOCK
  5
66
330
64
100
AcDbEntity
  8
0
100
AcDbBlockBegin
  2
GENAXEH
 70
     0
 10
0.0
 20
0.0
 30
0.0
  3
GENAXEH
  1

  0
LINE
  5
65
330
64
100
AcDbEntity
  8
0
100
AcDbLine
 10
-1.0
 20
0.0
 30
0.0
 11
1.0
 21
0.0
 31
0.0
  0
ENDBLK
  5
67
330
64
100
AcDbEntity
  8
0
100
AcDbBlockEnd
  0
BLOCK
  5
CD2
330
CC8
100
AcDbEntity
  8
0
100
AcDbBlockBegin
  2
*D5
 70
     1
 10
0.0
 20
0.0
 30
0.0
  3
*D5
  1

  0
LINE
  5
3B72
330
CC8
100
AcDbEntity
  8
AM_5
 62
     3
100
AcDbLine
 10
-130.0
 20
-5.999999999999373
 30
0.0
 11
-130.0
 21
-19.00000099999951
 31
0.0
  0
LINE
  5
3B73
330
CC8
100
AcDbEntity
  8
AM_5
 62
     3
100
AcDbLine
 10
-2.000000000000208
 20
-6.299999999999949
 30
0.0
 11
-2.000000000000209
 21
-19.00000099999951
 31
0.0
  0
LINE
  5
3B74
330
CC8
100
AcDbEntity
  8
AM_5
 62
     3
100
AcDbLine
 10
-128.75
 20
-18.50000099999951
 30
0.0
 11
-3.250000000000209
 21
-18.50000099999951
 31
0.0
  0
INSERT
  5
3B75
330
CC8
100
AcDbEntity
  8
AM_5
 62
     3
100
AcDbBlockReference
  2
_OPEN30
 10
-130.0
 20
-18.50000099999951
 30
0.0
 41
1.25
 42
1.25
 43
1.25
 50
180.0
  0
INSERT
  5
3B76
330
CC8
100
AcDbEntity
  8
AM_5
 62
     3
100
AcDbBlockReference
  2
_OPEN30
 10
-2.000000000000209
 20
-18.50000099999951
 30
0.0
 41
1.25
 42
1.25
 43
1.25
  0
MTEXT
  5
3B77
330
CC8
100
AcDbEntity
  8
AM_5
 62
     2
100
AcDbMText
 10
-66.0000000000001
 20
-16.80000099999952
 30
0.0
 40
1.9
 41
0.0
 71
     5
 72
     1
  1
128
1001
ACAD
1000
MTEXTBEGIN
1070
    73
1070
     1
1070
    44
1040
1.0
1070
    74
1070
     0
1000
MTEXTEND
  0
POINT
  5
3B78
330
CC8
100
AcDbEntity
  8
DEFPOINTS
 62
     0
100
AcDbPoint
 10
-130.0
 20
-5.999999999999373
 30
0.0
  0
POINT
  5
3B79
330
CC8
100
AcDbEntity
  8
DEFPOINTS
 62
     0
100
AcDbPoint
 10
-2.000000000000208
 20
-6.299999999999949
 30
0.0
  0
POINT
  5
3B7A
330
CC8
100
AcDbEntity
  8
DEFPOINTS
 62
     0
100
AcDbPoint
 10
-2.000000000000209
 20
-18.50000099999951
 30
0.0
  0
ENDBLK
  5
CD3
330
CC8
100
AcDbEntity
  8
0
100
AcDbBlockEnd
  0
BLOCK
  5
2074
330
206A
100
AcDbEntity
  8
0
100
AcDbBlockBegin
  2
*D6
 70
     1
 10
0.0
 20
0.0
 30
0.0
  3
*D6
  1

  0
LINE
  5
3B8F
330
206A
100
AcDbEntity
  8
AM_5
 62
     3
100
AcDbLine
 10
-66.99999999999959
 20
-6.499999999999637
 30
0.0
 11
-66.99999999999956
 21
-14.00000099999966
 31
0.0
  0
LINE
  5
3B90
330
206A
100
AcDbEntity
  8
AM_5
 62
     3
100
AcDbLine
 10
-2.00000000000019
 20
-6.299999999999955
 30
0.0
 11
-2.000000000000168
 21
-14.00000099999948
 31
0.0
  0
LINE
  5
3B91
330
206A
100
AcDbEntity
  8
AM_5
 62
     3
100
AcDbLine
 10
-65.74999999999956
 20
-13.50000099999966
 30
0.0
 11
-3.25000000000017
 21
-13.50000099999948
 31
0.0
  0
INSERT
  5
3B92
330
206A
100
AcDbEntity
  8
AM_5
 62
     3
100
AcDbBlockReference
  2
_OPEN30
 10
-66.99999999999956
 20
-13.50000099999967
 30
0.0
 41
1.25
 42
1.25
 43
1.25
 50
180.0000000000001
  0
INSERT
  5
3B93
330
206A
100
AcDbEntity
  8
AM_5
 62
     3
100
AcDbBlockReference
  2
_OPEN30
 10
-2.00000000000017
 20
-13.50000099999947
 30
0.0
 41
1.25
 42
1.25
 43
1.25
 50
0.0000000000001527
  0
MTEXT
  5
3B94
330
206A
100
AcDbEntity
  8
AM_5
 62
     2
100
AcDbMText
 10
-34.49999999999987
 20
-11.80000099999957
 30
0.0
 40
1.9
 41
0.0
 71
     5
 72
     1
  1
65
1001
ACAD
1000
MTEXTBEGIN
1070
    73
1070
     1
1070
    44
1040
1.0
1070
    74
1070
     0
1000
MTEXTEND
  0
POINT
  5
3B95
330
206A
100
AcDbEntity
  8
DEFPOINTS
 62
     0
100
AcDbPoint
 10
-66.9999999999996
 20
-6.499999999999443
 30
0.0
  0
POINT
  5
3B96
330
206A
100
AcDbEntity
  8
DEFPOINTS
 62
     0
100
AcDbPoint
 10
-2.000000000000208
 20
-6.299999999999949
 30
0.0
  0
POINT
  5
3B97
330
206A
100
AcDbEntity
  8
DEFPOINTS
 62
     0
100
AcDbPoint
 10
-2.000000000000209
 20
-13.50000099999947
 30
0.0
  0
ENDBLK
  5
2075
330
206A
100
AcDbEntity
  8
0
100
AcDbBlockEnd
  0
BLOCK
  5
2D6B
330
2D61
100
AcDbEntity
  8
0
100
AcDbBlockBegin
  2
*D7
 70
     1
 10
0.0
 20
0.0
 30
0.0
  3
*D7
  1

  0
LINE
  5
3B98
330
2D61
100
AcDbEntity
  8
AM_5
 62
     3
100
AcDbLine
 10
-1.999999999999912
 20
6.299999999999993
 30
0.0
 11
9.819923144954447
 21
6.299958510228644
 31
0.0
  0
LINE
  5
3B99
330
2D61
100
AcDbEntity
  8
AM_5
 62
     3
100
AcDbLine
 10
-2.00000000000019
 20
-6.299999999999955
 30
0.0
 11
9.819878916991832
 21
-6.300041489616057
 31
0.0
  0
LINE
  5
3B9A
330
2D61
100
AcDbEntity
  8
AM_5
 62
     3
100
AcDbLine
 10
9.319918757262826
 20
5.049960265314227
 30
0.0
 11
9.319883304689618
 21
-5.050039734545875
 31
0.0
  0
INSERT
  5
3B9B
330
2D61
100
AcDbEntity
  8
AM_5
 62
     3
100
AcDbBlockReference
  2
_OPEN30
 10
9.319923144957529
 20
6.299960265306526
 30
0.0
 41
1.25
 42
1.25
 43
1.25
 50
89.99979888288931
  0
INSERT
  5
3B9C
330
2D61
100
AcDbEntity
  8
AM_5
 62
     3
100
AcDbBlockReference
  2
_OPEN30
 10
9.319878916994912
 20
-6.300039734538175
 30
0.0
 41
1.25
 42
1.25
 43
1.25
 50
269.9997988828893
  0
MTEXT
  5
3B9D
330
2D61
100
AcDbEntity
  8
AM_5
 62
     2
100
AcDbMText
 10
7.619901030986694
 20
-0.0000337673510271
 30
0.0
 40
1.9
 41
0.0
 71
     5
 72
     1
  1
%%c12.6
 11
0.0000035101557632
 21
0.9999999999938395
 31
0.0
1001
ACAD
1000
MTEXTBEGIN
1070
    73
1070
     1
1070
    44
1040
1.0
1070
    74
1070
     0
1000
MTEXTEND
  0
POINT
  5
3B9E
330
2D61
100
AcDbEntity
  8
DEFPOINTS
 62
     0
100
AcDbPoint
 10
-1.999999999999893
 20
6.299999999999998
 30
0.0
  0
POINT
  5
3B9F
330
2D61
100
AcDbEntity
  8
DEFPOINTS
 62
     0
100
AcDbPoint
 10
-2.000000000000209
 20
-6.299999999999949
 30
0.0
  0
POINT
  5
3BA0
330
2D61
100
AcDbEntity
  8
DEFPOINTS
 62
     0
100
AcDbPoint
 10
9.319878916994897
 20
-6.300039734538201
 30
0.0
  0
ENDBLK
  5
2D6C
330
2D61
100
AcDbEntity
  8
0
100
AcDbBlockEnd
  0
BLOCK
  5
325A
330
3250
100
AcDbEntity
  8
0
100
AcDbBlockBegin
  2
*D8
 70
     1
 10
0.0
 20
0.0
 30
0.0
  3
*D8
  1

  0
LINE
  5
3B7B
330
3250
100
AcDbEntity
  8
AM_5
 62
     3
100
AcDbLine
 10
-129.4999999999999
 20
-6.499999999999978
 30
0.0
 11
-140.000001
 21
-6.500000000000023
 31
0.0
  0
LINE
  5
3B7C
330
3250
100
AcDbEntity
  8
AM_5
 62
     3
100
AcDbLine
 10
-129.4999999999999
 20
6.500000000000016
 30
0.0
 11
-140.000001
 21
6.49999999999997
 31
0.0
  0
LINE
  5
3B7D
330
3250
100
AcDbEntity
  8
AM_5
 62
     3
100
AcDbLine
 10
-139.5000009999999
 20
-5.250000000000022
 30
0.0
 11
-139.500001
 21
5.249999999999972
 31
0.0
  0
INSERT
  5
3B7E
330
3250
100
AcDbEntity
  8
AM_5
 62
     3
100
AcDbBlockReference
  2
_OPEN30
 10
-139.5000009999999
 20
-6.500000000000022
 30
0.0
 41
1.25
 42
1.25
 43
1.25
 50
270.0000000000002
  0
INSERT
  5
3B7F
330
3250
100
AcDbEntity
  8
AM_5
 62
     3
100
AcDbBlockReference
  2
_OPEN30
 10
-139.500001
 20
6.499999999999972
 30
0.0
 41
1.25
 42
1.25
 43
1.25
 50
90.00000000000026
  0
MTEXT
  5
3B80
330
3250
100
AcDbEntity
  8
AM_5
 62
     2
100
AcDbMText
 10
-141.200001
 20
0.0000129000659151
 30
0.0
 40
1.9
 41
0.0
 71
     5
 72
     1
  1
%%c13
 11
-0.0000000000000046
 21
1.0
 31
0.0
1001
ACAD
1000
MTEXTBEGIN
1070
    73
1070
     1
1070
    44
1040
1.0
1070
    74
1070
     0
1000
MTEXTEND
  0
POINT
  5
3B81
330
3250
100
AcDbEntity
  8
DEFPOINTS
 62
     0
100
AcDbPoint
 10
-129.4999999999999
 20
-6.499999999999374
 30
0.0
  0
POINT
  5
3B82
330
3250
100
AcDbEntity
  8
DEFPOINTS
 62
     0
100
AcDbPoint
 10
-129.4999999999999
 20
6.500000000000619
 30
0.0
  0
POINT
  5
3B83
330
3250
100
AcDbEntity
  8
DEFPOINTS
 62
     0
100
AcDbPoint
 10
-139.500001
 20
6.500000000000623
 30
0.0
  0
ENDBLK
  5
325B
330
3250
100
AcDbEntity
  8
0
100
AcDbBlockEnd
  0
BLOCK
  5
3734
330
3726
100
AcDbEntity
  8
0
100
AcDbBlockBegin
  2
*D9
 70
     1
 10
0.0
 20
0.0
 30
0.0
  3
*D9
  1

  0
LINE
  5
3BF1
330
3726
100
AcDbEntity
  8
AM_5
100
AcDbLine
 10
0.1710100704080625
 20
-0.4698463108496492
 30
0.0
 11
5.189778949485474
 21
-14.25880059415446
 31
0.0
  0
LINE
  5
3BF2
330
3726
100
AcDbEntity
  8
AM_5
100
AcDbLine
 10
0.1710111111829758
 20
0.4698459320372783
 30
0.0
 11
5.189810534711562
 21
14.25878909803283
 31
0.0
  0
ARC
  5
3BF3
330
3726
100
AcDbEntity
  8
AM_5
100
AcDbCircle
 10
-0.0000000000000066
 20
0.0000000000000104
 30
0.0
 40
14.67389863971625
100
AcDbArc
 50
294.8822331551941
 51
65.11763992663564
  0
INSERT
  5
3BF4
330
3726
100
AcDbEntity
  8
AM_5
100
AcDbBlockReference
  2
_OPEN30
 10
5.018768879077408
 20
-13.78895428330481
 30
0.0
 41
1.25
 42
1.25
 43
1.25
 50
202.4411165010902
  0
INSERT
  5
3BF5
330
3726
100
AcDbEntity
  8
AM_5
100
AcDbBlockReference
  2
_OPEN30
 10
5.018799423528582
 20
13.78894316599557
 30
0.0
 41
1.25
 42
1.25
 43
1.25
 50
157.5587565807396
  0
MTEXT
  5
3BF6
330
3726
100
AcDbEntity
  8
AM_5
 62
     2
100
AcDbMText
 10
13.12389863970819
 20
-0.0000145356360774
 30
0.0
 40
1.6
 41
0.0
 71
     5
 72
     1
  1
140°
  7
ASAMI
 11
0.0000011075699733
 21
0.9999999999993868
 31
0.0
  0
POINT
  5
3BF7
330
3726
100
AcDbEntity
  8
DEFPOINTS
 62
     0
100
AcDbPoint
 10
13.47380578504862
 20
-5.812044300885567
 30
0.0
  0
POINT
  5
3BF8
330
3726
100
AcDbEntity
  8
DEFPOINTS
 62
     0
100
AcDbPoint
 10
-0.0000000000000041
 20
0.0000000000000173
 30
0.0
  0
POINT
  5
3BF9
330
3726
100
AcDbEntity
  8
DEFPOINTS
 62
     0
100
AcDbPoint
 10
-0.0000000000000039
 20
0.0000000000000031
 30
0.0
  0
POINT
  5
3BFA
330
3726
100
AcDbEntity
  8
DEFPOINTS
 62
     0
100
AcDbPoint
 10
-0.7533911495306698
 20
2.069925188552341
 30
0.0
  0
POINT
  5
3BFB
330
3726
100
AcDbEntity
  8
DEFPOINTS
 62
     0
100
AcDbPoint
 10
-0.7534062090557706
 20
-2.069952297530539
 30
0.0
  0
ENDBLK
  5
3735
330
3726
100
AcDbEntity
  8
0
100
AcDbBlockEnd
  0
ENDSEC
  0
SECTION
  2
ENTITIES
  0
LINE
  5
C1D
330
1F
100
AcDbEntity
  8
AM_0
 48
0.5
100
AcDbLine
 10
-0.0000000000000039
 20
0.0000000000000031
 30
0.0
 11
-0.7533911495306698
 21
2.069925188552341
 31
0.0
  0
LINE
  5
C20
330
1F
100
AcDbEntity
  8
AM_0
 48
0.5
100
AcDbLine
 10
-0.0000000000000039
 20
0.0000000000000031
 30
0.0
 11
-0.7534062090557705
 21
-2.069952297530539
 31
0.0
  0
DIMENSION
  5
CC6
330
1F
100
AcDbEntity
  8
AM_5
100
AcDbDimension
  2
*D5
 10
-2.000000000000209
 20
-18.50000099999951
 30
0.0
 11
-66.0000000000001
 21
-16.80000099999952
 31
0.0
 70
    32
  1
<>
  3
AM_JIS$0
100
AcDbAlignedDimension
 13
-130.0
 23
-5.999999999999373
 33
0.0
 14
-2.000000000000208
 24
-6.299999999999949
 34
0.0
 50
0.0000000000001132
100
AcDbRotatedDimension
1001
GENIUS_GENDTOL_13
1000

1000
h7
1000

1040
0.0
1001
ACAD
1000
DSTYLE
1002
{
1070
   271
1070
     0
1002
}
  0
TEXT
  5
19BD
330
1F
100
AcDbEntity
  8
AM_6
100
AcDbText
 10
-77.01190476190468
 20
-29.75000099999954
 30
0.0
 40
2.5
  1
MDW126MHK
 50
0.0000000000001527
 72
     4
 11
-65.99999999999993
 21
-28.50000099999951
 31
0.0
100
AcDbText
  0
DIMENSION
  5
2069
330
1F
100
AcDbEntity
  8
AM_5
100
AcDbDimension
  2
*D6
 10
-2.000000000000209
 20
-13.50000099999947
 30
0.0
 11
-34.4999999999999
 21
-11.80000099999947
 31
0.0
 70
    32
  1
<>
 51
359.9999999999998
  3
AM_JIS$0
100
AcDbAlignedDimension
 13
-66.9999999999996
 23
-6.499999999999443
 33
0.0
 14
-2.000000000000208
 24
-6.299999999999949
 34
0.0
 50
0.0000000000001527
100
AcDbRotatedDimension
1001
ACAD
1000
DSTYLE
1002
{
1070
   271
1070
     0
1070
   174
1070
     1
1002
}
1001
GENIUS_GENDTOL_13
1000

1000
h7
1000

1040
0.0
  0
LINE
  5
23EF
330
1F
100
AcDbEntity
  8
AM_7
100
AcDbLine
 10
-132.4999999999999
 20
0.0000000000006444
 30
0.0
 11
2.319900031072555
 21
-0.0000000000000082
 31
0.0
1001
GENIUS_GENODEF_13
1002
{
1000
HIER
1070
     0
1002
}
1002
{
1000
MANEDIT
1070
     0
1002
}
1002
{
1000
NOSEL
1070
     0
1002
}
1002
{
1000
BEHIND
1070
     0
1002
}
1002
{
1000
REACTOR
1002
}
1001
GENIUS_GENOBJ-N-CEN_13
1002
{
1000
OWNER
1000
GEN
1002
}
  0
LINE
  5
24A7
330
1F
100
AcDbEntity
  8
AM_0
 48
0.5
100
AcDbLine
 10
-1.511951370066558
 20
5.265455106715786
 30
0.0
 11
-1.999999999999893
 21
6.299999999999998
 31
0.0
  0
ELLIPSE
  5
24B7
330
1F
100
AcDbEntity
  8
AM_11
 48
0.5
100
AcDbEllipse
 10
-20.48047175224786
 20
23.7512400771254
 30
0.0
 11
-27.41493431727054
 21
0.0000000000002086
 31
0.0
210
0.0
220
0.0
230
1.0
 40
0.9578947368421056
 41
1.130070686340284
 42
2.011520147323574
  0
ELLIPSE
  5
24B8
330
1F
100
AcDbEntity
  8
AM_11
 48
0.5
100
AcDbEllipse
 10
-20.48047175224916
 20
-23.75122283592519
 30
0.0
 11
-27.4149343172705
 21
0.0000000000001234
 31
0.0
210
0.0
220
0.0
230
1.0
 40
0.9578947368421054
 41
4.271664206181664
 42
5.153113667164971
  0
ELLIPSE
  5
24B9
330
1F
100
AcDbEntity
  8
AM_11
 48
0.5
100
AcDbEllipse
 10
2.909679762903679
 20
23.75124007712479
 30
0.0
 11
-27.41493431727048
 21
0.0000000000021444
 31
0.0
210
0.0
220
0.0
230
1.0
 40
0.9578947368421141
 41
1.130070686340349
 42
1.291800737381041
  0
ELLIPSE
  5
24BE
330
1F
100
AcDbEntity
  8
AM_0
 48
0.5
100
AcDbEllipse
 10
8.843549875891998
 20
7.479628075874693
 30
0.0
 11
6.279624308223261
 21
9.471465715656009
 31
0.0
210
0.0
220
0.0
230
1.0
 40
0.8737399835012123
 41
2.299539807783199
 42
2.612789724792156
  0
ELLIPSE
  5
24C7
330
1F
100
AcDbEntity
  8
AM_11
 48
0.5
100
AcDbEllipse
 10
-90.65092629769583
 20
23.7512400771272
 30
0.0
 11
-27.41493431727054
 21
0.0000000000006104
 31
0.0
210
0.0
220
0.0
230
1.0
 40
0.9578947368421056
 41
1.130070686340301
 42
2.011520147323591
  0
ELLIPSE
  5
24C8
330
1F
100
AcDbEntity
  8
AM_11
 48
0.5
100
AcDbEllipse
 10
-90.65092629769717
 20
-23.75122283592341
 30
0.0
 11
27.4149343172705
 21
0.0000000000004582
 31
0.0
210
0.0
220
0.0
230
1.0
 40
0.957894736842107
 41
1.13007155259185
 42
2.011521013575156
  0
ELLIPSE
  5
24D4
330
1F
100
AcDbEntity
  8
AM_11
 48
0.5
100
AcDbEllipse
 10
-67.26077478254433
 20
23.75124007712662
 30
0.0
 11
-27.41493431727058
 21
0.0000000000001599
 31
0.0
210
0.0
220
0.0
230
1.0
 40
0.9578947368421051
 41
1.130070686340283
 42
2.011520147323574
  0
ELLIPSE
  5
24D5
330
1F
100
AcDbEntity
  8
AM_11
 48
0.5
100
AcDbEllipse
 10
-67.26077478254564
 20
-23.75122283592398
 30
0.0
 11
-27.41493431727046
 21
0.0000000000004948
 31
0.0
210
0.0
220
0.0
230
1.0
 40
0.9578947368421083
 41
4.271664206181676
 42
5.153113667164986
  0
ELLIPSE
  5
24E6
330
1F
100
AcDbEntity
  8
AM_11
 48
0.5
100
AcDbEllipse
 10
-43.87062326740068
 20
-23.7512228359246
 30
0.0
 11
-27.41493431727049
 21
0.0000000000007443
 31
0.0
210
0.0
220
0.0
230
1.0
 40
0.9578947368421058
 41
4.271664206181685
 42
5.153113667164993
  0
ELLIPSE
  5
24E7
330
1F
100
AcDbEntity
  8
AM_11
 48
0.5
100
AcDbEllipse
 10
-43.87062326739936
 20
23.751240077126
 30
0.0
 11
27.41493431727055
 21
0.0000000000000443
 31
0.0
210
0.0
220
0.0
230
1.0
 40
0.9578947368421051
 41
4.271663339930067
 42
5.153112800913361
  0
LINE
  5
2572
330
1F
100
AcDbEntity
  8
AM_0
100
AcDbLine
 10
-66.65359243071186
 20
6.300000831448116
 30
0.0
 11
-66.65361196448616
 21
0.5020130542148092
 31
0.0
  0
ELLIPSE
  5
2BF3
330
1F
100
AcDbEntity
  8
AM_11
 48
0.5
100
AcDbEllipse
 10
-114.0410778128377
 20
23.75124007712646
 30
0.0
 11
-27.41493431727058
 21
0.0000000000001599
 31
0.0
210
0.0
220
0.0
230
1.0
 40
0.9578947368421051
 41
1.130070686340283
 42
2.011520147323574
  0
ELLIPSE
  5
2BF5
330
1F
100
AcDbEntity
  8
AM_11
 48
0.5
100
AcDbEllipse
 10
-114.041077812839
 20
-23.75122283592414
 30
0.0
 11
-27.41493431727046
 21
0.0000000000004948
 31
0.0
210
0.0
220
0.0
230
1.0
 40
0.9578947368421083
 41
4.271664206181676
 42
5.153113667164986
  0
LINE
  5
2C0E
330
1F
100
AcDbEntity
  8
AM_0
 48
0.5
100
AcDbLine
 10
-66.99999999999997
 20
-6.499999999999442
 30
0.0
 11
-66.99999999999997
 21
6.500000000000551
 31
0.0
  0
DIMENSION
  5
2D60
330
1F
100
AcDbEntity
  8
AM_5
100
AcDbDimension
  2
*D7
 10
9.319878916994897
 20
-6.300039734538201
 30
0.0
 11
7.619901030986694
 21
-0.0000337673510493
 31
0.0
 70
    32
  1
%%c<>
 51
359.9999999999998
  3
AM_JIS$0
100
AcDbAlignedDimension
 13
-1.999999999999893
 23
6.299999999999998
 33
0.0
 14
-2.000000000000208
 24
-6.299999999999949
 34
0.0
 50
89.99979888288933
100
AcDbRotatedDimension
1001
ACAD
1000
DSTYLE
1002
{
1070
   271
1070
     1
1002
}
1001
GENIUS_GENDTOL_13
1000

1000
h7
1000

1040
0.0
  0
LINE
  5
2FB7
330
1F
100
AcDbEntity
  8
AM_0
100
AcDbLine
 10
-66.99999999999997
 20
6.500000000000531
 30
0.0
 11
-66.65359243071186
 21
6.300001496622721
 31
0.0
  0
LINE
  5
2FB9
330
1F
100
AcDbEntity
  8
AM_0
100
AcDbLine
 10
-66.99999999999994
 20
-6.499999999999646
 30
0.0
 11
-66.65358926835549
 21
-6.299999670834545
 31
0.0
  0
LINE
  5
324C
330
1F
100
AcDbEntity
  8
AM_0
100
AcDbLine
 10
-129.4999999999999
 20
-6.499999999999374
 30
0.0
 11
-66.99999999999997
 21
-6.499999999999443
 31
0.0
  0
DIMENSION
  5
324F
330
1F
100
AcDbEntity
  8
AM_5
100
AcDbDimension
  2
*D8
 10
-139.500001
 20
6.500000000000623
 30
0.0
 11
-139.500001
 21
0.0000129000665765
 31
0.0
 70
   160
  1
%%c<>
 51
359.9999999999997
  3
AM_JIS$0
100
AcDbAlignedDimension
 13
-129.4999999999999
 23
-6.499999999999374
 33
0.0
 14
-129.4999999999999
 24
6.500000000000619
 34
0.0
 50
270.0
100
AcDbRotatedDimension
1001
ACAD
1000
DSTYLE
1002
{
1070
   271
1070
     0
1002
}
1001
GENIUS_GENDTOL_13
1000

1000
h7
1000

1040
0.0
  0
LINE
  5
325C
330
1F
100
AcDbEntity
  8
AM_0
 48
0.5
100
AcDbLine
 10
-129.4999999999999
 20
-6.499999999999367
 30
0.0
 11
-129.4999999999999
 21
6.500000000000619
 31
0.0
  0
LINE
  5
325D
330
1F
100
AcDbEntity
  8
AM_0
 48
0.5
100
AcDbLine
 10
-130.0
 20
-5.999999999999367
 30
0.0
 11
-129.9999999999999
 21
6.000000000000623
 31
0.0
  0
LINE
  5
325E
330
1F
100
AcDbEntity
  8
AM_0
100
AcDbLine
 10
-66.99999999999997
 20
6.500000000000552
 30
0.0
 11
-129.4999999999999
 21
6.500000000000624
 31
0.0
  0
LINE
  5
3273
330
1F
100
AcDbEntity
  8
AM_0
 48
0.5
100
AcDbLine
 10
-129.4999999999999
 20
-6.499999999999374
 30
0.0
 11
-130.0
 21
-5.999999999999373
 31
0.0
1001
GENIUS_GENFIL_13
1070
     0
1040
0.5
1040
0.5
1040
20.0
1040
0.0
1002
{
1002
}
1001
GENIUS_GENODEF_13
1002
{
1000
HIER
1070
     0
1002
}
1002
{
1000
MANEDIT
1070
     0
1002
}
1002
{
1000
NOSEL
1070
     0
1002
}
1002
{
1000
BEHIND
1070
     0
1002
}
1002
{
1000
REACTOR
1002
}
1001
GENIUS_GENOBJ-N-CHA_13
1002
{
1000
OWNER
1000
GEN
1002
}
  0
LINE
  5
327F
330
1F
100
AcDbEntity
  8
AM_0
 48
0.5
100
AcDbLine
 10
-129.4999999999999
 20
6.500000000000624
 30
0.0
 11
-129.9999999999999
 21
6.000000000000625
 31
0.0
1001
GENIUS_GENFIL_13
1070
     0
1040
0.5
1040
0.5
1040
20.0
1040
0.0
1002
{
1002
}
1001
GENIUS_GENODEF_13
1002
{
1000
HIER
1070
     0
1002
}
1002
{
1000
MANEDIT
1070
     0
1002
}
1002
{
1000
NOSEL
1070
     0
1002
}
1002
{
1000
BEHIND
1070
     0
1002
}
1002
{
1000
REACTOR
1002
}
1001
GENIUS_GENOBJ-N-CHA_13
1002
{
1000
OWNER
1000
GEN
1002
}
  0
ELLIPSE
  5
353A
330
1F
100
AcDbEntity
  8
AM_11
 48
0.5
100
AcDbEllipse
 10
-137.4311795875309
 20
-23.75122283592357
 30
0.0
 11
27.4149343172705
 21
0.0000000000004582
 31
0.0
210
0.0
220
0.0
230
1.0
 40
0.957894736842107
 41
1.13007155259185
 42
1.296298923048811
  0
ELLIPSE
  5
353B
330
1F
100
AcDbEntity
  8
AM_11
 48
0.5
100
AcDbEllipse
 10
-137.4311795875295
 20
23.75124007712704
 30
0.0
 11
-27.41493431727054
 21
0.0000000000006104
 31
0.0
210
0.0
220
0.0
230
1.0
 40
0.9578947368421056
 41
1.845293730540934
 42
2.011520147323591
  0
ELLIPSE
  5
36E9
330
1F
100
AcDbEntity
  8
AM_0
 48
0.5
100
AcDbEllipse
 10
8.843549875892049
 20
-7.479628075874665
 30
0.0
 11
6.279624308223326
 21
-9.471465715655966
 31
0.0
210
0.0
220
0.0
230
-1.0
 40
0.8737399835012123
 41
2.299539807783199
 42
2.612789724792156
  0
LINE
  5
36EA
330
1F
100
AcDbEntity
  8
AM_0
 48
0.5
100
AcDbLine
 10
-1.511951370066522
 20
-5.26545510671583
 30
0.0
 11
-2.000000000000208
 21
-6.299999999999949
 31
0.0
  0
DIMENSION
  5
3725
330
1F
100
AcDbEntity
  8
AM_5
100
AcDbDimension
  2
*D9
 10
-0.7534062090557705
 20
-2.069952297530539
 30
0.0
 11
13.12389863970819
 21
-0.0000145356361148
 31
0.0
 70
    34
  1
<>
 51
359.9999999999998
  3
AM_JIS$2
100
AcDb2LineAngularDimension
 13
-0.0000000000000039
 23
0.0000000000000031
 33
0.0
 14
-0.7533911495306698
 24
2.069925188552341
 34
0.0
 15
-0.0000000000000041
 25
0.0000000000000173
 35
0.0
 16
13.47380578504862
 26
-5.812044300885567
 36
0.0
1001
GENIUS_GENDTOL_13
1000

1000
h7
1000

1040
0.0
1001
ACAD
1000
DSTYLE
1002
{
1070
   271
1070
     1
1070
   179
1070
     1
1002
}
  0
LINE
  5
3AD9
330
1F
100
AcDbEntity
  8
AM_0
 48
0.5
100
AcDbLine
 10
-66.65358926835549
 20
-6.299999670834545
 30
0.0
 11
-64.81859927316616
 21
-6.299999987080649
 31
0.0
  0
LINE
  5
3ADA
330
1F
100
AcDbEntity
  8
AM_0
 48
0.5
100
AcDbLine
 10
-61.29482974956998
 20
6.30009888394389
 30
0.0
 11
-66.65359243071186
 21
6.30000149662272
 31
0.0
  0
LINE
  5
3ADB
330
1F
100
AcDbEntity
  8
AM_0
 48
0.5
100
AcDbLine
 10
-5.946789786811645
 20
6.300000000000169
 30
0.0
 11
-1.999999999999893
 21
6.299999999999998
 31
0.0
  0
LINE
  5
3ADC
330
1F
100
AcDbEntity
  8
AM_0
 48
0.5
100
AcDbLine
 10
-0.0000000000000039
 20
0.0000000000000031
 30
0.0
 11
-3.104006132456998
 21
2.419009287892055
 31
0.0
  0
LINE
  5
3ADD
330
1F
100
AcDbEntity
  8
AM_0
 48
0.5
100
AcDbLine
 10
-5.946789785399672
 20
-6.299999348581997
 30
0.0
 11
-2.000000000000199
 21
-6.299999999999959
 31
0.0
  0
LINE
  5
3ADE
330
1F
100
AcDbEntity
  8
AM_11
 48
0.5
100
AcDbLine
 10
-62.9293713966537
 20
6.300000000000643
 30
0.0
 11
-48.49827734157666
 21
6.300000000000514
 31
0.0
  0
LINE
  5
3ADF
330
1F
100
AcDbEntity
  8
AM_0
 48
0.5
100
AcDbLine
 10
-51.39877440017009
 20
2.991774891722911
 30
0.0
 11
-66.99999999999997
 21
0.4454786133755943
 31
0.0
  0
LINE
  5
3AE0
330
1F
100
AcDbEntity
  8
AM_11
 48
0.5
100
AcDbLine
 10
-64.81859927316616
 20
-6.299999987080649
 30
0.0
 11
-47.30057604680805
 21
-6.299999348580558
 31
0.0
  0
LINE
  5
3AE1
330
1F
100
AcDbEntity
  8
AM_0
 48
0.5
100
AcDbLine
 10
-48.49829461220623
 20
6.300000651419735
 30
0.0
 11
-25.99874323878527
 21
6.30000000000098
 31
0.0
  0
LINE
  5
3AE2
330
1F
100
AcDbEntity
  8
AM_0
 48
0.5
100
AcDbLine
 10
-47.49364535373888
 20
-6.299999348580553
 30
0.0
 11
-25.99874748895393
 21
-6.299999999999729
 31
0.0
  0
LINE
  5
3AE3
330
1F
100
AcDbEntity
  8
AM_11
 48
0.5
100
AcDbLine
 10
-25.99874748895393
 20
-6.299999999999729
 30
0.0
 11
-5.946789785399672
 21
-6.299999348581997
 31
0.0
  0
LINE
  5
3AE4
330
1F
100
AcDbEntity
  8
AM_11
 48
0.5
100
AcDbLine
 10
-25.99874323878527
 20
6.30000000000098
 30
0.0
 11
-5.946789786811646
 21
6.30000000000017
 31
0.0
  0
ELLIPSE
  5
3AE5
330
1F
100
AcDbEntity
  8
AM_0
 48
0.5
100
AcDbEllipse
 10
-65.23790867770464
 20
-3.764914101963821
 30
0.0
 11
1.35138198738205
 21
1.400308477437355
 31
0.0
210
0.0
220
0.0
230
1.0
 40
0.8102393452916668
 41
0.345870369919764
 42
2.495611804070923
  0
SPLINE
  5
3AE6
330
1F
100
AcDbEntity
  8
AM_0
 48
0.5
100
AcDbSpline
210
0.0
220
0.0
230
1.0
 70
     8
 71
     3
 72
    26
 73
    22
 74
     0
 42
0.0000000001
 43
0.0000000001
 40
0.0
 40
0.0
 40
0.0
 40
0.0
 40
0.8422864037471089
 40
1.685694647057321
 40
2.531315797913884
 40
3.380177287502886
 40
4.233214169721234
 40
5.09125020057522
 40
5.954967768899448
 40
6.824900391836836
 40
7.701419186604396
 40
8.584724417931369
 40
9.47485577056355
 40
10.37165251267315
 40
11.27486274211709
 40
12.18400675634887
 40
13.09851504074504
 40
14.01768673654235
 40
14.94071745659532
 40
15.8667176994736
 40
16.76607142455336
 40
16.76607142455336
 40
16.76607142455336
 40
16.76607142455336
 10
-44.32088170732816
 20
-6.300320434569104
 30
0.0
 10
-44.67555636197756
 20
-6.296572087359269
 30
0.0
 10
-45.38537806173382
 20
-6.289070400523481
 30
0.0
 10
-46.44985229295172
 20
-6.228598377835481
 30
0.0
 10
-47.51428108886816
 20
-6.132463672093495
 30
0.0
 10
-48.57864399544113
 20
-5.997727177352016
 30
0.0
 10
-49.64293044746611
 20
-5.826215043274658
 30
0.0
 10
-50.70711924022841
 20
-5.618689158570188
 30
0.0
 10
-51.77120966577064
 20
-5.376551648636234
 30
0.0
 10
-52.83519446701948
 20
-5.10127313475793
 30
0.0
 10
-53.89907112861188
 20
-4.794561674119966
 30
0.0
 10
-54.96284840629249
 20
-4.458326264364668
 30
0.0
 10
-56.02652189211565
 20
-4.094643050767117
 30
0.0
 10
-57.09010363780155
 20
-3.705742956343415
 30
0.0
 10
-58.15360786417101
 20
-3.294062784275566
 30
0.0
 10
-59.21703686905731
 20
-2.862099892578722
 30
0.0
 10
-60.28039857976486
 20
-2.412537967820985
 30
0.0
 10
-61.34371252368019
 20
-1.948150710017042
 30
0.0
 10
-62.4634836300782
 20
-1.569634695075558
 30
0.0
 10
-63.62854758295197
 20
-1.089181356280802
 30
0.0
 10
-64.52392036831483
 20
-0.6688066651823065
 30
0.0
 10
-66.99999999999997
 20
0.4454786133755943
 30
0.0
  0
ELLIPSE
  5
3AE7
330
1F
100
AcDbEntity
  8
AM_0
 48
0.5
100
AcDbEllipse
 10
-64.89482179370357
 20
-4.200320434568407
 30
0.0
 11
-1.589492241222363
 21
1.447957696148822
 31
0.0
210
0.0
220
0.0
230
1.0
 40
0.9566835295524224
 41
0.772167134800545
 42
2.323797365313099
  0
SPLINE
  5
3AE8
330
1F
100
AcDbEntity
  8
AM_0
100
AcDbSpline
210
0.0
220
0.0
230
1.0
 70
     8
 71
     3
 72
    23
 73
    19
 74
     0
 42
0.0000000001
 43
0.0000000001
 40
16.03460024169435
 40
16.03460024169435
 40
16.03460024169435
 40
16.03460024169435
 40
16.35212704903564
 40
17.38177054169784
 40
18.41822485651776
 40
19.46214173629503
 40
20.51396345435107
 40
21.57393551351153
 40
22.64208202342361
 40
23.7182574881101
 40
24.80209208578934
 40
25.89306333925047
 40
26.99048218457928
 40
28.09348763352352
 40
29.20111863782268
 40
30.31232390128032
 40
31.42594612798585
 40
32.5407912310448
 40
32.5407912310486
 40
32.5407912310486
 40
32.5407912310486
 10
-62.9293713966537
 20
6.300000000000643
 30
0.0
 10
-61.39910779350018
 20
6.227281096133618
 30
0.0
 10
-60.72178091995507
 20
6.186117502907881
 30
0.0
 10
-59.90528067686451
 20
6.004652924332641
 30
0.0
 10
-58.84791072458917
 20
5.734817080468564
 30
0.0
 10
-57.79152290726077
 20
5.431836404890827
 30
0.0
 10
-56.73605480208079
 20
5.097464395213404
 30
0.0
 10
-55.68146894861571
 20
4.733565182875864
 30
0.0
 10
-54.62770439433061
 20
4.342218969236991
 30
0.0
 10
-53.57468775906721
 20
3.925703291096553
 30
0.0
 10
-52.52235920663818
 20
3.486376852455443
 30
0.0
 10
-51.47063436804768
 20
3.026795991494761
 30
0.0
 10
-50.41942801275857
 20
2.549631990739559
 30
0.0
 10
-49.36867010188963
 20
2.057628343154212
 30
0.0
 10
-48.31827271980272
 20
1.553645982572274
 30
0.0
 10
-47.26813857745417
 20
1.040627796229305
 30
0.0
 10
-46.21818216428104
 20
0.5215465855947393
 30
0.0
 10
-45.51839923411649
 20
0.1735310169315059
 30
0.0
 10
-45.16831693391245
 20
-0.0005745947642932
 30
0.0
  0
SPLINE
  5
3AE9
330
1F
100
AcDbEntity
  8
AM_0
100
AcDbSpline
210
0.0
220
0.0
230
1.0
 70
     8
 71
     3
 72
    46
 73
    42
 74
     0
 42
0.0000000001
 43
0.0000000001
 40
0.0
 40
0.0
 40
0.0
 40
0.0
 40
1.685415058684571
 40
2.531036209541119
 40
3.379897699130121
 40
4.232934581347655
 40
5.090970612202441
 40
5.954688180526682
 40
6.824620803463246
 40
7.701151815239689
 40
8.584457046566678
 40
9.474582384070741
 40
10.37139106676737
 40
11.27458944007583
 40
12.18373345430765
 40
13.09824173870457
 40
14.01741343450111
 40
14.9404441545541
 40
15.86644439743314
 40
16.79446029130534
 40
17.7234937712985
 40
18.65252725129241
 40
19.58054314516461
 40
20.50654338804289
 40
21.42957410809586
 40
22.34874580389317
 40
23.26325408828901
 40
24.17239810252111
 40
25.07560240389441
 40
25.97241108659103
 40
26.8625364240951
 40
27.74584165542183
 40
28.62236045019041
 40
29.49229307312697
 40
30.35601064145121
 40
31.21404606334468
 40
32.06708345193547
 40
32.91595755657689
 40
33.76157841950693
 40
34.60498701064689
 40
35.44727335621125
 40
35.44727335621125
 40
35.44727335621125
 40
35.44727335621125
 10
-2.966985239867622
 20
-6.299999348582128
 30
0.0
 10
-3.676841620295208
 20
-6.285647461586332
 30
0.0
 10
-4.742853338404733
 20
-6.264094820606642
 30
0.0
 10
-6.16037560686657
 20
-6.131399169525716
 30
0.0
 10
-7.224749958117818
 20
-5.99760665462821
 30
0.0
 10
-8.289033330699931
 20
-5.825839792283558
 30
0.0
 10
-9.353222920926077
 20
-5.618382628675839
 30
0.0
 10
-10.41731326184563
 20
-5.376226985784153
 30
0.0
 10
-11.48130257126717
 20
-5.100950353902437
 30
0.0
 10
-12.54518611406243
 20
-4.794242972300129
 30
0.0
 10
-13.60896601667948
 20
-4.458007153898362
 30
0.0
 10
-14.67263941787383
 20
-4.094316246815631
 30
0.0
 10
-15.73622340612773
 20
-3.705429442637766
 30
0.0
 10
-16.79972315067204
 20
-3.293737435916454
 30
0.0
 10
-17.8631484313787
 20
-2.861778926641978
 30
0.0
 10
-18.92651106570047
 20
-2.412218824152424
 30
0.0
 10
-19.98982037300121
 20
-1.947821676792957
 30
0.0
 10
-21.05308670196341
 20
-1.47144377147866
 30
0.0
 10
-22.11632132624117
 20
-0.9860169350786026
 30
0.0
 10
-23.17953395855218
 20
-0.4945262014114953
 30
0.0
 10
-24.24273765331014
 20
0.0000006513186839
 30
0.0
 10
-25.3059413478345
 20
0.4945275046498132
 30
0.0
 10
-26.36915398084612
 20
0.9860182365149498
 30
0.0
 10
-27.43238860256309
 20
1.471445079500408
 30
0.0
 10
-28.49565494102086
 20
1.947822960391845
 30
0.0
 10
-29.5589642131129
 20
2.412220198308804
 30
0.0
 10
-30.62232697782451
 20
2.86177996543211
 30
0.0
 10
-31.68575408806216
 20
3.293740654288835
 30
0.0
 10
-32.74925796485341
 20
3.705428920579566
 30
0.0
 10
-33.81284385037815
 20
4.094317718835788
 30
0.0
 10
-34.87651722680714
 20
4.458008734135917
 30
0.0
 10
-35.94029275953721
 20
4.794241462817851
 30
0.0
 10
-37.00416921389519
 20
5.100953588923539
 30
0.0
 10
-38.06815418018374
 20
5.376231345340426
 30
0.0
 10
-39.13224390526371
 20
5.618371145138657
 30
0.0
 10
-40.19643427568854
 20
5.825888479498899
 30
0.0
 10
-41.26072444060926
 20
5.99741005656161
 30
0.0
 10
-42.3250933074093
 20
6.132144445839576
 30
0.0
 10
-43.38952802619315
 20
6.228270337999243
 30
0.0
 10
-44.45400138316555
 20
6.288758676665707
 30
0.0
 10
-45.16382338010201
 20
6.29625499004988
 30
0.0
 10
-45.51849809780017
 20
6.300000651419612
 30
0.0
  0
SPLINE
  5
3AEA
330
1F
100
AcDbEntity
  8
AM_0
100
AcDbSpline
210
0.0
220
0.0
230
1.0
 70
     8
 71
     3
 72
    22
 73
    18
 74
     0
 42
0.0000000001
 43
0.0000000001
 40
17.17441611292
 40
17.17441611292
 40
17.17441611292
 40
17.17441611292
 40
17.38177636558528
 40
18.41823744757437
 40
19.46215659509824
 40
20.51397914882054
 40
21.57394542641293
 40
22.64209583141747
 40
23.71826625065247
 40
24.80210429862395
 40
25.8930771157021
 40
26.99048705697709
 40
28.09349309193389
 40
29.20112995599786
 40
30.31233024745139
 40
31.42594771747373
 40
32.5407895042663
 40
32.54078950426994
 40
32.54078950426994
 40
32.54078950426994
 10
-30.06160556893799
 20
-5.657444945770089
 30
0.0
 10
-30.13288427949987
 20
-5.64286106368524
 30
0.0
 10
-30.56016122174724
 20
-5.554029043848799
 30
0.0
 10
-31.34290850298458
 20
-5.37590928233194
 30
0.0
 10
-32.40689338860695
 20
-5.100631944276273
 30
0.0
 10
-33.4707698564029
 20
-4.793919683131612
 30
0.0
 10
-34.53454541728064
 20
-4.45768707288227
 30
0.0
 10
-35.59821866606664
 20
-4.093995716555234
 30
0.0
 10
-36.6618026953452
 20
-3.70510903352074
 30
0.0
 10
-37.72530242980936
 20
-3.29341699620815
 30
0.0
 10
-38.78872770936055
 20
-2.861458486853456
 30
0.0
 10
-39.85209035861365
 20
-2.411898415852302
 30
0.0
 10
-40.91539960691498
 20
-1.947501141676296
 30
0.0
 10
-41.9786661581911
 20
-1.471123714829881
 30
0.0
 10
-43.0418994373746
 20
-0.9856953172599304
 30
0.0
 10
-44.10511519534194
 20
-0.4942113045573756
 30
0.0
 10
-44.81378656963967
 20
-0.1645834026589318
 30
0.0
 10
-45.16831693391713
 20
0.0003210859907139
 30
0.0
  0
SPLINE
  5
3AEB
330
1F
100
AcDbEntity
  8
AM_0
100
AcDbSpline
210
0.0
220
0.0
230
1.0
 70
     8
 71
     3
 72
    17
 73
    13
 74
     0
 42
0.0000000001
 43
0.0000000001
 40
1.580019955310467
 40
1.580019955310467
 40
1.580019955310467
 40
1.580019955310467
 40
2.030549285115227
 40
3.082371838836284
 40
4.126290986361125
 40
5.162752068350215
 40
6.192395305374981
 40
7.216039564037012
 40
8.234688489606833
 40
9.249433870634691
 40
10.26152376260694
 40
11.27226744710342
 40
11.27226744710342
 40
11.27226744710342
 40
11.27226744710352
 10
-15.97198429069006
 20
-4.649584862100862
 30
0.0
 10
-16.12258962680813
 20
-4.697471730303215
 30
0.0
 10
-16.62566204714189
 20
-4.85442733704197
 30
0.0
 10
-17.48453142539094
 20
-5.100617822180762
 30
0.0
 10
-18.54836820675161
 20
-5.37631850613433
 30
0.0
 10
-19.61249786138219
 20
-5.618347101412148
 30
0.0
 10
-20.67667627406204
 20
-5.825890821594591
 30
0.0
 10
-21.74097062707273
 20
-5.997439983638163
 30
0.0
 10
-22.80533850912626
 20
-6.132015632117806
 30
0.0
 10
-23.8697726672443
 20
-6.228745671801811
 30
0.0
 10
-24.93424687652575
 20
-6.28700744019127
 30
0.0
 10
-25.64406858744573
 20
-6.299999384630141
 30
0.0
 10
-25.99874748895394
 20
-6.299999999999732
 30
0.0
  0
SPLINE
  5
3AEC
330
1F
100
AcDbEntity
  8
AM_0
100
AcDbSpline
210
0.0
220
0.0
230
1.0
 70
     8
 71
     3
 72
    11
 73
     7
 74
     0
 42
0.0000000001
 43
0.0000000001
 40
11.27226913003534
 40
11.27226913003534
 40
11.27226913003534
 40
11.2722691300354
 40
12.28301561507924
 40
13.29510212255852
 40
14.30984805882082
 40
15.18258238371378
 40
15.18258238371378
 40
15.18258238371378
 40
15.18258238371378
 10
-25.99874748895399
 20
-6.299999999999732
 30
0.0
 10
-26.35206923967158
 20
-6.269165317813122
 30
0.0
 10
-27.05805480424051
 20
-6.194517471275473
 30
0.0
 10
-28.11338757325312
 20
-6.04393430070798
 30
0.0
 10
-29.11491697946051
 20
-5.864079214265832
 30
0.0
 10
-29.76264741079873
 20
-5.725819256487009
 30
0.0
 10
-30.06114003766656
 20
-5.657522656221916
 30
0.0
  0
SPLINE
  5
3AED
330
1F
100
AcDbEntity
  8
AM_0
 48
0.5
100
AcDbSpline
210
0.0
220
0.0
230
1.0
 70
     8
 71
     3
 72
    25
 73
    21
 74
     0
 42
0.0000000001
 43
0.0000000001
 40
6.846175049578289
 40
6.846175049578289
 40
6.846175049578289
 40
6.846175049578289
 40
7.604337694224321
 40
8.711974558287883
 40
9.814980593243754
 40
10.91239053451967
 40
12.0033633515982
 40
13.08720139956839
 40
14.16337181880432
 40
15.23152222380919
 40
16.29148850140128
 40
17.34331105512262
 40
18.38723020264746
 40
19.42369128463655
 40
20.45333379090873
 40
21.47697865721768
 40
22.49561244472435
 40
23.5103574802404
 40
24.52244778960836
 40
25.53320666051913
 40
25.53320666051913
 40
25.53320666051913
 40
25.53320666051913
 10
-7.188234661847233
 20
1.140341896578333
 30
0.0
 10
-7.430046769189532
 20
1.250958692069592
 30
0.0
 10
-8.025642907797481
 20
1.522074056472929
 30
0.0
 10
-8.975908196870639
 20
1.947822775439412
 30
0.0
 10
-10.03921738706111
 20
2.41222018084111
 30
0.0
 10
-11.10258005176135
 20
2.861780216899015
 30
0.0
 10
-12.16600532723838
 20
3.293738735694831
 30
0.0
 10
-13.22950506267415
 20
3.705430769919557
 30
0.0
 10
-14.29308909210065
 20
4.094317455920692
 30
0.0
 10
-15.35676233935181
 20
4.45800880353268
 30
0.0
 10
-16.42053790615329
 20
4.794241445349609
 30
0.0
 10
-17.48441435202601
 20
5.100953590179108
 30
0.0
 10
-18.54839931857126
 20
5.37623135744879
 30
0.0
 10
-19.61248905093713
 20
5.618371095976097
 30
0.0
 10
-20.67667939225136
 20
5.825888662406723
 30
0.0
 10
-21.74096442079487
 20
5.997408534055975
 30
0.0
 10
-22.80532757671994
 20
6.132145710326255
 30
0.0
 10
-23.86975712966442
 20
6.228270126074225
 30
0.0
 10
-24.93423580072915
 20
6.288759044839056
 30
0.0
 10
-25.64406316117901
 20
6.296255093857645
 30
0.0
 10
-25.99874323878527
 20
6.30000000000098
 30
0.0
  0
SPLINE
  5
3AEE
330
1F
100
AcDbEntity
  8
AM_0
 48
0.5
100
AcDbSpline
210
0.0
220
0.0
230
1.0
 70
     8
 71
     3
 72
    17
 73
    13
 74
     0
 42
0.0000000001
 43
0.0000000001
 40
0.0
 40
0.0
 40
0.0
 40
0.0
 40
1.010743614677189
 40
2.022833924044153
 40
3.037578959561199
 40
4.056212747067873
 40
5.079857613375832
 40
6.109500119648989
 40
7.14596120163808
 40
8.18989512056258
 40
9.241717674284874
 40
9.693948937866434
 40
9.693948937866434
 40
9.693948937866434
 40
9.693948937866434
 10
-5.946789786811645
 20
6.300000000000169
 30
0.0
 10
-6.301464505964927
 20
6.296254353868393
 30
0.0
 10
-7.011286505813306
 20
6.288758070980491
 30
0.0
 10
-8.07575984090219
 20
6.228269503158883
 30
0.0
 10
-9.140189352241755
 20
6.132144963158896
 30
0.0
 10
-10.20455266512431
 20
5.997408239220272
 30
0.0
 10
-11.26883710329119
 20
5.825886670588809
 30
0.0
 10
-12.33302966756005
 20
5.618375492641725
 30
0.0
 10
-13.39711607467812
 20
5.376210523457844
 30
0.0
 10
-14.46113761546934
 20
5.101022079976896
 30
0.0
 10
-15.32004354891693
 20
4.853118890310441
 30
0.0
 10
-15.82444347161961
 20
4.698143746730347
 30
0.0
 10
-15.97583726702456
 20
4.650706892729627
 30
0.0
  0
SPLINE
  5
3AEF
330
1F
100
AcDbEntity
  8
AM_0
 48
0.5
100
AcDbSpline
210
0.0
220
0.0
230
1.0
 70
     8
 71
     3
 72
    10
 73
     6
 74
     0
 42
0.0000000001
 43
0.0000000001
 40
0.0
 40
0.0
 40
0.0
 40
0.0
 40
2.69986029516136
 40
4.147722969032201
 40
6.285750005020438
 40
6.285750005020438
 40
6.285750005020438
 40
6.285750005020438
 10
-7.188064475852822
 20
1.140267069874963
 30
0.0
 10
-6.430456673848664
 20
0.5549535349128217
 30
0.0
 10
-5.266564124474082
 20
-0.344247952437777
 30
0.0
 10
-2.514114593703286
 20
0.0910712402696331
 30
0.0
 10
-3.032480900277996
 20
1.557283882611414
 30
0.0
 10
-3.104006132456998
 20
2.419009287892055
 30
0.0
  0
SPLINE
  5
3AF0
330
1F
100
AcDbEntity
  8
AM_0
 48
0.5
100
AcDbSpline
210
0.0
220
0.0
230
1.0
 70
     8
 71
     3
 72
    22
 73
    18
 74
     0
 42
0.0000000001
 43
0.0000000001
 40
0.0
 40
0.0
 40
0.0
 40
0.0
 40
1.010743684496582
 40
2.022833993863546
 40
3.037578683882831
 40
4.056212471389632
 40
5.079857945358201
 40
6.109499720892564
 40
7.145961650132166
 40
8.189873411961459
 40
9.241710626092514
 40
10.30166235592959
 40
11.36982472628033
 40
12.44598212828784
 40
13.52983440361964
 40
14.62080578343036
 40
14.90544694398022
 40
14.90544694398022
 40
14.90544694398022
 40
14.90544694398022
 10
-47.30050859126353
 20
-6.299999999999499
 30
0.0
 10
-47.65536097523918
 20
-6.296573207022185
 30
0.0
 10
-48.36518295701067
 20
-6.289073759456348
 30
0.0
 10
-49.42965607350111
 20
-6.228584894047306
 30
0.0
 10
-50.49408601879374
 20
-6.132466363554505
 30
0.0
 10
-51.55844950052881
 20
-5.997729779835691
 30
0.0
 10
-52.62273301918429
 20
-5.826201511930274
 30
0.0
 10
-53.68692547183594
 20
-5.618693570325366
 30
0.0
 10
-54.75101126428732
 20
-5.376547261363215
 30
0.0
 10
-55.81499771356365
 20
-5.101264762016377
 30
0.0
 10
-56.87887523690093
 20
-4.794564890189787
 30
0.0
 10
-57.9426493940187
 20
-4.458314255851115
 30
0.0
 10
-59.00632704235157
 20
-4.094652575522318
 30
0.0
 10
-60.06990738295289
 20
-3.705741802497986
 30
0.0
 10
-61.13341034074723
 20
-3.294059474482938
 30
0.0
 10
-61.93270713582489
 20
-2.969403416462622
 30
0.0
 10
-62.3781032025996
 20
-2.783840449486463
 30
0.0
 10
-64.35119659150285
 20
-2.076328110911099
 30
0.0
  0
SPLINE
  5
3AF1
330
1F
100
AcDbEntity
  8
AM_0
100
AcDbSpline
210
0.0
220
0.0
230
1.0
 70
     8
 71
     3
 72
    13
 73
     9
 74
     0
 42
0.0000000001
 43
0.0000000001
 40
16.03460056234195
 40
16.03460056234195
 40
16.03460056234195
 40
16.03460056234195
 40
16.35212717791071
 40
17.38177067057215
 40
18.41822498539278
 40
19.46214186516937
 40
20.5139635832251
 40
21.34083983469381
 40
21.34083983469381
 40
21.34083983469381
 40
21.34083983469381
 10
-64.81860137164048
 20
-6.299999999999345
 30
0.0
 10
-64.59385796705293
 20
-6.279626327583259
 30
0.0
 10
-64.13033487484398
 20
-6.187014062114626
 30
0.0
 10
-63.31383507684033
 20
-6.005547364897887
 30
0.0
 10
-62.25646499149974
 20
-5.735712269224048
 30
0.0
 10
-61.20007721020808
 20
-5.432731391023808
 30
0.0
 10
-60.22257099338602
 20
-5.12305774016568
 30
0.0
 10
-59.59893924084472
 20
-4.909825393219946
 30
0.0
 10
-58.08133485631664
 20
-4.407881590487026
 30
0.0
  0
ELLIPSE
  5
3AF2
330
1F
100
AcDbEntity
  8
AM_0
 48
0.5
100
AcDbEllipse
 10
-10.93319296846181
 20
10.68048942857835
 30
0.0
 11
12.18980462002893
 21
12.48844955900648
 31
0.0
210
0.0
220
0.0
230
1.0
 40
0.8758146538070231
 41
4.600962681239146
 42
4.712030200657003
  0
ELLIPSE
  5
3AF3
330
1F
100
AcDbEntity
  8
AM_0
 48
0.5
100
AcDbEllipse
 10
-7.17761726586303
 20
6.427191067577693
 30
0.0
 11
-0.0000000000010426
 21
9.787986559803076
 31
0.0
210
0.0
220
0.0
230
1.0
 40
0.9603174603174508
 41
3.517054509082562
 42
3.681821570856065
  0
ELLIPSE
  5
3AF4
330
1F
100
AcDbEntity
  8
AM_0
 48
0.5
100
AcDbEllipse
 10
-1.881686500006531
 20
-1.639635591257192
 30
0.0
 11
-0.181440862036618
 21
1.033927356735102
 31
0.0
210
0.0
220
0.0
230
1.0
 40
0.5003819257726306
 41
1.803993814440583
 42
4.93933570415256
  0
ELLIPSE
  5
3AF5
330
1F
100
AcDbEntity
  8
AM_0
 48
0.5
100
AcDbEllipse
 10
-1.881777256056875
 20
-1.641870037974665
 30
0.0
 11
-0.9120111897578663
 21
0.5243377598068914
 31
0.0
210
0.0
220
0.0
230
1.0
 40
0.4993669022125419
 41
4.48238120411626
 42
7.625821545445774
  0
ELLIPSE
  5
3AF6
330
1F
100
AcDbEntity
  8
AM_0
 48
0.5
100
AcDbEllipse
 10
3.79241151229178
 20
7.563538249073823
 30
0.0
 11
-12.72941618961276
 21
0.0000000000340346
 31
0.0
210
0.0
220
0.0
230
1.0
 40
0.997477163984343
 41
0.5303675532367289
 42
0.9384884834316164
  0
ELLIPSE
  5
3AF7
330
1F
100
AcDbEntity
  8
AM_0
 48
0.5
100
AcDbEllipse
 10
6.322707877817677
 20
-1.682507770016511
 30
0.0
 11
-10.14147652312951
 21
0.9745615876482885
 31
0.0
210
0.0
220
0.0
230
1.0
 40
0.8292230488717006
 41
0.2333479231523576
 42
0.6922715584970005
  0
SPLINE
  5
3AF8
330
1F
100
AcDbEntity
  8
AM_0
100
AcDbSpline
210
0.0
220
0.0
230
1.0
 70
     8
 71
     3
 72
    55
 73
    51
 74
     0
 42
0.0000000001
 43
0.0000000001
 40
0.0
 40
0.0
 40
0.0
 40
0.0
 40
1.010743684496582
 40
2.022833576467832
 40
3.037578957496688
 40
4.056212745003489
 40
5.079857003664532
 40
6.109500240690281
 40
7.145961322679372
 40
8.189895241603872
 40
9.241717795325891
 40
10.30168407291828
 40
11.36983447792315
 40
12.44600489715814
 40
13.52984294512926
 40
14.62081576220742
 40
15.7182257034828
 40
16.82123173843959
 40
17.92886860250316
 40
19.0400688939571
 40
20.15368796660465
 40
21.26852814259644
 40
22.38336992938901
 40
23.49698739941135
 40
24.6081876908653
 40
25.71582455492886
 40
26.81883757994213
 40
27.91624752121713
 40
29.00722033829659
 40
30.09105838626677
 40
31.16722880550176
 40
32.23537921050758
 40
33.29534548809967
 40
34.347168041821
 40
35.39108718934584
 40
36.42754827133493
 40
37.45720575381954
 40
38.48085062012849
 40
39.49948440763516
 40
40.51422944315121
 40
41.52631975251916
 40
42.53706336719636
 40
43.54780698187354
 40
44.55989729124051
 40
45.57464232675757
 40
46.59327611426424
 40
47.6169209805722
 40
48.64656348684535
 40
49.68302456883444
 40
50.58557219878025
 40
50.58557219878025
 40
50.58557219878025
 40
50.58557219878025
 10
-5.94678978539967
 20
-6.299999348581998
 30
0.0
 10
-6.301464440006403
 20
-6.296251001208818
 30
0.0
 10
-7.011286139676959
 20
-6.288749314046166
 30
0.0
 10
-8.075760371536473
 20
-6.228277293814408
 30
0.0
 10
-9.140189165004589
 20
-6.132142578700045
 30
0.0
 10
-10.20455208078063
 20
-5.997406119188767
 30
0.0
 10
-11.2688384981982
 20
-5.825893852631619
 30
0.0
 10
-12.33302742126585
 20
-5.61836846674565
 30
0.0
 10
-13.39712240964835
 20
-5.376227926498494
 30
0.0
 10
-14.46111402697366
 20
-5.100954984703275
 30
0.0
 10
-15.52499502551971
 20
-4.794239800523462
 30
0.0
 10
-16.58877070814515
 20
-4.458007593464607
 30
0.0
 10
-17.65244392385339
 20
-4.094316127684463
 30
0.0
 10
-18.71602796238926
 20
-3.70542947494145
 30
0.0
 10
-19.77952769323667
 20
-3.293737427038097
 30
0.0
 10
-20.84295297794986
 20
-2.861778929550963
 30
0.0
 10
-21.90631561005913
 20
-2.412218821453867
 30
0.0
 10
-22.96962492220271
 20
-1.947821684709095
 30
0.0
 10
-24.03289123391862
 20
-1.47144374236257
 30
0.0
 10
-25.09612592260822
 20
-0.9860170440529094
 30
0.0
 10
-26.15933831385177
 20
-0.4945257936284277
 30
0.0
 10
-27.22254342185523
 20
-0.0000006340099851
 30
0.0
 10
-28.28574375695735
 20
0.4945334273695224
 30
0.0
 10
-29.34895971185709
 20
0.9860170239752109
 30
0.0
 10
-30.41219308796922
 20
1.471445191643852
 30
0.0
 10
-31.47546129547719
 20
1.947824948778006
 30
0.0
 10
-32.53877501873785
 20
2.412218122276064
 30
0.0
 10
-33.60213932911428
 20
2.861780510268419
 30
0.0
 10
-34.66556476735073
 20
3.293738657481749
 30
0.0
 10
-35.7290644595008
 20
3.705430791962389
 30
0.0
 10
-36.79264850076008
 20
4.094317445274267
 30
0.0
 10
-37.85632174356089
 20
4.458008824090296
 30
0.0
 10
-38.92009731639306
 20
4.794241374473169
 30
0.0
 10
-39.9839737427694
 20
5.100953850361832
 30
0.0
 10
-41.04795878053547
 20
5.376230397545797
 30
0.0
 10
-42.11205337419398
 20
5.61837580693459
 30
0.0
 10
-43.17624989592719
 20
5.825877490540736
 30
0.0
 10
-44.24053982944633
 20
5.997442843770093
 30
0.0
 10
-45.30490306074717
 20
6.132019590599416
 30
0.0
 10
-46.36933259381275
 20
6.22873809681841
 30
0.0
 10
-47.433805923125
 20
6.287018146331608
 30
0.0
 10
-48.49830264359307
 20
6.306487582442457
 30
0.0
 10
-49.56279936249488
 20
6.287018146301165
 30
0.0
 10
-50.62727269651499
 20
6.228738096941024
 30
0.0
 10
-51.69170221224746
 20
6.132019590138125
 30
0.0
 10
-52.75606550853441
 20
5.997442845504663
 30
0.0
 10
-53.82035000912981
 20
5.825878320428558
 30
0.0
 10
-54.88454233833382
 20
5.618377928527623
 30
0.0
 10
-55.90025486008727
 20
5.387222266100637
 30
0.0
 10
-56.55926071146392
 20
5.218175944897612
 30
0.0
 10
-56.86500101686368
 20
5.13579142599921
 30
0.0
  0
LINE
  5
3B1E
330
1F
100
AcDbEntity
  8
AM_0
100
AcDbLine
 10
-66.6536314443678
 20
-5.279978377960942
 30
0.0
 11
-66.65363488097044
 21
-6.300026005290063
 31
0.0
  0
LINE
  5
3B1F
330
1F
100
AcDbEntity
  8
AM_0
100
AcDbLine
 10
-66.65361268032437
 20
0.2895389532268546
 30
0.0
 11
-66.65362383883729
 21
-3.022515367088805
 31
0.0
  0
VIEWPORT
  5
110
330
101
100
AcDbEntity
 67
     1
  8
0
100
AcDbViewport
 10
420.5
 20
297.0
 30
0.0
 40
948.9782706766916
 41
628.452
 68
     1
 69
     1
1001
ACAD
1000
MVIEW
1002
{
1070
    16
1010
0.0
1020
0.0
1030
0.0
1010
0.0
1020
0.0
1030
1.0
1040
0.0
1040
628.452
1040
420.5
1040
297.0
1040
50.0
1040
0.0
1040
0.0
1070
     0
1070
   100
1070
     1
1070
     1
1070
     0
1070
     0
1070
     0
1070
     0
1040
0.0
1040
0.0
1040
0.0
1040
10.0
1040
10.0
1040
10.0
1040
10.0
1070
     0
1002
{
1002
}
1002
}
  0
ENDSEC
  0
SECTION
  2
OBJECTS
  0
DICTIONARY
  5
C
330
0
100
AcDbDictionary
  3
ACAD_GROUP
350
D
  3
ACAD_LAYOUT
350
1A
  3
ACAD_MLINESTYLE
350
17
  3
ACAD_PLOTSETTINGS
350
19
  3
ACAD_PLOTSTYLENAME
350
E
  3
ACDBVARIABLEDICTIONARY
350
34
  3
ACMDICTIONARY
350
43
  3
AMG
350
2B
  3
AMGSNAPSETTINGS
350
6E
  3
DWGPROPS
350
3BBA
  3
ACDBHEADERROUNDTRIPXREC
350
3BC7
  0
DICTIONARY
  5
74
330
1F
100
AcDbDictionary
280
     1
  3
ACAD_INDEX
360
3BBC
  3
ACAD_LAYOUTSELFREF
360
3BEA
  0
DICTIONARY
  5
3BEF
330
101
100
AcDbDictionary
280
     1
  3
ACAD_LAYOUTSELFREF
360
3BF0
  0
DICTIONARY
  5
D
102
{ACAD_REACTORS
330
C
102
}
330
C
100
AcDbDictionary
  0
DICTIONARY
  5
1A
102
{ACAD_REACTORS
330
C
102
}
330
C
100
AcDbDictionary
  0
DICTIONARY
  5
17
102
{ACAD_REACTORS
330
C
102
}
330
C
100
AcDbDictionary
  3
STANDARD
350
18
  0
DICTIONARY
  5
19
102
{ACAD_REACTORS
330
C
102
}
330
C
100
AcDbDictionary
  0
ACDBDICTIONARYWDFLT
  5
E
102
{ACAD_REACTORS
330
C
102
}
330
C
100
AcDbDictionary
281
     1
  3
Normal
350
F
100
AcDbDictionaryWithDefault
340
F
  0
DICTIONARY
  5
34
102
{ACAD_REACTORS
330
C
102
}
330
C
100
AcDbDictionary
  3
INDEXCTL
350
35
  3
SORTENTS
350
B5E
  0
DICTIONARY
  5
43
102
{ACAD_REACTORS
330
C
102
}
330
C
100
AcDbDictionary
  3
ACMSTDDICTIONARY
350
260
  0
DICTIONARY
  5
2B
102
{ACAD_REACTORS
330
C
102
}
330
C
100
AcDbDictionary
  3
ACMGSETTINGS
350
2C
  0
DICTIONARY
  5
6E
102
{ACAD_REACTORS
330
C
102
}
330
C
100
AcDbDictionary
  0
XRECORD
  5
3BBA
102
{ACAD_REACTORS
330
C
102
}
330
C
100
AcDbXrecord
  1
DWGPROPS COOKIE
  2

  3

  4

  6

  7

  8

  9

300
AmdtFileType=82
301
=
302
=
303
=
304
=
305
=
306
=
307
=
308
=
309
=
 40
0.0791800231481482
 41
2452800.443498622
 42
2452946.63363986
  1

 90
        1
  0
DICTIONARY
  5
3BC7
102
{ACAD_REACTORS
330
C
102
}
330
C
100
AcDbDictionary
  3
TSTACKALIGN
350
3BC8
  3
TSTACKSIZE
350
3BC9
  3
HYPERLINKBASE
350
3BCA
  3
STYLESHEET
350
3BCB
  3
LAYOUTDICT
350
3BCC
  3
PLOTSETDICT
350
3BCD
  3
PLOTSTYLNAMDICT
350
3BCE
  3
LWETCUNION
350
3BCF
  3
INSUNITS
350
3BD0
  3
CEPSNTYPE
350
3BD1
  3
FINGERPRINTGUID
350
3BD2
  3
VERSIONGUID
350
3BD3
  3
PSVPSCALE
350
3BD4
  3
DIMSTYLEDATA
350
3BD5
  3
PUCSORTHOREF
350
3BD6
  3
PUCSORTHOVIEW
350
3BD7
  3
PUCSBASE
350
3BD8
  3
PUCSORGTOP
350
3BD9
  3
PUCSORGBOTTOM
350
3BDA
  3
PUCSORGLEFT
350
3BDB
  3
PUCSORGRIGHT
350
3BDC
  3
PUCSORGFRONT
350
3BDD
  3
PUCSORGBACK
350
3BDE
  3
UCSORTHOREF
350
3BDF
  3
UCSORTHOVIEW
350
3BE0
  3
UCSBASE
350
3BE1
  3
UCSORGTOP
350
3BE2
  3
UCSORGBOTTOM
350
3BE3
  3
UCSORGLEFT
350
3BE4
  3
UCSORGRIGHT
350
3BE5
  3
UCSORGFRONT
350
3BE6
  3
UCSORGBACK
350
3BE7
  0
DICTIONARY
  5
3BBC
102
{ACAD_REACTORS
330
74
102
}
330
74
100
AcDbDictionary
  3
*A1
350
3BBD
  0
XRECORD
  5
3BEA
102
{ACAD_REACTORS
330
74
102
}
330
74
100
AcDbXrecord
340
1F
  0
XRECORD
  5
3BF0
102
{ACAD_REACTORS
330
3BEF
102
}
330
3BEF
100
AcDbXrecord
340
101
  0
MLINESTYLE
  5
18
102
{ACAD_REACTORS
330
17
102
}
330
17
100
AcDbMlineStyle
  2
STANDARD
 70
     0
  3

 62
   256
 51
90.0
 52
90.0
 71
     2
 49
0.5
 62
   256
  6
BYLAYER
 49
-0.5
 62
   256
  6
BYLAYER
  0
ACDBPLACEHOLDER
  5
F
102
{ACAD_REACTORS
330
E
102
}
330
E
100
AcDbPlaceHolder
280
     0
  0
DICTIONARYVAR
  5
35
102
{ACAD_REACTORS
330
34
102
}
330
34
100
DictionaryVariables
280
     0
  1
1
  0
DICTIONARYVAR
  5
B5E
102
{ACAD_REACTORS
330
34
102
}
330
34
100
DictionaryVariables
280
     0
  1
96
  0
DICTIONARY
  5
260
102
{ACAD_REACTORS
330
43
102
}
330
43
100
AcDbDictionary
  0
DICTIONARY
  5
2C
102
{ACAD_REACTORS
330
2B
102
}
330
2B
100
AcDbDictionary
  3
DWGSETTINGS
350
2D
  0
XRECORD
  5
3BC8
102
{ACAD_REACTORS
330
3BC7
102
}
330
3BC7
100
AcDbXrecord
 90
        1
  0
XRECORD
  5
3BC9
102
{ACAD_REACTORS
330
3BC7
102
}
330
3BC7
100
AcDbXrecord
 90
       70
  0
XRECORD
  5
3BCA
102
{ACAD_REACTORS
330
3BC7
102
}
330
3BC7
100
AcDbXrecord
  1

  0
XRECORD
  5
3BCB
102
{ACAD_REACTORS
330
3BC7
102
}
330
3BC7
100
AcDbXrecord
  1
ASAMI.ctb
  0
XRECORD
  5
3BCC
102
{ACAD_REACTORS
330
3BC7
102
}
330
3BC7
100
AcDbXrecord
340
1A
  0
XRECORD
  5
3BCD
102
{ACAD_REACTORS
330
3BC7
102
}
330
3BC7
100
AcDbXrecord
340
19
  0
XRECORD
  5
3BCE
102
{ACAD_REACTORS
330
3BC7
102
}
330
3BC7
100
AcDbXrecord
340
E
  0
XRECORD
  5
3BCF
102
{ACAD_REACTORS
330
3BC7
102
}
330
3BC7
100
AcDbXrecord
 90
    10781
  0
XRECORD
  5
3BD0
102
{ACAD_REACTORS
330
3BC7
102
}
330
3BC7
100
AcDbXrecord
 90
        4
  0
XRECORD
  5
3BD1
102
{ACAD_REACTORS
330
3BC7
102
}
330
3BC7
100
AcDbXrecord
 90
        0
  0
XRECORD
  5
3BD2
102
{ACAD_REACTORS
330
3BC7
102
}
330
3BC7
100
AcDbXrecord
  1
{AFB28963-8C59-40AE-9337-C84526B81ACE}
  0
XRECORD
  5
3BD3
102
{ACAD_REACTORS
330
3BC7
102
}
330
3BC7
100
AcDbXrecord
  1
{78AC33AF-BDB6-4EFA-83D4-0304A2EFC9A3}
  0
XRECORD
  5
3BD4
102
{ACAD_REACTORS
330
3BC7
102
}
330
3BC7
100
AcDbXrecord
 40
0.0
  0
XRECORD
  5
3BD5
102
{ACAD_REACTORS
330
3BC7
102
}
330
3BC7
100
AcDbXrecord
1000
DSTYLE
1002
{
1070
    79
 70
     2
1070
   341
340
59
1070
   342
340
59
1070
   371
 70
    -1
1070
   372
 70
    -1
1002
}
  0
XRECORD
  5
3BD6
102
{ACAD_REACTORS
330
3BC7
102
}
330
3BC7
100
AcDbXrecord
340
0
  0
XRECORD
  5
3BD7
102
{ACAD_REACTORS
330
3BC7
102
}
330
3BC7
100
AcDbXrecord
 70
     0
  0
XRECORD
  5
3BD8
102
{ACAD_REACTORS
330
3BC7
102
}
330
3BC7
100
AcDbXrecord
340
0
  0
XRECORD
  5
3BD9
102
{ACAD_REACTORS
330
3BC7
102
}
330
3BC7
100
AcDbXrecord
 10
0.0
 20
0.0
 30
0.0
  0
XRECORD
  5
3BDA
102
{ACAD_REACTORS
330
3BC7
102
}
330
3BC7
100
AcDbXrecord
 10
0.0
 20
0.0
 30
0.0
  0
XRECORD
  5
3BDB
102
{ACAD_REACTORS
330
3BC7
102
}
330
3BC7
100
AcDbXrecord
 10
0.0
 20
0.0
 30
0.0
  0
XRECORD
  5
3BDC
102
{ACAD_REACTORS
330
3BC7
102
}
330
3BC7
100
AcDbXrecord
 10
0.0
 20
0.0
 30
0.0
  0
XRECORD
  5
3BDD
102
{ACAD_REACTORS
330
3BC7
102
}
330
3BC7
100
AcDbXrecord
 10
0.0
 20
0.0
 30
0.0
  0
XRECORD
  5
3BDE
102
{ACAD_REACTORS
330
3BC7
102
}
330
3BC7
100
AcDbXrecord
 10
0.0
 20
0.0
 30
0.0
  0
XRECORD
  5
3BDF
102
{ACAD_REACTORS
330
3BC7
102
}
330
3BC7
100
AcDbXrecord
340
0
  0
XRECORD
  5
3BE0
102
{ACAD_REACTORS
330
3BC7
102
}
330
3BC7
100
AcDbXrecord
 70
     0
  0
XRECORD
  5
3BE1
102
{ACAD_REACTORS
330
3BC7
102
}
330
3BC7
100
AcDbXrecord
340
0
  0
XRECORD
  5
3BE2
102
{ACAD_REACTORS
330
3BC7
102
}
330
3BC7
100
AcDbXrecord
 10
0.0
 20
0.0
 30
0.0
  0
XRECORD
  5
3BE3
102
{ACAD_REACTORS
330
3BC7
102
}
330
3BC7
100
AcDbXrecord
 10
0.0
 20
0.0
 30
0.0
  0
XRECORD
  5
3BE4
102
{ACAD_REACTORS
330
3BC7
102
}
330
3BC7
100
AcDbXrecord
 10
0.0
 20
0.0
 30
0.0
  0
XRECORD
  5
3BE5
102
{ACAD_REACTORS
330
3BC7
102
}
330
3BC7
100
AcDbXrecord
 10
0.0
 20
0.0
 30
0.0
  0
XRECORD
  5
3BE6
102
{ACAD_REACTORS
330
3BC7
102
}
330
3BC7
100
AcDbXrecord
 10
0.0
 20
0.0
 30
0.0
  0
XRECORD
  5
3BE7
102
{ACAD_REACTORS
330
3BC7
102
}
330
3BC7
100
AcDbXrecord
 10
0.0
 20
0.0
 30
0.0
  0
LAYER_INDEX
  5
3BBD
102
{ACAD_REACTORS
330
3BBC
102
}
330
3BBC
100
AcDbIndex
 40
2453151.563149398
100
AcDbLayerIndex
  8
0
360
3BBE
 90
        0
  8
AM_0
360
3BBF
 90
       46
  8
AM_7
360
3BC0
 90
        1
  8
AM_11
360
3BC1
 90
       17
  8
AM_5
360
3BC2
 90
        5
  8
Defpoints
360
3BC3
 90
        0
  8
AM_6
360
3BC4
 90
        1
  8
AM_CL
360
3BC5
 90
        0
  0
XRECORD
  5
2D
102
{ACAD_REACTORS
330
2C
102
}
330
2C
100
AcDbXrecord
  1
VERSION
140
15.0
  1
PRODUCT
  2
AutoCAD Mechanical 2000
  0
IDBUFFER
  5
3BBE
330
0
100
AcDbIdBuffer
  0
IDBUFFER
  5
3BBF
330
0
100
AcDbIdBuffer
330
3AD9
330
3ADA
330
3ADB
330
3ADC
330
3ADD
330
3ADF
330
3AE1
330
3AE2
330
3AE5
330
3AE6
330
3AE7
330
3AE8
330
3AE9
330
3AEA
330
3AEB
330
3AEC
330
3AED
330
3AEE
330
3AEF
330
3AF0
330
3AF1
330
3AF2
330
3AF3
330
3AF4
330
3AF5
330
3AF6
330
3AF7
330
3AF8
330
3B1E
330
3B1F
330
C1D
330
C20
330
24A7
330
24BE
330
2572
330
2C0E
330
2FB7
330
2FB9
330
324C
330
325C
330
325D
330
325E
330
3273
330
327F
330
36E9
330
36EA
  0
IDBUFFER
  5
3BC0
330
0
100
AcDbIdBuffer
330
23EF
  0
IDBUFFER
  5
3BC1
330
0
100
AcDbIdBuffer
330
3AE4
330
24B7
330
24B8
330
24B9
330
24C7
330
24C8
330
24D4
330
24D5
330
24E6
330
24E7
330
2BF3
330
2BF5
330
353A
330
353B
330
3ADE
330
3AE0
330
3AE3
  0
IDBUFFER
  5
3BC2
330
0
100
AcDbIdBuffer
330
CC6
330
2069
330
2D60
330
324F
330
3725
  0
IDBUFFER
  5
3BC3
330
0
100
AcDbIdBuffer
  0
IDBUFFER
  5
3BC4
330
0
100
AcDbIdBuffer
330
19BD
  0
IDBUFFER
  5
3BC5
330
0
100
AcDbIdBuffer
  0
ENDSEC
  0
EOF
