  0
SECTION
  2
HEADER
  9
$ACADVER
  1
AC1014
  9
$ACADMAINTVER
 70
     9
  9
$DWGCODEPAGE
  3
ANSI_932
  9
$INSBASE
 10
0.0
 20
0.0
 30
0.0
  9
$EXTMIN
 10
-142.150001
 20
-29.75000099999953
 30
-0.00000001
  9
$EXTMAX
 10
14.61785916258744
 20
14.2587890980328
 30
0.00000001
  9
$LIMMIN
 10
-156.1444050923396
 20
-44.51020785580943
  9
$LIMMAX
 10
20.31336096277607
 20
28.16015358894219
  9
$ORTHOMODE
 70
     0
  9
$REGENMODE
 70
     1
  9
$FILLMODE
 70
     1
  9
$QTEXTMODE
 70
     0
  9
$MIRRTEXT
 70
     0
  9
$DRAGMODE
 70
     2
  9
$LTSCALE
 40
1.0
  9
$OSMODE
 70
    55
  9
$ATTMODE
 70
     1
  9
$TEXTSIZE
 40
2.5
  9
$TRACEWID
 40
1.0
  9
$TEXTSTYLE
  7
STANDARD
  9
$CLAYER
  8
AM_0
  9
$CELTYPE
  6
BYLAYER
  9
$CECOLOR
 62
   256
  9
$CELTSCALE
 40
1.0
  9
$DELOBJ
 70
     1
  9
$DISPSILH
 70
     0
  9
$DIMSCALE
 40
0.5
  9
$DIMASZ
 40
2.5
  9
$DIMEXO
 40
1.0
  9
$DIMDLI
 40
12.0
  9
$DIMRND
 40
0.0
  9
$DIMDLE
 40
0.0
  9
$DIMEXE
 40
1.0
  9
$DIMTP
 40
0.1
  9
$DIMTM
 40
0.1
  9
$DIMTXT
 40
3.2
  9
$DIMCEN
 40
0.0
  9
$DIMTSZ
 40
0.0
  9
$DIMTOL
 70
     0
  9
$DIMLIM
 70
     0
  9
$DIMTIH
 70
     0
  9
$DIMTOH
 70
     0
  9
$DIMSE1
 70
     0
  9
$DIMSE2
 70
     0
  9
$DIMTAD
 70
     3
  9
$DIMZIN
 70
     8
  9
$DIMBLK
  1
OPEN30
  9
$DIMASO
 70
     1
  9
$DIMSHO
 70
     1
  9
$DIMPOST
  1

  9
$DIMAPOST
  1
"
  9
$DIMALT
 70
     0
  9
$DIMALTD
 70
     2
  9
$DIMALTF
 40
0.0393701
  9
$DIMLFAC
 40
1.0
  9
$DIMTOFL
 70
     1
  9
$DIMTVP
 40
0.0
  9
$DIMTIX
 70
     0
  9
$DIMSOXD
 70
     0
  9
$DIMSAH
 70
     0
  9
$DIMBLK1
  1

  9
$DIMBLK2
  1

  9
$DIMSTYLE
  2
AM_JIS
  9
$DIMCLRD
 70
   256
  9
$DIMCLRE
 70
   256
  9
$DIMCLRT
 70
     2
  9
$DIMTFAC
 40
0.71
  9
$DIMGAP
 40
1.5
  9
$DIMJUST
 70
     0
  9
$DIMSD1
 70
     0
  9
$DIMSD2
 70
     0
  9
$DIMTOLJ
 70
     0
  9
$DIMTZIN
 70
     0
  9
$DIMALTZ
 70
     0
  9
$DIMALTTZ
 70
     0
  9
$DIMFIT
 70
     3
  9
$DIMUPT
 70
     0
  9
$DIMUNIT
 70
     2
  9
$DIMDEC
 70
     3
  9
$DIMTDEC
 70
     3
  9
$DIMALTU
 70
     2
  9
$DIMALTTD
 70
     2
  9
$DIMTXSTY
  7
ASAMI
  9
$DIMAUNIT
 70
     0
  9
$LUNITS
 70
     2
  9
$LUPREC
 70
     2
  9
$SKETCHINC
 40
1.0
  9
$FILLETRAD
 40
2.5
  9
$AUNITS
 70
     0
  9
$AUPREC
 70
     0
  9
$MENU
  1
.
  9
$ELEVATION
 40
0.0
  9
$PELEVATION
 40
0.0
  9
$THICKNESS
 40
0.0
  9
$LIMCHECK
 70
     0
  9
$BLIPMODE
 70
     0
  9
$CHAMFERA
 40
0.5
  9
$CHAMFERB
 40
0.5
  9
$CHAMFERC
 40
20.0
  9
$CHAMFERD
 40
0.0
  9
$SKPOLY
 70
     0
  9
$TDCREATE
 40
2452800.443498622
  9
$TDUPDATE
 40
2453151.563257187
  9
$TDINDWG
 40
0.0799365046
  9
$TDUSRTIMER
 40
0.0799365046
  9
$USRTIMER
 70
     1
  9
$ANGBASE
 50
0.0
  9
$ANGDIR
 70
     0
  9
$PDMODE
 70
     0
  9
$PDSIZE
 40
0.0
  9
$PLINEWID
 40
0.0
  9
$COORDS
 70
     1
  9
$SPLFRAME
 70
     0
  9
$SPLINETYPE
 70
     6
  9
$SPLINESEGS
 70
     8
  9
$ATTDIA
 70
     1
  9
$ATTREQ
 70
     1
  9
$HANDLING
 70
 12289
  9
$HANDSEED
  5
3C6E
  9
$SURFTAB1
 70
     6
  9
$SURFTAB2
 70
     6
  9
$SURFTYPE
 70
     6
  9
$SURFU
 70
     6
  9
$SURFV
 70
     6
  9
$UCSNAME
  2

  9
$UCSORG
 10
0.0
 20
0.0
 30
0.0
  9
$UCSXDIR
 10
1.0
 20
0.0000000000000027
 30
0.0
  9
$UCSYDIR
 10
-0.0000000000000027
 20
1.0
 30
0.0
  9
$PUCSNAME
  2

  9
$PUCSORG
 10
0.0
 20
0.0
 30
0.0
  9
$PUCSXDIR
 10
1.0
 20
0.0
 30
0.0
  9
$PUCSYDIR
 10
0.0
 20
1.0
 30
0.0
  9
$USERI1
 70
     0
  9
$USERI2
 70
     0
  9
$USERI3
 70
     0
  9
$USERI4
 70
     0
  9
$USERI5
 70
     0
  9
$USERR1
 40
0.0
  9
$USERR2
 40
0.0
  9
$USERR3
 40
0.0
  9
$USERR4
 40
0.0
  9
$USERR5
 40
0.0
  9
$WORLDVIEW
 70
     1
  9
$SHADEDGE
 70
     3
  9
$SHADEDIF
 70
    70
  9
$TILEMODE
 70
     1
  9
$MAXACTVP
 70
    64
  9
$PINSBASE
 10
0.0
 20
0.0
 30
0.0
  9
$PLIMCHECK
 70
     0
  9
$PEXTMIN
 10
1.000000000000000E+20
 20
1.000000000000000E+20
 30
1.000000000000000E+20
  9
$PEXTMAX
 10
-1.000000000000000E+20
 20
-1.000000000000000E+20
 30
-1.000000000000000E+20
  9
$PLIMMIN
 10
0.0
 20
0.0
  9
$PLIMMAX
 10
841.0
 20
594.0
  9
$UNITMODE
 70
     0
  9
$VISRETAIN
 70
     1
  9
$PLINEGEN
 70
     0
  9
$PSLTSCALE
 70
     0
  9
$TREEDEPTH
 70
  3020
  9
$PICKSTYLE
 70
     0
  9
$CMLSTYLE
  2
STANDARD
  9
$CMLJUST
 70
     0
  9
$CMLSCALE
 40
20.0
  9
$PROXYGRAPHICS
 70
     1
  9
$MEASUREMENT
 70
     1
  0
ENDSEC
  0
SECTION
  2
CLASSES
  0
CLASS
  1
ACDBDICTIONARYWDFLT
  2
AcDbDictionaryWithDefault
  3
AutoCAD 2000
 90
        0
280
     0
281
     0
  0
CLASS
  1
ACDBPLACEHOLDER
  2
AcDbPlaceHolder
  3
AutoCAD 2000
 90
        0
280
     0
281
     0
  0
CLASS
  1
LAYOUT
  2
AcDbLayout
  3
AutoCAD 2000
 90
        0
280
     0
281
     0
  0
CLASS
  1
AMGSETTINGSOBJ
  2
AmgSettingsObj
  3
"AcadM|Product Description: AutoCAD Mechanical 2000|Company: Autodesk"
 90
        0
280
     0
281
     0
  0
CLASS
  1
ACME_DOCUMENT
  2
AcMeDbDoc
  3
AcMeServices
 90
        0
280
     0
281
     0
  0
CLASS
  1
ACMESCOPE
  2
AcMeScope
  3
AcMeServices
 90
        0
280
     0
281
     0
  0
CLASS
  1
ACMECOMMANDHISTORY
  2
AcMeCommandHistory
  3
AcMeServices
 90
        0
280
     0
281
     0
  0
CLASS
  1
DICTIONARYVAR
  2
AcDbDictionaryVar
  3
AutoCAD 2000
 90
        0
280
     0
281
     0
  0
CLASS
  1
ACIMSYSVARMAN
  2
AcImSysVarManager
  3
AcMeServices
 90
        0
280
     0
281
     0
  0
CLASS
  1
ACIMREALSYSVAR
  2
AcImRealSysVar
  3
AcMeServices
 90
        0
280
     0
281
     0
  0
CLASS
  1
ACIMINTSYSVAR
  2
AcImIntSysVar
  3
AcMeServices
 90
        0
280
     0
281
     0
  0
CLASS
  1
ACMEDRAWINGMAN
  2
AcMeDrawingMan
  3
AcMeServices
 90
        0
280
     0
281
     0
  0
CLASS
  1
ACMEVIEW
  2
AcMeView
  3
AcMeServices
 90
        0
280
     0
281
     0
  0
CLASS
  1
ACDBENTITYCACHE
  2
AcMeEntityCache
  3
AcMeServices
 90
        0
280
     0
281
     0
  0
CLASS
  1
GSMANAGER
  2
AcMeGSManager
  3
AcMeServices
 90
        0
280
     0
281
     0
  0
CLASS
  1
AmdtInternalReactor
  2
AmdtInternalReactor
  3
AcMeServices
 90
        0
280
     0
281
     0
  0
CLASS
  1
ACMESTATEMGR
  2
AcMeStateMgr
  3
AcMeServices
 90
        0
280
     0
281
     0
  0
CLASS
  1
ACME_DATABASE
  2
AcMeDbDatabase
  3
AcMeServices
 90
        0
280
     0
281
     0
  0
CLASS
  1
ACRFINSADJUSTERMGR
  2
AcRfInsAdjusterMgr
  3
AcMeServices
 90
        0
280
     0
281
     0
  0
CLASS
  1
ACMDATADICTIONARY
  2
AcmDataDictionary
  3
"AcmSymBB|Product Description: AutoCAD Mechanical 2000|Company: Autodesk"
 90
        0
280
     0
281
     0
  0
CLASS
  1
ACMDATAENTRYBLOCK
  2
AcmDataEntryBlock
  3
"AcmSymBB|Product Description: AutoCAD Mechanical 2000|Company: Autodesk"
 90
        0
280
     0
281
     0
  0
CLASS
  1
AMGOBJPROPCFG
  2
AmgObjPropCfg
  3
"AmgLay|Product Description: AutoCAD Mechanical 2000|Company: Autodesk"
 90
        1
280
     0
281
     0
  0
CLASS
  1
ACAMGFILTERDAT
  2
AcAmgFilterDat
  3
"AcadM|Product Description: AutoCAD Mechanical 2000|Company: Autodesk"
 90
        0
280
     0
281
     0
  0
CLASS
  1
LAYER_INDEX
  2
AcDbLayerIndex
  3
AutoCAD 2000
 90
        0
280
     0
281
     0
  0
CLASS
  1
IDBUFFER
  2
AcDbIdBuffer
  3
AutoCAD 2000
 90
        0
280
     0
281
     0
  0
CLASS
  1
ACIMSTRSYSVAR
  2
AcImStrSysVar
  3
AcMeServices
 90
        0
280
     0
281
     0
  0
CLASS
  1
ACMSTANDARDJIS
  2
AcmStandardJIS
  3
"AcmSymBB|Product Description: AutoCAD Mechanical 2000|Company: Autodesk"
 90
        0
280
     0
281
     0
  0
CLASS
  1
ACMSURFSTANDARDJIS
  2
AcmSurfTextStdJIS
  3
"AcmSymBB|Product Description: AutoCAD Mechanical 2000|Company: Autodesk"
 90
        0
280
     0
281
     0
  0
CLASS
  1
ACMFCFSTANDARDJIS
  2
AcmFCFStdJIS
  3
"AcmSymBB|Product Description: AutoCAD Mechanical 2000|Company: Autodesk"
 90
        0
280
     0
281
     0
  0
CLASS
  1
ACMWELDSTANDARDJIS
  2
AcmWeldingStdJIS
  3
"AcmSymBB|Product Description: AutoCAD Mechanical 2000|Company: Autodesk"
 90
        0
280
     0
281
     0
  0
CLASS
  1
ACMIDSTANDARDJIS
  2
AcmIdStdJIS
  3
"AcmSymBB|Product Description: AutoCAD Mechanical 2000|Company: Autodesk"
 90
        0
280
     0
281
     0
  0
CLASS
  1
ACMDATUMSTANDARDJIS
  2
AcmDatumStdJIS
  3
"AcmSymBB|Product Description: AutoCAD Mechanical 2000|Company: Autodesk"
 90
        0
280
     0
281
     0
  0
CLASS
  1
ACMBOMSTANDARDJIS
  2
AcmBOMStdJIS
  3
"AcmSymBB|Product Description: AutoCAD Mechanical 2000|Company: Autodesk"
 90
        0
280
     0
281
     0
  0
CLASS
  1
ACMSTANDARDANSI
  2
AcmStandardANSI
  3
"AcmSymBB|Product Description: AutoCAD Mechanical 2000|Company: Autodesk"
 90
        0
280
     0
281
     0
  0
CLASS
  1
ACMSURFSTANDARDANSI
  2
AcmSurfTextStdANSI
  3
"AcmSymBB|Product Description: AutoCAD Mechanical 2000|Company: Autodesk"
 90
        0
280
     0
281
     0
  0
CLASS
  1
ACMFCFSTANDARDANSI
  2
AcmFCFStdANSI
  3
"AcmSymBB|Product Description: AutoCAD Mechanical 2000|Company: Autodesk"
 90
        0
280
     0
281
     0
  0
CLASS
  1
ACMWELDSTANDARDANSI
  2
AcmWeldingStdANSI
  3
"AcmSymBB|Product Description: AutoCAD Mechanical 2000|Company: Autodesk"
 90
        0
280
     0
281
     0
  0
CLASS
  1
ACMIDSTANDARDANSI
  2
AcmIdStdANSI
  3
"AcmSymBB|Product Description: AutoCAD Mechanical 2000|Company: Autodesk"
 90
        0
280
     0
281
     0
  0
CLASS
  1
ACMDATUMSTANDARDANSI
  2
AcmDatumStdANSI
  3
"AcmSymBB|Product Description: AutoCAD Mechanical 2000|Company: Autodesk"
 90
        0
280
     0
281
     0
  0
CLASS
  1
ACMBOMSTANDARDANSI
  2
AcmBOMStdANSI
  3
"AcmSymBB|Product Description: AutoCAD Mechanical 2000|Company: Autodesk"
 90
        0
280
     0
281
     0
  0
CLASS
  1
ACMSTANDARDBSI
  2
AcmStandardBSI
  3
"AcmSymBB|Product Description: AutoCAD Mechanical 2000|Company: Autodesk"
 90
        0
280
     0
281
     0
  0
CLASS
  1
ACMSURFSTANDARDBSI
  2
AcmSurfTextStdBSI
  3
"AcmSymBB|Product Description: AutoCAD Mechanical 2000|Company: Autodesk"
 90
        0
280
     0
281
     0
  0
CLASS
  1
ACMFCFSTANDARDBSI
  2
AcmFCFStdBSI
  3
"AcmSymBB|Product Description: AutoCAD Mechanical 2000|Company: Autodesk"
 90
        0
280
     0
281
     0
  0
CLASS
  1
ACMWELDSTANDARDBSI
  2
AcmWeldingStdBSI
  3
"AcmSymBB|Product Description: AutoCAD Mechanical 2000|Company: Autodesk"
 90
        0
280
     0
281
     0
  0
CLASS
  1
ACMIDSTANDARDBSI
  2
AcmIdStdBSI
  3
"AcmSymBB|Product Description: AutoCAD Mechanical 2000|Company: Autodesk"
 90
        0
280
     0
281
     0
  0
CLASS
  1
ACMDATUMSTANDARDBSI
  2
AcmDatumStdBSI
  3
"AcmSymBB|Product Description: AutoCAD Mechanical 2000|Company: Autodesk"
 90
        0
280
     0
281
     0
  0
CLASS
  1
ACMBOMSTANDARDBSI
  2
AcmBOMStdBSI
  3
"AcmSymBB|Product Description: AutoCAD Mechanical 2000|Company: Autodesk"
 90
        0
280
     0
281
     0
  0
CLASS
  1
LONG_TRANSACTION
  2
AcDbLongTransaction
  3
AutoCAD 2000
 90
        0
280
     0
281
     0
  0
CLASS
  1
LWPOLYLINE
  2
AcDbPolyline
  3
AutoCAD 2000
 90
        0
280
     0
281
     1
  0
CLASS
  1
HATCH
  2
AcDbHatch
  3
AutoCAD 2000
 90
        0
280
     0
281
     1
  0
CLASS
  1
XRECORD
  2
AcDbXrecord
  3
AutoCAD 2000
 90
        0
280
     0
281
     0
  0
ENDSEC
  0
SECTION
  2
TABLES
  0
TABLE
  2
VPORT
  5
8
330
0
100
AcDbSymbolTable
 70
     3
  0
VPORT
  5
3C38
330
8
100
AcDbSymbolTableRecord
100
AcDbViewportTableRecord
  2
*ACTIVE
 70
     0
 10
0.0
 20
0.0
 11
1.0
 21
1.0
 12
-60.83591783395362
 22
-7.745343048636854
 13
0.0
 23
0.0
 14
2.5
 24
2.5
 15
10.0
 25
10.0
 16
0.0
 26
0.0
 36
1.0
 17
0.0
 27
0.0
 37
0.0
 40
104.382338784874
 41
1.56570841889117
 42
50.0
 43
0.0
 44
0.0
 50
0.0
 51
0.0
 71
     0
 72
   100
 73
     1
 74
     1
 75
     0
 76
     0
 77
     0
 78
     0
  0
ENDTAB
  0
TABLE
  2
LTYPE
  5
5
330
0
100
AcDbSymbolTable
 70
    10
  0
LTYPE
  5
14
330
5
100
AcDbSymbolTableRecord
100
AcDbLinetypeTableRecord
  2
BYBLOCK
 70
     0
  3

 72
    65
 73
     0
 40
0.0
  0
LTYPE
  5
15
330
5
100
AcDbSymbolTableRecord
100
AcDbLinetypeTableRecord
  2
BYLAYER
 70
     0
  3

 72
    65
 73
     0
 40
0.0
  0
LTYPE
  5
16
330
5
100
AcDbSymbolTableRecord
100
AcDbLinetypeTableRecord
  2
CONTINUOUS
 70
     0
  3
Solid line
 72
    65
 73
     0
 40
0.0
  0
LTYPE
  5
4B
330
5
100
AcDbSymbolTableRecord
100
AcDbLinetypeTableRecord
  2
AM_ISO02W050
 70
     0
  3
__ __ __ __ __ __ __ __ __ __ __ __ __ __ __
 72
    65
 73
     2
 40
7.5
 49
6.0
 74
     0
 49
-1.5
 74
     0
  0
LTYPE
  5
4C
330
5
100
AcDbSymbolTableRecord
100
AcDbLinetypeTableRecord
  2
AM_ISO08W050
 70
     0
  3
____ . ____ . ____ . ____ . ____ . ____ . ____
 72
    65
 73
     4
 40
18.0
 49
12.0
 74
     0
 49
-1.5
 74
     0
 49
3.0
 74
     0
 49
-1.5
 74
     0
  0
LTYPE
  5
4D
330
5
100
AcDbSymbolTableRecord
100
AcDbLinetypeTableRecord
  2
AM_ISO09W050
 70
     0
  3
_____ . . _____ . . _____ . . ____ .. ____
 72
    65
 73
     6
 40
22.5
 49
12.0
 74
     0
 49
-1.5
 74
     0
 49
3.0
 74
     0
 49
-1.5
 74
     0
 49
3.0
 74
     0
 49
-1.5
 74
     0
  0
LTYPE
  5
4E
330
5
100
AcDbSymbolTableRecord
100
AcDbLinetypeTableRecord
  2
AMCONSTR
 70
     0
  3
_______________________
 72
    65
 73
     2
 40
9999.0
 49
9999.0
 74
     0
 49
0.0
 74
     0
  0
LTYPE
  5
4F
330
5
100
AcDbSymbolTableRecord
100
AcDbLinetypeTableRecord
  2
AM_ISO02W050X2
 70
     0
  3
 _ _ _ _ _ _ _ _ _ _ _ _
 72
    65
 73
     2
 40
3.75
 49
3.0
 74
     0
 49
-0.75
 74
     0
  0
LTYPE
  5
50
330
5
100
AcDbSymbolTableRecord
100
AcDbLinetypeTableRecord
  2
AM_ISO08W050X2
 70
     0
  3
__ . __ . __ . __ . __ . __
 72
    65
 73
     4
 40
9.0
 49
6.0
 74
     0
 49
-0.75
 74
     0
 49
1.5
 74
     0
 49
-0.75
 74
     0
  0
LTYPE
  5
53
330
5
100
AcDbSymbolTableRecord
100
AcDbLinetypeTableRecord
  2
AMZIGZAG
 70
     0
  3
/\/-/\/-/\/-/\/-/\/-/\/
 72
    65
 73
     2
 40
11.00009999999999
 49
0.0001
 74
     4
 75
   135
340
52
 46
0.04
 50
0.0
 44
0.0
 45
0.0
 49
-11.0
 74
     0
  0
LTYPE
  5
166
330
5
100
AcDbSymbolTableRecord
100
AcDbLinetypeTableRecord
  2
ACJISTGL
 70
     0
  3
_ _ _ _ _
 72
    65
 73
     2
 40
3.0
 49
2.0
 74
     0
 49
-1.0
 74
     0
  0
LTYPE
  5
26A
330
5
100
AcDbSymbolTableRecord
100
AcDbLinetypeTableRecord
  2
ACJISTGB
 70
     0
  3
__ . . __ . .
 72
    65
 73
     6
 40
9.0
 49
4.0
 74
     0
 49
-1.0
 74
     0
 49
1.0
 74
     0
 49
-1.0
 74
     0
 49
1.0
 74
     0
 49
-1.0
 74
     0
  0
ENDTAB
  0
TABLE
  2
LAYER
  5
2
330
0
100
AcDbSymbolTable
 70
     7
  0
LAYER
  5
10
330
2
100
AcDbSymbolTableRecord
100
AcDbLayerTableRecord
  2
0
 70
     0
 62
     7
  6
CONTINUOUS
  0
LAYER
  5
3F9
330
2
100
AcDbSymbolTableRecord
100
AcDbLayerTableRecord
  2
AM_0
 70
     0
 62
     7
  6
CONTINUOUS
  0
LAYER
  5
C7C
330
2
100
AcDbSymbolTableRecord
100
AcDbLayerTableRecord
  2
AM_7
 70
     0
 62
     4
  6
AM_ISO08W050
  0
LAYER
  5
C97
330
2
100
AcDbSymbolTableRecord
100
AcDbLayerTableRecord
  2
AM_11
 70
     0
 62
     3
  6
AM_ISO09W050
  0
LAYER
  5
CC5
330
2
100
AcDbSymbolTableRecord
100
AcDbLayerTableRecord
  2
AM_5
 70
     0
 62
     3
  6
CONTINUOUS
  0
LAYER
  5
CC7
330
2
100
AcDbSymbolTableRecord
100
AcDbLayerTableRecord
  2
DEFPOINTS
 70
     0
 62
     7
  6
CONTINUOUS
  0
LAYER
  5
19BC
330
2
100
AcDbSymbolTableRecord
100
AcDbLayerTableRecord
  2
AM_6
 70
     0
 62
     2
  6
CONTINUOUS
  0
ENDTAB
  0
TABLE
  2
STYLE
  5
3
330
0
100
AcDbSymbolTable
 70
     5
  0
STYLE
  5
11
330
3
100
AcDbSymbolTableRecord
100
AcDbTextStyleTableRecord
  2
STANDARD
 70
     0
 40
0.0
 41
1.0
 50
0.0
 71
     0
 42
2.5
  3
simplex.shx
  4
EXTFONT.SHX
  0
STYLE
  5
52
330
3
100
AcDbSymbolTableRecord
100
AcDbTextStyleTableRecord
  2

 70
     1
 40
0.0
 41
1.0
 50
0.0
 71
     0
 42
2.5
  3
ltypeshp.shx
  4

  0
STYLE
  5
6B
330
3
100
AcDbSymbolTableRecord
100
AcDbTextStyleTableRecord
  2
ASAMI
 70
     0
 40
0.0
 41
1.0
 50
0.0
 71
     0
 42
2.5
  3
simplex.shx
  4
EXTFONT.SHX
  0
STYLE
  5
262
330
3
100
AcDbSymbolTableRecord
100
AcDbTextStyleTableRecord
  2
ACJISTS
 70
     0
 40
1.0
 41
1.0
 50
0.0
 71
     0
 42
2.5
  3
simplex.shx
  4
bigfont.shx
  0
STYLE
  5
269
330
3
100
AcDbSymbolTableRecord
100
AcDbTextStyleTableRecord
  2
ACJISGDT
 70
     0
 40
0.0
 41
1.0
 50
0.0
 71
     0
 42
2.5
  3
amgdtans.shx
  4

  0
ENDTAB
  0
TABLE
  2
VIEW
  5
6
330
0
100
AcDbSymbolTable
 70
     0
  0
ENDTAB
  0
TABLE
  2
UCS
  5
7
330
0
100
AcDbSymbolTable
 70
     0
  0
ENDTAB
  0
TABLE
  2
APPID
  5
9
330
0
100
AcDbSymbolTable
 70
    16
  0
APPID
  5
12
330
9
100
AcDbSymbolTableRecord
100
AcDbRegAppTableRecord
  2
ACAD
 70
     0
  0
APPID
  5
30
330
9
100
AcDbSymbolTableRecord
100
AcDbRegAppTableRecord
  2
MCAD_NO_VIS
 70
     0
  0
APPID
  5
31
330
9
100
AcDbSymbolTableRecord
100
AcDbRegAppTableRecord
  2
ACAD_TEMP_GRAPHIC
 70
     0
  0
APPID
  5
2C2
330
9
100
AcDbSymbolTableRecord
100
AcDbRegAppTableRecord
  2
GENIUS_GENDTOL_13
 70
     0
  0
APPID
  5
339
330
9
100
AcDbSymbolTableRecord
100
AcDbRegAppTableRecord
  2
GENIUS_GENODEF_13
 70
     0
  0
APPID
  5
33A
330
9
100
AcDbSymbolTableRecord
100
AcDbRegAppTableRecord
  2
GENIUS_GENOBJ-N-RSBK_13
 70
     0
  0
APPID
  5
33B
330
9
100
AcDbSymbolTableRecord
100
AcDbRegAppTableRecord
  2
GENIUS_GENOBJ-N-LIB_13
 70
     0
  0
APPID
  5
33C
330
9
100
AcDbSymbolTableRecord
100
AcDbRegAppTableRecord
  2
GENIUS_GENSCALE_13
 70
     0
  0
APPID
  5
378
330
9
100
AcDbSymbolTableRecord
100
AcDbRegAppTableRecord
  2
GENIUS_GENDIMSH_14
 70
     0
  0
APPID
  5
C82
330
9
100
AcDbSymbolTableRecord
100
AcDbRegAppTableRecord
  2
GENIUS_GENOBJ-N-CRS_13
 70
     0
  0
APPID
  5
C83
330
9
100
AcDbSymbolTableRecord
100
AcDbRegAppTableRecord
  2
GENIUS_GENOENT_13
 70
     0
  0
APPID
  5
C84
330
9
100
AcDbSymbolTableRecord
100
AcDbRegAppTableRecord
  2
GENIUS_GENOREF_13
 70
     0
  0
APPID
  5
C85
330
9
100
AcDbSymbolTableRecord
100
AcDbRegAppTableRecord
  2
GENIUS_GENOLIS_13
 70
     0
  0
APPID
  5
CA0
330
9
100
AcDbSymbolTableRecord
100
AcDbRegAppTableRecord
  2
GENIUS_GENOBJ-N-CEN_13
 70
     0
  0
APPID
  5
2796
330
9
100
AcDbSymbolTableRecord
100
AcDbRegAppTableRecord
  2
GENIUS_GENFIL_13
 70
     0
  0
APPID
  5
2797
330
9
100
AcDbSymbolTableRecord
100
AcDbRegAppTableRecord
  2
GENIUS_GENOBJ-N-CHA_13
 70
     0
  0
ENDTAB
  0
TABLE
  2
DIMSTYLE
  5
A
330
0
100
AcDbSymbolTable
 70
     9
  0
DIMSTYLE
105
58
330
A
100
AcDbSymbolTableRecord
100
AcDbDimStyleTableRecord
  2
AM_JIS
 70
     0
  3

  4
"
  5
OPEN30
  6

  7

 40
0.5
 41
2.5
 42
1.0
 43
12.0
 44
1.0
 45
0.0
 46
0.0
 47
0.1
 48
0.1
140
3.2
141
0.0
142
0.0
143
0.0393701
144
1.0
145
0.0
146
0.71
147
1.5
 71
     0
 72
     0
 73
     0
 74
     0
 75
     0
 76
     0
 77
     3
 78
     8
170
     0
171
     2
172
     1
173
     0
174
     0
175
     0
176
   256
177
   256
178
     2
270
     2
271
     3
272
     3
273
     2
274
     2
340
6B
275
     0
280
     0
281
     0
282
     0
283
     0
284
     0
285
     0
286
     0
287
     3
288
     0
  0
DIMSTYLE
105
5F
330
A
100
AcDbSymbolTableRecord
100
AcDbDimStyleTableRecord
  2
AM_JIS$3
 70
     0
  3

  4
"
  5
OPEN30
  6

  7

 40
0.5
 41
2.5
 42
1.0
 43
10.0
 44
1.0
 45
0.0
 46
0.0
 47
0.1
 48
0.1
140
3.2
141
0.0
142
0.0
143
0.0393701
144
1.0
145
0.0
146
0.71
147
1.5
 71
     0
 72
     0
 73
     0
 74
     1
 75
     0
 76
     0
 77
     3
 78
     8
170
     0
171
     2
172
     0
173
     0
174
     0
175
     0
176
   256
177
   256
178
     2
270
     2
271
     2
272
     3
273
     2
274
     2
340
6B
275
     0
280
     0
281
     0
282
     0
283
     0
284
     0
285
     0
286
     0
287
     0
288
     1
  0
DIMSTYLE
105
60
330
A
100
AcDbSymbolTableRecord
100
AcDbDimStyleTableRecord
  2
AM_JIS$4
 70
     0
  3

  4
"
  5
OPEN30
  6

  7

 40
0.5
 41
2.5
 42
1.0
 43
10.0
 44
1.0
 45
0.0
 46
0.0
 47
0.1
 48
0.1
140
3.2
141
0.0
142
0.0
143
0.0393701
144
1.0
145
0.0
146
0.71
147
1.5
 71
     0
 72
     0
 73
     0
 74
     1
 75
     0
 76
     0
 77
     3
 78
     8
170
     0
171
     2
172
     0
173
     0
174
     0
175
     0
176
   256
177
   256
178
     2
270
     2
271
     2
272
     3
273
     2
274
     2
340
6B
275
     0
280
     0
281
     0
282
     0
283
     0
284
     0
285
     0
286
     0
287
     0
288
     1
  0
DIMSTYLE
105
61
330
A
100
AcDbSymbolTableRecord
100
AcDbDimStyleTableRecord
  2
AM_JIS$6
 70
     0
  3

  4
"
  5
OPEN30
  6

  7

 40
0.5
 41
2.5
 42
1.0
 43
10.0
 44
1.0
 45
0.0
 46
0.0
 47
0.1
 48
0.1
140
3.2
141
0.0
142
0.0
143
0.0393701
144
1.0
145
0.0
146
0.71
147
1.5
 71
     0
 72
     0
 73
     0
 74
     0
 75
     0
 76
     0
 77
     0
 78
     8
170
     0
171
     2
172
     1
173
     0
174
     0
175
     0
176
   256
177
   256
178
     2
270
     2
271
     2
272
     2
273
     2
274
     2
340
6B
275
     0
280
     0
281
     0
282
     0
283
     0
284
     0
285
     0
286
     0
287
     3
288
     0
  0
DIMSTYLE
105
62
330
A
100
AcDbSymbolTableRecord
100
AcDbDimStyleTableRecord
  2
AM_JIS$7
 70
     0
  3

  4
"
  5
OPEN30
  6

  7

 40
0.5
 41
2.5
 42
1.0
 43
10.0
 44
1.0
 45
0.0
 46
0.0
 47
0.1
 48
0.1
140
3.2
141
0.0
142
0.0
143
0.0393701
144
1.0
145
0.0
146
0.71
147
1.5
 71
     0
 72
     0
 73
     0
 74
     0
 75
     0
 76
     0
 77
     3
 78
     8
170
     0
171
     2
172
     1
173
     0
174
     0
175
     0
176
   256
177
   256
178
     2
270
     2
271
     2
272
     3
273
     2
274
     2
340
6B
275
     0
280
     0
281
     0
282
     0
283
     0
284
     0
285
     0
286
     0
287
     3
288
     0
  0
DIMSTYLE
105
63
330
A
100
AcDbSymbolTableRecord
100
AcDbDimStyleTableRecord
  2
AM_JIS$SF
 70
     0
  3

  4
"
  5
OPEN30
  6

  7

 40
0.5
 41
2.5
 42
1.0
 43
10.0
 44
1.0
 45
0.0
 46
0.0
 47
0.1
 48
0.1
140
3.2
141
0.0
142
0.0
143
0.0393701
144
1.0
145
0.0
146
0.71
147
1.5
 71
     0
 72
     0
 73
     0
 74
     0
 75
     1
 76
     1
 77
     3
 78
     8
170
     0
171
     2
172
     1
173
     0
174
     0
175
     0
176
   256
177
   256
178
     2
270
     2
271
     2
272
     2
273
     2
274
     2
340
6B
275
     0
280
     0
281
     0
282
     0
283
     0
284
     0
285
     0
286
     0
287
     3
288
     0
  0
DIMSTYLE
105
68
330
A
100
AcDbSymbolTableRecord
100
AcDbDimStyleTableRecord
  2
AM_JIS$SH
 70
     0
  3

  4
"
  5

  6
GENAXEH
  7
OPEN30
 40
0.5
 41
2.5
 42
1.0
 43
10.0
 44
1.0
 45
0.0
 46
0.0
 47
0.1
 48
0.1
140
3.2
141
0.0
142
0.0
143
0.0393701
144
2.0
145
0.0
146
0.71
147
1.5
 71
     0
 72
     0
 73
     0
 74
     0
 75
     1
 76
     1
 77
     3
 78
     8
170
     0
171
     2
172
     1
173
     1
174
     0
175
     0
176
   256
177
   256
178
     2
270
     2
271
     2
272
     2
273
     2
274
     2
340
6B
275
     0
280
     0
281
     0
282
     0
283
     0
284
     0
285
     0
286
     0
287
     3
288
     0
  0
DIMSTYLE
105
B34
102
{ACAD_REACTORS
330
3725
102
}
330
A
100
AcDbSymbolTableRecord
100
AcDbDimStyleTableRecord
  2
AM_JIS$2
 70
     0
  3

  4
"
  5
OPEN30
  6

  7

 40
0.5
 41
2.5
 42
1.0
 43
12.0
 44
1.0
 45
0.0
 46
0.0
 47
0.1
 48
0.1
140
3.2
141
0.0
142
0.0
143
0.0393701
144
1.0
145
0.0
146
0.71
147
1.5
 71
     0
 72
     0
 73
     0
 74
     0
 75
     0
 76
     0
 77
     3
 78
     8
170
     0
171
     2
172
     1
173
     0
174
     0
175
     0
176
   256
177
   256
178
     2
270
     2
271
     3
272
     3
273
     2
274
     2
340
6B
275
     0
280
     0
281
     0
282
     0
283
     0
284
     0
285
     0
286
     0
287
     3
288
     0
  0
DIMSTYLE
105
BA5
102
{ACAD_REACTORS
330
CC6
330
2069
330
2D60
330
324F
102
}
330
A
100
AcDbSymbolTableRecord
100
AcDbDimStyleTableRecord
  2
AM_JIS$0
 70
     0
  3

  4
"
  5
OPEN30
  6

  7

 40
0.5
 41
2.5
 42
0.0
 43
10.0
 44
1.0
 45
0.0
 46
0.0
 47
0.1
 48
0.1000000001
140
3.799999999999999
141
0.0
142
0.0
143
0.0393701
144
1.0
145
0.0
146
0.71
147
1.5
 71
     0
 72
     0
 73
     0
 74
     0
 75
     0
 76
     0
 77
     3
 78
     1
170
     0
171
     2
172
     1
173
     0
174
     0
175
     0
176
     3
177
     3
178
     2
270
     2
271
     2
272
     2
273
     2
274
     2
340
11
275
     1
280
     0
281
     0
282
     0
283
     0
284
     8
285
     0
286
     0
287
     0
288
     0
  0
ENDTAB
  0
TABLE
  2
BLOCK_RECORD
  5
1
330
0
100
AcDbSymbolTable
 70
    10
  0
BLOCK_RECORD
  5
1F
102
{ACAD_XDICTIONARY
360
74
102
}
330
1
100
AcDbSymbolTableRecord
100
AcDbBlockTableRecord
  2
*MODEL_SPACE
  0
BLOCK_RECORD
  5
101
102
{ACAD_XDICTIONARY
360
3C61
102
}
330
1
100
AcDbSymbolTableRecord
100
AcDbBlockTableRecord
  2
*PAPER_SPACE
  0
BLOCK_RECORD
  5
59
330
1
100
AcDbSymbolTableRecord
100
AcDbBlockTableRecord
  2
_OPEN30
  0
BLOCK_RECORD
  5
64
330
1
100
AcDbSymbolTableRecord
100
AcDbBlockTableRecord
  2
GENAXEH
  0
BLOCK_RECORD
  5
CC8
330
1
100
AcDbSymbolTableRecord
100
AcDbBlockTableRecord
  2
*D5
  0
BLOCK_RECORD
  5
206A
330
1
100
AcDbSymbolTableRecord
100
AcDbBlockTableRecord
  2
*D6
  0
BLOCK_RECORD
  5
2D61
330
1
100
AcDbSymbolTableRecord
100
AcDbBlockTableRecord
  2
*D7
  0
BLOCK_RECORD
  5
3250
330
1
100
AcDbSymbolTableRecord
100
AcDbBlockTableRecord
  2
*D8
  0
BLOCK_RECORD
  5
3726
330
1
100
AcDbSymbolTableRecord
100
AcDbBlockTableRecord
  2
*D9
  0
ENDTAB
  0
ENDSEC
  0
SECTION
  2
BLOCKS
  0
BLOCK
  5
20
330
1F
100
AcDbEntity
  8
0
100
AcDbBlockBegin
  2
*MODEL_SPACE
 70
     0
 10
0.0
 20
0.0
 30
0.0
  3
*MODEL_SPACE
  1

  0
ENDBLK
  5
21
330
1F
100
AcDbEntity
  8
0
100
AcDbBlockEnd
  0
BLOCK
  5
103
330
101
100
AcDbEntity
 67
     1
  8
0
100
AcDbBlockBegin
  2
*PAPER_SPACE
 70
     0
 10
0.0
 20
0.0
 30
0.0
  3
*PAPER_SPACE
  1

  0
ENDBLK
  5
104
330
101
100
AcDbEntity
 67
     1
  8
0
100
AcDbBlockEnd
  0
BLOCK
  5
5D
330
59
100
AcDbEntity
  8
0
100
AcDbBlockBegin
  2
_OPEN30
 70
     0
 10
0.0
 20
0.0
 30
0.0
  3
_OPEN30
  1

  0
LINE
  5
5A
330
59
100
AcDbEntity
  8
0
 62
     0
100
AcDbLine
 10
-1.0
 20
0.26794919
 30
0.0
 11
0.0
 21
0.0
 31
0.0
  0
LINE
  5
5B
330
59
100
AcDbEntity
  8
0
 62
     0
100
AcDbLine
 10
0.0
 20
0.0
 30
0.0
 11
-1.0
 21
-0.26794919
 31
0.0
  0
LINE
  5
5C
330
59
100
AcDbEntity
  8
0
 62
     0
100
AcDbLine
 10
0.0
 20
0.0
 30
0.0
 11
-1.0
 21
0.0
 31
0.0
  0
ENDBLK
  5
5E
330
59
100
AcDbEntity
  8
0
100
AcDbBlockEnd
  0
BLOCK
  5
66
330
64
100
AcDbEntity
  8
0
100
AcDbBlockBegin
  2
GENAXEH
 70
     0
 10
0.0
 20
0.0
 30
0.0
  3
GENAXEH
  1

  0
LINE
  5
65
330
64
100
AcDbEntity
  8
0
100
AcDbLine
 10
-1.0
 20
0.0
 30
0.0
 11
1.0
 21
0.0
 31
0.0
  0
ENDBLK
  5
67
330
64
100
AcDbEntity
  8
0
100
AcDbBlockEnd
  0
BLOCK
  5
CD2
330
CC8
100
AcDbEntity
  8
0
100
AcDbBlockBegin
  2
*D5
 70
     1
 10
0.0
 20
0.0
 30
0.0
  3
*D5
  1

  0
LINE
  5
3BE6
330
CC8
100
AcDbEntity
  8
AM_5
 62
     3
100
AcDbLine
 10
-130.0
 20
-5.999999999999359
 30
0.0
 11
-130.0
 21
-19.0000009999995
 31
0.0
  0
LINE
  5
3BE7
330
CC8
100
AcDbEntity
  8
AM_5
 62
     3
100
AcDbLine
 10
-2.000000000000216
 20
-6.349999999999941
 30
0.0
 11
-2.000000000000217
 21
-19.0000009999995
 31
0.0
  0
LINE
  5
3BE8
330
CC8
100
AcDbEntity
  8
AM_5
 62
     3
100
AcDbLine
 10
-128.75
 20
-18.5000009999995
 30
0.0
 11
-3.250000000000217
 21
-18.5000009999995
 31
0.0
  0
INSERT
  5
3BE9
330
CC8
100
AcDbEntity
  8
AM_5
 62
     3
100
AcDbBlockReference
  2
_OPEN30
 10
-130.0
 20
-18.5000009999995
 30
0.0
 41
1.25
 42
1.25
 43
1.25
 50
180.0
  0
INSERT
  5
3BEA
330
CC8
100
AcDbEntity
  8
AM_5
 62
     3
100
AcDbBlockReference
  2
_OPEN30
 10
-2.000000000000217
 20
-18.5000009999995
 30
0.0
 41
1.25
 42
1.25
 43
1.25
  0
MTEXT
  5
3BEB
330
CC8
100
AcDbEntity
  8
AM_5
 62
     2
100
AcDbMText
 10
-66.00000000000012
 20
-16.8000009999995
 30
0.0
 40
1.9
 41
0.0
 71
     5
 72
     1
  1
128
1001
ACAD
1000
MTEXTBEGIN
1070
    73
1070
     1
1070
    44
1040
1.0
1070
    74
1070
     0
1000
MTEXTEND
  0
POINT
  5
3BEC
330
CC8
100
AcDbEntity
  8
DEFPOINTS
 62
     0
100
AcDbPoint
 10
-130.0
 20
-5.999999999999359
 30
0.0
  0
POINT
  5
3BED
330
CC8
100
AcDbEntity
  8
DEFPOINTS
 62
     0
100
AcDbPoint
 10
-2.000000000000216
 20
-6.349999999999941
 30
0.0
  0
POINT
  5
3BEE
330
CC8
100
AcDbEntity
  8
DEFPOINTS
 62
     0
100
AcDbPoint
 10
-2.000000000000217
 20
-18.5000009999995
 30
0.0
  0
ENDBLK
  5
CD3
330
CC8
100
AcDbEntity
  8
0
100
AcDbBlockEnd
  0
BLOCK
  5
2074
330
206A
100
AcDbEntity
  8
0
100
AcDbBlockBegin
  2
*D6
 70
     1
 10
0.0
 20
0.0
 30
0.0
  3
*D6
  1

  0
LINE
  5
3C03
330
206A
100
AcDbEntity
  8
AM_5
 62
     3
100
AcDbLine
 10
-66.99999999999961
 20
-6.499999999999623
 30
0.0
 11
-66.99999999999959
 21
-14.00000099999965
 31
0.0
  0
LINE
  5
3C04
330
206A
100
AcDbEntity
  8
AM_5
 62
     3
100
AcDbLine
 10
-2.000000000000197
 20
-6.349999999999947
 30
0.0
 11
-2.000000000000175
 21
-14.00000099999946
 31
0.0
  0
LINE
  5
3C05
330
206A
100
AcDbEntity
  8
AM_5
 62
     3
100
AcDbLine
 10
-65.74999999999959
 20
-13.50000099999965
 30
0.0
 11
-3.250000000000177
 21
-13.50000099999946
 31
0.0
  0
INSERT
  5
3C06
330
206A
100
AcDbEntity
  8
AM_5
 62
     3
100
AcDbBlockReference
  2
_OPEN30
 10
-66.99999999999959
 20
-13.50000099999965
 30
0.0
 41
1.25
 42
1.25
 43
1.25
 50
180.0000000000001
  0
INSERT
  5
3C07
330
206A
100
AcDbEntity
  8
AM_5
 62
     3
100
AcDbBlockReference
  2
_OPEN30
 10
-2.000000000000177
 20
-13.50000099999946
 30
0.0
 41
1.25
 42
1.25
 43
1.25
 50
0.0000000000001527
  0
MTEXT
  5
3C08
330
206A
100
AcDbEntity
  8
AM_5
 62
     2
100
AcDbMText
 10
-34.49999999999988
 20
-11.80000099999956
 30
0.0
 40
1.9
 41
0.0
 71
     5
 72
     1
  1
65
1001
ACAD
1000
MTEXTBEGIN
1070
    73
1070
     1
1070
    44
1040
1.0
1070
    74
1070
     0
1000
MTEXTEND
  0
POINT
  5
3C09
330
206A
100
AcDbEntity
  8
DEFPOINTS
 62
     0
100
AcDbPoint
 10
-66.99999999999963
 20
-6.499999999999428
 30
0.0
  0
POINT
  5
3C0A
330
206A
100
AcDbEntity
  8
DEFPOINTS
 62
     0
100
AcDbPoint
 10
-2.000000000000216
 20
-6.349999999999941
 30
0.0
  0
POINT
  5
3C0B
330
206A
100
AcDbEntity
  8
DEFPOINTS
 62
     0
100
AcDbPoint
 10
-2.000000000000216
 20
-13.50000099999945
 30
0.0
  0
ENDBLK
  5
2075
330
206A
100
AcDbEntity
  8
0
100
AcDbBlockEnd
  0
BLOCK
  5
2D6B
330
2D61
100
AcDbEntity
  8
0
100
AcDbBlockBegin
  2
*D7
 70
     1
 10
0.0
 20
0.0
 30
0.0
  3
*D7
  1

  0
LINE
  5
3C0C
330
2D61
100
AcDbEntity
  8
AM_5
 62
     3
100
AcDbLine
 10
-1.999999999999921
 20
6.350000000000012
 30
0.0
 11
9.81992332046221
 21
6.349958510228047
 31
0.0
  0
LINE
  5
3C0D
330
2D61
100
AcDbEntity
  8
AM_5
 62
     3
100
AcDbLine
 10
-2.000000000000198
 20
-6.349999999999947
 30
0.0
 11
9.819878741484018
 21
-6.350041489615433
 31
0.0
  0
LINE
  5
3C0E
330
2D61
100
AcDbEntity
  8
AM_5
 62
     3
100
AcDbLine
 10
9.319918932770587
 20
5.09996026531363
 30
0.0
 11
9.319883129181802
 21
-5.100039734545251
 31
0.0
  0
INSERT
  5
3C0F
330
2D61
100
AcDbEntity
  8
AM_5
 62
     3
100
AcDbBlockReference
  2
_OPEN30
 10
9.31992332046529
 20
6.349960265305929
 30
0.0
 41
1.25
 42
1.25
 43
1.25
 50
89.99979888288931
  0
INSERT
  5
3C10
330
2D61
100
AcDbEntity
  8
AM_5
 62
     3
100
AcDbBlockReference
  2
_OPEN30
 10
9.319878741487098
 20
-6.350039734537551
 30
0.0
 41
1.25
 42
1.25
 43
1.25
 50
269.9997988828893
  0
MTEXT
  5
3C11
330
2D61
100
AcDbEntity
  8
AM_5
 62
     2
100
AcDbMText
 10
7.619901030986667
 20
-0.0000337673510138
 30
0.0
 40
1.9
 41
0.0
 71
     5
 72
     1
  1
%%c12.7
 11
0.0000035101557632
 21
0.9999999999938395
 31
0.0
1001
ACAD
1000
MTEXTBEGIN
1070
    73
1070
     1
1070
    44
1040
1.0
1070
    74
1070
     0
1000
MTEXTEND
  0
POINT
  5
3C12
330
2D61
100
AcDbEntity
  8
DEFPOINTS
 62
     0
100
AcDbPoint
 10
-1.999999999999903
 20
6.350000000000019
 30
0.0
  0
POINT
  5
3C13
330
2D61
100
AcDbEntity
  8
DEFPOINTS
 62
     0
100
AcDbPoint
 10
-2.000000000000216
 20
-6.349999999999942
 30
0.0
  0
POINT
  5
3C14
330
2D61
100
AcDbEntity
  8
DEFPOINTS
 62
     0
100
AcDbPoint
 10
9.319878741487082
 20
-6.350039734537578
 30
0.0
  0
ENDBLK
  5
2D6C
330
2D61
100
AcDbEntity
  8
0
100
AcDbBlockEnd
  0
BLOCK
  5
325A
330
3250
100
AcDbEntity
  8
0
100
AcDbBlockBegin
  2
*D8
 70
     1
 10
0.0
 20
0.0
 30
0.0
  3
*D8
  1

  0
LINE
  5
3BEF
330
3250
100
AcDbEntity
  8
AM_5
 62
     3
100
AcDbLine
 10
-129.4999999999999
 20
-6.499999999999964
 30
0.0
 11
-140.000001
 21
-6.500000000000009
 31
0.0
  0
LINE
  5
3BF0
330
3250
100
AcDbEntity
  8
AM_5
 62
     3
100
AcDbLine
 10
-129.5
 20
6.50000000000003
 30
0.0
 11
-140.0000010000001
 21
6.499999999999984
 31
0.0
  0
LINE
  5
3BF1
330
3250
100
AcDbEntity
  8
AM_5
 62
     3
100
AcDbLine
 10
-139.500001
 20
-5.250000000000007
 30
0.0
 11
-139.500001
 21
5.249999999999986
 31
0.0
  0
INSERT
  5
3BF2
330
3250
100
AcDbEntity
  8
AM_5
 62
     3
100
AcDbBlockReference
  2
_OPEN30
 10
-139.500001
 20
-6.500000000000007
 30
0.0
 41
1.25
 42
1.25
 43
1.25
 50
270.0000000000002
  0
INSERT
  5
3BF3
330
3250
100
AcDbEntity
  8
AM_5
 62
     3
100
AcDbBlockReference
  2
_OPEN30
 10
-139.500001
 20
6.499999999999986
 30
0.0
 41
1.25
 42
1.25
 43
1.25
 50
90.00000000000026
  0
MTEXT
  5
3BF4
330
3250
100
AcDbEntity
  8
AM_5
 62
     2
100
AcDbMText
 10
-141.200001
 20
0.0000129000659292
 30
0.0
 40
1.9
 41
0.0
 71
     5
 72
     1
  1
%%c13
 11
-0.0000000000000046
 21
1.0
 31
0.0
1001
ACAD
1000
MTEXTBEGIN
1070
    73
1070
     1
1070
    44
1040
1.0
1070
    74
1070
     0
1000
MTEXTEND
  0
POINT
  5
3BF5
330
3250
100
AcDbEntity
  8
DEFPOINTS
 62
     0
100
AcDbPoint
 10
-129.5
 20
-6.49999999999936
 30
0.0
  0
POINT
  5
3BF6
330
3250
100
AcDbEntity
  8
DEFPOINTS
 62
     0
100
AcDbPoint
 10
-129.4999999999999
 20
6.500000000000634
 30
0.0
  0
POINT
  5
3BF7
330
3250
100
AcDbEntity
  8
DEFPOINTS
 62
     0
100
AcDbPoint
 10
-139.500001
 20
6.500000000000637
 30
0.0
  0
ENDBLK
  5
325B
330
3250
100
AcDbEntity
  8
0
100
AcDbBlockEnd
  0
BLOCK
  5
3734
330
3726
100
AcDbEntity
  8
0
100
AcDbBlockBegin
  2
*D9
 70
     1
 10
0.0
 20
0.0
 30
0.0
  3
*D9
  1

  0
LINE
  5
3C63
330
3726
100
AcDbEntity
  8
AM_5
100
AcDbLine
 10
0.1710100704080498
 20
-0.4698463108496367
 30
0.0
 11
5.189778949485521
 21
-14.25880059415442
 31
0.0
  0
LINE
  5
3C64
330
3726
100
AcDbEntity
  8
AM_5
100
AcDbLine
 10
0.1710111111829634
 20
0.4698459320372894
 30
0.0
 11
5.189810534711617
 21
14.2587890980328
 31
0.0
  0
ARC
  5
3C65
330
3726
100
AcDbEntity
  8
AM_5
100
AcDbCircle
 10
-0.0000000000000215
 20
0.0000000000000223
 30
0.0
 40
14.67389863971624
100
AcDbArc
 50
294.8822331551944
 51
65.11763992663535
  0
INSERT
  5
3C66
330
3726
100
AcDbEntity
  8
AM_5
100
AcDbBlockReference
  2
_OPEN30
 10
5.018768879077453
 20
-13.78895428330477
 30
0.0
 41
1.25
 42
1.25
 43
1.25
 50
202.4411165010904
  0
INSERT
  5
3C67
330
3726
100
AcDbEntity
  8
AM_5
100
AcDbBlockReference
  2
_OPEN30
 10
5.018799423528636
 20
13.78894316599554
 30
0.0
 41
1.25
 42
1.25
 43
1.25
 50
157.5587565807393
  0
MTEXT
  5
3C68
330
3726
100
AcDbEntity
  8
AM_5
 62
     2
100
AcDbMText
 10
13.12389863970817
 20
-0.0000145356360758
 30
0.0
 40
1.6
 41
0.0
 71
     5
 72
     1
  1
140°
  7
ASAMI
 11
0.0000011075699751
 21
0.9999999999993868
 31
0.0
  0
POINT
  5
3C69
330
3726
100
AcDbEntity
  8
DEFPOINTS
 62
     0
100
AcDbPoint
 10
13.4738057850486
 20
-5.812044300885538
 30
0.0
  0
POINT
  5
3C6A
330
3726
100
AcDbEntity
  8
DEFPOINTS
 62
     0
100
AcDbPoint
 10
-0.000000000000019
 20
0.0000000000000292
 30
0.0
  0
POINT
  5
3C6B
330
3726
100
AcDbEntity
  8
DEFPOINTS
 62
     0
100
AcDbPoint
 10
-0.0000000000000188
 20
0.0000000000000149
 30
0.0
  0
POINT
  5
3C6C
330
3726
100
AcDbEntity
  8
DEFPOINTS
 62
     0
100
AcDbPoint
 10
-0.7533911495306961
 20
2.069925188552355
 30
0.0
  0
POINT
  5
3C6D
330
3726
100
AcDbEntity
  8
DEFPOINTS
 62
     0
100
AcDbPoint
 10
-0.7534062090557969
 20
-2.069952297530525
 30
0.0
  0
ENDBLK
  5
3735
330
3726
100
AcDbEntity
  8
0
100
AcDbBlockEnd
  0
ENDSEC
  0
SECTION
  2
ENTITIES
  0
LINE
  5
C1D
330
1F
100
AcDbEntity
  8
AM_0
 48
0.5
100
AcDbLine
 10
-0.0000000000000188
 20
0.0000000000000149
 30
0.0
 11
-0.7533911495306961
 21
2.069925188552355
 31
0.0
  0
LINE
  5
C20
330
1F
100
AcDbEntity
  8
AM_0
 48
0.5
100
AcDbLine
 10
-0.000000000000019
 20
0.0000000000000292
 30
0.0
 11
-0.7534062090557968
 21
-2.069952297530525
 31
0.0
  0
DIMENSION
  5
CC6
330
1F
100
AcDbEntity
  8
AM_5
100
AcDbDimension
  2
*D5
 10
-2.000000000000217
 20
-18.5000009999995
 30
0.0
 11
-66.00000000000012
 21
-16.8000009999995
 31
0.0
 70
    32
  1
<>
  3
AM_JIS$0
100
AcDbAlignedDimension
 13
-130.0
 23
-5.999999999999359
 33
0.0
 14
-2.000000000000216
 24
-6.349999999999941
 34
0.0
 50
0.0000000000001132
100
AcDbRotatedDimension
1001
GENIUS_GENDTOL_13
1000

1000
h7
1000

1040
0.0
1001
ACAD
1000
DSTYLE
1002
{
1070
   271
1070
     0
1002
}
  0
TEXT
  5
19BD
330
1F
100
AcDbEntity
  8
AM_6
100
AcDbText
 10
-77.01190476190472
 20
-29.75000099999953
 30
0.0
 40
2.5
  1
MDW127MHK
 50
0.0000000000001527
 72
     4
 11
-65.99999999999996
 21
-28.5000009999995
 31
0.0
100
AcDbText
  0
DIMENSION
  5
2069
330
1F
100
AcDbEntity
  8
AM_5
100
AcDbDimension
  2
*D6
 10
-2.000000000000216
 20
-13.50000099999945
 30
0.0
 11
-34.49999999999992
 21
-11.80000099999946
 31
0.0
 70
    32
  1
<>
 51
359.9999999999998
  3
AM_JIS$0
100
AcDbAlignedDimension
 13
-66.99999999999963
 23
-6.499999999999428
 33
0.0
 14
-2.000000000000216
 24
-6.349999999999941
 34
0.0
 50
0.0000000000001527
100
AcDbRotatedDimension
1001
ACAD
1000
DSTYLE
1002
{
1070
   271
1070
     0
1070
   174
1070
     1
1002
}
1001
GENIUS_GENDTOL_13
1000

1000
h7
1000

1040
0.0
  0
LINE
  5
23EF
330
1F
100
AcDbEntity
  8
AM_7
100
AcDbLine
 10
-132.4999999999999
 20
0.0000000000006585
 30
0.0
 11
2.319900031072529
 21
0.0000000000000059
 31
0.0
1001
GENIUS_GENODEF_13
1002
{
1000
HIER
1070
     0
1002
}
1002
{
1000
MANEDIT
1070
     0
1002
}
1002
{
1000
NOSEL
1070
     0
1002
}
1002
{
1000
BEHIND
1070
     0
1002
}
1002
{
1000
REACTOR
1002
}
1001
GENIUS_GENOBJ-N-CEN_13
1002
{
1000
OWNER
1000
GEN
1002
}
  0
LINE
  5
24A7
330
1F
100
AcDbEntity
  8
AM_0
 48
0.5
100
AcDbLine
 10
-1.511951370066585
 20
5.2654551067158
 30
0.0
 11
-1.999999999999903
 21
6.350000000000017
 31
0.0
  0
ELLIPSE
  5
24B7
330
1F
100
AcDbEntity
  8
AM_11
 48
0.5
100
AcDbEllipse
 10
-20.48047175224789
 20
23.75124007712542
 30
0.0
 11
-27.41493431727054
 21
0.0000000000002086
 31
0.0
210
0.0
220
0.0
230
1.0
 40
0.9578947368421056
 41
1.130070686340284
 42
2.011520147323574
  0
ELLIPSE
  5
24B8
330
1F
100
AcDbEntity
  8
AM_11
 48
0.5
100
AcDbEllipse
 10
-20.48047175224919
 20
-23.75122283592518
 30
0.0
 11
-27.4149343172705
 21
0.0000000000001234
 31
0.0
210
0.0
220
0.0
230
1.0
 40
0.9578947368421054
 41
4.271664206181664
 42
5.153113667164971
  0
ELLIPSE
  5
24B9
330
1F
100
AcDbEntity
  8
AM_11
 48
0.5
100
AcDbEllipse
 10
2.909679762903653
 20
23.7512400771248
 30
0.0
 11
-27.41493431727048
 21
0.0000000000021444
 31
0.0
210
0.0
220
0.0
230
1.0
 40
0.9578947368421141
 41
1.130070686340349
 42
1.291800737381041
  0
ELLIPSE
  5
24BE
330
1F
100
AcDbEntity
  8
AM_0
 48
0.5
100
AcDbEllipse
 10
8.843549875891971
 20
7.479628075874707
 30
0.0
 11
6.279624308223261
 21
9.471465715656009
 31
0.0
210
0.0
220
0.0
230
1.0
 40
0.8737399835012123
 41
2.299539807783199
 42
2.612789724792156
  0
ELLIPSE
  5
24C7
330
1F
100
AcDbEntity
  8
AM_11
 48
0.5
100
AcDbEllipse
 10
-90.65092629769585
 20
23.75124007712721
 30
0.0
 11
-27.41493431727054
 21
0.0000000000006104
 31
0.0
210
0.0
220
0.0
230
1.0
 40
0.9578947368421056
 41
1.130070686340301
 42
2.011520147323591
  0
ELLIPSE
  5
24C8
330
1F
100
AcDbEntity
  8
AM_11
 48
0.5
100
AcDbEllipse
 10
-90.6509262976972
 20
-23.75122283592339
 30
0.0
 11
27.4149343172705
 21
0.0000000000004582
 31
0.0
210
0.0
220
0.0
230
1.0
 40
0.957894736842107
 41
1.13007155259185
 42
2.011521013575156
  0
ELLIPSE
  5
24D4
330
1F
100
AcDbEntity
  8
AM_11
 48
0.5
100
AcDbEllipse
 10
-67.26077478254436
 20
23.75124007712664
 30
0.0
 11
-27.41493431727058
 21
0.0000000000001599
 31
0.0
210
0.0
220
0.0
230
1.0
 40
0.9578947368421051
 41
1.130070686340283
 42
2.011520147323574
  0
ELLIPSE
  5
24D5
330
1F
100
AcDbEntity
  8
AM_11
 48
0.5
100
AcDbEllipse
 10
-67.26077478254566
 20
-23.75122283592396
 30
0.0
 11
-27.41493431727046
 21
0.0000000000004948
 31
0.0
210
0.0
220
0.0
230
1.0
 40
0.9578947368421083
 41
4.271664206181676
 42
5.153113667164986
  0
ELLIPSE
  5
24E6
330
1F
100
AcDbEntity
  8
AM_11
 48
0.5
100
AcDbEllipse
 10
-43.8706232674007
 20
-23.75122283592459
 30
0.0
 11
-27.41493431727049
 21
0.0000000000007443
 31
0.0
210
0.0
220
0.0
230
1.0
 40
0.9578947368421058
 41
4.271664206181685
 42
5.153113667164993
  0
ELLIPSE
  5
24E7
330
1F
100
AcDbEntity
  8
AM_11
 48
0.5
100
AcDbEllipse
 10
-43.87062326739939
 20
23.75124007712602
 30
0.0
 11
27.41493431727055
 21
0.0000000000000443
 31
0.0
210
0.0
220
0.0
230
1.0
 40
0.9578947368421051
 41
4.271663339930067
 42
5.153112800913361
  0
ELLIPSE
  5
2BF3
330
1F
100
AcDbEntity
  8
AM_11
 48
0.5
100
AcDbEllipse
 10
-114.0410778128377
 20
23.75124007712648
 30
0.0
 11
-27.41493431727058
 21
0.0000000000001599
 31
0.0
210
0.0
220
0.0
230
1.0
 40
0.9578947368421051
 41
1.130070686340283
 42
2.011520147323574
  0
ELLIPSE
  5
2BF5
330
1F
100
AcDbEntity
  8
AM_11
 48
0.5
100
AcDbEllipse
 10
-114.041077812839
 20
-23.75122283592412
 30
0.0
 11
-27.41493431727046
 21
0.0000000000004948
 31
0.0
210
0.0
220
0.0
230
1.0
 40
0.9578947368421083
 41
4.271664206181676
 42
5.153113667164986
  0
LINE
  5
2C0E
330
1F
100
AcDbEntity
  8
AM_0
 48
0.5
100
AcDbLine
 10
-67.0
 20
-6.499999999999428
 30
0.0
 11
-67.0
 21
6.500000000000565
 31
0.0
  0
DIMENSION
  5
2D60
330
1F
100
AcDbEntity
  8
AM_5
100
AcDbDimension
  2
*D7
 10
9.319878741487082
 20
-6.350039734537578
 30
0.0
 11
7.619901030986667
 21
-0.000033767351036
 31
0.0
 70
    32
  1
%%c<>
 51
359.9999999999998
  3
AM_JIS$0
100
AcDbAlignedDimension
 13
-1.999999999999903
 23
6.350000000000017
 33
0.0
 14
-2.000000000000216
 24
-6.349999999999941
 34
0.0
 50
89.99979888288933
100
AcDbRotatedDimension
1001
ACAD
1000
DSTYLE
1002
{
1070
   271
1070
     1
1002
}
1001
GENIUS_GENDTOL_13
1000

1000
h7
1000

1040
0.0
  0
LINE
  5
2FB9
330
1F
100
AcDbEntity
  8
AM_0
100
AcDbLine
 10
-66.99999999999997
 20
-6.499999999999632
 30
0.0
 11
-66.74019177815234
 21
-6.349999653178213
 31
0.0
  0
LINE
  5
324C
330
1F
100
AcDbEntity
  8
AM_0
100
AcDbLine
 10
-129.5
 20
-6.49999999999936
 30
0.0
 11
-67.0
 21
-6.499999999999428
 31
0.0
  0
DIMENSION
  5
324F
330
1F
100
AcDbEntity
  8
AM_5
100
AcDbDimension
  2
*D8
 10
-139.500001
 20
6.500000000000637
 30
0.0
 11
-139.500001
 21
0.0000129000665906
 31
0.0
 70
   160
  1
%%c<>
 51
359.9999999999997
  3
AM_JIS$0
100
AcDbAlignedDimension
 13
-129.5
 23
-6.49999999999936
 33
0.0
 14
-129.4999999999999
 24
6.500000000000634
 34
0.0
 50
270.0
100
AcDbRotatedDimension
1001
ACAD
1000
DSTYLE
1002
{
1070
   271
1070
     0
1002
}
1001
GENIUS_GENDTOL_13
1000

1000
h7
1000

1040
0.0
  0
LINE
  5
325C
330
1F
100
AcDbEntity
  8
AM_0
 48
0.5
100
AcDbLine
 10
-129.5
 20
-6.499999999999353
 30
0.0
 11
-129.4999999999999
 21
6.500000000000634
 31
0.0
  0
LINE
  5
325D
330
1F
100
AcDbEntity
  8
AM_0
 48
0.5
100
AcDbLine
 10
-130.0
 20
-5.999999999999353
 30
0.0
 11
-130.0
 21
6.000000000000637
 31
0.0
  0
LINE
  5
325E
330
1F
100
AcDbEntity
  8
AM_0
100
AcDbLine
 10
-67.0
 20
6.500000000000566
 30
0.0
 11
-129.4999999999999
 21
6.500000000000638
 31
0.0
  0
LINE
  5
3273
330
1F
100
AcDbEntity
  8
AM_0
 48
0.5
100
AcDbLine
 10
-129.5
 20
-6.49999999999936
 30
0.0
 11
-130.0
 21
-5.999999999999359
 31
0.0
1001
GENIUS_GENFIL_13
1070
     0
1040
0.5
1040
0.5
1040
20.0
1040
0.0
1002
{
1002
}
1001
GENIUS_GENODEF_13
1002
{
1000
HIER
1070
     0
1002
}
1002
{
1000
MANEDIT
1070
     0
1002
}
1002
{
1000
NOSEL
1070
     0
1002
}
1002
{
1000
BEHIND
1070
     0
1002
}
1002
{
1000
REACTOR
1002
}
1001
GENIUS_GENOBJ-N-CHA_13
1002
{
1000
OWNER
1000
GEN
1002
}
  0
LINE
  5
327F
330
1F
100
AcDbEntity
  8
AM_0
 48
0.5
100
AcDbLine
 10
-129.4999999999999
 20
6.500000000000638
 30
0.0
 11
-130.0
 21
6.000000000000639
 31
0.0
1001
GENIUS_GENFIL_13
1070
     0
1040
0.5
1040
0.5
1040
20.0
1040
0.0
1002
{
1002
}
1001
GENIUS_GENODEF_13
1002
{
1000
HIER
1070
     0
1002
}
1002
{
1000
MANEDIT
1070
     0
1002
}
1002
{
1000
NOSEL
1070
     0
1002
}
1002
{
1000
BEHIND
1070
     0
1002
}
1002
{
1000
REACTOR
1002
}
1001
GENIUS_GENOBJ-N-CHA_13
1002
{
1000
OWNER
1000
GEN
1002
}
  0
ELLIPSE
  5
353A
330
1F
100
AcDbEntity
  8
AM_11
 48
0.5
100
AcDbEllipse
 10
-137.4311795875309
 20
-23.75122283592355
 30
0.0
 11
27.4149343172705
 21
0.0000000000004582
 31
0.0
210
0.0
220
0.0
230
1.0
 40
0.957894736842107
 41
1.13007155259185
 42
1.296298923048811
  0
ELLIPSE
  5
353B
330
1F
100
AcDbEntity
  8
AM_11
 48
0.5
100
AcDbEllipse
 10
-137.4311795875296
 20
23.75124007712705
 30
0.0
 11
-27.41493431727054
 21
0.0000000000006104
 31
0.0
210
0.0
220
0.0
230
1.0
 40
0.9578947368421056
 41
1.845293730540934
 42
2.011520147323591
  0
ELLIPSE
  5
36E9
330
1F
100
AcDbEntity
  8
AM_0
 48
0.5
100
AcDbEllipse
 10
8.843549875892023
 20
-7.479628075874651
 30
0.0
 11
6.279624308223326
 21
-9.471465715655966
 31
0.0
210
0.0
220
0.0
230
-1.0
 40
0.8737399835012123
 41
2.299539807783199
 42
2.612789724792156
  0
LINE
  5
36EA
330
1F
100
AcDbEntity
  8
AM_0
 48
0.5
100
AcDbLine
 10
-1.511951370066548
 20
-5.265455106715815
 30
0.0
 11
-2.000000000000216
 21
-6.349999999999941
 31
0.0
  0
DIMENSION
  5
3725
330
1F
100
AcDbEntity
  8
AM_5
100
AcDbDimension
  2
*D9
 10
-0.7534062090557968
 20
-2.069952297530525
 30
0.0
 11
13.12389863970817
 21
-0.0000145356361146
 31
0.0
 70
    34
  1
<>
 51
359.9999999999998
  3
AM_JIS$2
100
AcDb2LineAngularDimension
 13
-0.0000000000000188
 23
0.0000000000000149
 33
0.0
 14
-0.7533911495306961
 24
2.069925188552355
 34
0.0
 15
-0.000000000000019
 25
0.0000000000000292
 35
0.0
 16
13.4738057850486
 26
-5.812044300885538
 36
0.0
1001
GENIUS_GENDTOL_13
1000

1000
h7
1000

1040
0.0
1001
ACAD
1000
DSTYLE
1002
{
1070
   271
1070
     1
1070
   179
1070
     1
1002
}
  0
LINE
  5
3AE0
330
1F
100
AcDbEntity
  8
AM_11
 48
0.5
100
AcDbLine
 10
-64.7685992732689
 20
-6.349999986977926
 30
0.0
 11
-47.25057604691079
 21
-6.349999348477835
 31
0.0
  0
LINE
  5
3B57
330
1F
100
AcDbEntity
  8
AM_0
 48
0.5
100
AcDbLine
 10
-66.74019177815232
 20
-6.349999653178212
 30
0.0
 11
-64.81859927316619
 21
-6.349999986977927
 31
0.0
  0
LINE
  5
3B58
330
1F
100
AcDbEntity
  8
AM_0
100
AcDbLine
 10
-66.74018784972317
 20
-5.174714549858904
 30
0.0
 11
-66.74019177824104
 21
-6.350026196645268
 31
0.0
  0
LINE
  5
3B59
330
1F
100
AcDbEntity
  8
AM_0
100
AcDbLine
 10
-66.74016944627512
 20
0.3311244171184064
 30
0.0
 11
-66.74018122079553
 21
-3.191509663180617
 31
0.0
  0
SPLINE
  5
3B5A
330
1F
100
AcDbEntity
  8
AM_0
 48
0.5
100
AcDbSpline
210
0.0
220
0.0
230
1.0
 70
     8
 71
     3
 72
    26
 73
    22
 74
     0
 42
0.0000000001
 43
0.0000000001
 40
0.0
 40
0.0
 40
0.0
 40
0.0
 40
0.8422864037471089
 40
1.685694647057321
 40
2.531315797913884
 40
3.380177287502886
 40
4.233214169721234
 40
5.09125020057522
 40
5.954967768899448
 40
6.824900391836836
 40
7.701419186604396
 40
8.584724417931369
 40
9.47485577056355
 40
10.37165251267315
 40
11.27486274211709
 40
12.18400675634887
 40
13.09851504074504
 40
14.01768673654235
 40
14.94071745659532
 40
15.8667176994736
 40
16.76607142455336
 40
16.76607142455336
 40
16.76607142455336
 40
16.76607142455336
 10
-44.3208817073282
 20
-6.350322977700472
 30
0.0
 10
-44.6755563619776
 20
-6.346544881703257
 30
0.0
 10
-45.38537806173386
 20
-6.338983657670357
 30
0.0
 10
-46.44985229295175
 20
-6.278031698294355
 30
0.0
 10
-47.5142810888682
 20
-6.181134018697271
 30
0.0
 10
-48.57864399544117
 20
-6.045328186695936
 30
0.0
 10
-49.64293044746614
 20
-5.872454845205263
 30
0.0
 10
-50.70711924022845
 20
-5.663281929669802
 30
0.0
 10
-51.77120966577068
 20
-5.419222693466528
 30
0.0
 10
-52.83519446701951
 20
-5.141759429478076
 30
0.0
 10
-53.89907112861192
 20
-4.832613750898538
 30
0.0
 10
-54.96284840629252
 20
-4.493709806145179
 30
0.0
 10
-56.02652189211569
 20
-4.127140217836532
 30
0.0
 10
-57.09010363780158
 20
-3.735153614726926
 30
0.0
 10
-58.15360786417103
 20
-3.320206139706154
 30
0.0
 10
-59.21703686905734
 20
-2.884814971091078
 30
0.0
 10
-60.28039857976489
 20
-2.431685094549546
 30
0.0
 10
-61.34371252368023
 20
-1.963612223588427
 30
0.0
 10
-62.46348363007823
 20
-1.582092113290262
 30
0.0
 10
-63.62854758295199
 20
-1.097825652759037
 30
0.0
 10
-64.52392036831486
 20
-0.674114654588328
 30
0.0
 10
-67.0
 20
0.4490141579263883
 30
0.0
  0
ELLIPSE
  5
3B5B
330
1F
100
AcDbEntity
  8
AM_0
 48
0.5
100
AcDbEllipse
 10
-64.89482179370361
 20
-4.233656311033048
 30
0.0
 11
-1.459504312445729
 21
1.590430705349438
 31
0.0
210
0.0
220
0.0
230
1.0
 40
0.9567113324330239
 41
0.8615440965534579
 42
2.413174327066009
  0
ELLIPSE
  5
3B5C
330
1F
100
AcDbEntity
  8
AM_0
 48
0.5
100
AcDbEllipse
 10
-65.23790867770468
 20
-3.794794372614139
 30
0.0
 11
1.330046277932193
 21
1.43170418132254
 31
0.0
210
0.0
220
0.0
230
1.0
 40
0.8098899990140028
 41
0.3272704652336436
 42
2.477011899384802
  0
SPLINE
  5
3B5D
330
1F
100
AcDbEntity
  8
AM_0
100
AcDbSpline
210
0.0
220
0.0
230
1.0
 70
     8
 71
     3
 72
    13
 73
     9
 74
     0
 42
0.0000000001
 43
0.0000000001
 40
16.03460056234195
 40
16.03460056234195
 40
16.03460056234195
 40
16.03460056234195
 40
16.35212717791071
 40
17.38177067057215
 40
18.41822498539278
 40
19.46214186516937
 40
20.5139635832251
 40
21.34083983469381
 40
21.34083983469381
 40
21.34083983469381
 40
21.34083983469381
 10
-64.81860137164052
 20
-6.349999999999152
 30
0.0
 10
-64.59385796705297
 20
-6.329464631770241
 30
0.0
 10
-64.13033487484402
 20
-6.236117348321699
 30
0.0
 10
-63.31383507684036
 20
-6.05321043922229
 30
0.0
 10
-62.25646499149977
 20
-5.78123379517009
 30
0.0
 10
-61.20007721020812
 20
-5.475848306825406
 30
0.0
 10
-60.22257099338606
 20
-5.163716928579519
 30
0.0
 10
-59.59893924084475
 20
-4.948792261419931
 30
0.0
 10
-58.08133485631667
 20
-4.442864777712944
 30
0.0
  0
LINE
  5
3B5E
330
1F
100
AcDbEntity
  8
AM_0
 48
0.5
100
AcDbLine
 10
-51.39877440017011
 20
3.015519136895467
 30
0.0
 11
-67.0
 21
0.4490141579263883
 31
0.0
  0
LINE
  5
3B5F
330
1F
100
AcDbEntity
  8
AM_0
100
AcDbLine
 10
-67.0
 20
6.500000000000565
 30
0.0
 11
-66.74014933204822
 21
6.348784473472273
 31
0.0
  0
LINE
  5
3B60
330
1F
100
AcDbEntity
  8
AM_0
 48
0.5
100
AcDbLine
 10
-61.29482974956999
 20
6.350099668737273
 30
0.0
 11
-66.7422379100638
 21
6.34999988471909
 31
0.0
  0
LINE
  5
3B61
330
1F
100
AcDbEntity
  8
AM_0
100
AcDbLine
 10
-66.74014932798243
 20
6.350000853082896
 30
0.0
 11
-66.74016890935175
 21
0.4917580938801737
 31
0.0
  0
LINE
  5
3B62
330
1F
100
AcDbEntity
  8
AM_0
 48
0.5
100
AcDbLine
 10
-5.946789786811654
 20
6.3500000000002
 30
0.0
 11
-1.999999999999903
 21
6.350000000000017
 31
0.0
  0
LINE
  5
3B63
330
1F
100
AcDbEntity
  8
AM_0
 48
0.5
100
AcDbLine
 10
-0.0000000000000378
 20
0.0000000000000297
 30
0.0
 11
-3.104006132457018
 21
2.438207774303919
 31
0.0
  0
LINE
  5
3B64
330
1F
100
AcDbEntity
  8
AM_0
 48
0.5
100
AcDbLine
 10
-5.946789785399715
 20
-6.349999343411983
 30
0.0
 11
-2.000000000000242
 21
-6.349999999999941
 31
0.0
  0
LINE
  5
3B65
330
1F
100
AcDbEntity
  8
AM_11
 48
0.5
100
AcDbLine
 10
-62.92937139665371
 20
6.35000000000083
 30
0.0
 11
-48.49827734157667
 21
6.350000000000662
 31
0.0
  0
LINE
  5
3B66
330
1F
100
AcDbEntity
  8
AM_0
 48
0.5
100
AcDbLine
 10
-48.49829461220624
 20
6.350000656589877
 30
0.0
 11
-25.99874323878528
 21
6.35000000000107
 31
0.0
  0
LINE
  5
3B67
330
1F
100
AcDbEntity
  8
AM_0
 48
0.5
100
AcDbLine
 10
-47.49364535373891
 20
-6.349999343410416
 30
0.0
 11
-25.99874748895398
 21
-6.349999999999644
 31
0.0
  0
LINE
  5
3B68
330
1F
100
AcDbEntity
  8
AM_11
 48
0.5
100
AcDbLine
 10
-25.99874748895398
 20
-6.349999999999644
 30
0.0
 11
-5.946789785399715
 21
-6.349999343411983
 31
0.0
  0
LINE
  5
3B69
330
1F
100
AcDbEntity
  8
AM_11
 48
0.5
100
AcDbLine
 10
-25.99874323878528
 20
6.35000000000107
 30
0.0
 11
-5.946789786811656
 21
6.350000000000201
 31
0.0
  0
SPLINE
  5
3B6A
330
1F
100
AcDbEntity
  8
AM_0
100
AcDbSpline
210
0.0
220
0.0
230
1.0
 70
     8
 71
     3
 72
    46
 73
    42
 74
     0
 42
0.0000000001
 43
0.0000000001
 40
0.0
 40
0.0
 40
0.0
 40
0.0
 40
1.685415058684571
 40
2.531036209541119
 40
3.379897699130121
 40
4.232934581347655
 40
5.090970612202441
 40
5.954688180526682
 40
6.824620803463246
 40
7.701151815239689
 40
8.584457046566678
 40
9.474582384070741
 40
10.37139106676737
 40
11.27458944007583
 40
12.18373345430765
 40
13.09824173870457
 40
14.01741343450111
 40
14.9404441545541
 40
15.86644439743314
 40
16.79446029130534
 40
17.7234937712985
 40
18.65252725129241
 40
19.58054314516461
 40
20.50654338804289
 40
21.42957410809586
 40
22.34874580389317
 40
23.26325408828901
 40
24.17239810252111
 40
25.07560240389441
 40
25.97241108659103
 40
26.8625364240951
 40
27.74584165542183
 40
28.62236045019041
 40
29.49229307312697
 40
30.35601064145121
 40
31.21404606334468
 40
32.06708345193547
 40
32.91595755657689
 40
33.76157841950693
 40
34.60498701064689
 40
35.44727335621125
 40
35.44727335621125
 40
35.44727335621125
 40
35.44727335621125
 10
-2.966985239867666
 20
-6.349999343412124
 30
0.0
 10
-3.676841620295251
 20
-6.33553355255128
 30
0.0
 10
-4.742853338404777
 20
-6.313809858865398
 30
0.0
 10
-6.160375606866613
 20
-6.180061067696525
 30
0.0
 10
-7.224749958117861
 20
-6.045206707442686
 30
0.0
 10
-8.289033330699973
 20
-5.872076616031804
 30
0.0
 10
-9.353222920926118
 20
-5.662972966998625
 30
0.0
 10
-10.41731326184567
 20
-5.418895453925255
 30
0.0
 10
-11.48130257126721
 20
-5.141434086869872
 30
0.0
 10
-12.54518611406247
 20
-4.832292519699289
 30
0.0
 10
-13.60896601667952
 20
-4.493388163056236
 30
0.0
 10
-14.67263941787387
 20
-4.126810820203004
 30
0.0
 10
-15.73622340612777
 20
-3.734837612817375
 30
0.0
 10
-16.79972315067207
 20
-3.319878209217319
 30
0.0
 10
-17.86314843137874
 20
-2.884491457805741
 30
0.0
 10
-18.9265110657005
 20
-2.431363417994839
 30
0.0
 10
-19.98982037300125
 20
-1.963280578989659
 30
0.0
 10
-21.05308670196345
 20
-1.483121896649055
 30
0.0
 10
-22.1163213262412
 20
-0.9938424663093119
 30
0.0
 10
-23.17953395855221
 20
-0.4984510125337324
 30
0.0
 10
-24.24273765331017
 20
0.0000006564879589
 30
0.0
 10
-25.30594134783453
 20
0.4984523261153699
 30
0.0
 10
-26.36915398084615
 20
0.993843778074677
 30
0.0
 10
-27.43238860256311
 20
1.483123215052086
 30
0.0
 10
-28.49565494102089
 20
1.963281872775998
 30
0.0
 10
-29.55896421311292
 20
2.43136480305738
 30
0.0
 10
-30.62232697782452
 20
2.884492504840397
 30
0.0
 10
-31.68575408806218
 20
3.319881453132496
 30
0.0
 10
-32.74925796485343
 20
3.734837086616014
 30
0.0
 10
-33.81284385037816
 20
4.126812303906017
 30
0.0
 10
-34.87651722680715
 20
4.493389755835516
 30
0.0
 10
-35.94029275953721
 20
4.83229099823715
 30
0.0
 10
-37.00416921389519
 20
5.141437347565902
 30
0.0
 10
-38.06815418018375
 20
5.418899848081339
 30
0.0
 10
-39.13224390526372
 20
5.662961392322416
 30
0.0
 10
-40.19643427568854
 20
5.872125689653773
 30
0.0
 10
-41.26072444060926
 20
6.045008549074128
 30
0.0
 10
-42.32509330740931
 20
6.180812258901921
 30
0.0
 10
-43.38952802619316
 20
6.277701054967621
 30
0.0
 10
-44.45400138316556
 20
6.33866945981398
 30
0.0
 10
-45.16382338010202
 20
6.346225267748823
 30
0.0
 10
-45.51849809780017
 20
6.350000656589744
 30
0.0
  0
SPLINE
  5
3B6B
330
1F
100
AcDbEntity
  8
AM_0
100
AcDbSpline
210
0.0
220
0.0
230
1.0
 70
     8
 71
     3
 72
    22
 73
    18
 74
     0
 42
0.0000000001
 43
0.0000000001
 40
17.17441611292
 40
17.17441611292
 40
17.17441611292
 40
17.17441611292
 40
17.38177636558528
 40
18.41823744757437
 40
19.46215659509824
 40
20.51397914882054
 40
21.57394542641293
 40
22.64209583141747
 40
23.71826625065247
 40
24.80210429862395
 40
25.8930771157021
 40
26.99048705697709
 40
28.09349309193389
 40
29.20112995599786
 40
30.31233024745139
 40
31.42594771747373
 40
32.5407895042663
 40
32.54078950426994
 40
32.54078950426994
 40
32.54078950426994
 10
-30.06160556893803
 20
-5.702345302482456
 30
0.0
 10
-30.13288427949991
 20
-5.687645675301694
 30
0.0
 10
-30.56016122174728
 20
-5.598108639434805
 30
0.0
 10
-31.34290850298462
 20
-5.418575229017017
 30
0.0
 10
-32.40689338860699
 20
-5.141113150183127
 30
0.0
 10
-33.47076985640294
 20
-4.831966664743664
 30
0.0
 10
-34.53454541728068
 20
-4.493065541714563
 30
0.0
 10
-35.59821866606668
 20
-4.126487746051595
 30
0.0
 10
-36.66180269534523
 20
-3.734514660770792
 30
0.0
 10
-37.72530242980939
 20
-3.319555226336671
 30
0.0
 10
-38.78872770936058
 20
-2.884168474844238
 30
0.0
 10
-39.85209035861368
 20
-2.431040466771643
 30
0.0
 10
-40.91539960691501
 20
-1.962957499943444
 30
0.0
 10
-41.97866615819113
 20
-1.482799299868087
 30
0.0
 10
-43.04189943737462
 20
-0.993518295968213
 30
0.0
 10
-44.10511519534196
 20
-0.4981336164981747
 30
0.0
 10
-44.81378656963968
 20
-0.1658896201402176
 30
0.0
 10
-45.16831693391715
 20
0.0003236342923628
 30
0.0
  0
SPLINE
  5
3B6C
330
1F
100
AcDbEntity
  8
AM_0
100
AcDbSpline
210
0.0
220
0.0
230
1.0
 70
     8
 71
     3
 72
    17
 73
    13
 74
     0
 42
0.0000000001
 43
0.0000000001
 40
1.580019955310467
 40
1.580019955310467
 40
1.580019955310467
 40
1.580019955310467
 40
2.030549285115227
 40
3.082371838836284
 40
4.126290986361125
 40
5.162752068350215
 40
6.192395305374981
 40
7.216039564037012
 40
8.234688489606833
 40
9.249433870634691
 40
10.26152376260694
 40
11.27226744710342
 40
11.27226744710342
 40
11.27226744710342
 40
11.27226744710352
 10
-15.9719842906901
 20
-4.686486329260336
 30
0.0
 10
-16.12258962680817
 20
-4.734753251972231
 30
0.0
 10
-16.62566204714193
 20
-4.892954538129547
 30
0.0
 10
-17.48453142539098
 20
-5.141098916007533
 30
0.0
 10
-18.54836820675165
 20
-5.418987700627396
 30
0.0
 10
-19.61249786138223
 20
-5.662937157772496
 30
0.0
 10
-20.67667627406208
 20
-5.872128050337336
 30
0.0
 10
-21.74097062707276
 20
-6.045038713666965
 30
0.0
 10
-22.8053385091263
 20
-6.180682422848824
 30
0.0
 10
-23.86977266724435
 20
-6.278180161260478
 30
0.0
 10
-24.93424687652579
 20
-6.336904324637152
 30
0.0
 10
-25.64406858744578
 20
-6.349999379746171
 30
0.0
 10
-25.99874748895398
 20
-6.349999999999647
 30
0.0
  0
SPLINE
  5
3B6D
330
1F
100
AcDbEntity
  8
AM_0
100
AcDbSpline
210
0.0
220
0.0
230
1.0
 70
     8
 71
     3
 72
    11
 73
     7
 74
     0
 42
0.0000000001
 43
0.0000000001
 40
11.27226913003534
 40
11.27226913003534
 40
11.27226913003534
 40
11.2722691300354
 40
12.28301561507924
 40
13.29510212255852
 40
14.30984805882082
 40
15.18258238371378
 40
15.18258238371378
 40
15.18258238371378
 40
15.18258238371378
 10
-25.99874748895404
 20
-6.349999999999647
 30
0.0
 10
-26.35206923967163
 20
-6.318920598113141
 30
0.0
 10
-27.05805480424056
 20
-6.243680308349
 30
0.0
 10
-28.11338757325317
 20
-6.091902033253192
 30
0.0
 10
-29.11491697946055
 20
-5.910619525490072
 30
0.0
 10
-29.76264741079877
 20
-5.771262266459035
 30
0.0
 10
-30.0611400376666
 20
-5.7024236296839
 30
0.0
  0
SPLINE
  5
3B6E
330
1F
100
AcDbEntity
  8
AM_0
 48
0.5
100
AcDbSpline
210
0.0
220
0.0
230
1.0
 70
     8
 71
     3
 72
    25
 73
    21
 74
     0
 42
0.0000000001
 43
0.0000000001
 40
6.846175049578289
 40
6.846175049578289
 40
6.846175049578289
 40
6.846175049578289
 40
7.604337694224321
 40
8.711974558287883
 40
9.814980593243754
 40
10.91239053451967
 40
12.0033633515982
 40
13.08720139956839
 40
14.16337181880432
 40
15.23152222380919
 40
16.29148850140128
 40
17.34331105512262
 40
18.38723020264746
 40
19.42369128463655
 40
20.45333379090873
 40
21.47697865721768
 40
22.49561244472435
 40
23.5103574802404
 40
24.52244778960836
 40
25.53320666051913
 40
25.53320666051913
 40
25.53320666051913
 40
25.53320666051913
 10
-7.188234661847257
 20
1.149392229090892
 30
0.0
 10
-7.430046769189555
 20
1.26088693565748
 30
0.0
 10
-8.025642907797504
 20
1.534154009302115
 30
0.0
 10
-8.97590819687066
 20
1.963281686355636
 30
0.0
 10
-10.03921738706113
 20
2.431364785451
 30
0.0
 10
-11.10258005176137
 20
2.884492758303019
 30
0.0
 10
-12.1660053272384
 20
3.319879519311503
 30
0.0
 10
-13.22950506267416
 20
3.734838950633253
 30
0.0
 10
-14.29308909210067
 20
4.126812038904241
 30
0.0
 10
-15.35676233935182
 20
4.493389825782995
 30
0.0
 10
-16.4205379061533
 20
4.832290980630219
 30
0.0
 10
-17.48441435202602
 20
5.141437348831384
 30
0.0
 10
-18.54839931857127
 20
5.418899860285748
 30
0.0
 10
-19.61248905093714
 20
5.662961342769625
 30
0.0
 10
-20.67667939225138
 20
5.872125874013194
 30
0.0
 10
-21.74096442079489
 20
6.045007014485062
 30
0.0
 10
-22.80532757671996
 20
6.180813533424157
 30
0.0
 10
-23.86975712966443
 20
6.277700841360606
 30
0.0
 10
-24.93423580072917
 20
6.338669830909288
 30
0.0
 10
-25.64406316117902
 20
6.346225372380406
 30
0.0
 10
-25.99874323878528
 20
6.35000000000107
 30
0.0
  0
SPLINE
  5
3B6F
330
1F
100
AcDbEntity
  8
AM_0
 48
0.5
100
AcDbSpline
210
0.0
220
0.0
230
1.0
 70
     8
 71
     3
 72
    17
 73
    13
 74
     0
 42
0.0000000001
 43
0.0000000001
 40
0.0
 40
0.0
 40
0.0
 40
0.0
 40
1.010743614677189
 40
2.022833924044153
 40
3.037578959561199
 40
4.056212747067873
 40
5.079857613375832
 40
6.109500119648989
 40
7.14596120163808
 40
8.18989512056258
 40
9.241717674284874
 40
9.693948937866434
 40
9.693948937866434
 40
9.693948937866434
 40
9.693948937866434
 10
-5.946789786811654
 20
6.3500000000002
 30
0.0
 10
-6.301464505964937
 20
6.346224626518172
 30
0.0
 10
-7.011286505813316
 20
6.338668849321638
 30
0.0
 10
-8.0757598409022
 20
6.277700213501449
 30
0.0
 10
-9.140189352241765
 20
6.180812780326863
 30
0.0
 10
-10.20455266512432
 20
6.045006717309363
 30
0.0
 10
-11.2688371032912
 20
5.872123866387177
 30
0.0
 10
-12.33302966756006
 20
5.662965774329403
 30
0.0
 10
-13.39711607467813
 20
5.418878860945654
 30
0.0
 10
-14.46113761546936
 20
5.141506382198987
 30
0.0
 10
-15.32004354891694
 20
4.89163570690026
 30
0.0
 10
-15.82444347161962
 20
4.735430601863184
 30
0.0
 10
-15.97583726702457
 20
4.687617264894204
 30
0.0
  0
SPLINE
  5
3B70
330
1F
100
AcDbEntity
  8
AM_0
 48
0.5
100
AcDbSpline
210
0.0
220
0.0
230
1.0
 70
     8
 71
     3
 72
    10
 73
     6
 74
     0
 42
0.0000000001
 43
0.0000000001
 40
0.0
 40
0.0
 40
0.0
 40
0.0
 40
2.69986029516136
 40
4.147722969032201
 40
6.285750005020438
 40
6.285750005020438
 40
6.285750005020438
 40
6.285750005020438
 10
-7.188064475852846
 20
1.149316808524797
 30
0.0
 10
-6.430456673848689
 20
0.5593579280470815
 30
0.0
 10
-5.266564124474109
 20
-0.3469800790443978
 30
0.0
 10
-2.514114593703312
 20
0.0917940278908414
 30
0.0
 10
-3.032480900278018
 20
1.569643278505178
 30
0.0
 10
-3.104006132457018
 20
2.438207774303919
 30
0.0
  0
ELLIPSE
  5
3B71
330
1F
100
AcDbEntity
  8
AM_0
 48
0.5
100
AcDbEllipse
 10
-10.93319296846181
 20
10.76525521769409
 30
0.0
 11
11.86037738484801
 21
12.90087360923983
 31
0.0
210
0.0
220
0.0
230
1.0
 40
0.8754402093304223
 41
4.571328786110698
 42
4.682396305528541
  0
ELLIPSE
  5
3B72
330
1F
100
AcDbEntity
  8
AM_0
 48
0.5
100
AcDbEllipse
 10
-7.17761726586304
 20
6.478200520495009
 30
0.0
 11
-0.0000000000006294
 21
9.86566899281739
 31
0.0
210
0.0
220
0.0
230
1.0
 40
0.9527559055118032
 41
3.517054509082601
 42
3.681821570856105
  0
ELLIPSE
  5
3B73
330
1F
100
AcDbEntity
  8
AM_0
 48
0.5
100
AcDbEllipse
 10
-1.881686500006562
 20
-1.652648572140166
 30
0.0
 11
-0.1805224442440118
 21
1.042293887384854
 31
0.0
210
0.0
220
0.0
230
0.9999999999999998
 40
0.4966734891935487
 41
1.805768468669761
 42
4.941110358381737
  0
ELLIPSE
  5
3B74
330
1F
100
AcDbEntity
  8
AM_0
 48
0.5
100
AcDbEllipse
 10
-1.881777256056906
 20
-1.654900752561747
 30
0.0
 11
-0.9108037737965968
 21
0.5305937042930954
 31
0.0
210
0.0
220
0.0
230
0.9999999999999998
 40
0.5013375024892776
 41
4.486956097926132
 42
7.630396439255646
  0
ELLIPSE
  5
3B75
330
1F
100
AcDbEntity
  8
AM_0
 48
0.5
100
AcDbEllipse
 10
3.792411512291773
 20
7.623566330415681
 30
0.0
 11
-0.000000000020396
 21
12.79807419776906
 31
0.0
210
0.0
220
0.0
230
1.0
 40
0.9946352859738659
 41
2.101163880027355
 42
2.509284810222242
  0
ELLIPSE
  5
3B76
330
1F
100
AcDbEntity
  8
AM_0
 48
0.5
100
AcDbEllipse
 10
6.322707877817646
 20
-1.695861006286486
 30
0.0
 11
-10.13801782538671
 21
1.017640013969297
 31
0.0
210
0.0
220
0.0
230
1.0
 40
0.8356779439016616
 41
0.2375186703566257
 42
0.6964423057012686
  0
SPLINE
  5
3B77
330
1F
100
AcDbEntity
  8
AM_0
100
AcDbSpline
210
0.0
220
0.0
230
1.0
 70
     8
 71
     3
 72
    23
 73
    19
 74
     0
 42
0.0000000001
 43
0.0000000001
 40
16.03460024169435
 40
16.03460024169435
 40
16.03460024169435
 40
16.03460024169435
 40
16.35212704903564
 40
17.38177054169784
 40
18.41822485651776
 40
19.46214173629503
 40
20.51396345435107
 40
21.57393551351153
 40
22.64208202342361
 40
23.7182574881101
 40
24.80209208578934
 40
25.89306333925047
 40
26.99048218457928
 40
28.09348763352352
 40
29.20111863782268
 40
30.31232390128032
 40
31.42594612798585
 40
32.5407912310448
 40
32.5407912310486
 40
32.5407912310486
 40
32.5407912310486
 10
-62.92937139665371
 20
6.35000000000083
 30
0.0
 10
-61.39910779350019
 20
6.276703961976127
 30
0.0
 10
-60.72178091995508
 20
6.235213673566057
 30
0.0
 10
-59.90528067686452
 20
6.052308899922757
 30
0.0
 10
-58.84791072458918
 20
5.780331501742296
 30
0.0
 10
-57.79152290726078
 20
5.474946217628224
 30
0.0
 10
-56.7360548020808
 20
5.137920461842248
 30
0.0
 10
-55.68146894861571
 20
4.771133160517899
 30
0.0
 10
-54.62770439433062
 20
4.376681024548555
 30
0.0
 10
-53.57468775906723
 20
3.956859666422874
 30
0.0
 10
-52.5223592066382
 20
3.514046510014769
 30
0.0
 10
-51.4706343680477
 20
3.050818181903602
 30
0.0
 10
-50.41942801275858
 20
2.569867165269387
 30
0.0
 10
-49.36867010188965
 20
2.073958726830186
 30
0.0
 10
-48.31827271980273
 20
1.565976506243627
 30
0.0
 10
-47.26813857745419
 20
1.048886746993171
 30
0.0
 10
-46.21818216428105
 20
0.5256858442107087
 30
0.0
 10
-45.51839923411651
 20
0.1749082472247494
 30
0.0
 10
-45.16831693391248
 20
-0.000579155040065
 30
0.0
  0
SPLINE
  5
3B78
330
1F
100
AcDbEntity
  8
AM_0
 48
0.5
100
AcDbSpline
210
0.0
220
0.0
230
1.0
 70
     8
 71
     3
 72
    22
 73
    18
 74
     0
 42
0.0000000001
 43
0.0000000001
 40
0.0
 40
0.0
 40
0.0
 40
0.0
 40
1.010743684496582
 40
2.022833993863546
 40
3.037578683882831
 40
4.056212471389632
 40
5.079857945358201
 40
6.109499720892564
 40
7.145961650132166
 40
8.189873411961459
 40
9.241710626092514
 40
10.30166235592959
 40
11.36982472628033
 40
12.44598212828784
 40
13.52983440361964
 40
14.62080578343036
 40
14.90544694398022
 40
14.90544694398022
 40
14.90544694398022
 40
14.90544694398022
 10
-47.30050859126357
 20
-6.349999999999355
 30
0.0
 10
-47.65536097523922
 20
-6.346546010252379
 30
0.0
 10
-48.3651829570107
 20
-6.338987043261413
 30
0.0
 10
-49.42965607350115
 20
-6.27801810749198
 30
0.0
 10
-50.49408601879378
 20
-6.181136731519074
 30
0.0
 10
-51.55844950052885
 20
-6.045330809834235
 30
0.0
 10
-52.62273301918432
 20
-5.872441206469249
 30
0.0
 10
-53.68692547183598
 20
-5.663286376438901
 30
0.0
 10
-54.75101126428736
 20
-5.419218271373874
 30
0.0
 10
-55.81499771356368
 20
-5.141750990286184
 30
0.0
 10
-56.87887523690097
 20
-4.832616992492715
 30
0.0
 10
-57.94264939401873
 20
-4.493697702325955
 30
0.0
 10
-59.0063270423516
 20
-4.127149818185022
 30
0.0
 10
-60.06990738295292
 20
-3.735152451723985
 30
0.0
 10
-61.13341034074726
 20
-3.320202803645323
 30
0.0
 10
-61.93270713582491
 20
-2.99297011024389
 30
0.0
 10
-62.37810320259963
 20
-2.805934421307603
 30
0.0
 10
-64.35119659150288
 20
-2.092806905441952
 30
0.0
  0
SPLINE
  5
3B79
330
1F
100
AcDbEntity
  8
AM_0
100
AcDbSpline
210
0.0
220
0.0
230
1.0
 70
     8
 71
     3
 72
    55
 73
    51
 74
     0
 42
0.0000000001
 43
0.0000000001
 40
0.0
 40
0.0
 40
0.0
 40
0.0
 40
1.010743684496582
 40
2.022833576467832
 40
3.037578957496688
 40
4.056212745003489
 40
5.079857003664532
 40
6.109500240690281
 40
7.145961322679372
 40
8.189895241603872
 40
9.241717795325891
 40
10.30168407291828
 40
11.36983447792315
 40
12.44600489715814
 40
13.52984294512926
 40
14.62081576220742
 40
15.7182257034828
 40
16.82123173843959
 40
17.92886860250316
 40
19.0400688939571
 40
20.15368796660465
 40
21.26852814259644
 40
22.38336992938901
 40
23.49698739941135
 40
24.6081876908653
 40
25.71582455492886
 40
26.81883757994213
 40
27.91624752121713
 40
29.00722033829659
 40
30.09105838626677
 40
31.16722880550176
 40
32.23537921050758
 40
33.29534548809967
 40
34.347168041821
 40
35.39108718934584
 40
36.42754827133493
 40
37.45720575381954
 40
38.48085062012849
 40
39.49948440763516
 40
40.51422944315121
 40
41.52631975251916
 40
42.53706336719636
 40
43.54780698187354
 40
44.55989729124051
 40
45.57464232675757
 40
46.59327611426424
 40
47.6169209805722
 40
48.64656348684535
 40
49.68302456883444
 40
50.58557219878025
 40
50.58557219878025
 40
50.58557219878025
 40
50.58557219878025
 10
-5.946789785399714
 20
-6.349999343411984
 30
0.0
 10
-6.301464440006447
 20
-6.346221247250127
 30
0.0
 10
-7.011286139677002
 20
-6.33866002288777
 30
0.0
 10
-8.075760371536517
 20
-6.277708065987503
 30
0.0
 10
-9.140189165004631
 20
-6.180810376943657
 30
0.0
 10
-10.20455208078067
 20
-6.045004580452128
 30
0.0
 10
-11.26883849819824
 20
-5.872131105430239
 30
0.0
 10
-12.33302742126589
 20
-5.662958692672156
 30
0.0
 10
-13.39712240964839
 20
-5.418896402105575
 30
0.0
 10
-14.4611140269737
 20
-5.141438754423089
 30
0.0
 10
-15.52499502551975
 20
-4.832289322749783
 30
0.0
 10
-16.58877070814519
 20
-4.493388606111094
 30
0.0
 10
-17.65244392385343
 20
-4.126810700126342
 30
0.0
 10
-18.7160279623893
 20
-3.734837645377429
 30
0.0
 10
-19.7795276932367
 20
-3.319878200268491
 30
0.0
 10
-20.8429529779499
 20
-2.884491460737805
 30
0.0
 10
-21.90631561005916
 20
-2.431363415274857
 30
0.0
 10
-22.96962492220274
 20
-1.963280586968616
 30
0.0
 10
-24.03289123391866
 20
-1.483121867301877
 30
0.0
 10
-25.09612592260825
 20
-0.9938425761484859
 30
0.0
 10
-26.15933831385179
 20
-0.4984506015142833
 30
0.0
 10
-27.22254342185525
 20
-0.0000006390417233
 30
0.0
 10
-28.28574375695738
 20
0.4984582958407991
 30
0.0
 10
-29.34895971185712
 20
0.9938425559116147
 30
0.0
 10
-30.41219308796924
 20
1.483123328085565
 30
0.0
 10
-31.47546129547722
 20
1.963283876943009
 30
0.0
 10
-32.53877501873786
 20
2.431362710548198
 30
0.0
 10
-33.60213932911429
 20
2.884493054000813
 30
0.0
 10
-34.66556476735074
 20
3.319879440477743
 30
0.0
 10
-35.72906445950081
 20
3.734838972851089
 30
0.0
 10
-36.79264850076009
 20
4.126812028173381
 30
0.0
 10
-37.8563217435609
 20
4.493389846503826
 30
0.0
 10
-38.92009731639307
 20
4.832290909191327
 30
0.0
 10
-39.9839737427694
 20
5.141437611079109
 30
0.0
 10
-41.04795878053548
 20
5.418898892764539
 30
0.0
 10
-42.11205337419399
 20
5.662966091116738
 30
0.0
 10
-43.1762498959272
 20
5.872114613481665
 30
0.0
 10
-44.24053982944634
 20
6.045041596498559
 30
0.0
 10
-45.30490306074717
 20
6.180686412747165
 30
0.0
 10
-46.36933259381275
 20
6.278172526158377
 30
0.0
 10
-47.433805923125
 20
6.336915115747079
 30
0.0
 10
-48.49830264359308
 20
6.356539071192144
 30
0.0
 10
-49.56279936249488
 20
6.3369151157164
 30
0.0
 10
-50.627272696515
 20
6.278172526281975
 30
0.0
 10
-51.69170221224746
 20
6.180686412282232
 30
0.0
 10
-52.75606550853442
 20
6.045041598246919
 30
0.0
 10
-53.82035000912982
 20
5.872115449955927
 30
0.0
 10
-54.88454233833383
 20
5.662968229547844
 30
0.0
 10
-55.90025486008727
 20
5.42997799837144
 30
0.0
 10
-56.55926071146393
 20
5.259590039698552
 30
0.0
 10
-56.86500101686369
 20
5.176551675412068
 30
0.0
  0
VIEWPORT
  5
110
330
101
100
AcDbEntity
 67
     1
  8
0
100
AcDbViewport
 10
420.5
 20
297.0
 30
0.0
 40
948.9782706766916
 41
628.452
 68
     1
 69
     1
1001
ACAD
1000
MVIEW
1002
{
1070
    16
1010
0.0
1020
0.0
1030
0.0
1010
0.0
1020
0.0
1030
1.0
1040
0.0
1040
628.452
1040
420.5
1040
297.0
1040
50.0
1040
0.0
1040
0.0
1070
     0
1070
   100
1070
     1
1070
     1
1070
     0
1070
     0
1070
     0
1070
     0
1040
0.0
1040
0.0
1040
0.0
1040
10.0
1040
10.0
1040
10.0
1040
10.0
1070
     0
1002
{
1002
}
1002
}
  0
ENDSEC
  0
SECTION
  2
OBJECTS
  0
DICTIONARY
  5
C
330
0
100
AcDbDictionary
  3
ACAD_GROUP
350
D
  3
ACAD_LAYOUT
350
1A
  3
ACAD_MLINESTYLE
350
17
  3
ACAD_PLOTSETTINGS
350
19
  3
ACAD_PLOTSTYLENAME
350
E
  3
ACDBVARIABLEDICTIONARY
350
34
  3
ACMDICTIONARY
350
43
  3
AMG
350
2B
  3
AMGSNAPSETTINGS
350
6E
  3
DWGPROPS
350
3C2D
  3
ACDBHEADERROUNDTRIPXREC
350
3C39
  0
DICTIONARY
  5
74
330
1F
100
AcDbDictionary
280
     1
  3
ACAD_INDEX
360
3C2F
  3
ACAD_LAYOUTSELFREF
360
3C5C
  0
DICTIONARY
  5
3C61
330
101
100
AcDbDictionary
280
     1
  3
ACAD_LAYOUTSELFREF
360
3C62
  0
DICTIONARY
  5
D
102
{ACAD_REACTORS
330
C
102
}
330
C
100
AcDbDictionary
  0
DICTIONARY
  5
1A
102
{ACAD_REACTORS
330
C
102
}
330
C
100
AcDbDictionary
  0
DICTIONARY
  5
17
102
{ACAD_REACTORS
330
C
102
}
330
C
100
AcDbDictionary
  3
STANDARD
350
18
  0
DICTIONARY
  5
19
102
{ACAD_REACTORS
330
C
102
}
330
C
100
AcDbDictionary
  0
ACDBDICTIONARYWDFLT
  5
E
102
{ACAD_REACTORS
330
C
102
}
330
C
100
AcDbDictionary
281
     1
  3
Normal
350
F
100
AcDbDictionaryWithDefault
340
F
  0
DICTIONARY
  5
34
102
{ACAD_REACTORS
330
C
102
}
330
C
100
AcDbDictionary
  3
INDEXCTL
350
35
  3
SORTENTS
350
B5E
  0
DICTIONARY
  5
43
102
{ACAD_REACTORS
330
C
102
}
330
C
100
AcDbDictionary
  3
ACMSTDDICTIONARY
350
260
  0
DICTIONARY
  5
2B
102
{ACAD_REACTORS
330
C
102
}
330
C
100
AcDbDictionary
  3
ACMGSETTINGS
350
2C
  0
DICTIONARY
  5
6E
102
{ACAD_REACTORS
330
C
102
}
330
C
100
AcDbDictionary
  0
XRECORD
  5
3C2D
102
{ACAD_REACTORS
330
C
102
}
330
C
100
AcDbXrecord
  1
DWGPROPS COOKIE
  2

  3

  4

  6

  7

  8

  9

300
AmdtFileType=82
301
=
302
=
303
=
304
=
305
=
306
=
307
=
308
=
309
=
 40
0.0798609143518519
 41
2452800.443498622
 42
2452946.633765914
  1

 90
        1
  0
DICTIONARY
  5
3C39
102
{ACAD_REACTORS
330
C
102
}
330
C
100
AcDbDictionary
  3
TSTACKALIGN
350
3C3A
  3
TSTACKSIZE
350
3C3B
  3
HYPERLINKBASE
350
3C3C
  3
STYLESHEET
350
3C3D
  3
LAYOUTDICT
350
3C3E
  3
PLOTSETDICT
350
3C3F
  3
PLOTSTYLNAMDICT
350
3C40
  3
LWETCUNION
350
3C41
  3
INSUNITS
350
3C42
  3
CEPSNTYPE
350
3C43
  3
FINGERPRINTGUID
350
3C44
  3
VERSIONGUID
350
3C45
  3
PSVPSCALE
350
3C46
  3
DIMSTYLEDATA
350
3C47
  3
PUCSORTHOREF
350
3C48
  3
PUCSORTHOVIEW
350
3C49
  3
PUCSBASE
350
3C4A
  3
PUCSORGTOP
350
3C4B
  3
PUCSORGBOTTOM
350
3C4C
  3
PUCSORGLEFT
350
3C4D
  3
PUCSORGRIGHT
350
3C4E
  3
PUCSORGFRONT
350
3C4F
  3
PUCSORGBACK
350
3C50
  3
UCSORTHOREF
350
3C51
  3
UCSORTHOVIEW
350
3C52
  3
UCSBASE
350
3C53
  3
UCSORGTOP
350
3C54
  3
UCSORGBOTTOM
350
3C55
  3
UCSORGLEFT
350
3C56
  3
UCSORGRIGHT
350
3C57
  3
UCSORGFRONT
350
3C58
  3
UCSORGBACK
350
3C59
  0
DICTIONARY
  5
3C2F
102
{ACAD_REACTORS
330
74
102
}
330
74
100
AcDbDictionary
  3
*A1
350
3C30
  0
XRECORD
  5
3C5C
102
{ACAD_REACTORS
330
74
102
}
330
74
100
AcDbXrecord
340
1F
  0
XRECORD
  5
3C62
102
{ACAD_REACTORS
330
3C61
102
}
330
3C61
100
AcDbXrecord
340
101
  0
MLINESTYLE
  5
18
102
{ACAD_REACTORS
330
17
102
}
330
17
100
AcDbMlineStyle
  2
STANDARD
 70
     0
  3

 62
   256
 51
90.0
 52
90.0
 71
     2
 49
0.5
 62
   256
  6
BYLAYER
 49
-0.5
 62
   256
  6
BYLAYER
  0
ACDBPLACEHOLDER
  5
F
102
{ACAD_REACTORS
330
E
102
}
330
E
100
AcDbPlaceHolder
280
     0
  0
DICTIONARYVAR
  5
35
102
{ACAD_REACTORS
330
34
102
}
330
34
100
DictionaryVariables
280
     0
  1
1
  0
DICTIONARYVAR
  5
B5E
102
{ACAD_REACTORS
330
34
102
}
330
34
100
DictionaryVariables
280
     0
  1
96
  0
DICTIONARY
  5
260
102
{ACAD_REACTORS
330
43
102
}
330
43
100
AcDbDictionary
  0
DICTIONARY
  5
2C
102
{ACAD_REACTORS
330
2B
102
}
330
2B
100
AcDbDictionary
  3
DWGSETTINGS
350
2D
  0
XRECORD
  5
3C3A
102
{ACAD_REACTORS
330
3C39
102
}
330
3C39
100
AcDbXrecord
 90
        1
  0
XRECORD
  5
3C3B
102
{ACAD_REACTORS
330
3C39
102
}
330
3C39
100
AcDbXrecord
 90
       70
  0
XRECORD
  5
3C3C
102
{ACAD_REACTORS
330
3C39
102
}
330
3C39
100
AcDbXrecord
  1

  0
XRECORD
  5
3C3D
102
{ACAD_REACTORS
330
3C39
102
}
330
3C39
100
AcDbXrecord
  1
ASAMI.ctb
  0
XRECORD
  5
3C3E
102
{ACAD_REACTORS
330
3C39
102
}
330
3C39
100
AcDbXrecord
340
1A
  0
XRECORD
  5
3C3F
102
{ACAD_REACTORS
330
3C39
102
}
330
3C39
100
AcDbXrecord
340
19
  0
XRECORD
  5
3C40
102
{ACAD_REACTORS
330
3C39
102
}
330
3C39
100
AcDbXrecord
340
E
  0
XRECORD
  5
3C41
102
{ACAD_REACTORS
330
3C39
102
}
330
3C39
100
AcDbXrecord
 90
    10781
  0
XRECORD
  5
3C42
102
{ACAD_REACTORS
330
3C39
102
}
330
3C39
100
AcDbXrecord
 90
        4
  0
XRECORD
  5
3C43
102
{ACAD_REACTORS
330
3C39
102
}
330
3C39
100
AcDbXrecord
 90
        0
  0
XRECORD
  5
3C44
102
{ACAD_REACTORS
330
3C39
102
}
330
3C39
100
AcDbXrecord
  1
{AFB28963-8C59-40AE-9337-C84526B81ACE}
  0
XRECORD
  5
3C45
102
{ACAD_REACTORS
330
3C39
102
}
330
3C39
100
AcDbXrecord
  1
{84228A08-6D84-4E18-86C3-C5A75AB3CD73}
  0
XRECORD
  5
3C46
102
{ACAD_REACTORS
330
3C39
102
}
330
3C39
100
AcDbXrecord
 40
0.0
  0
XRECORD
  5
3C47
102
{ACAD_REACTORS
330
3C39
102
}
330
3C39
100
AcDbXrecord
1000
DSTYLE
1002
{
1070
    79
 70
     2
1070
   341
340
59
1070
   342
340
59
1070
   371
 70
    -1
1070
   372
 70
    -1
1002
}
  0
XRECORD
  5
3C48
102
{ACAD_REACTORS
330
3C39
102
}
330
3C39
100
AcDbXrecord
340
0
  0
XRECORD
  5
3C49
102
{ACAD_REACTORS
330
3C39
102
}
330
3C39
100
AcDbXrecord
 70
     0
  0
XRECORD
  5
3C4A
102
{ACAD_REACTORS
330
3C39
102
}
330
3C39
100
AcDbXrecord
340
0
  0
XRECORD
  5
3C4B
102
{ACAD_REACTORS
330
3C39
102
}
330
3C39
100
AcDbXrecord
 10
0.0
 20
0.0
 30
0.0
  0
XRECORD
  5
3C4C
102
{ACAD_REACTORS
330
3C39
102
}
330
3C39
100
AcDbXrecord
 10
0.0
 20
0.0
 30
0.0
  0
XRECORD
  5
3C4D
102
{ACAD_REACTORS
330
3C39
102
}
330
3C39
100
AcDbXrecord
 10
0.0
 20
0.0
 30
0.0
  0
XRECORD
  5
3C4E
102
{ACAD_REACTORS
330
3C39
102
}
330
3C39
100
AcDbXrecord
 10
0.0
 20
0.0
 30
0.0
  0
XRECORD
  5
3C4F
102
{ACAD_REACTORS
330
3C39
102
}
330
3C39
100
AcDbXrecord
 10
0.0
 20
0.0
 30
0.0
  0
XRECORD
  5
3C50
102
{ACAD_REACTORS
330
3C39
102
}
330
3C39
100
AcDbXrecord
 10
0.0
 20
0.0
 30
0.0
  0
XRECORD
  5
3C51
102
{ACAD_REACTORS
330
3C39
102
}
330
3C39
100
AcDbXrecord
340
0
  0
XRECORD
  5
3C52
102
{ACAD_REACTORS
330
3C39
102
}
330
3C39
100
AcDbXrecord
 70
     0
  0
XRECORD
  5
3C53
102
{ACAD_REACTORS
330
3C39
102
}
330
3C39
100
AcDbXrecord
340
0
  0
XRECORD
  5
3C54
102
{ACAD_REACTORS
330
3C39
102
}
330
3C39
100
AcDbXrecord
 10
0.0
 20
0.0
 30
0.0
  0
XRECORD
  5
3C55
102
{ACAD_REACTORS
330
3C39
102
}
330
3C39
100
AcDbXrecord
 10
0.0
 20
0.0
 30
0.0
  0
XRECORD
  5
3C56
102
{ACAD_REACTORS
330
3C39
102
}
330
3C39
100
AcDbXrecord
 10
0.0
 20
0.0
 30
0.0
  0
XRECORD
  5
3C57
102
{ACAD_REACTORS
330
3C39
102
}
330
3C39
100
AcDbXrecord
 10
0.0
 20
0.0
 30
0.0
  0
XRECORD
  5
3C58
102
{ACAD_REACTORS
330
3C39
102
}
330
3C39
100
AcDbXrecord
 10
0.0
 20
0.0
 30
0.0
  0
XRECORD
  5
3C59
102
{ACAD_REACTORS
330
3C39
102
}
330
3C39
100
AcDbXrecord
 10
0.0
 20
0.0
 30
0.0
  0
LAYER_INDEX
  5
3C30
102
{ACAD_REACTORS
330
3C2F
102
}
330
3C2F
100
AcDbIndex
 40
2453151.563257187
100
AcDbLayerIndex
  8
0
360
3C31
 90
        0
  8
AM_0
360
3C32
 90
       46
  8
AM_7
360
3C33
 90
        1
  8
AM_11
360
3C34
 90
       17
  8
AM_5
360
3C35
 90
        5
  8
Defpoints
360
3C36
 90
        0
  8
AM_6
360
3C37
 90
        1
  0
XRECORD
  5
2D
102
{ACAD_REACTORS
330
2C
102
}
330
2C
100
AcDbXrecord
  1
VERSION
140
15.0
  1
PRODUCT
  2
AutoCAD Mechanical 2000
  0
IDBUFFER
  5
3C31
330
0
100
AcDbIdBuffer
  0
IDBUFFER
  5
3C32
330
0
100
AcDbIdBuffer
330
3B59
330
3B5A
330
3B5B
330
3B5C
330
3B5D
330
3B5E
330
3B5F
330
3B60
330
3B61
330
3B62
330
3B63
330
3B64
330
3B66
330
3B67
330
3B6A
330
3B6B
330
3B6C
330
3B6D
330
3B6E
330
3B6F
330
3B70
330
3B71
330
3B72
330
3B73
330
3B74
330
3B75
330
3B76
330
3B77
330
3B78
330
3B79
330
C1D
330
C20
330
24A7
330
24BE
330
2C0E
330
2FB9
330
324C
330
325C
330
325D
330
325E
330
3273
330
327F
330
36E9
330
36EA
330
3B57
330
3B58
  0
IDBUFFER
  5
3C33
330
0
100
AcDbIdBuffer
330
23EF
  0
IDBUFFER
  5
3C34
330
0
100
AcDbIdBuffer
330
3B69
330
24B7
330
24B8
330
24B9
330
24C7
330
24C8
330
24D4
330
24D5
330
24E6
330
24E7
330
2BF3
330
2BF5
330
353A
330
353B
330
3AE0
330
3B65
330
3B68
  0
IDBUFFER
  5
3C35
330
0
100
AcDbIdBuffer
330
CC6
330
2069
330
2D60
330
324F
330
3725
  0
IDBUFFER
  5
3C36
330
0
100
AcDbIdBuffer
  0
IDBUFFER
  5
3C37
330
0
100
AcDbIdBuffer
330
19BD
  0
ENDSEC
  0
EOF
