  0
SECTION
  2
HEADER
  9
$ACADVER
  1
AC1014
  9
$ACADMAINTVER
 70
     9
  9
$DWGCODEPAGE
  3
ANSI_932
  9
$INSBASE
 10
0.0
 20
0.0
 30
0.0
  9
$EXTMIN
 10
-200.300000999992
 20
-53.50000305447792
 30
-0.00000001
  9
$EXTMAX
 10
35.49738228866305
 20
34.29629055510694
 30
0.00000001
  9
$LIMMIN
 10
-212.4283160478946
 20
-92.01098889734623
  9
$LIMMAX
 10
49.45840178964954
 20
64.30738472477009
  9
$ORTHOMODE
 70
     0
  9
$REGENMODE
 70
     1
  9
$FILLMODE
 70
     1
  9
$QTEXTMODE
 70
     0
  9
$MIRRTEXT
 70
     0
  9
$DRAGMODE
 70
     2
  9
$LTSCALE
 40
1.0
  9
$OSMODE
 70
    55
  9
$ATTMODE
 70
     1
  9
$TEXTSIZE
 40
2.5
  9
$TRACEWID
 40
1.0
  9
$TEXTSTYLE
  7
STANDARD
  9
$CLAYER
  8
AM_0
  9
$CELTYPE
  6
BYLAYER
  9
$CECOLOR
 62
   256
  9
$CELTSCALE
 40
1.0
  9
$DELOBJ
 70
     1
  9
$DISPSILH
 70
     0
  9
$DIMSCALE
 40
1.0
  9
$DIMASZ
 40
2.5
  9
$DIMEXO
 40
1.0
  9
$DIMDLI
 40
12.0
  9
$DIMRND
 40
0.0
  9
$DIMDLE
 40
0.0
  9
$DIMEXE
 40
1.0
  9
$DIMTP
 40
0.1
  9
$DIMTM
 40
0.1
  9
$DIMTXT
 40
3.2
  9
$DIMCEN
 40
0.0
  9
$DIMTSZ
 40
0.0
  9
$DIMTOL
 70
     0
  9
$DIMLIM
 70
     0
  9
$DIMTIH
 70
     0
  9
$DIMTOH
 70
     0
  9
$DIMSE1
 70
     0
  9
$DIMSE2
 70
     0
  9
$DIMTAD
 70
     3
  9
$DIMZIN
 70
     8
  9
$DIMBLK
  1
OPEN30
  9
$DIMASO
 70
     1
  9
$DIMSHO
 70
     1
  9
$DIMPOST
  1

  9
$DIMAPOST
  1
"
  9
$DIMALT
 70
     0
  9
$DIMALTD
 70
     2
  9
$DIMALTF
 40
0.0393701
  9
$DIMLFAC
 40
1.0
  9
$DIMTOFL
 70
     1
  9
$DIMTVP
 40
0.0
  9
$DIMTIX
 70
     0
  9
$DIMSOXD
 70
     0
  9
$DIMSAH
 70
     0
  9
$DIMBLK1
  1

  9
$DIMBLK2
  1

  9
$DIMSTYLE
  2
AM_JIS
  9
$DIMCLRD
 70
   256
  9
$DIMCLRE
 70
   256
  9
$DIMCLRT
 70
     2
  9
$DIMTFAC
 40
0.71
  9
$DIMGAP
 40
1.5
  9
$DIMJUST
 70
     0
  9
$DIMSD1
 70
     0
  9
$DIMSD2
 70
     0
  9
$DIMTOLJ
 70
     0
  9
$DIMTZIN
 70
     0
  9
$DIMALTZ
 70
     0
  9
$DIMALTTZ
 70
     0
  9
$DIMFIT
 70
     3
  9
$DIMUPT
 70
     0
  9
$DIMUNIT
 70
     2
  9
$DIMDEC
 70
     3
  9
$DIMTDEC
 70
     3
  9
$DIMALTU
 70
     2
  9
$DIMALTTD
 70
     2
  9
$DIMTXSTY
  7
ASAMI
  9
$DIMAUNIT
 70
     0
  9
$LUNITS
 70
     2
  9
$LUPREC
 70
     2
  9
$SKETCHINC
 40
1.0
  9
$FILLETRAD
 40
2.5
  9
$AUNITS
 70
     0
  9
$AUPREC
 70
     0
  9
$MENU
  1
.
  9
$ELEVATION
 40
0.0
  9
$PELEVATION
 40
0.0
  9
$THICKNESS
 40
0.0
  9
$LIMCHECK
 70
     0
  9
$BLIPMODE
 70
     0
  9
$CHAMFERA
 40
0.5
  9
$CHAMFERB
 40
0.5
  9
$CHAMFERC
 40
20.0
  9
$CHAMFERD
 40
0.0
  9
$SKPOLY
 70
     0
  9
$TDCREATE
 40
2452800.443498622
  9
$TDUPDATE
 40
2453151.667205208
  9
$TDINDWG
 40
0.0789952315
  9
$TDUSRTIMER
 40
0.0789952315
  9
$USRTIMER
 70
     1
  9
$ANGBASE
 50
0.0
  9
$ANGDIR
 70
     0
  9
$PDMODE
 70
     3
  9
$PDSIZE
 40
0.0
  9
$PLINEWID
 40
0.0
  9
$COORDS
 70
     1
  9
$SPLFRAME
 70
     0
  9
$SPLINETYPE
 70
     6
  9
$SPLINESEGS
 70
     8
  9
$ATTDIA
 70
     1
  9
$ATTREQ
 70
     1
  9
$HANDLING
 70
 12289
  9
$HANDSEED
  5
3C1B
  9
$SURFTAB1
 70
     6
  9
$SURFTAB2
 70
     6
  9
$SURFTYPE
 70
     6
  9
$SURFU
 70
     6
  9
$SURFV
 70
     6
  9
$UCSNAME
  2

  9
$UCSORG
 10
0.0
 20
0.0
 30
0.0
  9
$UCSXDIR
 10
1.0
 20
0.0000000000000027
 30
0.0
  9
$UCSYDIR
 10
-0.0000000000000027
 20
1.0
 30
0.0
  9
$PUCSNAME
  2

  9
$PUCSORG
 10
0.0
 20
0.0
 30
0.0
  9
$PUCSXDIR
 10
1.0
 20
0.0
 30
0.0
  9
$PUCSYDIR
 10
0.0
 20
1.0
 30
0.0
  9
$USERI1
 70
     0
  9
$USERI2
 70
     0
  9
$USERI3
 70
     0
  9
$USERI4
 70
     0
  9
$USERI5
 70
     0
  9
$USERR1
 40
0.0
  9
$USERR2
 40
0.0
  9
$USERR3
 40
0.0
  9
$USERR4
 40
0.0
  9
$USERR5
 40
0.0
  9
$WORLDVIEW
 70
     1
  9
$SHADEDGE
 70
     3
  9
$SHADEDIF
 70
    70
  9
$TILEMODE
 70
     1
  9
$MAXACTVP
 70
    64
  9
$PINSBASE
 10
0.0
 20
0.0
 30
0.0
  9
$PLIMCHECK
 70
     0
  9
$PEXTMIN
 10
1.000000000000000E+20
 20
1.000000000000000E+20
 30
1.000000000000000E+20
  9
$PEXTMAX
 10
-1.000000000000000E+20
 20
-1.000000000000000E+20
 30
-1.000000000000000E+20
  9
$PLIMMIN
 10
0.0
 20
0.0
  9
$PLIMMAX
 10
841.0
 20
594.0
  9
$UNITMODE
 70
     0
  9
$VISRETAIN
 70
     1
  9
$PLINEGEN
 70
     0
  9
$PSLTSCALE
 70
     0
  9
$TREEDEPTH
 70
  3020
  9
$PICKSTYLE
 70
     0
  9
$CMLSTYLE
  2
STANDARD
  9
$CMLJUST
 70
     0
  9
$CMLSCALE
 40
20.0
  9
$PROXYGRAPHICS
 70
     1
  9
$MEASUREMENT
 70
     1
  0
ENDSEC
  0
SECTION
  2
CLASSES
  0
CLASS
  1
ACDBDICTIONARYWDFLT
  2
AcDbDictionaryWithDefault
  3
AutoCAD 2000
 90
        0
280
     0
281
     0
  0
CLASS
  1
ACDBPLACEHOLDER
  2
AcDbPlaceHolder
  3
AutoCAD 2000
 90
        0
280
     0
281
     0
  0
CLASS
  1
LAYOUT
  2
AcDbLayout
  3
AutoCAD 2000
 90
        0
280
     0
281
     0
  0
CLASS
  1
AMGSETTINGSOBJ
  2
AmgSettingsObj
  3
"AcadM|Product Description: AutoCAD Mechanical 2000|Company: Autodesk"
 90
        0
280
     0
281
     0
  0
CLASS
  1
ACME_DOCUMENT
  2
AcMeDbDoc
  3
AcMeServices
 90
        0
280
     0
281
     0
  0
CLASS
  1
ACMESCOPE
  2
AcMeScope
  3
AcMeServices
 90
        0
280
     0
281
     0
  0
CLASS
  1
ACMECOMMANDHISTORY
  2
AcMeCommandHistory
  3
AcMeServices
 90
        0
280
     0
281
     0
  0
CLASS
  1
DICTIONARYVAR
  2
AcDbDictionaryVar
  3
AutoCAD 2000
 90
        0
280
     0
281
     0
  0
CLASS
  1
ACIMSYSVARMAN
  2
AcImSysVarManager
  3
AcMeServices
 90
        0
280
     0
281
     0
  0
CLASS
  1
ACIMREALSYSVAR
  2
AcImRealSysVar
  3
AcMeServices
 90
        0
280
     0
281
     0
  0
CLASS
  1
ACIMINTSYSVAR
  2
AcImIntSysVar
  3
AcMeServices
 90
        0
280
     0
281
     0
  0
CLASS
  1
ACMEDRAWINGMAN
  2
AcMeDrawingMan
  3
AcMeServices
 90
        0
280
     0
281
     0
  0
CLASS
  1
ACMEVIEW
  2
AcMeView
  3
AcMeServices
 90
        0
280
     0
281
     0
  0
CLASS
  1
ACDBENTITYCACHE
  2
AcMeEntityCache
  3
AcMeServices
 90
        0
280
     0
281
     0
  0
CLASS
  1
GSMANAGER
  2
AcMeGSManager
  3
AcMeServices
 90
        0
280
     0
281
     0
  0
CLASS
  1
AmdtInternalReactor
  2
AmdtInternalReactor
  3
AcMeServices
 90
        0
280
     0
281
     0
  0
CLASS
  1
ACMESTATEMGR
  2
AcMeStateMgr
  3
AcMeServices
 90
        0
280
     0
281
     0
  0
CLASS
  1
ACME_DATABASE
  2
AcMeDbDatabase
  3
AcMeServices
 90
        0
280
     0
281
     0
  0
CLASS
  1
ACRFINSADJUSTERMGR
  2
AcRfInsAdjusterMgr
  3
AcMeServices
 90
        0
280
     0
281
     0
  0
CLASS
  1
ACMDATADICTIONARY
  2
AcmDataDictionary
  3
"AcmSymBB|Product Description: AutoCAD Mechanical 2000|Company: Autodesk"
 90
        0
280
     0
281
     0
  0
CLASS
  1
ACMDATAENTRYBLOCK
  2
AcmDataEntryBlock
  3
"AcmSymBB|Product Description: AutoCAD Mechanical 2000|Company: Autodesk"
 90
        0
280
     0
281
     0
  0
CLASS
  1
AMGOBJPROPCFG
  2
AmgObjPropCfg
  3
"AmgLay|Product Description: AutoCAD Mechanical 2000|Company: Autodesk"
 90
        1
280
     0
281
     0
  0
CLASS
  1
ACAMGFILTERDAT
  2
AcAmgFilterDat
  3
"AcadM|Product Description: AutoCAD Mechanical 2000|Company: Autodesk"
 90
        0
280
     0
281
     0
  0
CLASS
  1
LAYER_INDEX
  2
AcDbLayerIndex
  3
AutoCAD 2000
 90
        0
280
     0
281
     0
  0
CLASS
  1
IDBUFFER
  2
AcDbIdBuffer
  3
AutoCAD 2000
 90
        0
280
     0
281
     0
  0
CLASS
  1
ACIMSTRSYSVAR
  2
AcImStrSysVar
  3
AcMeServices
 90
        0
280
     0
281
     0
  0
CLASS
  1
ACMSTANDARDJIS
  2
AcmStandardJIS
  3
"AcmSymBB|Product Description: AutoCAD Mechanical 2000|Company: Autodesk"
 90
        0
280
     0
281
     0
  0
CLASS
  1
ACMSURFSTANDARDJIS
  2
AcmSurfTextStdJIS
  3
"AcmSymBB|Product Description: AutoCAD Mechanical 2000|Company: Autodesk"
 90
        0
280
     0
281
     0
  0
CLASS
  1
ACMFCFSTANDARDJIS
  2
AcmFCFStdJIS
  3
"AcmSymBB|Product Description: AutoCAD Mechanical 2000|Company: Autodesk"
 90
        0
280
     0
281
     0
  0
CLASS
  1
ACMWELDSTANDARDJIS
  2
AcmWeldingStdJIS
  3
"AcmSymBB|Product Description: AutoCAD Mechanical 2000|Company: Autodesk"
 90
        0
280
     0
281
     0
  0
CLASS
  1
ACMIDSTANDARDJIS
  2
AcmIdStdJIS
  3
"AcmSymBB|Product Description: AutoCAD Mechanical 2000|Company: Autodesk"
 90
        0
280
     0
281
     0
  0
CLASS
  1
ACMDATUMSTANDARDJIS
  2
AcmDatumStdJIS
  3
"AcmSymBB|Product Description: AutoCAD Mechanical 2000|Company: Autodesk"
 90
        0
280
     0
281
     0
  0
CLASS
  1
ACMBOMSTANDARDJIS
  2
AcmBOMStdJIS
  3
"AcmSymBB|Product Description: AutoCAD Mechanical 2000|Company: Autodesk"
 90
        0
280
     0
281
     0
  0
CLASS
  1
ACMSTANDARDANSI
  2
AcmStandardANSI
  3
"AcmSymBB|Product Description: AutoCAD Mechanical 2000|Company: Autodesk"
 90
        0
280
     0
281
     0
  0
CLASS
  1
ACMSURFSTANDARDANSI
  2
AcmSurfTextStdANSI
  3
"AcmSymBB|Product Description: AutoCAD Mechanical 2000|Company: Autodesk"
 90
        0
280
     0
281
     0
  0
CLASS
  1
ACMFCFSTANDARDANSI
  2
AcmFCFStdANSI
  3
"AcmSymBB|Product Description: AutoCAD Mechanical 2000|Company: Autodesk"
 90
        0
280
     0
281
     0
  0
CLASS
  1
ACMWELDSTANDARDANSI
  2
AcmWeldingStdANSI
  3
"AcmSymBB|Product Description: AutoCAD Mechanical 2000|Company: Autodesk"
 90
        0
280
     0
281
     0
  0
CLASS
  1
ACMIDSTANDARDANSI
  2
AcmIdStdANSI
  3
"AcmSymBB|Product Description: AutoCAD Mechanical 2000|Company: Autodesk"
 90
        0
280
     0
281
     0
  0
CLASS
  1
ACMDATUMSTANDARDANSI
  2
AcmDatumStdANSI
  3
"AcmSymBB|Product Description: AutoCAD Mechanical 2000|Company: Autodesk"
 90
        0
280
     0
281
     0
  0
CLASS
  1
ACMBOMSTANDARDANSI
  2
AcmBOMStdANSI
  3
"AcmSymBB|Product Description: AutoCAD Mechanical 2000|Company: Autodesk"
 90
        0
280
     0
281
     0
  0
CLASS
  1
ACMSTANDARDBSI
  2
AcmStandardBSI
  3
"AcmSymBB|Product Description: AutoCAD Mechanical 2000|Company: Autodesk"
 90
        0
280
     0
281
     0
  0
CLASS
  1
ACMSURFSTANDARDBSI
  2
AcmSurfTextStdBSI
  3
"AcmSymBB|Product Description: AutoCAD Mechanical 2000|Company: Autodesk"
 90
        0
280
     0
281
     0
  0
CLASS
  1
ACMFCFSTANDARDBSI
  2
AcmFCFStdBSI
  3
"AcmSymBB|Product Description: AutoCAD Mechanical 2000|Company: Autodesk"
 90
        0
280
     0
281
     0
  0
CLASS
  1
ACMWELDSTANDARDBSI
  2
AcmWeldingStdBSI
  3
"AcmSymBB|Product Description: AutoCAD Mechanical 2000|Company: Autodesk"
 90
        0
280
     0
281
     0
  0
CLASS
  1
ACMIDSTANDARDBSI
  2
AcmIdStdBSI
  3
"AcmSymBB|Product Description: AutoCAD Mechanical 2000|Company: Autodesk"
 90
        0
280
     0
281
     0
  0
CLASS
  1
ACMDATUMSTANDARDBSI
  2
AcmDatumStdBSI
  3
"AcmSymBB|Product Description: AutoCAD Mechanical 2000|Company: Autodesk"
 90
        0
280
     0
281
     0
  0
CLASS
  1
ACMBOMSTANDARDBSI
  2
AcmBOMStdBSI
  3
"AcmSymBB|Product Description: AutoCAD Mechanical 2000|Company: Autodesk"
 90
        0
280
     0
281
     0
  0
CLASS
  1
LONG_TRANSACTION
  2
AcDbLongTransaction
  3
AutoCAD 2000
 90
        0
280
     0
281
     0
  0
CLASS
  1
LWPOLYLINE
  2
AcDbPolyline
  3
AutoCAD 2000
 90
        0
280
     0
281
     1
  0
CLASS
  1
HATCH
  2
AcDbHatch
  3
AutoCAD 2000
 90
        0
280
     0
281
     1
  0
CLASS
  1
XRECORD
  2
AcDbXrecord
  3
AutoCAD 2000
 90
        0
280
     0
281
     0
  0
ENDSEC
  0
SECTION
  2
TABLES
  0
TABLE
  2
VPORT
  5
8
330
0
100
AcDbSymbolTable
 70
     3
  0
VPORT
  5
3BE5
330
8
100
AcDbSymbolTableRecord
100
AcDbViewportTableRecord
  2
*ACTIVE
 70
     0
 10
0.0
 20
0.0
 11
1.0
 21
1.0
 12
-78.03462331766606
 22
-9.600130865003762
 13
0.0
 23
0.0
 14
2.5
 24
2.5
 15
10.0
 25
10.0
 16
0.0
 26
0.0
 36
1.0
 17
0.0
 27
0.0
 37
0.0
 40
156.9384663917869
 41
1.56570841889117
 42
50.0
 43
0.0
 44
0.0
 50
0.0
 51
0.0
 71
     0
 72
   100
 73
     1
 74
     1
 75
     0
 76
     0
 77
     0
 78
     0
  0
ENDTAB
  0
TABLE
  2
LTYPE
  5
5
330
0
100
AcDbSymbolTable
 70
    10
  0
LTYPE
  5
14
330
5
100
AcDbSymbolTableRecord
100
AcDbLinetypeTableRecord
  2
BYBLOCK
 70
     0
  3

 72
    65
 73
     0
 40
0.0
  0
LTYPE
  5
15
330
5
100
AcDbSymbolTableRecord
100
AcDbLinetypeTableRecord
  2
BYLAYER
 70
     0
  3

 72
    65
 73
     0
 40
0.0
  0
LTYPE
  5
16
330
5
100
AcDbSymbolTableRecord
100
AcDbLinetypeTableRecord
  2
CONTINUOUS
 70
     0
  3
Solid line
 72
    65
 73
     0
 40
0.0
  0
LTYPE
  5
4B
330
5
100
AcDbSymbolTableRecord
100
AcDbLinetypeTableRecord
  2
AM_ISO02W050
 70
     0
  3
__ __ __ __ __ __ __ __ __ __ __ __ __ __ __
 72
    65
 73
     2
 40
7.5
 49
6.0
 74
     0
 49
-1.5
 74
     0
  0
LTYPE
  5
4C
330
5
100
AcDbSymbolTableRecord
100
AcDbLinetypeTableRecord
  2
AM_ISO08W050
 70
     0
  3
____ . ____ . ____ . ____ . ____ . ____ . ____
 72
    65
 73
     4
 40
18.0
 49
12.0
 74
     0
 49
-1.5
 74
     0
 49
3.0
 74
     0
 49
-1.5
 74
     0
  0
LTYPE
  5
4D
330
5
100
AcDbSymbolTableRecord
100
AcDbLinetypeTableRecord
  2
AM_ISO09W050
 70
     0
  3
_____ . . _____ . . _____ . . ____ .. ____
 72
    65
 73
     6
 40
22.5
 49
12.0
 74
     0
 49
-1.5
 74
     0
 49
3.0
 74
     0
 49
-1.5
 74
     0
 49
3.0
 74
     0
 49
-1.5
 74
     0
  0
LTYPE
  5
4E
330
5
100
AcDbSymbolTableRecord
100
AcDbLinetypeTableRecord
  2
AMCONSTR
 70
     0
  3
_______________________
 72
    65
 73
     2
 40
9999.0
 49
9999.0
 74
     0
 49
0.0
 74
     0
  0
LTYPE
  5
4F
330
5
100
AcDbSymbolTableRecord
100
AcDbLinetypeTableRecord
  2
AM_ISO02W050X2
 70
     0
  3
 _ _ _ _ _ _ _ _ _ _ _ _
 72
    65
 73
     2
 40
3.75
 49
3.0
 74
     0
 49
-0.75
 74
     0
  0
LTYPE
  5
50
330
5
100
AcDbSymbolTableRecord
100
AcDbLinetypeTableRecord
  2
AM_ISO08W050X2
 70
     0
  3
__ . __ . __ . __ . __ . __
 72
    65
 73
     4
 40
9.0
 49
6.0
 74
     0
 49
-0.75
 74
     0
 49
1.5
 74
     0
 49
-0.75
 74
     0
  0
LTYPE
  5
53
330
5
100
AcDbSymbolTableRecord
100
AcDbLinetypeTableRecord
  2
AMZIGZAG
 70
     0
  3
/\/-/\/-/\/-/\/-/\/-/\/
 72
    65
 73
     2
 40
11.00009999999999
 49
0.0001
 74
     4
 75
   135
340
52
 46
0.04
 50
0.0
 44
0.0
 45
0.0
 49
-11.0
 74
     0
  0
LTYPE
  5
166
330
5
100
AcDbSymbolTableRecord
100
AcDbLinetypeTableRecord
  2
ACJISTGL
 70
     0
  3
_ _ _ _ _
 72
    65
 73
     2
 40
3.0
 49
2.0
 74
     0
 49
-1.0
 74
     0
  0
LTYPE
  5
26A
330
5
100
AcDbSymbolTableRecord
100
AcDbLinetypeTableRecord
  2
ACJISTGB
 70
     0
  3
__ . . __ . .
 72
    65
 73
     6
 40
9.0
 49
4.0
 74
     0
 49
-1.0
 74
     0
 49
1.0
 74
     0
 49
-1.0
 74
     0
 49
1.0
 74
     0
 49
-1.0
 74
     0
  0
ENDTAB
  0
TABLE
  2
LAYER
  5
2
330
0
100
AcDbSymbolTable
 70
     8
  0
LAYER
  5
10
330
2
100
AcDbSymbolTableRecord
100
AcDbLayerTableRecord
  2
0
 70
     0
 62
     7
  6
CONTINUOUS
  0
LAYER
  5
3F9
330
2
100
AcDbSymbolTableRecord
100
AcDbLayerTableRecord
  2
AM_0
 70
     0
 62
     7
  6
CONTINUOUS
  0
LAYER
  5
C7C
330
2
100
AcDbSymbolTableRecord
100
AcDbLayerTableRecord
  2
AM_7
 70
     0
 62
     4
  6
AM_ISO08W050
  0
LAYER
  5
C97
330
2
100
AcDbSymbolTableRecord
100
AcDbLayerTableRecord
  2
AM_11
 70
     0
 62
     3
  6
AM_ISO09W050
  0
LAYER
  5
CC5
330
2
100
AcDbSymbolTableRecord
100
AcDbLayerTableRecord
  2
AM_5
 70
     0
 62
     3
  6
CONTINUOUS
  0
LAYER
  5
CC7
330
2
100
AcDbSymbolTableRecord
100
AcDbLayerTableRecord
  2
DEFPOINTS
 70
     0
 62
     7
  6
CONTINUOUS
  0
LAYER
  5
19BC
330
2
100
AcDbSymbolTableRecord
100
AcDbLayerTableRecord
  2
AM_6
 70
     0
 62
     2
  6
CONTINUOUS
  0
LAYER
  5
395C
330
2
100
AcDbSymbolTableRecord
100
AcDbLayerTableRecord
  2
AM_CL
 70
     0
 62
     1
  6
AMCONSTR
  0
ENDTAB
  0
TABLE
  2
STYLE
  5
3
330
0
100
AcDbSymbolTable
 70
     5
  0
STYLE
  5
11
330
3
100
AcDbSymbolTableRecord
100
AcDbTextStyleTableRecord
  2
STANDARD
 70
     0
 40
0.0
 41
1.0
 50
0.0
 71
     0
 42
2.5
  3
simplex.shx
  4
EXTFONT.SHX
  0
STYLE
  5
52
330
3
100
AcDbSymbolTableRecord
100
AcDbTextStyleTableRecord
  2

 70
     1
 40
0.0
 41
1.0
 50
0.0
 71
     0
 42
2.5
  3
ltypeshp.shx
  4

  0
STYLE
  5
6B
330
3
100
AcDbSymbolTableRecord
100
AcDbTextStyleTableRecord
  2
ASAMI
 70
     0
 40
0.0
 41
1.0
 50
0.0
 71
     0
 42
2.5
  3
simplex.shx
  4
EXTFONT.SHX
  0
STYLE
  5
262
330
3
100
AcDbSymbolTableRecord
100
AcDbTextStyleTableRecord
  2
ACJISTS
 70
     0
 40
1.0
 41
1.0
 50
0.0
 71
     0
 42
2.5
  3
simplex.shx
  4
bigfont.shx
  0
STYLE
  5
269
330
3
100
AcDbSymbolTableRecord
100
AcDbTextStyleTableRecord
  2
ACJISGDT
 70
     0
 40
0.0
 41
1.0
 50
0.0
 71
     0
 42
2.5
  3
amgdtans.shx
  4

  0
ENDTAB
  0
TABLE
  2
VIEW
  5
6
330
0
100
AcDbSymbolTable
 70
     0
  0
ENDTAB
  0
TABLE
  2
UCS
  5
7
330
0
100
AcDbSymbolTable
 70
     0
  0
ENDTAB
  0
TABLE
  2
APPID
  5
9
330
0
100
AcDbSymbolTable
 70
    16
  0
APPID
  5
12
330
9
100
AcDbSymbolTableRecord
100
AcDbRegAppTableRecord
  2
ACAD
 70
     0
  0
APPID
  5
30
330
9
100
AcDbSymbolTableRecord
100
AcDbRegAppTableRecord
  2
MCAD_NO_VIS
 70
     0
  0
APPID
  5
31
330
9
100
AcDbSymbolTableRecord
100
AcDbRegAppTableRecord
  2
ACAD_TEMP_GRAPHIC
 70
     0
  0
APPID
  5
2C2
330
9
100
AcDbSymbolTableRecord
100
AcDbRegAppTableRecord
  2
GENIUS_GENDTOL_13
 70
     0
  0
APPID
  5
339
330
9
100
AcDbSymbolTableRecord
100
AcDbRegAppTableRecord
  2
GENIUS_GENODEF_13
 70
     0
  0
APPID
  5
33A
330
9
100
AcDbSymbolTableRecord
100
AcDbRegAppTableRecord
  2
GENIUS_GENOBJ-N-RSBK_13
 70
     0
  0
APPID
  5
33B
330
9
100
AcDbSymbolTableRecord
100
AcDbRegAppTableRecord
  2
GENIUS_GENOBJ-N-LIB_13
 70
     0
  0
APPID
  5
33C
330
9
100
AcDbSymbolTableRecord
100
AcDbRegAppTableRecord
  2
GENIUS_GENSCALE_13
 70
     0
  0
APPID
  5
378
330
9
100
AcDbSymbolTableRecord
100
AcDbRegAppTableRecord
  2
GENIUS_GENDIMSH_14
 70
     0
  0
APPID
  5
C82
330
9
100
AcDbSymbolTableRecord
100
AcDbRegAppTableRecord
  2
GENIUS_GENOBJ-N-CRS_13
 70
     0
  0
APPID
  5
C83
330
9
100
AcDbSymbolTableRecord
100
AcDbRegAppTableRecord
  2
GENIUS_GENOENT_13
 70
     0
  0
APPID
  5
C84
330
9
100
AcDbSymbolTableRecord
100
AcDbRegAppTableRecord
  2
GENIUS_GENOREF_13
 70
     0
  0
APPID
  5
C85
330
9
100
AcDbSymbolTableRecord
100
AcDbRegAppTableRecord
  2
GENIUS_GENOLIS_13
 70
     0
  0
APPID
  5
CA0
330
9
100
AcDbSymbolTableRecord
100
AcDbRegAppTableRecord
  2
GENIUS_GENOBJ-N-CEN_13
 70
     0
  0
APPID
  5
1E1E
330
9
100
AcDbSymbolTableRecord
100
AcDbRegAppTableRecord
  2
GENIUS_GENFIL_13
 70
     0
  0
APPID
  5
1E1F
330
9
100
AcDbSymbolTableRecord
100
AcDbRegAppTableRecord
  2
GENIUS_GENOBJ-N-CHA_13
 70
     0
  0
ENDTAB
  0
TABLE
  2
DIMSTYLE
  5
A
330
0
100
AcDbSymbolTable
 70
     9
  0
DIMSTYLE
105
58
330
A
100
AcDbSymbolTableRecord
100
AcDbDimStyleTableRecord
  2
AM_JIS
 70
     0
  3

  4
"
  5
OPEN30
  6

  7

 40
1.0
 41
2.5
 42
1.0
 43
12.0
 44
1.0
 45
0.0
 46
0.0
 47
0.1
 48
0.1
140
3.2
141
0.0
142
0.0
143
0.0393701
144
1.0
145
0.0
146
0.71
147
1.5
 71
     0
 72
     0
 73
     0
 74
     0
 75
     0
 76
     0
 77
     3
 78
     8
170
     0
171
     2
172
     1
173
     0
174
     0
175
     0
176
   256
177
   256
178
     2
270
     2
271
     3
272
     3
273
     2
274
     2
340
6B
275
     0
280
     0
281
     0
282
     0
283
     0
284
     0
285
     0
286
     0
287
     3
288
     0
  0
DIMSTYLE
105
5F
330
A
100
AcDbSymbolTableRecord
100
AcDbDimStyleTableRecord
  2
AM_JIS$3
 70
     0
  3

  4
"
  5
OPEN30
  6

  7

 40
1.0
 41
2.5
 42
1.0
 43
10.0
 44
1.0
 45
0.0
 46
0.0
 47
0.1
 48
0.1
140
3.2
141
0.0
142
0.0
143
0.0393701
144
1.0
145
0.0
146
0.71
147
1.5
 71
     0
 72
     0
 73
     0
 74
     1
 75
     0
 76
     0
 77
     3
 78
     8
170
     0
171
     2
172
     0
173
     0
174
     0
175
     0
176
   256
177
   256
178
     2
270
     2
271
     2
272
     3
273
     2
274
     2
340
6B
275
     0
280
     0
281
     0
282
     0
283
     0
284
     0
285
     0
286
     0
287
     0
288
     1
  0
DIMSTYLE
105
60
330
A
100
AcDbSymbolTableRecord
100
AcDbDimStyleTableRecord
  2
AM_JIS$4
 70
     0
  3

  4
"
  5
OPEN30
  6

  7

 40
1.0
 41
2.5
 42
1.0
 43
10.0
 44
1.0
 45
0.0
 46
0.0
 47
0.1
 48
0.1
140
3.2
141
0.0
142
0.0
143
0.0393701
144
1.0
145
0.0
146
0.71
147
1.5
 71
     0
 72
     0
 73
     0
 74
     1
 75
     0
 76
     0
 77
     3
 78
     8
170
     0
171
     2
172
     0
173
     0
174
     0
175
     0
176
   256
177
   256
178
     2
270
     2
271
     2
272
     3
273
     2
274
     2
340
6B
275
     0
280
     0
281
     0
282
     0
283
     0
284
     0
285
     0
286
     0
287
     0
288
     1
  0
DIMSTYLE
105
61
330
A
100
AcDbSymbolTableRecord
100
AcDbDimStyleTableRecord
  2
AM_JIS$6
 70
     0
  3

  4
"
  5
OPEN30
  6

  7

 40
1.0
 41
2.5
 42
1.0
 43
10.0
 44
1.0
 45
0.0
 46
0.0
 47
0.1
 48
0.1
140
3.2
141
0.0
142
0.0
143
0.0393701
144
1.0
145
0.0
146
0.71
147
1.5
 71
     0
 72
     0
 73
     0
 74
     0
 75
     0
 76
     0
 77
     0
 78
     8
170
     0
171
     2
172
     1
173
     0
174
     0
175
     0
176
   256
177
   256
178
     2
270
     2
271
     2
272
     2
273
     2
274
     2
340
6B
275
     0
280
     0
281
     0
282
     0
283
     0
284
     0
285
     0
286
     0
287
     3
288
     0
  0
DIMSTYLE
105
62
330
A
100
AcDbSymbolTableRecord
100
AcDbDimStyleTableRecord
  2
AM_JIS$7
 70
     0
  3

  4
"
  5
OPEN30
  6

  7

 40
1.0
 41
2.5
 42
1.0
 43
10.0
 44
1.0
 45
0.0
 46
0.0
 47
0.1
 48
0.1
140
3.2
141
0.0
142
0.0
143
0.0393701
144
1.0
145
0.0
146
0.71
147
1.5
 71
     0
 72
     0
 73
     0
 74
     0
 75
     0
 76
     0
 77
     3
 78
     8
170
     0
171
     2
172
     1
173
     0
174
     0
175
     0
176
   256
177
   256
178
     2
270
     2
271
     2
272
     3
273
     2
274
     2
340
6B
275
     0
280
     0
281
     0
282
     0
283
     0
284
     0
285
     0
286
     0
287
     3
288
     0
  0
DIMSTYLE
105
63
330
A
100
AcDbSymbolTableRecord
100
AcDbDimStyleTableRecord
  2
AM_JIS$SF
 70
     0
  3

  4
"
  5
OPEN30
  6

  7

 40
1.0
 41
2.5
 42
1.0
 43
10.0
 44
1.0
 45
0.0
 46
0.0
 47
0.1
 48
0.1
140
3.2
141
0.0
142
0.0
143
0.0393701
144
1.0
145
0.0
146
0.71
147
1.5
 71
     0
 72
     0
 73
     0
 74
     0
 75
     1
 76
     1
 77
     3
 78
     8
170
     0
171
     2
172
     1
173
     0
174
     0
175
     0
176
   256
177
   256
178
     2
270
     2
271
     2
272
     2
273
     2
274
     2
340
6B
275
     0
280
     0
281
     0
282
     0
283
     0
284
     0
285
     0
286
     0
287
     3
288
     0
  0
DIMSTYLE
105
68
330
A
100
AcDbSymbolTableRecord
100
AcDbDimStyleTableRecord
  2
AM_JIS$SH
 70
     0
  3

  4
"
  5

  6
GENAXEH
  7
OPEN30
 40
1.0
 41
2.5
 42
1.0
 43
10.0
 44
1.0
 45
0.0
 46
0.0
 47
0.1
 48
0.1
140
3.2
141
0.0
142
0.0
143
0.0393701
144
2.0
145
0.0
146
0.71
147
1.5
 71
     0
 72
     0
 73
     0
 74
     0
 75
     1
 76
     1
 77
     3
 78
     8
170
     0
171
     2
172
     1
173
     1
174
     0
175
     0
176
   256
177
   256
178
     2
270
     2
271
     2
272
     2
273
     2
274
     2
340
6B
275
     0
280
     0
281
     0
282
     0
283
     0
284
     0
285
     0
286
     0
287
     3
288
     0
  0
DIMSTYLE
105
B34
102
{ACAD_REACTORS
330
3AAB
102
}
330
A
100
AcDbSymbolTableRecord
100
AcDbDimStyleTableRecord
  2
AM_JIS$2
 70
     0
  3

  4
"
  5
OPEN30
  6

  7

 40
1.0
 41
2.5
 42
1.0
 43
12.0
 44
1.0
 45
0.0
 46
0.0
 47
0.1
 48
0.1
140
3.2
141
0.0
142
0.0
143
0.0393701
144
1.0
145
0.0
146
0.71
147
1.5
 71
     0
 72
     0
 73
     0
 74
     0
 75
     0
 76
     0
 77
     3
 78
     8
170
     0
171
     2
172
     1
173
     0
174
     0
175
     0
176
   256
177
   256
178
     2
270
     2
271
     3
272
     3
273
     2
274
     2
340
6B
275
     0
280
     0
281
     0
282
     0
283
     0
284
     0
285
     0
286
     0
287
     3
288
     0
  0
DIMSTYLE
105
BA5
102
{ACAD_REACTORS
330
CC6
330
DF5
330
1FB6
330
2216
102
}
330
A
100
AcDbSymbolTableRecord
100
AcDbDimStyleTableRecord
  2
AM_JIS$0
 70
     0
  3

  4
"
  5
OPEN30
  6

  7

 40
1.0
 41
2.5
 42
0.0
 43
10.0
 44
1.0
 45
0.0
 46
0.0
 47
0.1
 48
0.1000000001
140
3.799999999999999
141
0.0
142
0.0
143
0.0393701
144
1.0
145
0.0
146
0.71
147
1.5
 71
     0
 72
     0
 73
     0
 74
     0
 75
     0
 76
     0
 77
     3
 78
     1
170
     0
171
     2
172
     1
173
     0
174
     0
175
     0
176
     3
177
     3
178
     2
270
     2
271
     2
272
     2
273
     2
274
     2
340
11
275
     1
280
     0
281
     0
282
     0
283
     0
284
     8
285
     0
286
     0
287
     0
288
     0
  0
ENDTAB
  0
TABLE
  2
BLOCK_RECORD
  5
1
330
0
100
AcDbSymbolTable
 70
    10
  0
BLOCK_RECORD
  5
1F
102
{ACAD_XDICTIONARY
360
74
102
}
330
1
100
AcDbSymbolTableRecord
100
AcDbBlockTableRecord
  2
*MODEL_SPACE
  0
BLOCK_RECORD
  5
101
102
{ACAD_XDICTIONARY
360
3C0E
102
}
330
1
100
AcDbSymbolTableRecord
100
AcDbBlockTableRecord
  2
*PAPER_SPACE
  0
BLOCK_RECORD
  5
59
330
1
100
AcDbSymbolTableRecord
100
AcDbBlockTableRecord
  2
_OPEN30
  0
BLOCK_RECORD
  5
64
330
1
100
AcDbSymbolTableRecord
100
AcDbBlockTableRecord
  2
GENAXEH
  0
BLOCK_RECORD
  5
CC8
330
1
100
AcDbSymbolTableRecord
100
AcDbBlockTableRecord
  2
*D5
  0
BLOCK_RECORD
  5
DF6
330
1
100
AcDbSymbolTableRecord
100
AcDbBlockTableRecord
  2
*D6
  0
BLOCK_RECORD
  5
1FB7
330
1
100
AcDbSymbolTableRecord
100
AcDbBlockTableRecord
  2
*D7
  0
BLOCK_RECORD
  5
2217
330
1
100
AcDbSymbolTableRecord
100
AcDbBlockTableRecord
  2
*D8
  0
BLOCK_RECORD
  5
3AAC
330
1
100
AcDbSymbolTableRecord
100
AcDbBlockTableRecord
  2
*D9
  0
ENDTAB
  0
ENDSEC
  0
SECTION
  2
BLOCKS
  0
BLOCK
  5
20
330
1F
100
AcDbEntity
  8
0
100
AcDbBlockBegin
  2
*MODEL_SPACE
 70
     0
 10
0.0
 20
0.0
 30
0.0
  3
*MODEL_SPACE
  1

  0
ENDBLK
  5
21
330
1F
100
AcDbEntity
  8
0
100
AcDbBlockEnd
  0
BLOCK
  5
103
330
101
100
AcDbEntity
 67
     1
  8
0
100
AcDbBlockBegin
  2
*PAPER_SPACE
 70
     0
 10
0.0
 20
0.0
 30
0.0
  3
*PAPER_SPACE
  1

  0
ENDBLK
  5
104
330
101
100
AcDbEntity
 67
     1
  8
0
100
AcDbBlockEnd
  0
BLOCK
  5
5D
330
59
100
AcDbEntity
  8
0
100
AcDbBlockBegin
  2
_OPEN30
 70
     0
 10
0.0
 20
0.0
 30
0.0
  3
_OPEN30
  1

  0
LINE
  5
5A
330
59
100
AcDbEntity
  8
0
 62
     0
100
AcDbLine
 10
-1.0
 20
0.26794919
 30
0.0
 11
0.0
 21
0.0
 31
0.0
  0
LINE
  5
5B
330
59
100
AcDbEntity
  8
0
 62
     0
100
AcDbLine
 10
0.0
 20
0.0
 30
0.0
 11
-1.0
 21
-0.26794919
 31
0.0
  0
LINE
  5
5C
330
59
100
AcDbEntity
  8
0
 62
     0
100
AcDbLine
 10
0.0
 20
0.0
 30
0.0
 11
-1.0
 21
0.0
 31
0.0
  0
ENDBLK
  5
5E
330
59
100
AcDbEntity
  8
0
100
AcDbBlockEnd
  0
BLOCK
  5
66
330
64
100
AcDbEntity
  8
0
100
AcDbBlockBegin
  2
GENAXEH
 70
     0
 10
0.0
 20
0.0
 30
0.0
  3
GENAXEH
  1

  0
LINE
  5
65
330
64
100
AcDbEntity
  8
0
100
AcDbLine
 10
-1.0
 20
0.0
 30
0.0
 11
1.0
 21
0.0
 31
0.0
  0
ENDBLK
  5
67
330
64
100
AcDbEntity
  8
0
100
AcDbBlockEnd
  0
BLOCK
  5
CD2
330
CC8
100
AcDbEntity
  8
0
100
AcDbBlockBegin
  2
*D5
 70
     1
 10
0.0
 20
0.0
 30
0.0
  3
*D5
  1

  0
LINE
  5
3A76
330
CC8
100
AcDbEntity
  8
AM_5
 62
     3
100
AcDbLine
 10
-178.999999999992
 20
-6.500002054478074
 30
0.0
 11
-178.999999999992
 21
-32.00000305447787
 31
0.0
  0
LINE
  5
3A77
330
CC8
100
AcDbEntity
  8
AM_5
 62
     3
100
AcDbLine
 10
-2.999999999991322
 20
-6.550000571490304
 30
0.0
 11
-2.999999999991324
 21
-32.00000305447787
 31
0.0
  0
LINE
  5
3A78
330
CC8
100
AcDbEntity
  8
AM_5
 62
     3
100
AcDbLine
 10
-176.499999999992
 20
-31.00000305447787
 30
0.0
 11
-5.499999999991324
 21
-31.00000305447787
 31
0.0
  0
INSERT
  5
3A79
330
CC8
100
AcDbEntity
  8
AM_5
 62
     3
100
AcDbBlockReference
  2
_OPEN30
 10
-178.999999999992
 20
-31.00000305447787
 30
0.0
 41
2.5
 42
2.5
 43
2.5
 50
180.0
  0
INSERT
  5
3A7A
330
CC8
100
AcDbEntity
  8
AM_5
 62
     3
100
AcDbBlockReference
  2
_OPEN30
 10
-2.999999999991324
 20
-31.00000305447787
 30
0.0
 41
2.5
 42
2.5
 43
2.5
  0
MTEXT
  5
3A7B
330
CC8
100
AcDbEntity
  8
AM_5
 62
     2
100
AcDbMText
 10
-90.99999999999168
 20
-27.60000305447787
 30
0.0
 40
3.799999999999999
 41
0.0
 71
     5
 72
     1
  1
176
1001
ACAD
1000
MTEXTBEGIN
1070
    73
1070
     1
1070
    44
1040
1.0
1070
    74
1070
     0
1000
MTEXTEND
  0
POINT
  5
3A7C
330
CC8
100
AcDbEntity
  8
DEFPOINTS
 62
     0
100
AcDbPoint
 10
-178.999999999992
 20
-6.500002054478074
 30
0.0
  0
POINT
  5
3A7D
330
CC8
100
AcDbEntity
  8
DEFPOINTS
 62
     0
100
AcDbPoint
 10
-2.999999999991322
 20
-6.550000571490304
 30
0.0
  0
POINT
  5
3A7E
330
CC8
100
AcDbEntity
  8
DEFPOINTS
 62
     0
100
AcDbPoint
 10
-2.999999999991324
 20
-31.00000305447787
 30
0.0
  0
ENDBLK
  5
CD3
330
CC8
100
AcDbEntity
  8
0
100
AcDbBlockEnd
  0
BLOCK
  5
E00
330
DF6
100
AcDbEntity
  8
0
100
AcDbBlockBegin
  2
*D6
 70
     1
 10
0.0
 20
0.0
 30
0.0
  3
*D6
  1

  0
LINE
  5
3A6D
330
DF6
100
AcDbEntity
  8
AM_5
 62
     3
100
AcDbLine
 10
-114.9999999999913
 20
-7.000002054478091
 30
0.0
 11
-114.9999999999913
 21
-22.00000305447779
 31
0.0
  0
LINE
  5
3A6E
330
DF6
100
AcDbEntity
  8
AM_5
 62
     3
100
AcDbLine
 10
-2.999999999991311
 20
-6.550000571490288
 30
0.0
 11
-2.999999999991312
 21
-22.00000305447779
 31
0.0
  0
LINE
  5
3A6F
330
DF6
100
AcDbEntity
  8
AM_5
 62
     3
100
AcDbLine
 10
-112.4999999999913
 20
-21.00000305447779
 30
0.0
 11
-5.499999999991312
 21
-21.00000305447779
 31
0.0
  0
INSERT
  5
3A70
330
DF6
100
AcDbEntity
  8
AM_5
 62
     3
100
AcDbBlockReference
  2
_OPEN30
 10
-114.9999999999913
 20
-21.00000305447779
 30
0.0
 41
2.5
 42
2.5
 43
2.5
 50
180.0
  0
INSERT
  5
3A71
330
DF6
100
AcDbEntity
  8
AM_5
 62
     3
100
AcDbBlockReference
  2
_OPEN30
 10
-2.999999999991312
 20
-21.00000305447779
 30
0.0
 41
2.5
 42
2.5
 43
2.5
  0
MTEXT
  5
3A72
330
DF6
100
AcDbEntity
  8
AM_5
 62
     2
100
AcDbMText
 10
-58.99999999999134
 20
-17.60000305447779
 30
0.0
 40
3.799999999999999
 41
0.0
 71
     5
 72
     1
  1
112
1001
ACAD
1000
MTEXTBEGIN
1070
    73
1070
     1
1070
    44
1040
1.0
1070
    74
1070
     0
1000
MTEXTEND
  0
POINT
  5
3A73
330
DF6
100
AcDbEntity
  8
DEFPOINTS
 62
     0
100
AcDbPoint
 10
-114.9999999999913
 20
-7.000002054478091
 30
0.0
  0
POINT
  5
3A74
330
DF6
100
AcDbEntity
  8
DEFPOINTS
 62
     0
100
AcDbPoint
 10
-2.999999999991311
 20
-6.550000571490288
 30
0.0
  0
POINT
  5
3A75
330
DF6
100
AcDbEntity
  8
DEFPOINTS
 62
     0
100
AcDbPoint
 10
-2.999999999991312
 20
-21.00000305447779
 30
0.0
  0
ENDBLK
  5
E01
330
DF6
100
AcDbEntity
  8
0
100
AcDbBlockEnd
  0
BLOCK
  5
1FC3
330
1FB7
100
AcDbEntity
  8
0
100
AcDbBlockBegin
  2
*D7
 70
     1
 10
0.0
 20
0.0
 30
0.0
  3
*D7
  1

  0
LINE
  5
3B78
330
1FB7
100
AcDbEntity
  8
AM_5
 62
     3
100
AcDbLine
 10
-2.999999999991322
 20
-6.550000571490304
 30
0.0
 11
17.55592102486598
 21
-6.55000057149031
 31
0.0
  0
LINE
  5
3B79
330
1FB7
100
AcDbEntity
  8
AM_5
 62
     3
100
AcDbLine
 10
-2.99999999999135
 20
6.549999428509407
 30
0.0
 11
17.55592102486598
 21
6.549999428509401
 31
0.0
  0
LINE
  5
3B7A
330
1FB7
100
AcDbEntity
  8
AM_5
 62
     3
100
AcDbLine
 10
16.55592102486597
 20
-9.05000057149031
 30
0.0
 11
16.55592102486597
 21
-11.55000057149031
 31
0.0
  0
LINE
  5
3B7B
330
1FB7
100
AcDbEntity
  8
AM_5
 62
     3
100
AcDbLine
 10
16.55592102486598
 20
9.049999428509401
 30
0.0
 11
16.55592102486598
 21
28.03095180946179
 31
0.0
  0
LINE
  5
3B7C
330
1FB7
100
AcDbEntity
  8
AM_5
 62
     3
100
AcDbLine
 10
16.55592102486598
 20
-6.55000057149031
 30
0.0
 11
16.55592102486598
 21
6.549999428509401
 31
0.0
  0
INSERT
  5
3B7D
330
1FB7
100
AcDbEntity
  8
AM_5
 62
     3
100
AcDbBlockReference
  2
_OPEN30
 10
16.55592102486598
 20
-6.55000057149031
 30
0.0
 41
2.5
 42
2.5
 43
2.5
 50
90.0
  0
INSERT
  5
3B7E
330
1FB7
100
AcDbEntity
  8
AM_5
 62
     3
100
AcDbBlockReference
  2
_OPEN30
 10
16.55592102486598
 20
6.549999428509401
 30
0.0
 41
2.5
 42
2.5
 43
2.5
 50
270.0
  0
MTEXT
  5
3B7F
330
1FB7
100
AcDbEntity
  8
AM_5
 62
     2
100
AcDbMText
 10
13.15592102486598
 20
20.19761847612846
 30
0.0
 40
3.799999999999999
 41
0.0
 71
     5
 72
     1
  1
%%c13.1
 11
0.0000000000000001
 21
1.0
 31
0.0
1001
ACAD
1000
MTEXTBEGIN
1070
    73
1070
     1
1070
    44
1040
1.0
1070
    74
1070
     0
1000
MTEXTEND
  0
POINT
  5
3B80
330
1FB7
100
AcDbEntity
  8
DEFPOINTS
 62
     0
100
AcDbPoint
 10
-2.999999999991322
 20
-6.550000571490304
 30
0.0
  0
POINT
  5
3B81
330
1FB7
100
AcDbEntity
  8
DEFPOINTS
 62
     0
100
AcDbPoint
 10
-2.99999999999135
 20
6.549999428509407
 30
0.0
  0
POINT
  5
3B82
330
1FB7
100
AcDbEntity
  8
DEFPOINTS
 62
     0
100
AcDbPoint
 10
16.55592102486598
 20
6.549999428509401
 30
0.0
  0
ENDBLK
  5
1FC4
330
1FB7
100
AcDbEntity
  8
0
100
AcDbBlockEnd
  0
BLOCK
  5
2221
330
2217
100
AcDbEntity
  8
0
100
AcDbBlockBegin
  2
*D8
 70
     1
 10
0.0
 20
0.0
 30
0.0
  3
*D8
  1

  0
LINE
  5
3A7F
330
2217
100
AcDbEntity
  8
AM_5
 62
     3
100
AcDbLine
 10
-178.4999999999925
 20
7.000000000001713
 30
0.0
 11
-196.000000999992
 21
7.000000000001663
 31
0.0
  0
LINE
  5
3A80
330
2217
100
AcDbEntity
  8
AM_5
 62
     3
100
AcDbLine
 10
-178.4999999999925
 20
-7.000002054478112
 30
0.0
 11
-196.000000999992
 21
-7.000002054478161
 31
0.0
  0
LINE
  5
3A81
330
2217
100
AcDbEntity
  8
AM_5
 62
     3
100
AcDbLine
 10
-195.000000999992
 20
4.500000000001666
 30
0.0
 11
-195.000000999992
 21
-4.500002054478159
 31
0.0
  0
INSERT
  5
3A82
330
2217
100
AcDbEntity
  8
AM_5
 62
     3
100
AcDbBlockReference
  2
_OPEN30
 10
-195.000000999992
 20
7.000000000001666
 30
0.0
 41
2.5
 42
2.5
 43
2.5
 50
90.00000000000017
  0
INSERT
  5
3A83
330
2217
100
AcDbEntity
  8
AM_5
 62
     3
100
AcDbBlockReference
  2
_OPEN30
 10
-195.000000999992
 20
-7.000002054478159
 30
0.0
 41
2.5
 42
2.5
 43
2.5
 50
270.0000000000001
  0
MTEXT
  5
3A84
330
2217
100
AcDbEntity
  8
AM_5
 62
     2
100
AcDbMText
 10
-198.400000999992
 20
-0.0000010272382482
 30
0.0
 40
3.799999999999999
 41
0.0
 71
     5
 72
     1
  1
%%c14
 11
-0.0000000000000028
 21
1.0
 31
0.0
1001
ACAD
1000
MTEXTBEGIN
1070
    73
1070
     1
1070
    44
1040
1.0
1070
    74
1070
     0
1000
MTEXTEND
  0
POINT
  5
3A85
330
2217
100
AcDbEntity
  8
DEFPOINTS
 62
     0
100
AcDbPoint
 10
-178.4999999999925
 20
7.000000000002268
 30
0.0
  0
POINT
  5
3A86
330
2217
100
AcDbEntity
  8
DEFPOINTS
 62
     0
100
AcDbPoint
 10
-178.4999999999925
 20
-7.000002054477556
 30
0.0
  0
POINT
  5
3A87
330
2217
100
AcDbEntity
  8
DEFPOINTS
 62
     0
100
AcDbPoint
 10
-195.000000999992
 20
-7.000002054477552
 30
0.0
  0
ENDBLK
  5
2222
330
2217
100
AcDbEntity
  8
0
100
AcDbBlockEnd
  0
BLOCK
  5
3ABA
330
3AAC
100
AcDbEntity
  8
0
100
AcDbBlockBegin
  2
*D9
 70
     1
 10
0.0
 20
0.0
 30
0.0
  3
*D9
  1

  0
LINE
  5
3C10
330
3AAC
100
AcDbEntity
  8
AM_5
100
AcDbLine
 10
0.3420201408240755
 20
-0.9396926216962491
 30
0.0
 11
12.48283982980095
 21
-34.29632084800326
 31
0.0
  0
LINE
  5
3C11
330
3AAC
100
AcDbEntity
  8
AM_5
100
AcDbLine
 10
0.3420224212253999
 20
0.9396917917091588
 30
0.0
 11
12.48292305860434
 21
34.29629055510693
 31
0.0
  0
ARC
  5
3C12
330
3AAC
100
AcDbEntity
  8
AM_5
100
AcDbCircle
 10
0.0000000000045228
 20
0.0000000000124262
 30
0.0
 40
35.49738228868459
100
AcDbArc
 50
294.0360458673813
 51
65.96381508967893
  0
INSERT
  5
3C13
330
3AAC
100
AcDbEntity
  8
AM_5
100
AcDbBlockReference
  2
_OPEN30
 10
12.14081968898481
 20
-33.35662822630395
 30
0.0
 41
2.5
 42
2.5
 43
2.5
 50
202.018022857184
  0
INSERT
  5
3C14
330
3AAC
100
AcDbEntity
  8
AM_5
100
AcDbBlockReference
  2
_OPEN30
 10
12.14090063738346
 20
33.3565987634102
 30
0.0
 41
2.5
 42
2.5
 43
2.5
 50
157.9818380998761
  0
MTEXT
  5
3C15
330
3AAC
100
AcDbEntity
  8
AM_5
 62
     2
100
AcDbMText
 10
32.39738228866526
 20
-0.0000393102763364
 30
0.0
 40
3.2
 41
0.0
 71
     5
 72
     1
  1
140°
  7
ASAMI
 11
0.0000012133785503
 21
0.999999999999264
 31
0.0
  0
POINT
  5
3C16
330
3AAC
100
AcDbEntity
  8
DEFPOINTS
 62
     0
100
AcDbPoint
 10
32.5942567837989
 20
-14.05982126702691
 30
0.0
  0
POINT
  5
3C17
330
3AAC
100
AcDbEntity
  8
DEFPOINTS
 62
     0
100
AcDbPoint
 10
0.0000000000045239
 20
0.0000000000124292
 30
0.0
  0
POINT
  5
3C18
330
3AAC
100
AcDbEntity
  8
DEFPOINTS
 62
     0
100
AcDbPoint
 10
0.0000000000079345
 20
0.0000000000030527
 30
0.0
  0
POINT
  5
3C19
330
3AAC
100
AcDbEntity
  8
DEFPOINTS
 62
     0
100
AcDbPoint
 10
-0.5872917675904099
 20
1.613570883518885
 30
0.0
  0
POINT
  5
3C1A
330
3AAC
100
AcDbEntity
  8
DEFPOINTS
 62
     0
100
AcDbPoint
 10
-0.5873037318897265
 20
-1.613591571335098
 30
0.0
  0
ENDBLK
  5
3ABB
330
3AAC
100
AcDbEntity
  8
0
100
AcDbBlockEnd
  0
ENDSEC
  0
SECTION
  2
ENTITIES
  0
LINE
  5
C9F
330
1F
100
AcDbEntity
  8
AM_7
100
AcDbLine
 10
-180.999999999992
 20
0.0000000000027516
 30
0.0
 11
0.5559200248659884
 21
0.0000000000030642
 31
0.0
1001
GENIUS_GENODEF_13
1002
{
1000
HIER
1070
     0
1002
}
1002
{
1000
MANEDIT
1070
     0
1002
}
1002
{
1000
NOSEL
1070
     0
1002
}
1002
{
1000
BEHIND
1070
     0
1002
}
1002
{
1000
REACTOR
1002
}
1001
GENIUS_GENOBJ-N-CEN_13
1002
{
1000
OWNER
1000
GEN
1002
}
  0
DIMENSION
  5
CC6
330
1F
100
AcDbEntity
  8
AM_5
100
AcDbDimension
  2
*D5
 10
-2.999999999991324
 20
-31.00000305447787
 30
0.0
 11
-90.99999999999168
 21
-27.60000305447787
 31
0.0
 70
    32
  1
<>
  3
AM_JIS$0
100
AcDbAlignedDimension
 13
-178.999999999992
 23
-6.500002054478074
 33
0.0
 14
-2.999999999991322
 24
-6.550000571490304
 34
0.0
 50
0.0000000000001132
100
AcDbRotatedDimension
1001
GENIUS_GENDTOL_13
1000

1000
h7
1000

1040
0.0
1001
ACAD
1000
DSTYLE
1002
{
1070
   271
1070
     0
1002
}
  0
DIMENSION
  5
DF5
330
1F
100
AcDbEntity
  8
AM_5
100
AcDbDimension
  2
*D6
 10
-2.999999999991312
 20
-21.00000305447779
 30
0.0
 11
-58.99999999999134
 21
-17.60000305447779
 31
0.0
 70
    32
  1
<>
  3
AM_JIS$0
100
AcDbAlignedDimension
 13
-114.9999999999913
 23
-7.000002054478091
 33
0.0
 14
-2.999999999991311
 24
-6.550000571490288
 34
0.0
 50
0.0000000000001527
100
AcDbRotatedDimension
1001
GENIUS_GENDTOL_13
1000

1000
h7
1000

1040
0.0
1001
ACAD
1000
DSTYLE
1002
{
1070
   271
1070
     0
1002
}
  0
TEXT
  5
19BD
330
1F
100
AcDbEntity
  8
AM_6
100
AcDbText
 10
-111.7142857142773
 20
-53.50000305447792
 30
0.0
 40
5.0
  1
MDW131LHK
 50
0.0000000000001527
 72
     4
 11
-90.99999999999162
 21
-51.00000305447787
 31
0.0
100
AcDbText
  0
LINE
  5
1E25
330
1F
100
AcDbEntity
  8
AM_0
100
AcDbLine
 10
-114.9999999999913
 20
-7.000002054478093
 30
0.0
 11
-114.2205714420318
 21
-6.549998766726053
 31
0.0
  0
LINE
  5
1E26
330
1F
100
AcDbEntity
  8
AM_0
100
AcDbLine
 10
-114.220576146733
 20
6.549999428511265
 30
0.0
 11
-115.0000192404383
 21
7.000011108479975
 31
0.0
  0
DIMENSION
  5
1FB6
330
1F
100
AcDbEntity
  8
AM_5
100
AcDbDimension
  2
*D7
 10
16.55592102486598
 20
6.549999428509401
 30
0.0
 11
16.55592102486598
 21
20.19761847612846
 31
0.0
 70
   160
  1
%%c<>
  3
AM_JIS$0
100
AcDbAlignedDimension
 13
-2.999999999991322
 23
-6.550000571490304
 33
0.0
 14
-2.99999999999135
 24
6.549999428509407
 34
0.0
 50
89.99999999999969
100
AcDbRotatedDimension
1001
ACAD
1000
DSTYLE
1002
{
1070
   271
1070
     1
1002
}
1001
GENIUS_GENDTOL_13
1000

1000
h7
1000

1040
0.0
  0
LINE
  5
1FD9
330
1F
100
AcDbEntity
  8
AM_0
100
AcDbLine
 10
-114.2205714420311
 20
-6.550000571488729
 30
0.0
 11
-114.220576146733
 21
6.549999428511265
 31
0.0
  0
LINE
  5
21D7
330
1F
100
AcDbEntity
  8
AM_0
 48
0.5
100
AcDbLine
 10
-114.9999999999913
 20
-7.000002054478079
 30
0.0
 11
-114.9999999999913
 21
7.000000000002751
 31
0.0
  0
LINE
  5
21D8
330
1F
100
AcDbEntity
  8
AM_0
 48
0.5
100
AcDbLine
 10
-178.499999999992
 20
7.000000000002751
 30
0.0
 11
-114.9999999999913
 21
7.000000000002751
 31
0.0
1001
GENIUS_GENODEF_13
1002
{
1000
HIER
1070
     0
1002
}
1002
{
1000
MANEDIT
1070
     0
1002
}
1002
{
1000
NOSEL
1070
     0
1002
}
1002
{
1000
BEHIND
1070
     0
1002
}
1002
{
1000
REACTOR
1002
}
1001
GENIUS_GENOBJ-N-CEN_13
1002
{
1000
OWNER
1000
GEN
1002
}
  0
LINE
  5
21D9
330
1F
100
AcDbEntity
  8
AM_0
 48
0.5
100
AcDbLine
 10
-178.499999999992
 20
-7.000002054478079
 30
0.0
 11
-114.9999999999913
 21
-7.000002054478079
 31
0.0
1001
GENIUS_GENODEF_13
1002
{
1000
HIER
1070
     0
1002
}
1002
{
1000
MANEDIT
1070
     0
1002
}
1002
{
1000
NOSEL
1070
     0
1002
}
1002
{
1000
BEHIND
1070
     0
1002
}
1002
{
1000
REACTOR
1002
}
1001
GENIUS_GENOBJ-N-CEN_13
1002
{
1000
OWNER
1000
GEN
1002
}
  0
LINE
  5
21DC
330
1F
100
AcDbEntity
  8
AM_0
100
AcDbLine
 10
-178.4999999999925
 20
-7.000002054477553
 30
0.0
 11
-178.4999999999925
 21
7.000000000002268
 31
0.0
  0
LINE
  5
21DD
330
1F
100
AcDbEntity
  8
AM_0
 48
0.5
100
AcDbLine
 10
-178.999999999992
 20
-6.500002054478079
 30
0.0
 11
-178.999999999992
 21
6.500000000002765
 31
0.0
  0
DIMENSION
  5
2216
330
1F
100
AcDbEntity
  8
AM_5
100
AcDbDimension
  2
*D8
 10
-195.000000999992
 20
-7.000002054477552
 30
0.0
 11
-198.400000999992
 21
-0.000001027237671
 31
0.0
 70
    32
  1
%%c<>
 51
359.9999999999998
  3
AM_JIS$0
100
AcDbAlignedDimension
 13
-178.4999999999925
 23
7.000000000002268
 33
0.0
 14
-178.4999999999925
 24
-7.000002054477556
 34
0.0
 50
269.9999999999999
100
AcDbRotatedDimension
1001
ACAD
1000
DSTYLE
1002
{
1070
   271
1070
     0
1002
}
1001
GENIUS_GENDTOL_13
1000

1000
h7
1000

1040
0.0
  0
ELLIPSE
  5
2694
330
1F
100
AcDbEntity
  8
AM_0
 48
0.5
100
AcDbEllipse
 10
8.24058657584443
 20
6.61737629916198
 30
0.0
 11
10.17240772368207
 21
0.0000000000010035
 31
0.0
210
0.0
220
0.0
230
1.0
 40
0.9899999999999971
 41
3.323896559076802
 42
3.661579236128986
  0
LINE
  5
2695
330
1F
100
AcDbEntity
  8
AM_0
 48
0.5
100
AcDbLine
 10
-1.7632502613019
 20
4.791603860802664
 30
0.0
 11
-2.999999999991354
 21
6.549999428509403
 31
0.0
  0
LINE
  5
2696
330
1F
100
AcDbEntity
  8
AM_0
 48
0.5
100
AcDbLine
 10
0.0000000000079345
 20
0.0000000000030527
 30
0.0
 11
-0.5872917675904099
 21
1.613570883518886
 31
0.0
  0
LINE
  5
2699
330
1F
100
AcDbEntity
  8
AM_0
 48
0.5
100
AcDbLine
 10
0.0000000000045239
 20
0.0000000000124292
 30
0.0
 11
-0.5873037318897268
 21
-1.613591571335098
 31
0.0
  0
LINE
  5
2CB4
330
1F
100
AcDbEntity
  8
AM_0
 48
0.5
100
AcDbLine
 10
-178.999999999992
 20
6.500000000002751
 30
0.0
 11
-178.499999999992
 21
7.000000000002751
 31
0.0
1001
GENIUS_GENFIL_13
1070
     0
1040
0.5
1040
0.5
1040
20.0
1040
0.0
1002
{
1002
}
1001
GENIUS_GENODEF_13
1002
{
1000
HIER
1070
     0
1002
}
1002
{
1000
MANEDIT
1070
     0
1002
}
1002
{
1000
NOSEL
1070
     0
1002
}
1002
{
1000
BEHIND
1070
     0
1002
}
1002
{
1000
REACTOR
1002
}
1001
GENIUS_GENOBJ-N-CHA_13
1002
{
1000
OWNER
1000
GEN
1002
}
  0
LINE
  5
2CB7
330
1F
100
AcDbEntity
  8
AM_0
 48
0.5
100
AcDbLine
 10
-178.499999999992
 20
-7.000002054478079
 30
0.0
 11
-178.999999999992
 21
-6.500002054478079
 31
0.0
1001
GENIUS_GENFIL_13
1070
     0
1040
0.5
1040
0.5
1040
20.0
1040
0.0
1002
{
1002
}
1001
GENIUS_GENODEF_13
1002
{
1000
HIER
1070
     0
1002
}
1002
{
1000
MANEDIT
1070
     0
1002
}
1002
{
1000
NOSEL
1070
     0
1002
}
1002
{
1000
BEHIND
1070
     0
1002
}
1002
{
1000
REACTOR
1002
}
1001
GENIUS_GENOBJ-N-CHA_13
1002
{
1000
OWNER
1000
GEN
1002
}
  0
LINE
  5
3289
330
1F
100
AcDbEntity
  8
AM_0
100
AcDbLine
 10
-109.8890155749432
 20
-6.550333150224439
 30
0.0
 11
-114.2205745679724
 21
-6.550000571488729
 31
0.0
  0
LINE
  5
328A
330
1F
100
AcDbEntity
  8
AM_0
100
AcDbLine
 10
-106.2493088532217
 20
6.549999428511137
 30
0.0
 11
-114.220576146733
 21
6.549999428511265
 31
0.0
  0
LINE
  5
328D
330
1F
100
AcDbEntity
  8
AM_0
 48
0.5
100
AcDbLine
 10
-7.796128460442868
 20
6.549999428509488
 30
0.0
 11
-2.999999999991354
 21
6.549999428509403
 31
0.0
  0
LINE
  5
328E
330
1F
100
AcDbEntity
  8
AM_0
 48
0.5
100
AcDbLine
 10
0.0000000000079345
 20
0.0000000000030633
 30
0.0
 11
-5.147426701671061
 21
2.515000471192886
 31
0.0
  0
LINE
  5
328F
330
1F
100
AcDbEntity
  8
AM_0
 48
0.5
100
AcDbLine
 10
-7.796128460443109
 20
-6.550000571490519
 30
0.0
 11
-2.999999999991312
 21
-6.550000571490306
 31
0.0
  0
LINE
  5
3290
330
1F
100
AcDbEntity
  8
AM_11
 48
0.5
100
AcDbLine
 10
-28.19777885312944
 20
6.549999428509872
 30
0.0
 11
-7.796128460442868
 21
6.549999428509488
 31
0.0
  0
LINE
  5
3291
330
1F
100
AcDbEntity
  8
AM_11
 48
0.5
100
AcDbLine
 10
-28.1977788531297
 20
-6.550000571490121
 30
0.0
 11
-7.796128460443109
 21
-6.550000571490519
 31
0.0
  0
LINE
  5
3292
330
1F
100
AcDbEntity
  8
AM_11
 48
0.5
100
AcDbLine
 10
-66.75372440867731
 20
-6.550000571489539
 30
0.0
 11
-46.35207401599331
 21
-6.550931117860079
 31
0.0
  0
LINE
  5
3293
330
1F
100
AcDbEntity
  8
AM_11
 48
0.5
100
AcDbLine
 10
-64.10924570371223
 20
6.550929974880725
 30
0.0
 11
-51.08969459050193
 21
6.549999428510298
 31
0.0
  0
LINE
  5
3294
330
1F
100
AcDbEntity
  8
AM_0
 48
0.5
100
AcDbLine
 10
-51.08971216232341
 20
6.549999428510298
 30
0.0
 11
-28.19777885312944
 21
6.549999428509872
 31
0.0
  0
LINE
  5
3295
330
1F
100
AcDbEntity
  8
AM_0
 48
0.5
100
AcDbLine
 10
-46.3520740159933
 20
-6.550000571489922
 30
0.0
 11
-28.1977788531297
 21
-6.550000571490121
 31
0.0
  0
SPLINE
  5
3296
330
1F
100
AcDbEntity
  8
AM_0
100
AcDbSpline
210
0.0
220
0.0
230
1.0
 70
     8
 71
     3
 72
    46
 73
    42
 74
     0
 42
0.0000000001
 43
0.0000000001
 40
0.0
 40
0.0
 40
0.0
 40
0.0
 40
1.348332046947657
 40
2.024828967632895
 40
2.703918159304097
 40
3.386347665078124
 40
4.072776489761952
 40
4.763750544421347
 40
5.459696642770596
 40
6.160921452191754
 40
6.867565637253344
 40
7.579665907256596
 40
8.297112853413899
 40
9.019671552060676
 40
9.746986763446127
 40
10.47859339096366
 40
11.21393074760089
 40
11.95235532364328
 40
12.69315551794651
 40
13.43556823304427
 40
14.1787950170388
 40
14.92202180103393
 40
15.66443451613169
 40
16.40523471043432
 40
17.14365928647669
 40
17.87899664311455
 40
18.61060327063121
 40
19.3379184820169
 40
20.06048192311554
 40
20.77792886927283
 40
21.49002913927608
 40
22.19667332433747
 40
22.89788836015233
 40
23.59383445850158
 40
24.28480851316097
 40
24.97123685067576
 40
25.65366676154838
 40
26.33276604526152
 40
27.00926273560555
 40
27.68398960851751
 40
28.357818684969
 40
28.357818684969
 40
28.357818684969
 40
28.357818684969
 10
-4.764357480020276
 20
-6.550000571490573
 30
0.0
 10
-5.486593432601549
 20
-6.535079165169566
 30
0.0
 10
-6.571195909834863
 20
-6.512671260658967
 30
0.0
 10
-8.013439121413831
 20
-6.374709909138345
 30
0.0
 10
-9.096375676856178
 20
-6.235608167459221
 30
0.0
 10
-10.17921966700281
 20
-6.057025159783455
 30
0.0
 10
-11.26196823927188
 20
-5.841335569048474
 30
0.0
 10
-12.34461583137164
 20
-5.589570575248409
 30
0.0
 10
-13.42716063003003
 20
-5.303370267498395
 30
0.0
 10
-14.50959781754034
 20
-4.984491958054753
 30
0.0
 10
-15.59192955743489
 20
-4.634913448446593
 30
0.0
 10
-16.67415293857042
 20
-4.256790362511395
 30
0.0
 10
-17.75628534744454
 20
-3.852471542294749
 30
0.0
 10
-18.83833204343707
 20
-3.424442551179762
 30
0.0
 10
-19.92030297697658
 20
-2.975342831219813
 30
0.0
 10
-21.00221017160669
 20
-2.507943042123555
 30
0.0
 10
-22.08406310921688
 20
-2.025117436535559
 30
0.0
 10
-23.16587231896579
 20
-1.529835646089773
 30
0.0
 10
-24.24764927111503
 20
-1.025145839991321
 30
0.0
 10
-25.32940384776766
 20
-0.514151505781893
 30
0.0
 10
-26.41114933100034
 20
-0.0000005715941924
 30
0.0
 10
-27.49289481399536
 20
0.5141503632183057
 30
0.0
 10
-28.57464939136082
 20
1.025144695554258
 30
0.0
 10
-29.65642634090459
 20
1.529834508499431
 30
0.0
 10
-30.7382355603147
 20
2.025116273553205
 30
0.0
 10
-31.82008846210212
 20
2.507941973292237
 30
0.0
 10
-32.90199578939607
 20
2.975341413714064
 30
0.0
 10
-33.98396858437273
 20
3.424443399747619
 30
0.0
 10
-35.06601948467672
 20
3.852468502002245
 30
0.0
 10
-36.14815382390921
 20
4.25678939542734
 30
0.0
 10
-37.23037717984746
 20
4.634912593874269
 30
0.0
 10
-38.31270447364621
 20
4.984487891154668
 30
0.0
 10
-39.39513444910012
 20
5.303371133375646
 30
0.0
 10
-40.47767482888326
 20
5.589572610285238
 30
0.0
 10
-41.56032179440344
 20
5.841321132297663
 30
0.0
 10
-42.64307116047752
 20
6.05707328151344
 30
0.0
 10
-43.72592206141804
 20
6.235401270364333
 30
0.0
 10
-44.80885303676287
 20
6.375482262391396
 30
0.0
 10
-45.89185101252016
 20
6.475422674081188
 30
0.0
 10
-46.97488830029834
 20
6.538311343647082
 30
0.0
 10
-47.69708926975604
 20
6.546105129784582
 30
0.0
 10
-48.05794935308575
 20
6.549999428510245
 30
0.0
  0
SPLINE
  5
3297
330
1F
100
AcDbEntity
  8
AM_0
100
AcDbSpline
210
0.0
220
0.0
230
1.0
 70
     8
 71
     3
 72
    23
 73
    19
 74
     0
 42
0.0000000001
 43
0.0000000001
 40
16.03460024169435
 40
16.03460024169435
 40
16.03460024169435
 40
16.03460024169435
 40
16.35212704903564
 40
17.38177054169784
 40
18.41822485651776
 40
19.46214173629503
 40
20.51396345435107
 40
21.57393551351153
 40
22.64208202342361
 40
23.7182574881101
 40
24.80209208578934
 40
25.89306333925047
 40
26.99048218457928
 40
28.09348763352352
 40
29.20111863782268
 40
30.31232390128032
 40
31.42594612798585
 40
32.5407912310448
 40
32.5407912310486
 40
32.5407912310486
 40
32.5407912310486
 10
-64.10924570371223
 20
6.550929974880722
 30
0.0
 10
-63.99797684094634
 20
6.528818328333201
 30
0.0
 10
-63.52637050724583
 20
6.432528331077932
 30
0.0
 10
-62.6956308715802
 20
6.243862777162423
 30
0.0
 10
-61.61982086864353
 20
5.963319161716466
 30
0.0
 10
-60.54501012864023
 20
5.648315443457092
 30
0.0
 10
-59.47113514014654
 20
5.300674703236947
 30
0.0
 10
-58.39815778943608
 20
4.922335045965395
 30
0.0
 10
-57.32601606098949
 20
4.515459220674215
 30
0.0
 10
-56.25463529493186
 20
4.082415142607595
 30
0.0
 10
-55.18395461156004
 20
3.625655115131545
 30
0.0
 10
-54.11388817052128
 20
3.147836918418477
 30
0.0
 10
-53.0443492548967
 20
2.651737838268252
 30
0.0
 10
-51.97526660435884
 20
2.140210236413671
 30
0.0
 10
-50.90655077006076
 20
1.616228575808662
 30
0.0
 10
-49.83810276628238
 20
1.082852524928298
 30
0.0
 10
-48.7698355911953
 20
0.5431728535542898
 30
0.0
 10
-48.05784876526431
 20
0.1813471432774525
 30
0.0
 10
-47.70166118909935
 20
0.00033257873659
 30
0.0
  0
SPLINE
  5
3298
330
1F
100
AcDbEntity
  8
AM_0
100
AcDbSpline
210
0.0
220
0.0
230
1.0
 70
     8
 71
     3
 72
    11
 73
     7
 74
     0
 42
0.0000000001
 43
0.0000000001
 40
11.27226913003534
 40
11.27226913003534
 40
11.27226913003534
 40
11.2722691300354
 40
12.28301561507924
 40
13.29510212255852
 40
14.30984805882082
 40
15.18258238371378
 40
15.18258238371378
 40
15.18258238371378
 40
15.18258238371378
 10
-66.75372440867987
 20
-6.550000571489538
 30
0.0
 10
-67.11321225562705
 20
-6.51794296807196
 30
0.0
 10
-67.83150988708304
 20
-6.440332905401877
 30
0.0
 10
-68.90524717920818
 20
-6.283774212192838
 30
0.0
 10
-69.92424280237165
 20
-6.096782019145869
 30
0.0
 10
-70.58326935759069
 20
-5.953035555105997
 30
0.0
 10
-70.88696755999961
 20
-5.882028772290706
 30
0.0
  0
SPLINE
  5
3299
330
1F
100
AcDbEntity
  8
AM_0
100
AcDbSpline
210
0.0
220
0.0
230
1.0
 70
     8
 71
     3
 72
    17
 73
    13
 74
     0
 42
0.0000000001
 43
0.0000000001
 40
1.580019955310467
 40
1.580019955310467
 40
1.580019955310467
 40
1.580019955310467
 40
2.030549285115227
 40
3.082371838836284
 40
4.126290986361125
 40
5.162752068350215
 40
6.192395305374981
 40
7.216039564037012
 40
8.234688489606833
 40
9.249433870634691
 40
10.26152376260694
 40
11.27226744710342
 40
11.27226744710342
 40
11.27226744710342
 40
11.27226744710352
 10
-56.55210335006735
 20
-4.834093446656588
 30
0.0
 10
-56.70533517469295
 20
-4.883880587406658
 30
0.0
 10
-57.21718094904275
 20
-5.047064591238231
 30
0.0
 10
-58.09102861829796
 20
-5.303024540073025
 30
0.0
 10
-59.17341822887554
 20
-5.589665727358108
 30
0.0
 10
-60.25610582029951
 20
-5.841298631972374
 30
0.0
 10
-61.33884302009097
 20
-6.057078214066846
 30
0.0
 10
-62.42169818215984
 20
-6.235434882540746
 30
0.0
 10
-63.50462815558458
 20
-6.375350834531505
 30
0.0
 10
-64.58762556089826
 20
-6.475919367853784
 30
0.0
 10
-65.67066371584939
 20
-6.536493111179362
 30
0.0
 10
-66.39286439430263
 20
-6.550000608968987
 30
0.0
 10
-66.7537244086798
 20
-6.550000571489538
 30
0.0
  0
SPLINE
  5
329A
330
1F
100
AcDbEntity
  8
AM_0
 48
0.5
100
AcDbSpline
210
0.0
220
0.0
230
1.0
 70
     8
 71
     3
 72
    17
 73
    13
 74
     0
 42
0.0000000001
 43
0.0000000001
 40
0.0
 40
0.0
 40
0.0
 40
0.0
 40
1.010743614677189
 40
2.022833924044153
 40
3.037578959561199
 40
4.056212747067873
 40
5.079857613375832
 40
6.109500119648989
 40
7.14596120163808
 40
8.18989512056258
 40
9.241717674284874
 40
9.693948937866434
 40
9.693948937866434
 40
9.693948937866434
 40
9.693948937866434
 10
-7.79612846044287
 20
6.549999428509486
 30
0.0
 10
-8.156988545253078
 20
6.546105145626442
 30
0.0
 10
-8.87918951767349
 20
6.538311391195356
 30
0.0
 10
-9.962226783186544
 20
6.475422483380796
 30
0.0
 10
-11.04521946068403
 20
6.375483477507772
 30
0.0
 10
-12.12814478525356
 20
6.235400058174739
 30
0.0
 10
-13.21098985956827
 20
6.057072078089619
 30
0.0
 10
-14.29374145774599
 20
5.841326329589059
 30
0.0
 10
-15.37638504744053
 20
5.589551639405791
 30
0.0
 10
-16.45896263956903
 20
5.303443019596206
 30
0.0
 10
-17.33284750152879
 20
5.045702401768362
 30
0.0
 10
-17.84604392928459
 20
4.884577450903334
 30
0.0
 10
-18.00007796356815
 20
4.835258182061314
 30
0.0
  0
SPLINE
  5
329C
330
1F
100
AcDbEntity
  8
AM_0
 48
0.5
100
AcDbSpline
210
0.0
220
0.0
230
1.0
 70
     8
 71
     3
 72
    25
 73
    21
 74
     0
 42
0.0000000001
 43
0.0000000001
 40
6.846175049578289
 40
6.846175049578289
 40
6.846175049578289
 40
6.846175049578289
 40
7.604337694224321
 40
8.711974558287883
 40
9.814980593243754
 40
10.91239053451967
 40
12.0033633515982
 40
13.08720139956839
 40
14.16337181880432
 40
15.23152222380919
 40
16.29148850140128
 40
17.34331105512262
 40
18.38723020264746
 40
19.42369128463655
 40
20.45333379090873
 40
21.47697865721768
 40
22.49561244472435
 40
23.5103574802404
 40
24.52244778960836
 40
25.53320666051913
 40
25.53320666051913
 40
25.53320666051913
 40
25.53320666051913
 10
-9.059223570440257
 20
1.185592310382503
 30
0.0
 10
-9.305252770863662
 20
1.300598661250394
 30
0.0
 10
-9.91123583501832
 20
1.5824725718602
 30
0.0
 10
-10.87807331817973
 20
2.025116081261838
 30
0.0
 10
-11.95992613663726
 20
2.507941955131833
 30
0.0
 10
-13.04183336217567
 20
2.975341675160261
 30
0.0
 10
-14.12380429039432
 20
3.42444140501938
 30
0.0
 10
-15.20585097711948
 20
3.852470424729192
 30
0.0
 10
-16.28798342788421
 20
4.256789122079554
 30
0.0
 10
-17.37020665239185
 20
4.634912666025325
 30
0.0
 10
-18.45253398085619
 20
4.984487872993693
 30
0.0
 10
-19.53496394767686
 20
5.303371134681484
 30
0.0
 10
-20.61750432772118
 20
5.589572622874547
 30
0.0
 10
-21.70015130065435
 20
5.841321081184659
 30
0.0
 10
-22.78290063711013
 20
6.057073471679958
 30
0.0
 10
-23.86574631209737
 20
6.235399687442251
 30
0.0
 10
-24.94867147697217
 20
6.375483577056566
 30
0.0
 10
-26.03166419680015
 20
6.475422453746898
 30
0.0
 10
-27.11470689134604
 20
6.538311726430937
 30
0.0
 10
-27.83691331785437
 20
6.546105237712159
 30
0.0
 10
-28.19777885312944
 20
6.549999428509874
 30
0.0
  0
SPLINE
  5
329D
330
1F
100
AcDbEntity
  8
AM_0
 48
0.5
100
AcDbSpline
210
0.0
220
0.0
230
1.0
 70
     8
 71
     3
 72
    10
 73
     6
 74
     0
 42
0.0000000001
 43
0.0000000001
 40
0.0
 40
0.0
 40
0.0
 40
0.0
 40
2.69986029516136
 40
4.147722969032201
 40
6.285750005020438
 40
6.285750005020438
 40
6.285750005020438
 40
6.285750005020438
 10
-9.059050416479573
 20
1.185514514365507
 30
0.0
 10
-8.288230279265476
 20
0.5769742518255209
 30
0.0
 10
-7.104039973624402
 20
-0.3579098342294396
 30
0.0
 10
-4.303588975930077
 20
0.0946839296172166
 30
0.0
 10
-4.830995354935265
 20
1.619079613321755
 30
0.0
 10
-5.179471792807435
 20
2.548245732663041
 30
0.0
  0
SPLINE
  5
329E
330
1F
100
AcDbEntity
  8
AM_0
100
AcDbSpline
210
0.0
220
0.0
230
1.0
 70
     8
 71
     3
 72
    55
 73
    51
 74
     0
 42
0.0000000001
 43
0.0000000001
 40
0.0
 40
0.0
 40
0.0
 40
0.0
 40
1.010743684496582
 40
2.022833576467832
 40
3.037578957496688
 40
4.056212745003489
 40
5.079857003664532
 40
6.109500240690281
 40
7.145961322679372
 40
8.189895241603872
 40
9.241717795325891
 40
10.30168407291828
 40
11.36983447792315
 40
12.44600489715814
 40
13.52984294512926
 40
14.62081576220742
 40
15.7182257034828
 40
16.82123173843959
 40
17.92886860250316
 40
19.0400688939571
 40
20.15368796660465
 40
21.26852814259644
 40
22.38336992938901
 40
23.49698739941135
 40
24.6081876908653
 40
25.71582455492886
 40
26.81883757994213
 40
27.91624752121713
 40
29.00722033829659
 40
30.09105838626677
 40
31.16722880550176
 40
32.23537921050758
 40
33.29534548809967
 40
34.347168041821
 40
35.39108718934584
 40
36.42754827133493
 40
37.45720575381954
 40
38.48085062012849
 40
39.49948440763516
 40
40.51422944315121
 40
41.52631975251916
 40
42.53706336719636
 40
43.54780698187354
 40
44.55989729124051
 40
45.57464232675757
 40
46.59327611426424
 40
47.6169209805722
 40
48.64656348684535
 40
49.68302456883444
 40
50.58557219878025
 40
50.58557219878025
 40
50.58557219878025
 40
50.58557219878025
 10
-7.79612846044311
 20
-6.550000571490513
 30
0.0
 10
-8.156988479581105
 20
-6.546103480173957
 30
0.0
 10
-8.879189146588732
 20
-6.538304107012798
 30
0.0
 10
-9.96222732451169
 20
-6.475432403438546
 30
0.0
 10
-11.04521927161838
 20
-6.375482818676811
 30
0.0
 10
-12.12814419215604
 20
-6.235399674264306
 30
0.0
 10
-13.21099128023867
 20
-6.057081365383488
 30
0.0
 10
-14.29373917371431
 20
-5.841320845136992
 30
0.0
 10
-15.37639149432665
 20
-5.589571553292752
 30
0.0
 10
-16.45893864113761
 20
-5.303375082061243
 30
0.0
 10
-17.54137324002816
 20
-4.984488660414003
 30
0.0
 10
-18.62370068633637
 20
-4.634913905456008
 30
0.0
 10
-19.705923878751
 20
-4.25679023865287
 30
0.0
 10
-20.78805633878396
 20
-3.852471575880392
 30
0.0
 10
-21.87010302084074
 20
-3.424442541949157
 30
0.0
 10
-22.95207395845662
 20
-2.975342834244301
 30
0.0
 10
-24.03398115083571
 20
-2.50794303931798
 30
0.0
 10
-25.11583409337314
 20
-2.025117444765901
 30
0.0
 10
-26.19764328557502
 20
-1.529835615818349
 30
0.0
 10
-27.27942030325939
 20
-1.025145953290074
 30
0.0
 10
-28.36117463464047
 20
-0.5141510818170272
 30
0.0
 10
-29.442921555765
 20
-0.000001907928036
 30
0.0
 10
-30.524663620751
 20
0.514156520966507
 30
0.0
 10
-31.6064215779368
 20
1.025143434897793
 30
0.0
 10
-32.68819726015294
 20
1.529834625092943
 30
0.0
 10
-33.77000838120863
 20
2.025118340843506
 30
0.0
 10
-34.85186581179103
 20
2.50793981487718
 30
0.0
 10
-35.93377471170551
 20
2.975341980170791
 30
0.0
 10
-37.01574580552199
 20
3.424441323702087
 30
0.0
 10
-38.09779244820657
 20
3.852470447646219
 30
0.0
 10
-39.17992491101044
 20
4.256789111010131
 30
0.0
 10
-40.26214813099013
 20
4.634912687398198
 30
0.0
 10
-41.34447546559034
 20
4.984487799304177
 30
0.0
 10
-42.42690541257461
 20
5.303371405188399
 30
0.0
 10
-43.50944586508183
 20
5.589571624879638
 30
0.0
 10
-44.59209778408633
 20
5.841325979085428
 30
0.0
 10
-45.67485340874482
 20
6.057061856485442
 30
0.0
 10
-46.75770407424825
 20
6.235435358652447
 30
0.0
 10
-47.8406293158133
 20
6.375352452578146
 30
0.0
 10
-48.92362201541573
 20
6.475908994758183
 30
0.0
 10
-50.00665927505136
 20
6.536501744648871
 30
0.0
 10
-51.089720333774
 20
6.556743777430757
 30
0.0
 10
-52.17278139090303
 20
6.53650174461717
 30
0.0
 10
-53.25581865532868
 20
6.475908994885566
 30
0.0
 10
-54.33881133729567
 20
6.3753524520984
 30
0.0
 10
-55.42173664498016
 20
6.235435360455649
 30
0.0
 10
-56.50458178281216
 20
6.057062719305077
 30
0.0
 10
-57.58733314182562
 20
5.841328184868364
 30
0.0
 10
-58.62075922761418
 20
5.600999678694252
 30
0.0
 10
-59.29125784106458
 20
5.425245170141885
 30
0.0
 10
-59.60233011821992
 20
5.339591424303059
 30
0.0
  0
SPLINE
  5
329F
330
1F
100
AcDbEntity
  8
AM_0
100
AcDbSpline
210
0.0
220
0.0
230
1.0
 70
     8
 71
     3
 72
    11
 73
     7
 74
     0
 42
0.0000000001
 43
0.0000000001
 40
11.27226913003534
 40
11.27226913003534
 40
11.27226913003534
 40
11.2722691300354
 40
12.28301561507924
 40
13.29510212255852
 40
14.30984805882082
 40
15.18258238371378
 40
15.18258238371378
 40
15.18258238371378
 40
15.18258238371378
 10
-28.19777885312966
 20
-6.550000571490127
 30
0.0
 10
-28.55726670007685
 20
-6.517942968072549
 30
0.0
 10
-29.27556433153286
 20
-6.440332905402469
 30
0.0
 10
-30.34930162365801
 20
-6.283774212193431
 30
0.0
 10
-31.36829724682145
 20
-6.096782019146459
 30
0.0
 10
-32.02732380204048
 20
-5.953035555106591
 30
0.0
 10
-32.33102200444941
 20
-5.882028772291301
 30
0.0
  0
SPLINE
  5
32A0
330
1F
100
AcDbEntity
  8
AM_0
100
AcDbSpline
210
0.0
220
0.0
230
1.0
 70
     8
 71
     3
 72
    22
 73
    18
 74
     0
 42
0.0000000001
 43
0.0000000001
 40
17.17441611292
 40
17.17441611292
 40
17.17441611292
 40
17.17441611292
 40
17.38177636558528
 40
18.41823744757437
 40
19.46215659509824
 40
20.51397914882054
 40
21.57394542641293
 40
22.64209583141747
 40
23.71826625065247
 40
24.80210429862395
 40
25.8930771157021
 40
26.99048705697709
 40
28.09349309193389
 40
29.20112995599786
 40
30.31233024745139
 40
31.42594771747373
 40
32.5407895042663
 40
32.54078950426994
 40
32.54078950426994
 40
32.54078950426994
 10
-32.33149565437432
 20
-5.881947978091386
 30
0.0
 10
-32.4040174332029
 20
-5.866785370526974
 30
0.0
 10
-32.83874589082999
 20
-5.774428270538306
 30
0.0
 10
-33.63514392835178
 20
-5.589240264516825
 30
0.0
 10
-34.71768422606195
 20
-5.303039222570092
 30
0.0
 10
-35.80011421518818
 20
-4.984155839951462
 30
0.0
 10
-36.88244153762549
 20
-4.634580665803364
 30
0.0
 10
-37.96466476369474
 20
-4.256457112796704
 30
0.0
 10
-39.04679721430896
 20
-3.852138418530705
 30
0.0
 10
-40.12884390004555
 20
-3.424109395610498
 30
0.0
 10
-41.21081483240939
 20
-2.975009675567151
 30
0.0
 10
-42.29272204223131
 20
-2.507609919208829
 30
0.0
 10
-43.37457491981309
 20
-2.024784181771897
 30
0.0
 10
-44.45638435575305
 20
-1.529502888780809
 30
0.0
 10
-45.5381599393502
 20
-1.02481145956128
 30
0.0
 10
-46.61991769616914
 20
-0.5138241130213474
 30
0.0
 10
-47.34094797665304
 20
-0.1711157388253627
 30
0.0
 10
-47.70166118910415
 20
0.0003325787389433
 30
0.0
  0
SPLINE
  5
32A1
330
1F
100
AcDbEntity
  8
AM_0
100
AcDbSpline
210
0.0
220
0.0
230
1.0
 70
     8
 71
     3
 72
    17
 73
    13
 74
     0
 42
0.0000000001
 43
0.0000000001
 40
1.580019955310467
 40
1.580019955310467
 40
1.580019955310467
 40
1.580019955310467
 40
2.030549285115227
 40
3.082371838836284
 40
4.126290986361125
 40
5.162752068350215
 40
6.192395305374981
 40
7.216039564037012
 40
8.234688489606833
 40
9.249433870634691
 40
10.26152376260694
 40
11.27226744710342
 40
11.27226744710342
 40
11.27226744710342
 40
11.27226744710352
 10
-17.99615779451713
 20
-4.834093446657181
 30
0.0
 10
-18.14938961914274
 20
-4.88388058740725
 30
0.0
 10
-18.66123539349256
 20
-5.047064591238825
 30
0.0
 10
-19.53508306274776
 20
-5.303024540073617
 30
0.0
 10
-20.61747267332534
 20
-5.589665727358697
 30
0.0
 10
-21.70016026474932
 20
-5.841298631972965
 30
0.0
 10
-22.78289746454078
 20
-6.057078214067436
 30
0.0
 10
-23.86575262660965
 20
-6.235434882541335
 30
0.0
 10
-24.94868260003441
 20
-6.3753508345321
 30
0.0
 10
-26.03168000534808
 20
-6.47591936785438
 30
0.0
 10
-27.1147181602992
 20
-6.536493111179956
 30
0.0
 10
-27.83691883875242
 20
-6.550000608969583
 30
0.0
 10
-28.1977788531296
 20
-6.550000571490127
 30
0.0
  0
ELLIPSE
  5
32A2
330
1F
100
AcDbEntity
  8
AM_0
 48
0.5
100
AcDbEllipse
 10
2.777780256974759
 20
-10.35118570425783
 30
0.0
 11
47.66001735634549
 21
18.53958904762963
 31
0.0
210
0.0
220
0.0
230
1.0
 40
0.2083890630632519
 41
1.548035942058205
 42
1.620603058587303
  0
ELLIPSE
  5
32A3
330
1F
100
AcDbEntity
  8
AM_0
 48
0.5
100
AcDbEllipse
 10
-13.11315099231247
 20
10.99327399007322
 30
0.0
 11
0.0000000000076034
 21
15.79274397691052
 31
0.0
210
0.0
220
0.0
230
1.0
 40
0.9810810810810773
 41
3.652175978818664
 42
3.740670756498159
  0
ELLIPSE
  5
32A4
330
1F
100
AcDbEntity
  8
AM_0
 48
0.5
100
AcDbEllipse
 10
2.112920074672942
 20
7.863677407024894
 30
0.0
 11
0.0000000000000475
 21
13.20116314887978
 31
0.0
210
0.0
220
0.0
230
1.0
 40
0.9810810810810822
 41
2.101163880028975
 42
2.509284810223872
  0
ELLIPSE
  5
32A5
330
1F
100
AcDbEntity
  8
AM_0
 48
0.5
100
AcDbEllipse
 10
-3.903882710015289
 20
-1.707024859668509
 30
0.0
 11
-0.9244698977717956
 21
0.5510945088613373
 31
0.0
210
0.0
220
0.0
230
1.0
 40
0.5046812373800912
 41
4.495039107598932
 42
7.638479448928441
  0
ELLIPSE
  5
32A6
330
1F
100
AcDbEntity
  8
AM_0
 48
0.5
100
AcDbEllipse
 10
-3.903882710015289
 20
-1.707024859668509
 30
0.0
 11
-0.1837448053203233
 21
1.075471081849869
 31
0.0
210
0.0
220
0.0
230
1.0
 40
0.4910870325379328
 41
1.810090238193922
 42
4.945432127905897
  0
ELLIPSE
  5
32A7
330
1F
100
AcDbEntity
  8
AM_0
 48
0.5
100
AcDbEllipse
 10
4.657214521669025
 20
-1.455975341082628
 30
0.0
 11
10.17615717041742
 21
1.506753036253242
 31
0.0
210
0.0
220
0.0
230
1.0
 40
0.6476410448159876
 41
3.114743543174068
 42
3.770189994031449
  0
LINE
  5
32A8
330
1F
100
AcDbEntity
  8
AM_11
 48
0.5
100
AcDbLine
 10
-109.8890155749432
 20
-6.550333150224439
 30
0.0
 11
-89.64580643194782
 21
-6.550000571489112
 31
0.0
  0
LINE
  5
32A9
330
1F
100
AcDbEntity
  8
AM_11
 48
0.5
100
AcDbLine
 10
-106.2493088532217
 20
6.549999428511137
 30
0.0
 11
-89.64580643194762
 21
6.549999428510895
 31
0.0
  0
SPLINE
  5
32AF
330
1F
100
AcDbEntity
  8
AM_0
100
AcDbSpline
210
0.0
220
0.0
230
1.0
 70
     8
 71
     3
 72
    22
 73
    18
 74
     0
 42
0.0000000001
 43
0.0000000001
 40
17.17441611292
 40
17.17441611292
 40
17.17441611292
 40
17.17441611292
 40
17.38177636558528
 40
18.41823744757437
 40
19.46215659509824
 40
20.51397914882054
 40
21.57394542641293
 40
22.64209583141747
 40
23.71826625065247
 40
24.80210429862395
 40
25.8930771157021
 40
26.99048705697709
 40
28.09349309193389
 40
29.20112995599786
 40
30.31233024745139
 40
31.42594771747373
 40
32.5407895042663
 40
32.54078950426994
 40
32.54078950426994
 40
32.54078950426994
 10
-70.88744120992453
 20
-5.881947978090789
 30
0.0
 10
-70.95996298875309
 20
-5.866785370526384
 30
0.0
 10
-71.3946914463802
 20
-5.774428270537712
 30
0.0
 10
-72.191089483902
 20
-5.589240264516234
 30
0.0
 10
-73.27362978161218
 20
-5.303039222569498
 30
0.0
 10
-74.3560597707384
 20
-4.984155839950869
 30
0.0
 10
-75.43838709317569
 20
-4.634580665802769
 30
0.0
 10
-76.52061031924498
 20
-4.25645711279611
 30
0.0
 10
-77.60274276985921
 20
-3.852138418530112
 30
0.0
 10
-78.68478945559579
 20
-3.424109395609905
 30
0.0
 10
-79.76676038795966
 20
-2.97500967556656
 30
0.0
 10
-80.84866759778151
 20
-2.507609919208238
 30
0.0
 10
-81.93052047536324
 20
-2.024784181771305
 30
0.0
 10
-83.01232991130319
 20
-1.529502888780217
 30
0.0
 10
-84.09410549490042
 20
-1.024811459560688
 30
0.0
 10
-85.17586325171937
 20
-0.5138241130207553
 30
0.0
 10
-85.89689353220327
 20
-0.1711157388247706
 30
0.0
 10
-86.25760674465437
 20
0.0003325787395353
 30
0.0
  0
SPLINE
  5
32B0
330
1F
100
AcDbEntity
  8
AM_0
100
AcDbSpline
210
0.0
220
0.0
230
1.0
 70
     8
 71
     3
 72
    46
 73
    42
 74
     0
 42
0.0000000001
 43
0.0000000001
 40
0.0
 40
0.0
 40
0.0
 40
0.0
 40
1.348332046947654
 40
2.024828967632893
 40
2.703918159304094
 40
3.386347665078122
 40
4.072776489761951
 40
4.763750544421345
 40
5.459696642770595
 40
6.160921452191748
 40
6.867565637253344
 40
7.579665907256597
 40
8.297112853413899
 40
9.019671552060666
 40
9.746986763446125
 40
10.47859339096365
 40
11.21393074760088
 40
11.95235532364327
 40
12.69315551794651
 40
13.43556823304427
 40
14.1787950170388
 40
14.92202180103393
 40
15.66443451613169
 40
16.40523471043432
 40
17.14365928647669
 40
17.87899664311455
 40
18.61060327063121
 40
19.33791848201689
 40
20.06048192311554
 40
20.77792886927282
 40
21.49002913927608
 40
22.19667332433747
 40
22.89788836015233
 40
23.59383445850157
 40
24.28480851316097
 40
24.97123685067575
 40
25.65366676154837
 40
26.33276604526151
 40
27.00926273560554
 40
27.68398960851752
 40
28.35781868496899
 40
28.35781868496899
 40
28.35781868496899
 40
28.35781868496899
 10
-43.32030303557047
 20
-6.550000571489979
 30
0.0
 10
-44.04253898815174
 20
-6.535079165168977
 30
0.0
 10
-45.12714146538505
 20
-6.512671260658375
 30
0.0
 10
-46.56938467696401
 20
-6.374709909137753
 30
0.0
 10
-47.65232123240638
 20
-6.235608167458632
 30
0.0
 10
-48.73516522255301
 20
-6.057025159782861
 30
0.0
 10
-49.8179137948221
 20
-5.841335569047885
 30
0.0
 10
-50.90056138692185
 20
-5.589570575247815
 30
0.0
 10
-51.98310618558021
 20
-5.303370267497802
 30
0.0
 10
-53.06554337309055
 20
-4.984491958054154
 30
0.0
 10
-54.14787511298512
 20
-4.634913448446002
 30
0.0
 10
-55.23009849412062
 20
-4.256790362510801
 30
0.0
 10
-56.31223090299475
 20
-3.85247154229416
 30
0.0
 10
-57.39427759898727
 20
-3.424442551179161
 30
0.0
 10
-58.47624853252679
 20
-2.975342831219233
 30
0.0
 10
-59.55815572715692
 20
-2.507943042122953
 30
0.0
 10
-60.64000866476707
 20
-2.025117436534975
 30
0.0
 10
-61.72181787451599
 20
-1.529835646089173
 30
0.0
 10
-62.80359482666519
 20
-1.025145839990733
 30
0.0
 10
-63.88534940331787
 20
-0.5141515057813005
 30
0.0
 10
-64.96709488655056
 20
-0.0000005715935989
 30
0.0
 10
-66.04884036954558
 20
0.5141503632188965
 30
0.0
 10
-67.13059494691106
 20
1.02514469555485
 30
0.0
 10
-68.21237189645484
 20
1.529834508500023
 30
0.0
 10
-69.29418111586494
 20
2.025116273553795
 30
0.0
 10
-70.37603401765236
 20
2.50794197329283
 30
0.0
 10
-71.45794134494625
 20
2.975341413714657
 30
0.0
 10
-72.53991413992292
 20
3.424443399748211
 30
0.0
 10
-73.62196504022691
 20
3.852468502002838
 30
0.0
 10
-74.70409937945941
 20
4.256789395427929
 30
0.0
 10
-75.78632273539769
 20
4.634912593874864
 30
0.0
 10
-76.86865002919642
 20
4.984487891155263
 30
0.0
 10
-77.95108000465036
 20
5.303371133376238
 30
0.0
 10
-79.03362038443351
 20
5.589572610285828
 30
0.0
 10
-80.11626734995367
 20
5.841321132298251
 30
0.0
 10
-81.19901671602775
 20
6.057073281514034
 30
0.0
 10
-82.28186761696825
 20
6.235401270364921
 30
0.0
 10
-83.36479859231308
 20
6.375482262391988
 30
0.0
 10
-84.44779656807039
 20
6.475422674081783
 30
0.0
 10
-85.53083385584859
 20
6.538311343647674
 30
0.0
 10
-86.25303482530627
 20
6.546105129785177
 30
0.0
 10
-86.61389490863596
 20
6.549999428510838
 30
0.0
  0
LINE
  5
32B1
330
1F
100
AcDbEntity
  8
AM_0
100
AcDbLine
 10
-89.64580643194762
 20
6.549999428510895
 30
0.0
 11
-64.10924570371223
 21
6.550929974880725
 31
0.0
  0
LINE
  5
32B2
330
1F
100
AcDbEntity
  8
AM_0
 48
0.5
100
AcDbLine
 10
-89.64581460317047
 20
-6.550000571489013
 30
0.0
 11
-66.7537214028456
 21
-6.550000571489382
 31
0.0
  0
SPLINE
  5
32B3
330
1F
100
AcDbEntity
  8
AM_0
100
AcDbSpline
210
0.0
220
0.0
230
1.0
 70
     8
 71
     3
 72
    55
 73
    51
 74
     0
 42
0.0000000001
 43
0.0000000001
 40
0.0
 40
0.0
 40
0.0
 40
0.0
 40
1.010743684496582
 40
2.022833576467832
 40
3.037578957496688
 40
4.056212745003489
 40
5.079857003664532
 40
6.109500240690281
 40
7.145961322679372
 40
8.189895241603872
 40
9.241717795325891
 40
10.30168407291828
 40
11.36983447792315
 40
12.44600489715814
 40
13.52984294512926
 40
14.62081576220742
 40
15.7182257034828
 40
16.82123173843959
 40
17.92886860250316
 40
19.0400688939571
 40
20.15368796660465
 40
21.26852814259644
 40
22.38336992938901
 40
23.49698739941135
 40
24.6081876908653
 40
25.71582455492886
 40
26.81883757994213
 40
27.91624752121713
 40
29.00722033829659
 40
30.09105838626677
 40
31.16722880550176
 40
32.23537921050758
 40
33.29534548809967
 40
34.347168041821
 40
35.39108718934584
 40
36.42754827133493
 40
37.45720575381954
 40
38.48085062012849
 40
39.49948440763516
 40
40.51422944315121
 40
41.52631975251916
 40
42.53706336719636
 40
43.54780698187354
 40
44.55989729124051
 40
45.57464232675757
 40
46.59327611426424
 40
47.6169209805722
 40
48.64656348684535
 40
49.68302456883444
 40
50.58557219878025
 40
50.58557219878025
 40
50.58557219878025
 40
50.58557219878025
 10
-46.3520740159933
 20
-6.550000571489925
 30
0.0
 10
-46.7129340351313
 20
-6.546103480173363
 30
0.0
 10
-47.43513470213893
 20
-6.538304107012202
 30
0.0
 10
-48.51817288006189
 20
-6.475432403437951
 30
0.0
 10
-49.60116482716857
 20
-6.375482818676217
 30
0.0
 10
-50.68408974770624
 20
-6.235399674263716
 30
0.0
 10
-51.76693683578888
 20
-6.057081365382899
 30
0.0
 10
-52.84968472926452
 20
-5.841320845136399
 30
0.0
 10
-53.93233704987684
 20
-5.589571553292162
 30
0.0
 10
-55.01488419668779
 20
-5.30337508206065
 30
0.0
 10
-56.09731879557837
 20
-4.984488660413411
 30
0.0
 10
-57.17964624188659
 20
-4.634913905455417
 30
0.0
 10
-58.2618694343012
 20
-4.256790238652276
 30
0.0
 10
-59.34400189433414
 20
-3.852471575879801
 30
0.0
 10
-60.42604857639095
 20
-3.424442541948564
 30
0.0
 10
-61.50801951400684
 20
-2.975342834243709
 30
0.0
 10
-62.58992670638593
 20
-2.507943039317389
 30
0.0
 10
-63.67177964892334
 20
-2.02511744476531
 30
0.0
 10
-64.75358884112523
 20
-1.529835615817757
 30
0.0
 10
-65.8353658588096
 20
-1.025145953289482
 30
0.0
 10
-66.91712019019067
 20
-0.5141510818164353
 30
0.0
 10
-67.99886711131524
 20
-0.000001907927444
 30
0.0
 10
-69.0806091763012
 20
0.514156520967099
 30
0.0
 10
-70.16236713348703
 20
1.025143434898386
 30
0.0
 10
-71.24414281570318
 20
1.529834625093535
 30
0.0
 10
-72.32595393675888
 20
2.025118340844097
 30
0.0
 10
-73.40781136734126
 20
2.507939814877772
 30
0.0
 10
-74.48972026725567
 20
2.975341980171383
 30
0.0
 10
-75.57169136107216
 20
3.424441323702677
 30
0.0
 10
-76.65373800375677
 20
3.852470447646811
 30
0.0
 10
-77.73587046656064
 20
4.256789111010722
 30
0.0
 10
-78.81809368654036
 20
4.634912687398789
 30
0.0
 10
-79.90042102114054
 20
4.984487799304771
 30
0.0
 10
-80.98285096812482
 20
5.303371405188995
 30
0.0
 10
-82.06539142063205
 20
5.589571624880234
 30
0.0
 10
-83.14804333963655
 20
5.841325979086022
 30
0.0
 10
-84.23079896429506
 20
6.057061856486034
 30
0.0
 10
-85.31364962979848
 20
6.235435358653036
 30
0.0
 10
-86.39657487136355
 20
6.375352452578735
 30
0.0
 10
-87.47956757096595
 20
6.475908994758773
 30
0.0
 10
-88.56260483060159
 20
6.536501744649462
 30
0.0
 10
-89.64566588932418
 20
6.556743777431346
 30
0.0
 10
-90.72872694645326
 20
6.536501744617763
 30
0.0
 10
-91.8117642108789
 20
6.475908994886161
 30
0.0
 10
-92.89475689284591
 20
6.375352452098995
 30
0.0
 10
-93.97768220053041
 20
6.235435360456245
 30
0.0
 10
-95.0605273383624
 20
6.057062719305666
 30
0.0
 10
-96.1432786973758
 20
5.841328184868953
 30
0.0
 10
-97.17670478316438
 20
5.600999678694842
 30
0.0
 10
-97.84720339661479
 20
5.425245170142476
 30
0.0
 10
-99.30058246277347
 20
4.919525763573703
 30
0.0
  0
ELLIPSE
  5
3366
330
1F
100
AcDbEntity
  8
AM_0
 48
0.5
100
AcDbEllipse
 10
8.240586575844451
 20
-6.617376299155833
 30
0.0
 11
10.17240772368207
 21
-0.0000000000009696
 31
0.0
210
0.0
220
0.0
230
-1.0
 40
0.9899999999999971
 41
3.323896559076802
 42
3.661579236128986
  0
LINE
  5
3367
330
1F
100
AcDbEntity
  8
AM_0
 48
0.5
100
AcDbLine
 10
-1.763250261301886
 20
-4.791603860796558
 30
0.0
 11
-2.999999999991322
 21
-6.550000571490304
 31
0.0
  0
SPLINE
  5
349F
330
1F
100
AcDbEntity
  8
AM_0
100
AcDbSpline
210
0.0
220
0.0
230
1.0
 70
     8
 71
     3
 72
    23
 73
    19
 74
     0
 42
0.0000000001
 43
0.0000000001
 40
16.03460024169435
 40
16.03460024169435
 40
16.03460024169435
 40
16.03460024169435
 40
16.35212704903564
 40
17.38177054169784
 40
18.41822485651776
 40
19.46214173629503
 40
20.51396345435107
 40
21.57393551351153
 40
22.64208202342361
 40
23.7182574881101
 40
24.80209208578934
 40
25.89306333925047
 40
26.99048218457928
 40
28.09348763352352
 40
29.20111863782268
 40
30.31232390128032
 40
31.42594612798585
 40
32.5407912310448
 40
32.5407912310486
 40
32.5407912310486
 40
32.5407912310486
 10
-106.2529751105833
 20
6.550597396145642
 30
0.0
 10
-106.1173707653153
 20
6.528485749598113
 30
0.0
 10
-105.5426199633746
 20
6.432195752342844
 30
0.0
 10
-104.5301902361141
 20
6.243530198427359
 30
0.0
 10
-103.2190910889252
 20
5.962986582981395
 30
0.0
 10
-101.909209752294
 20
5.647982864722033
 30
0.0
 10
-100.6004688242878
 20
5.300342124501904
 30
0.0
 10
-99.292821855372
 20
4.922002467230365
 30
0.0
 10
-97.98619326668553
 20
4.515126641939199
 30
0.0
 10
-96.68049206957967
 20
4.082082563872612
 30
0.0
 10
-95.37564406942296
 20
3.625322536396547
 30
0.0
 10
-94.07154465181976
 20
3.147504339683488
 30
0.0
 10
-92.7680881340955
 20
2.651405259533285
 30
0.0
 10
-91.46518767066
 20
2.139877657678718
 30
0.0
 10
-90.16273424941394
 20
1.615895997073701
 30
0.0
 10
-88.86060723558649
 20
1.08251994619338
 30
0.0
 10
-87.5587005992814
 20
0.5428402748193637
 30
0.0
 10
-86.69099596952362
 20
0.1810145645425312
 30
0.0
 10
-86.25690702623957
 20
0.0000000000016858
 30
0.0
  0
LINE
  5
34A0
330
1F
100
AcDbEntity
  8
AM_0
 48
0.5
100
AcDbLine
 10
-94.8529975941425
 20
3.432862478837103
 30
0.0
 11
-112.4999999999912
 21
-0.3385165961114422
 31
0.0
  0
SPLINE
  5
34A1
330
1F
100
AcDbEntity
  8
AM_0
100
AcDbSpline
210
0.0
220
0.0
230
1.0
 70
     8
 71
     3
 72
    13
 73
     9
 74
     0
 42
0.0000000001
 43
0.0000000001
 40
16.03460056234195
 40
16.03460056234195
 40
16.03460056234195
 40
16.03460056234195
 40
16.35212717791071
 40
17.38177067057215
 40
18.41822498539278
 40
19.46214186516937
 40
20.5139635832251
 40
21.34083983469381
 40
21.34083983469381
 40
21.34083983469381
 40
21.34083983469381
 10
-109.6515904218416
 20
-6.550928843857114
 30
0.0
 10
-109.5159860216208
 20
-6.528817848517768
 30
0.0
 10
-108.9412347440857
 20
-6.432530493149549
 30
0.0
 10
-107.9288055687162
 20
-6.243862736519439
 30
0.0
 10
-106.6177062565314
 20
-5.96331989895372
 30
0.0
 10
-105.3078249645844
 20
-5.648315970031227
 30
0.0
 10
-104.0957538588287
 20
-5.326353682234262
 30
0.0
 10
-103.3224738378131
 20
-5.104659734219232
 30
0.0
 10
-102.6217578950896
 20
-4.887553958690872
 30
0.0
  0
SPLINE
  5
34A2
330
1F
100
AcDbEntity
  8
AM_0
 48
0.5
100
AcDbSpline
210
0.0
220
0.0
230
1.0
 70
     8
 71
     3
 72
    22
 73
    18
 74
     0
 42
0.0000000001
 43
0.0000000001
 40
0.0
 40
0.0
 40
0.0
 40
0.0
 40
1.010743684496582
 40
2.022833993863546
 40
3.037578683882831
 40
4.056212471389632
 40
5.079857945358201
 40
6.109499720892564
 40
7.145961650132166
 40
8.189873411961459
 40
9.241710626092514
 40
10.30166235592959
 40
11.36982472628033
 40
12.44598212828784
 40
13.52983440361964
 40
14.62080578343036
 40
14.90544694398022
 40
14.90544694398022
 40
14.90544694398022
 40
14.90544694398022
 10
-90.38596461329975
 20
-6.550333150224635
 30
0.0
 10
-90.82574798811569
 20
-6.546437223172024
 30
0.0
 10
-91.7059006659498
 20
-6.538640178480581
 30
0.0
 10
-93.02580747078476
 20
-6.475750961269644
 30
0.0
 10
-94.34566074495092
 20
-6.375818203376373
 30
0.0
 10
-95.66543160679449
 20
-6.235734929827477
 30
0.0
 10
-96.98510331741353
 20
-6.057399984624244
 30
0.0
 10
-98.30466210959789
 20
-5.841657600892195
 30
0.0
 10
-99.62408864712781
 20
-5.589902311415717
 30
0.0
 10
-100.9433920028406
 20
-5.303695903364674
 30
0.0
 10
-102.2625602944678
 20
-4.984825401703735
 30
0.0
 10
-103.5816004158532
 20
-4.63523148822468
 30
0.0
 10
-104.9005208699594
 20
-4.257138788835239
 30
0.0
 10
-106.2193206661222
 20
-3.852795048627446
 30
0.0
 10
-107.5380245105021
 20
-3.4247761202944
 30
0.0
 10
-108.5291226064164
 20
-3.087236885368544
 30
0.0
 10
-109.0813970511866
 20
-2.894310308591731
 30
0.0
 10
-109.6426452601931
 20
-2.747769034699667
 30
0.0
  0
SPLINE
  5
34A3
330
1F
100
AcDbEntity
  8
AM_0
 48
0.5
100
AcDbSpline
210
0.0
220
0.0
230
1.0
 70
     8
 71
     3
 72
    26
 73
    22
 74
     0
 42
0.0000000001
 43
0.0000000001
 40
0.0
 40
0.0
 40
0.0
 40
0.0
 40
0.4211432018735474
 40
0.8428473235286537
 40
1.265657898956934
 40
1.690088643751428
 40
2.116607084860617
 40
2.545625100287603
 40
2.977483884449724
 40
3.412450195918404
 40
3.850709593302191
 40
4.292362208965671
 40
4.737427885281768
 40
5.185826256336565
 40
5.637431371058531
 40
6.092003378174421
 40
6.549257520372505
 40
7.008843368271169
 40
7.470358728297647
 40
7.933358849736796
 40
8.383035712276667
 40
8.383035712276667
 40
8.383035712276667
 40
8.383035712276667
 10
-86.69111855678979
 20
-6.550333150224664
 30
0.0
 10
-87.13090184762355
 20
-6.546436059077924
 30
0.0
 10
-88.01105417576941
 20
-6.538636686256628
 30
0.0
 10
-89.3309623628245
 20
-6.475764980128664
 30
0.0
 10
-90.65081421180726
 20
-6.375815405111259
 30
0.0
 10
-91.97058436047127
 20
-6.235732224070536
 30
0.0
 10
-93.29025970835882
 20
-6.057414052926636
 30
0.0
 10
-94.60981396241745
 20
-5.841653014067267
 30
0.0
 10
-95.92924624480646
 20
-5.589906872786761
 30
0.0
 10
-97.24854755702695
 20
-5.303704608357767
 30
0.0
 10
-98.56771478012269
 20
-4.984822058012005
 30
0.0
 10
-99.88675877088919
 20
-4.635243973266446
 30
0.0
 10
-101.2056740636392
 20
-4.257128886113482
 30
0.0
 10
-102.5244756020541
 20
-3.852796248260281
 30
0.0
 10
-103.8431810194197
 20
-3.424779561427888
 30
0.0
 10
-105.1617931649627
 20
-2.975675285139933
 30
0.0
 10
-106.4803218682438
 20
-2.508273601463278
 30
0.0
 10
-107.7987913424912
 20
-2.025458277873516
 30
0.0
 10
-109.1171797985333
 20
-1.530137026927965
 30
0.0
 10
-112.4999999999912
 20
-0.3385165961114421
 30
0.0
 10
-111.8297732669949
 20
-0.5679766254940457
 30
0.0
 10
-112.4999999999912
 20
-0.3385165961114422
 30
0.0
  0
ELLIPSE
  5
34A4
330
1F
100
AcDbEntity
  8
AM_0
 48
0.5
100
AcDbEllipse
 10
-110.4416475519153
 20
-4.325672401536398
 30
0.0
 11
2.0430582882424
 21
0.3196455597675483
 31
0.0
210
0.0
220
0.0
230
1.0
 40
0.8013624229515913
 41
1.047562632706788
 42
2.990772568372575
  0
ELLIPSE
  5
34A5
330
1F
100
AcDbEntity
  8
AM_0
 48
0.5
100
AcDbEllipse
 10
-109.8890147554619
 20
-4.366999816891215
 30
0.0
 11
-2.61121964606137
 21
0.0019556682966925
 31
0.0
210
0.0
220
0.0
230
1.0
 40
0.8361351524871338
 41
0.014039981680511
 42
1.571422234813412
  0
DIMENSION
  5
3AAB
330
1F
100
AcDbEntity
  8
AM_5
100
AcDbDimension
  2
*D9
 10
-0.5873037318897268
 20
-1.613591571335098
 30
0.0
 11
32.39738228866525
 21
-0.0000393102764359
 31
0.0
 70
    34
  1
<>
 51
359.9999999999998
  3
AM_JIS$2
100
AcDb2LineAngularDimension
 13
0.0000000000079345
 23
0.0000000000030527
 33
0.0
 14
-0.5872917675904099
 24
1.613570883518886
 34
0.0
 15
0.0000000000045239
 25
0.0000000000124292
 35
0.0
 16
32.5942567837989
 26
-14.05982126702691
 36
0.0
1001
GENIUS_GENDTOL_13
1000

1000
h7
1000

1040
0.0
1001
ACAD
1000
DSTYLE
1002
{
1070
   271
1070
     0
1002
}
  0
ELLIPSE
  5
3BAC
330
1F
100
AcDbEntity
  8
AM_11
 48
0.5
100
AcDbEllipse
 10
3.310487223366748
 20
27.82689745098092
 30
0.0
 11
-31.07765833536794
 21
0.00000000002895
 31
0.0
210
0.0
220
0.0
230
1.0
 40
0.9899999999999861
 41
1.130070686341231
 42
1.291800737381917
  0
ELLIPSE
  5
3BAD
330
1F
100
AcDbEntity
  8
AM_11
 48
0.5
100
AcDbEllipse
 10
-23.20466429178511
 20
-27.82687566608409
 30
0.0
 11
-31.07765833536737
 21
0.0000000000018237
 31
0.0
210
0.0
220
0.0
230
1.0
 40
0.9900000000000009
 41
4.271664206181739
 42
5.153113667165048
  0
ELLIPSE
  5
3BAE
330
1F
100
AcDbEntity
  8
AM_11
 48
0.5
100
AcDbEllipse
 10
-23.20466429178476
 20
27.82689745098108
 30
0.0
 11
-31.0776583353674
 21
0.0000000000010922
 31
0.0
210
0.0
220
0.0
230
0.9999999999999998
 40
0.9899999999999995
 41
1.130070686340335
 42
2.011520147323624
  0
ELLIPSE
  5
3BAF
330
1F
100
AcDbEntity
  8
AM_11
 48
0.5
100
AcDbEllipse
 10
-49.71981580693632
 20
27.82689745098121
 30
0.0
 11
-31.0776583353674
 21
0.0000000000002158
 31
0.0
210
0.0
220
0.0
230
1.0
 40
0.9900000000000002
 41
1.130070686340306
 42
2.011520147323597
  0
ELLIPSE
  5
3BB0
330
1F
100
AcDbEntity
  8
AM_11
 48
0.5
100
AcDbEllipse
 10
-49.71981580693661
 20
-27.82687566608397
 30
0.0
 11
-31.07765833536731
 21
0.0000000000015338
 31
0.0
210
0.0
220
0.0
230
1.0
 40
0.9900000000000032
 41
4.271664206181728
 42
5.153113667165039
  0
ELLIPSE
  5
3BB1
330
1F
100
AcDbEntity
  8
AM_11
 48
0.5
100
AcDbEllipse
 10
-102.7500546520835
 20
27.82689745098112
 30
0.0
 11
-31.0776583353674
 21
0.0000000000002158
 31
0.0
210
0.0
220
0.0
230
1.0
 40
0.9900000000000002
 41
1.130070686340306
 42
2.011520147323597
  0
ELLIPSE
  5
3BB2
330
1F
100
AcDbEntity
  8
AM_11
 48
0.5
100
AcDbEllipse
 10
-102.7500546520838
 20
-27.82687566608406
 30
0.0
 11
-31.07765833536731
 21
0.0000000000015338
 31
0.0
210
0.0
220
0.0
230
1.0
 40
0.9900000000000032
 41
4.271664206181728
 42
5.153113667165039
  0
ELLIPSE
  5
3BB3
330
1F
100
AcDbEntity
  8
AM_11
 48
0.5
100
AcDbEllipse
 10
-76.23490313693236
 20
-27.82687566608418
 30
0.0
 11
-31.07765833536737
 21
0.0000000000018237
 31
0.0
210
0.0
220
0.0
230
1.0
 40
0.9900000000000009
 41
4.271664206181739
 42
5.153113667165048
  0
ELLIPSE
  5
3BB4
330
1F
100
AcDbEntity
  8
AM_11
 48
0.5
100
AcDbEllipse
 10
-76.23490313693202
 20
27.82689745098099
 30
0.0
 11
-31.0776583353674
 21
0.0000000000010922
 31
0.0
210
0.0
220
0.0
230
1.0
 40
0.9899999999999995
 41
1.130070686340335
 42
2.011520147323624
  0
ELLIPSE
  5
3BB5
330
1F
100
AcDbEntity
  8
AM_11
 48
0.5
100
AcDbEllipse
 10
-155.7803507535087
 20
27.82692418676521
 30
0.0
 11
-31.0776583353674
 21
0.0000000000002158
 31
0.0
210
0.0
220
0.0
230
1.0
 40
0.9900000000000002
 41
1.130070686340306
 42
2.011520147323597
  0
ELLIPSE
  5
3BB6
330
1F
100
AcDbEntity
  8
AM_11
 48
0.5
100
AcDbEllipse
 10
-155.780350753509
 20
-27.82684893029998
 30
0.0
 11
-31.07765833536731
 21
0.0000000000015338
 31
0.0
210
0.0
220
0.0
230
1.0
 40
0.9900000000000032
 41
4.271664206181728
 42
5.153113667165039
  0
ELLIPSE
  5
3BB7
330
1F
100
AcDbEntity
  8
AM_11
 48
0.5
100
AcDbEllipse
 10
-129.2651992383575
 20
-27.8268489303001
 30
0.0
 11
-31.07765833536737
 21
0.0000000000018237
 31
0.0
210
0.0
220
0.0
230
1.0
 40
0.9900000000000009
 41
4.271664206181739
 42
5.153113667165048
  0
ELLIPSE
  5
3BB8
330
1F
100
AcDbEntity
  8
AM_11
 48
0.5
100
AcDbEllipse
 10
-129.2651992383572
 20
27.82692418676508
 30
0.0
 11
-31.0776583353674
 21
0.0000000000010922
 31
0.0
210
0.0
220
0.0
230
1.0
 40
0.9899999999999995
 41
1.130070686340335
 42
2.011520147323624
  0
ELLIPSE
  5
3BBB
330
1F
100
AcDbEntity
  8
AM_11
 48
0.5
100
AcDbEllipse
 10
-182.2954953397827
 20
-27.82682219451601
 30
0.0
 11
-31.07765833536737
 21
0.0000000000018237
 31
0.0
210
0.0
220
0.0
230
1.0
 40
0.9900000000000009
 41
4.271664206181739
 42
4.606148578809484
  0
ELLIPSE
  5
3BBC
330
1F
100
AcDbEntity
  8
AM_11
 48
0.5
100
AcDbEllipse
 10
-182.2954953397823
 20
27.82695092254916
 30
0.0
 11
-31.0776583353674
 21
0.0000000000010922
 31
0.0
210
0.0
220
0.0
230
1.0
 40
0.9899999999999995
 41
1.677036728370183
 42
2.011520147323624
  0
VIEWPORT
  5
110
330
101
100
AcDbEntity
 67
     1
  8
0
100
AcDbViewport
 10
420.5
 20
297.0
 30
0.0
 40
948.9782706766916
 41
628.452
 68
     1
 69
     1
1001
ACAD
1000
MVIEW
1002
{
1070
    16
1010
0.0
1020
0.0
1030
0.0
1010
0.0
1020
0.0
1030
1.0
1040
0.0
1040
628.452
1040
420.5
1040
297.0
1040
50.0
1040
0.0
1040
0.0
1070
     0
1070
   100
1070
     1
1070
     1
1070
     0
1070
     0
1070
     0
1070
     0
1040
0.0
1040
0.0
1040
0.0
1040
10.0
1040
10.0
1040
10.0
1040
10.0
1070
     0
1002
{
1002
}
1002
}
  0
ENDSEC
  0
SECTION
  2
OBJECTS
  0
DICTIONARY
  5
C
330
0
100
AcDbDictionary
  3
ACAD_GROUP
350
D
  3
ACAD_LAYOUT
350
1A
  3
ACAD_MLINESTYLE
350
17
  3
ACAD_PLOTSETTINGS
350
19
  3
ACAD_PLOTSTYLENAME
350
E
  3
ACDBVARIABLEDICTIONARY
350
34
  3
ACMDICTIONARY
350
43
  3
AMG
350
2B
  3
AMGSNAPSETTINGS
350
6E
  3
DWGPROPS
350
3BD9
  3
ACDBHEADERROUNDTRIPXREC
350
3BE6
  0
DICTIONARY
  5
74
330
1F
100
AcDbDictionary
280
     1
  3
ACAD_INDEX
360
3BDB
  3
ACAD_LAYOUTSELFREF
360
3C09
  0
DICTIONARY
  5
3C0E
330
101
100
AcDbDictionary
280
     1
  3
ACAD_LAYOUTSELFREF
360
3C0F
  0
DICTIONARY
  5
D
102
{ACAD_REACTORS
330
C
102
}
330
C
100
AcDbDictionary
  0
DICTIONARY
  5
1A
102
{ACAD_REACTORS
330
C
102
}
330
C
100
AcDbDictionary
  0
DICTIONARY
  5
17
102
{ACAD_REACTORS
330
C
102
}
330
C
100
AcDbDictionary
  3
STANDARD
350
18
  0
DICTIONARY
  5
19
102
{ACAD_REACTORS
330
C
102
}
330
C
100
AcDbDictionary
  0
ACDBDICTIONARYWDFLT
  5
E
102
{ACAD_REACTORS
330
C
102
}
330
C
100
AcDbDictionary
281
     1
  3
Normal
350
F
100
AcDbDictionaryWithDefault
340
F
  0
DICTIONARY
  5
34
102
{ACAD_REACTORS
330
C
102
}
330
C
100
AcDbDictionary
  3
INDEXCTL
350
35
  3
SORTENTS
350
B5E
  0
DICTIONARY
  5
43
102
{ACAD_REACTORS
330
C
102
}
330
C
100
AcDbDictionary
  3
ACMSTDDICTIONARY
350
260
  0
DICTIONARY
  5
2B
102
{ACAD_REACTORS
330
C
102
}
330
C
100
AcDbDictionary
  3
ACMGSETTINGS
350
2C
  0
DICTIONARY
  5
6E
102
{ACAD_REACTORS
330
C
102
}
330
C
100
AcDbDictionary
  0
XRECORD
  5
3BD9
102
{ACAD_REACTORS
330
C
102
}
330
C
100
AcDbXrecord
  1
DWGPROPS COOKIE
  2

  3

  4

  6

  7

  8

  9

300
AmdtFileType=82
301
=
302
=
303
=
304
=
305
=
306
=
307
=
308
=
309
=
 40
0.0788453125
 41
2452800.443498622
 42
2452948.661112187
  1

 90
        1
  0
DICTIONARY
  5
3BE6
102
{ACAD_REACTORS
330
C
102
}
330
C
100
AcDbDictionary
  3
TSTACKALIGN
350
3BE7
  3
TSTACKSIZE
350
3BE8
  3
HYPERLINKBASE
350
3BE9
  3
STYLESHEET
350
3BEA
  3
LAYOUTDICT
350
3BEB
  3
PLOTSETDICT
350
3BEC
  3
PLOTSTYLNAMDICT
350
3BED
  3
LWETCUNION
350
3BEE
  3
INSUNITS
350
3BEF
  3
CEPSNTYPE
350
3BF0
  3
FINGERPRINTGUID
350
3BF1
  3
VERSIONGUID
350
3BF2
  3
PSVPSCALE
350
3BF3
  3
DIMSTYLEDATA
350
3BF4
  3
PUCSORTHOREF
350
3BF5
  3
PUCSORTHOVIEW
350
3BF6
  3
PUCSBASE
350
3BF7
  3
PUCSORGTOP
350
3BF8
  3
PUCSORGBOTTOM
350
3BF9
  3
PUCSORGLEFT
350
3BFA
  3
PUCSORGRIGHT
350
3BFB
  3
PUCSORGFRONT
350
3BFC
  3
PUCSORGBACK
350
3BFD
  3
UCSORTHOREF
350
3BFE
  3
UCSORTHOVIEW
350
3BFF
  3
UCSBASE
350
3C00
  3
UCSORGTOP
350
3C01
  3
UCSORGBOTTOM
350
3C02
  3
UCSORGLEFT
350
3C03
  3
UCSORGRIGHT
350
3C04
  3
UCSORGFRONT
350
3C05
  3
UCSORGBACK
350
3C06
  0
DICTIONARY
  5
3BDB
102
{ACAD_REACTORS
330
74
102
}
330
74
100
AcDbDictionary
  3
*A1
350
3BDC
  0
XRECORD
  5
3C09
102
{ACAD_REACTORS
330
74
102
}
330
74
100
AcDbXrecord
340
1F
  0
XRECORD
  5
3C0F
102
{ACAD_REACTORS
330
3C0E
102
}
330
3C0E
100
AcDbXrecord
340
101
  0
MLINESTYLE
  5
18
102
{ACAD_REACTORS
330
17
102
}
330
17
100
AcDbMlineStyle
  2
STANDARD
 70
     0
  3

 62
   256
 51
90.0
 52
90.0
 71
     2
 49
0.5
 62
   256
  6
BYLAYER
 49
-0.5
 62
   256
  6
BYLAYER
  0
ACDBPLACEHOLDER
  5
F
102
{ACAD_REACTORS
330
E
102
}
330
E
100
AcDbPlaceHolder
280
     0
  0
DICTIONARYVAR
  5
35
102
{ACAD_REACTORS
330
34
102
}
330
34
100
DictionaryVariables
280
     0
  1
1
  0
DICTIONARYVAR
  5
B5E
102
{ACAD_REACTORS
330
34
102
}
330
34
100
DictionaryVariables
280
     0
  1
96
  0
DICTIONARY
  5
260
102
{ACAD_REACTORS
330
43
102
}
330
43
100
AcDbDictionary
  0
DICTIONARY
  5
2C
102
{ACAD_REACTORS
330
2B
102
}
330
2B
100
AcDbDictionary
  3
DWGSETTINGS
350
2D
  0
XRECORD
  5
3BE7
102
{ACAD_REACTORS
330
3BE6
102
}
330
3BE6
100
AcDbXrecord
 90
        1
  0
XRECORD
  5
3BE8
102
{ACAD_REACTORS
330
3BE6
102
}
330
3BE6
100
AcDbXrecord
 90
       70
  0
XRECORD
  5
3BE9
102
{ACAD_REACTORS
330
3BE6
102
}
330
3BE6
100
AcDbXrecord
  1

  0
XRECORD
  5
3BEA
102
{ACAD_REACTORS
330
3BE6
102
}
330
3BE6
100
AcDbXrecord
  1
ASAMI.ctb
  0
XRECORD
  5
3BEB
102
{ACAD_REACTORS
330
3BE6
102
}
330
3BE6
100
AcDbXrecord
340
1A
  0
XRECORD
  5
3BEC
102
{ACAD_REACTORS
330
3BE6
102
}
330
3BE6
100
AcDbXrecord
340
19
  0
XRECORD
  5
3BED
102
{ACAD_REACTORS
330
3BE6
102
}
330
3BE6
100
AcDbXrecord
340
E
  0
XRECORD
  5
3BEE
102
{ACAD_REACTORS
330
3BE6
102
}
330
3BE6
100
AcDbXrecord
 90
    10781
  0
XRECORD
  5
3BEF
102
{ACAD_REACTORS
330
3BE6
102
}
330
3BE6
100
AcDbXrecord
 90
        4
  0
XRECORD
  5
3BF0
102
{ACAD_REACTORS
330
3BE6
102
}
330
3BE6
100
AcDbXrecord
 90
        0
  0
XRECORD
  5
3BF1
102
{ACAD_REACTORS
330
3BE6
102
}
330
3BE6
100
AcDbXrecord
  1
{AFB28963-8C59-40AE-9337-C84526B81ACE}
  0
XRECORD
  5
3BF2
102
{ACAD_REACTORS
330
3BE6
102
}
330
3BE6
100
AcDbXrecord
  1
{A5A5F24A-079A-4F94-9A3F-5561D0D39EA9}
  0
XRECORD
  5
3BF3
102
{ACAD_REACTORS
330
3BE6
102
}
330
3BE6
100
AcDbXrecord
 40
0.0
  0
XRECORD
  5
3BF4
102
{ACAD_REACTORS
330
3BE6
102
}
330
3BE6
100
AcDbXrecord
1000
DSTYLE
1002
{
1070
    79
 70
     2
1070
   341
340
59
1070
   342
340
59
1070
   371
 70
    -1
1070
   372
 70
    -1
1002
}
  0
XRECORD
  5
3BF5
102
{ACAD_REACTORS
330
3BE6
102
}
330
3BE6
100
AcDbXrecord
340
0
  0
XRECORD
  5
3BF6
102
{ACAD_REACTORS
330
3BE6
102
}
330
3BE6
100
AcDbXrecord
 70
     0
  0
XRECORD
  5
3BF7
102
{ACAD_REACTORS
330
3BE6
102
}
330
3BE6
100
AcDbXrecord
340
0
  0
XRECORD
  5
3BF8
102
{ACAD_REACTORS
330
3BE6
102
}
330
3BE6
100
AcDbXrecord
 10
0.0
 20
0.0
 30
0.0
  0
XRECORD
  5
3BF9
102
{ACAD_REACTORS
330
3BE6
102
}
330
3BE6
100
AcDbXrecord
 10
0.0
 20
0.0
 30
0.0
  0
XRECORD
  5
3BFA
102
{ACAD_REACTORS
330
3BE6
102
}
330
3BE6
100
AcDbXrecord
 10
0.0
 20
0.0
 30
0.0
  0
XRECORD
  5
3BFB
102
{ACAD_REACTORS
330
3BE6
102
}
330
3BE6
100
AcDbXrecord
 10
0.0
 20
0.0
 30
0.0
  0
XRECORD
  5
3BFC
102
{ACAD_REACTORS
330
3BE6
102
}
330
3BE6
100
AcDbXrecord
 10
0.0
 20
0.0
 30
0.0
  0
XRECORD
  5
3BFD
102
{ACAD_REACTORS
330
3BE6
102
}
330
3BE6
100
AcDbXrecord
 10
0.0
 20
0.0
 30
0.0
  0
XRECORD
  5
3BFE
102
{ACAD_REACTORS
330
3BE6
102
}
330
3BE6
100
AcDbXrecord
340
0
  0
XRECORD
  5
3BFF
102
{ACAD_REACTORS
330
3BE6
102
}
330
3BE6
100
AcDbXrecord
 70
     0
  0
XRECORD
  5
3C00
102
{ACAD_REACTORS
330
3BE6
102
}
330
3BE6
100
AcDbXrecord
340
0
  0
XRECORD
  5
3C01
102
{ACAD_REACTORS
330
3BE6
102
}
330
3BE6
100
AcDbXrecord
 10
0.0
 20
0.0
 30
0.0
  0
XRECORD
  5
3C02
102
{ACAD_REACTORS
330
3BE6
102
}
330
3BE6
100
AcDbXrecord
 10
0.0
 20
0.0
 30
0.0
  0
XRECORD
  5
3C03
102
{ACAD_REACTORS
330
3BE6
102
}
330
3BE6
100
AcDbXrecord
 10
0.0
 20
0.0
 30
0.0
  0
XRECORD
  5
3C04
102
{ACAD_REACTORS
330
3BE6
102
}
330
3BE6
100
AcDbXrecord
 10
0.0
 20
0.0
 30
0.0
  0
XRECORD
  5
3C05
102
{ACAD_REACTORS
330
3BE6
102
}
330
3BE6
100
AcDbXrecord
 10
0.0
 20
0.0
 30
0.0
  0
XRECORD
  5
3C06
102
{ACAD_REACTORS
330
3BE6
102
}
330
3BE6
100
AcDbXrecord
 10
0.0
 20
0.0
 30
0.0
  0
LAYER_INDEX
  5
3BDC
102
{ACAD_REACTORS
330
3BDB
102
}
330
3BDB
100
AcDbIndex
 40
2453151.667205208
100
AcDbLayerIndex
  8
0
360
3BDD
 90
        0
  8
AM_0
360
3BDE
 90
       52
  8
AM_7
360
3BDF
 90
        1
  8
AM_11
360
3BE0
 90
       21
  8
AM_5
360
3BE1
 90
        5
  8
Defpoints
360
3BE2
 90
        0
  8
AM_6
360
3BE3
 90
        1
  8
AM_CL
360
3BE4
 90
        0
  0
XRECORD
  5
2D
102
{ACAD_REACTORS
330
2C
102
}
330
2C
100
AcDbXrecord
  1
VERSION
140
15.0
  1
PRODUCT
  2
AutoCAD Mechanical 2000
  0
IDBUFFER
  5
3BDD
330
0
100
AcDbIdBuffer
  0
IDBUFFER
  5
3BDE
330
0
100
AcDbIdBuffer
330
34A2
330
34A3
330
34A4
330
34A5
330
1E25
330
1E26
330
1FD9
330
21D7
330
21D8
330
21D9
330
21DC
330
21DD
330
2694
330
2695
330
2696
330
2699
330
2CB4
330
2CB7
330
3289
330
328A
330
328D
330
328E
330
328F
330
3294
330
3295
330
3296
330
3297
330
3298
330
3299
330
329A
330
329C
330
329D
330
329E
330
329F
330
32A0
330
32A1
330
32A2
330
32A3
330
32A4
330
32A5
330
32A6
330
32A7
330
32AF
330
32B0
330
32B1
330
32B2
330
32B3
330
3366
330
3367
330
349F
330
34A0
330
34A1
  0
IDBUFFER
  5
3BDF
330
0
100
AcDbIdBuffer
330
C9F
  0
IDBUFFER
  5
3BE0
330
0
100
AcDbIdBuffer
330
3BB6
330
3BB7
330
3BB8
330
3BBB
330
3BBC
330
3290
330
3291
330
3292
330
3293
330
32A8
330
32A9
330
3BAC
330
3BAD
330
3BAE
330
3BAF
330
3BB0
330
3BB1
330
3BB2
330
3BB3
330
3BB4
330
3BB5
  0
IDBUFFER
  5
3BE1
330
0
100
AcDbIdBuffer
330
CC6
330
DF5
330
1FB6
330
2216
330
3AAB
  0
IDBUFFER
  5
3BE2
330
0
100
AcDbIdBuffer
  0
IDBUFFER
  5
3BE3
330
0
100
AcDbIdBuffer
330
19BD
  0
IDBUFFER
  5
3BE4
330
0
100
AcDbIdBuffer
  0
ENDSEC
  0
EOF
