  0
SECTION
  2
HEADER
  9
$ACADVER
  1
AC1014
  9
$ACADMAINTVER
 70
     9
  9
$DWGCODEPAGE
  3
ANSI_932
  9
$INSBASE
 10
0.0
 20
0.0
 30
0.0
  9
$EXTMIN
 10
-200.300001
 20
-53.50000305448099
 30
-0.00000001
  9
$EXTMAX
 10
36.76175207823538
 20
35.48440846798191
 30
0.00000001
  9
$LIMMIN
 10
-212.4283160478946
 20
-92.01098889734623
  9
$LIMMAX
 10
49.45840178964954
 20
64.30738472477009
  9
$ORTHOMODE
 70
     0
  9
$REGENMODE
 70
     1
  9
$FILLMODE
 70
     1
  9
$QTEXTMODE
 70
     0
  9
$MIRRTEXT
 70
     0
  9
$DRAGMODE
 70
     2
  9
$LTSCALE
 40
1.0
  9
$OSMODE
 70
    55
  9
$ATTMODE
 70
     1
  9
$TEXTSIZE
 40
2.5
  9
$TRACEWID
 40
1.0
  9
$TEXTSTYLE
  7
STANDARD
  9
$CLAYER
  8
AM_0
  9
$CELTYPE
  6
BYLAYER
  9
$CECOLOR
 62
   256
  9
$CELTSCALE
 40
1.0
  9
$DELOBJ
 70
     1
  9
$DISPSILH
 70
     0
  9
$DIMSCALE
 40
1.0
  9
$DIMASZ
 40
2.5
  9
$DIMEXO
 40
1.0
  9
$DIMDLI
 40
12.0
  9
$DIMRND
 40
0.0
  9
$DIMDLE
 40
0.0
  9
$DIMEXE
 40
1.0
  9
$DIMTP
 40
0.1
  9
$DIMTM
 40
0.1
  9
$DIMTXT
 40
3.2
  9
$DIMCEN
 40
0.0
  9
$DIMTSZ
 40
0.0
  9
$DIMTOL
 70
     0
  9
$DIMLIM
 70
     0
  9
$DIMTIH
 70
     0
  9
$DIMTOH
 70
     0
  9
$DIMSE1
 70
     0
  9
$DIMSE2
 70
     0
  9
$DIMTAD
 70
     3
  9
$DIMZIN
 70
     8
  9
$DIMBLK
  1
OPEN30
  9
$DIMASO
 70
     1
  9
$DIMSHO
 70
     1
  9
$DIMPOST
  1

  9
$DIMAPOST
  1
"
  9
$DIMALT
 70
     0
  9
$DIMALTD
 70
     2
  9
$DIMALTF
 40
0.0393701
  9
$DIMLFAC
 40
1.0
  9
$DIMTOFL
 70
     1
  9
$DIMTVP
 40
0.0
  9
$DIMTIX
 70
     0
  9
$DIMSOXD
 70
     0
  9
$DIMSAH
 70
     0
  9
$DIMBLK1
  1

  9
$DIMBLK2
  1

  9
$DIMSTYLE
  2
AM_JIS
  9
$DIMCLRD
 70
   256
  9
$DIMCLRE
 70
   256
  9
$DIMCLRT
 70
     2
  9
$DIMTFAC
 40
0.71
  9
$DIMGAP
 40
1.5
  9
$DIMJUST
 70
     0
  9
$DIMSD1
 70
     0
  9
$DIMSD2
 70
     0
  9
$DIMTOLJ
 70
     0
  9
$DIMTZIN
 70
     0
  9
$DIMALTZ
 70
     0
  9
$DIMALTTZ
 70
     0
  9
$DIMFIT
 70
     3
  9
$DIMUPT
 70
     0
  9
$DIMUNIT
 70
     2
  9
$DIMDEC
 70
     3
  9
$DIMTDEC
 70
     3
  9
$DIMALTU
 70
     2
  9
$DIMALTTD
 70
     2
  9
$DIMTXSTY
  7
ASAMI
  9
$DIMAUNIT
 70
     0
  9
$LUNITS
 70
     2
  9
$LUPREC
 70
     2
  9
$SKETCHINC
 40
1.0
  9
$FILLETRAD
 40
2.5
  9
$AUNITS
 70
     0
  9
$AUPREC
 70
     0
  9
$MENU
  1
.
  9
$ELEVATION
 40
0.0
  9
$PELEVATION
 40
0.0
  9
$THICKNESS
 40
0.0
  9
$LIMCHECK
 70
     0
  9
$BLIPMODE
 70
     0
  9
$CHAMFERA
 40
0.5
  9
$CHAMFERB
 40
0.5
  9
$CHAMFERC
 40
20.0
  9
$CHAMFERD
 40
0.0
  9
$SKPOLY
 70
     0
  9
$TDCREATE
 40
2452800.443498622
  9
$TDUPDATE
 40
2453151.667750821
  9
$TDINDWG
 40
0.0839037153
  9
$TDUSRTIMER
 40
0.0839037153
  9
$USRTIMER
 70
     1
  9
$ANGBASE
 50
0.0
  9
$ANGDIR
 70
     0
  9
$PDMODE
 70
     3
  9
$PDSIZE
 40
0.0
  9
$PLINEWID
 40
0.0
  9
$COORDS
 70
     1
  9
$SPLFRAME
 70
     0
  9
$SPLINETYPE
 70
     6
  9
$SPLINESEGS
 70
     8
  9
$ATTDIA
 70
     1
  9
$ATTREQ
 70
     1
  9
$HANDLING
 70
 12289
  9
$HANDSEED
  5
3EE4
  9
$SURFTAB1
 70
     6
  9
$SURFTAB2
 70
     6
  9
$SURFTYPE
 70
     6
  9
$SURFU
 70
     6
  9
$SURFV
 70
     6
  9
$UCSNAME
  2

  9
$UCSORG
 10
0.0
 20
0.0
 30
0.0
  9
$UCSXDIR
 10
1.0
 20
0.0000000000000027
 30
0.0
  9
$UCSYDIR
 10
-0.0000000000000027
 20
1.0
 30
0.0
  9
$PUCSNAME
  2

  9
$PUCSORG
 10
0.0
 20
0.0
 30
0.0
  9
$PUCSXDIR
 10
1.0
 20
0.0
 30
0.0
  9
$PUCSYDIR
 10
0.0
 20
1.0
 30
0.0
  9
$USERI1
 70
     0
  9
$USERI2
 70
     0
  9
$USERI3
 70
     0
  9
$USERI4
 70
     0
  9
$USERI5
 70
     0
  9
$USERR1
 40
0.0
  9
$USERR2
 40
0.0
  9
$USERR3
 40
0.0
  9
$USERR4
 40
0.0
  9
$USERR5
 40
0.0
  9
$WORLDVIEW
 70
     1
  9
$SHADEDGE
 70
     3
  9
$SHADEDIF
 70
    70
  9
$TILEMODE
 70
     1
  9
$MAXACTVP
 70
    64
  9
$PINSBASE
 10
0.0
 20
0.0
 30
0.0
  9
$PLIMCHECK
 70
     0
  9
$PEXTMIN
 10
1.000000000000000E+20
 20
1.000000000000000E+20
 30
1.000000000000000E+20
  9
$PEXTMAX
 10
-1.000000000000000E+20
 20
-1.000000000000000E+20
 30
-1.000000000000000E+20
  9
$PLIMMIN
 10
0.0
 20
0.0
  9
$PLIMMAX
 10
841.0
 20
594.0
  9
$UNITMODE
 70
     0
  9
$VISRETAIN
 70
     1
  9
$PLINEGEN
 70
     0
  9
$PSLTSCALE
 70
     0
  9
$TREEDEPTH
 70
  3020
  9
$PICKSTYLE
 70
     0
  9
$CMLSTYLE
  2
STANDARD
  9
$CMLJUST
 70
     0
  9
$CMLSCALE
 40
20.0
  9
$PROXYGRAPHICS
 70
     1
  9
$MEASUREMENT
 70
     1
  0
ENDSEC
  0
SECTION
  2
CLASSES
  0
CLASS
  1
ACDBDICTIONARYWDFLT
  2
AcDbDictionaryWithDefault
  3
AutoCAD 2000
 90
        0
280
     0
281
     0
  0
CLASS
  1
ACDBPLACEHOLDER
  2
AcDbPlaceHolder
  3
AutoCAD 2000
 90
        0
280
     0
281
     0
  0
CLASS
  1
LAYOUT
  2
AcDbLayout
  3
AutoCAD 2000
 90
        0
280
     0
281
     0
  0
CLASS
  1
AMGSETTINGSOBJ
  2
AmgSettingsObj
  3
"AcadM|Product Description: AutoCAD Mechanical 2000|Company: Autodesk"
 90
        0
280
     0
281
     0
  0
CLASS
  1
ACME_DOCUMENT
  2
AcMeDbDoc
  3
AcMeServices
 90
        0
280
     0
281
     0
  0
CLASS
  1
ACMESCOPE
  2
AcMeScope
  3
AcMeServices
 90
        0
280
     0
281
     0
  0
CLASS
  1
ACMECOMMANDHISTORY
  2
AcMeCommandHistory
  3
AcMeServices
 90
        0
280
     0
281
     0
  0
CLASS
  1
DICTIONARYVAR
  2
AcDbDictionaryVar
  3
AutoCAD 2000
 90
        0
280
     0
281
     0
  0
CLASS
  1
ACIMSYSVARMAN
  2
AcImSysVarManager
  3
AcMeServices
 90
        0
280
     0
281
     0
  0
CLASS
  1
ACIMREALSYSVAR
  2
AcImRealSysVar
  3
AcMeServices
 90
        0
280
     0
281
     0
  0
CLASS
  1
ACIMINTSYSVAR
  2
AcImIntSysVar
  3
AcMeServices
 90
        0
280
     0
281
     0
  0
CLASS
  1
ACMEDRAWINGMAN
  2
AcMeDrawingMan
  3
AcMeServices
 90
        0
280
     0
281
     0
  0
CLASS
  1
ACMEVIEW
  2
AcMeView
  3
AcMeServices
 90
        0
280
     0
281
     0
  0
CLASS
  1
ACDBENTITYCACHE
  2
AcMeEntityCache
  3
AcMeServices
 90
        0
280
     0
281
     0
  0
CLASS
  1
GSMANAGER
  2
AcMeGSManager
  3
AcMeServices
 90
        0
280
     0
281
     0
  0
CLASS
  1
AmdtInternalReactor
  2
AmdtInternalReactor
  3
AcMeServices
 90
        0
280
     0
281
     0
  0
CLASS
  1
ACMESTATEMGR
  2
AcMeStateMgr
  3
AcMeServices
 90
        0
280
     0
281
     0
  0
CLASS
  1
ACME_DATABASE
  2
AcMeDbDatabase
  3
AcMeServices
 90
        0
280
     0
281
     0
  0
CLASS
  1
ACRFINSADJUSTERMGR
  2
AcRfInsAdjusterMgr
  3
AcMeServices
 90
        0
280
     0
281
     0
  0
CLASS
  1
ACMDATADICTIONARY
  2
AcmDataDictionary
  3
"AcmSymBB|Product Description: AutoCAD Mechanical 2000|Company: Autodesk"
 90
        0
280
     0
281
     0
  0
CLASS
  1
ACMDATAENTRYBLOCK
  2
AcmDataEntryBlock
  3
"AcmSymBB|Product Description: AutoCAD Mechanical 2000|Company: Autodesk"
 90
        0
280
     0
281
     0
  0
CLASS
  1
AMGOBJPROPCFG
  2
AmgObjPropCfg
  3
"AmgLay|Product Description: AutoCAD Mechanical 2000|Company: Autodesk"
 90
        1
280
     0
281
     0
  0
CLASS
  1
ACAMGFILTERDAT
  2
AcAmgFilterDat
  3
"AcadM|Product Description: AutoCAD Mechanical 2000|Company: Autodesk"
 90
        0
280
     0
281
     0
  0
CLASS
  1
LAYER_INDEX
  2
AcDbLayerIndex
  3
AutoCAD 2000
 90
        0
280
     0
281
     0
  0
CLASS
  1
IDBUFFER
  2
AcDbIdBuffer
  3
AutoCAD 2000
 90
        0
280
     0
281
     0
  0
CLASS
  1
ACIMSTRSYSVAR
  2
AcImStrSysVar
  3
AcMeServices
 90
        0
280
     0
281
     0
  0
CLASS
  1
ACMSTANDARDJIS
  2
AcmStandardJIS
  3
"AcmSymBB|Product Description: AutoCAD Mechanical 2000|Company: Autodesk"
 90
        0
280
     0
281
     0
  0
CLASS
  1
ACMSURFSTANDARDJIS
  2
AcmSurfTextStdJIS
  3
"AcmSymBB|Product Description: AutoCAD Mechanical 2000|Company: Autodesk"
 90
        0
280
     0
281
     0
  0
CLASS
  1
ACMFCFSTANDARDJIS
  2
AcmFCFStdJIS
  3
"AcmSymBB|Product Description: AutoCAD Mechanical 2000|Company: Autodesk"
 90
        0
280
     0
281
     0
  0
CLASS
  1
ACMWELDSTANDARDJIS
  2
AcmWeldingStdJIS
  3
"AcmSymBB|Product Description: AutoCAD Mechanical 2000|Company: Autodesk"
 90
        0
280
     0
281
     0
  0
CLASS
  1
ACMIDSTANDARDJIS
  2
AcmIdStdJIS
  3
"AcmSymBB|Product Description: AutoCAD Mechanical 2000|Company: Autodesk"
 90
        0
280
     0
281
     0
  0
CLASS
  1
ACMDATUMSTANDARDJIS
  2
AcmDatumStdJIS
  3
"AcmSymBB|Product Description: AutoCAD Mechanical 2000|Company: Autodesk"
 90
        0
280
     0
281
     0
  0
CLASS
  1
ACMBOMSTANDARDJIS
  2
AcmBOMStdJIS
  3
"AcmSymBB|Product Description: AutoCAD Mechanical 2000|Company: Autodesk"
 90
        0
280
     0
281
     0
  0
CLASS
  1
ACMSTANDARDANSI
  2
AcmStandardANSI
  3
"AcmSymBB|Product Description: AutoCAD Mechanical 2000|Company: Autodesk"
 90
        0
280
     0
281
     0
  0
CLASS
  1
ACMSURFSTANDARDANSI
  2
AcmSurfTextStdANSI
  3
"AcmSymBB|Product Description: AutoCAD Mechanical 2000|Company: Autodesk"
 90
        0
280
     0
281
     0
  0
CLASS
  1
ACMFCFSTANDARDANSI
  2
AcmFCFStdANSI
  3
"AcmSymBB|Product Description: AutoCAD Mechanical 2000|Company: Autodesk"
 90
        0
280
     0
281
     0
  0
CLASS
  1
ACMWELDSTANDARDANSI
  2
AcmWeldingStdANSI
  3
"AcmSymBB|Product Description: AutoCAD Mechanical 2000|Company: Autodesk"
 90
        0
280
     0
281
     0
  0
CLASS
  1
ACMIDSTANDARDANSI
  2
AcmIdStdANSI
  3
"AcmSymBB|Product Description: AutoCAD Mechanical 2000|Company: Autodesk"
 90
        0
280
     0
281
     0
  0
CLASS
  1
ACMDATUMSTANDARDANSI
  2
AcmDatumStdANSI
  3
"AcmSymBB|Product Description: AutoCAD Mechanical 2000|Company: Autodesk"
 90
        0
280
     0
281
     0
  0
CLASS
  1
ACMBOMSTANDARDANSI
  2
AcmBOMStdANSI
  3
"AcmSymBB|Product Description: AutoCAD Mechanical 2000|Company: Autodesk"
 90
        0
280
     0
281
     0
  0
CLASS
  1
ACMSTANDARDBSI
  2
AcmStandardBSI
  3
"AcmSymBB|Product Description: AutoCAD Mechanical 2000|Company: Autodesk"
 90
        0
280
     0
281
     0
  0
CLASS
  1
ACMSURFSTANDARDBSI
  2
AcmSurfTextStdBSI
  3
"AcmSymBB|Product Description: AutoCAD Mechanical 2000|Company: Autodesk"
 90
        0
280
     0
281
     0
  0
CLASS
  1
ACMFCFSTANDARDBSI
  2
AcmFCFStdBSI
  3
"AcmSymBB|Product Description: AutoCAD Mechanical 2000|Company: Autodesk"
 90
        0
280
     0
281
     0
  0
CLASS
  1
ACMWELDSTANDARDBSI
  2
AcmWeldingStdBSI
  3
"AcmSymBB|Product Description: AutoCAD Mechanical 2000|Company: Autodesk"
 90
        0
280
     0
281
     0
  0
CLASS
  1
ACMIDSTANDARDBSI
  2
AcmIdStdBSI
  3
"AcmSymBB|Product Description: AutoCAD Mechanical 2000|Company: Autodesk"
 90
        0
280
     0
281
     0
  0
CLASS
  1
ACMDATUMSTANDARDBSI
  2
AcmDatumStdBSI
  3
"AcmSymBB|Product Description: AutoCAD Mechanical 2000|Company: Autodesk"
 90
        0
280
     0
281
     0
  0
CLASS
  1
ACMBOMSTANDARDBSI
  2
AcmBOMStdBSI
  3
"AcmSymBB|Product Description: AutoCAD Mechanical 2000|Company: Autodesk"
 90
        0
280
     0
281
     0
  0
CLASS
  1
LONG_TRANSACTION
  2
AcDbLongTransaction
  3
AutoCAD 2000
 90
        0
280
     0
281
     0
  0
CLASS
  1
LWPOLYLINE
  2
AcDbPolyline
  3
AutoCAD 2000
 90
        0
280
     0
281
     1
  0
CLASS
  1
HATCH
  2
AcDbHatch
  3
AutoCAD 2000
 90
        0
280
     0
281
     1
  0
CLASS
  1
XRECORD
  2
AcDbXrecord
  3
AutoCAD 2000
 90
        0
280
     0
281
     0
  0
ENDSEC
  0
SECTION
  2
TABLES
  0
TABLE
  2
VPORT
  5
8
330
0
100
AcDbSymbolTable
 70
     3
  0
VPORT
  5
3EAE
330
8
100
AcDbSymbolTableRecord
100
AcDbViewportTableRecord
  2
*ACTIVE
 70
     0
 10
0.0
 20
0.0
 11
1.0
 21
1.0
 12
-77.37155685837276
 22
-9.009786664617507
 13
0.0
 23
0.0
 14
2.5
 24
2.5
 15
10.0
 25
10.0
 16
0.0
 26
0.0
 36
1.0
 17
0.0
 27
0.0
 37
0.0
 40
157.7895138296838
 41
1.56570841889117
 42
50.0
 43
0.0
 44
0.0
 50
0.0
 51
0.0
 71
     0
 72
   100
 73
     1
 74
     1
 75
     0
 76
     0
 77
     0
 78
     0
  0
ENDTAB
  0
TABLE
  2
LTYPE
  5
5
330
0
100
AcDbSymbolTable
 70
    10
  0
LTYPE
  5
14
330
5
100
AcDbSymbolTableRecord
100
AcDbLinetypeTableRecord
  2
BYBLOCK
 70
     0
  3

 72
    65
 73
     0
 40
0.0
  0
LTYPE
  5
15
330
5
100
AcDbSymbolTableRecord
100
AcDbLinetypeTableRecord
  2
BYLAYER
 70
     0
  3

 72
    65
 73
     0
 40
0.0
  0
LTYPE
  5
16
330
5
100
AcDbSymbolTableRecord
100
AcDbLinetypeTableRecord
  2
CONTINUOUS
 70
     0
  3
Solid line
 72
    65
 73
     0
 40
0.0
  0
LTYPE
  5
4B
330
5
100
AcDbSymbolTableRecord
100
AcDbLinetypeTableRecord
  2
AM_ISO02W050
 70
     0
  3
__ __ __ __ __ __ __ __ __ __ __ __ __ __ __
 72
    65
 73
     2
 40
7.5
 49
6.0
 74
     0
 49
-1.5
 74
     0
  0
LTYPE
  5
4C
330
5
100
AcDbSymbolTableRecord
100
AcDbLinetypeTableRecord
  2
AM_ISO08W050
 70
     0
  3
____ . ____ . ____ . ____ . ____ . ____ . ____
 72
    65
 73
     4
 40
18.0
 49
12.0
 74
     0
 49
-1.5
 74
     0
 49
3.0
 74
     0
 49
-1.5
 74
     0
  0
LTYPE
  5
4D
330
5
100
AcDbSymbolTableRecord
100
AcDbLinetypeTableRecord
  2
AM_ISO09W050
 70
     0
  3
_____ . . _____ . . _____ . . ____ .. ____
 72
    65
 73
     6
 40
22.5
 49
12.0
 74
     0
 49
-1.5
 74
     0
 49
3.0
 74
     0
 49
-1.5
 74
     0
 49
3.0
 74
     0
 49
-1.5
 74
     0
  0
LTYPE
  5
4E
330
5
100
AcDbSymbolTableRecord
100
AcDbLinetypeTableRecord
  2
AMCONSTR
 70
     0
  3
_______________________
 72
    65
 73
     2
 40
9999.0
 49
9999.0
 74
     0
 49
0.0
 74
     0
  0
LTYPE
  5
4F
330
5
100
AcDbSymbolTableRecord
100
AcDbLinetypeTableRecord
  2
AM_ISO02W050X2
 70
     0
  3
 _ _ _ _ _ _ _ _ _ _ _ _
 72
    65
 73
     2
 40
3.75
 49
3.0
 74
     0
 49
-0.75
 74
     0
  0
LTYPE
  5
50
330
5
100
AcDbSymbolTableRecord
100
AcDbLinetypeTableRecord
  2
AM_ISO08W050X2
 70
     0
  3
__ . __ . __ . __ . __ . __
 72
    65
 73
     4
 40
9.0
 49
6.0
 74
     0
 49
-0.75
 74
     0
 49
1.5
 74
     0
 49
-0.75
 74
     0
  0
LTYPE
  5
53
330
5
100
AcDbSymbolTableRecord
100
AcDbLinetypeTableRecord
  2
AMZIGZAG
 70
     0
  3
/\/-/\/-/\/-/\/-/\/-/\/
 72
    65
 73
     2
 40
11.00009999999999
 49
0.0001
 74
     4
 75
   135
340
52
 46
0.04
 50
0.0
 44
0.0
 45
0.0
 49
-11.0
 74
     0
  0
LTYPE
  5
166
330
5
100
AcDbSymbolTableRecord
100
AcDbLinetypeTableRecord
  2
ACJISTGL
 70
     0
  3
_ _ _ _ _
 72
    65
 73
     2
 40
3.0
 49
2.0
 74
     0
 49
-1.0
 74
     0
  0
LTYPE
  5
26A
330
5
100
AcDbSymbolTableRecord
100
AcDbLinetypeTableRecord
  2
ACJISTGB
 70
     0
  3
__ . . __ . .
 72
    65
 73
     6
 40
9.0
 49
4.0
 74
     0
 49
-1.0
 74
     0
 49
1.0
 74
     0
 49
-1.0
 74
     0
 49
1.0
 74
     0
 49
-1.0
 74
     0
  0
ENDTAB
  0
TABLE
  2
LAYER
  5
2
330
0
100
AcDbSymbolTable
 70
     8
  0
LAYER
  5
10
330
2
100
AcDbSymbolTableRecord
100
AcDbLayerTableRecord
  2
0
 70
     0
 62
     7
  6
CONTINUOUS
  0
LAYER
  5
3F9
330
2
100
AcDbSymbolTableRecord
100
AcDbLayerTableRecord
  2
AM_0
 70
     0
 62
     7
  6
CONTINUOUS
  0
LAYER
  5
C7C
330
2
100
AcDbSymbolTableRecord
100
AcDbLayerTableRecord
  2
AM_7
 70
     0
 62
     4
  6
AM_ISO08W050
  0
LAYER
  5
C97
330
2
100
AcDbSymbolTableRecord
100
AcDbLayerTableRecord
  2
AM_11
 70
     0
 62
     3
  6
AM_ISO09W050
  0
LAYER
  5
CC5
330
2
100
AcDbSymbolTableRecord
100
AcDbLayerTableRecord
  2
AM_5
 70
     0
 62
     3
  6
CONTINUOUS
  0
LAYER
  5
CC7
330
2
100
AcDbSymbolTableRecord
100
AcDbLayerTableRecord
  2
DEFPOINTS
 70
     0
 62
     7
  6
CONTINUOUS
  0
LAYER
  5
19BC
330
2
100
AcDbSymbolTableRecord
100
AcDbLayerTableRecord
  2
AM_6
 70
     0
 62
     2
  6
CONTINUOUS
  0
LAYER
  5
3D23
330
2
100
AcDbSymbolTableRecord
100
AcDbLayerTableRecord
  2
AM_CL
 70
     0
 62
     1
  6
AMCONSTR
  0
ENDTAB
  0
TABLE
  2
STYLE
  5
3
330
0
100
AcDbSymbolTable
 70
     5
  0
STYLE
  5
11
330
3
100
AcDbSymbolTableRecord
100
AcDbTextStyleTableRecord
  2
STANDARD
 70
     0
 40
0.0
 41
1.0
 50
0.0
 71
     0
 42
2.5
  3
simplex.shx
  4
EXTFONT.SHX
  0
STYLE
  5
52
330
3
100
AcDbSymbolTableRecord
100
AcDbTextStyleTableRecord
  2

 70
     1
 40
0.0
 41
1.0
 50
0.0
 71
     0
 42
2.5
  3
ltypeshp.shx
  4

  0
STYLE
  5
6B
330
3
100
AcDbSymbolTableRecord
100
AcDbTextStyleTableRecord
  2
ASAMI
 70
     0
 40
0.0
 41
1.0
 50
0.0
 71
     0
 42
2.5
  3
simplex.shx
  4
EXTFONT.SHX
  0
STYLE
  5
262
330
3
100
AcDbSymbolTableRecord
100
AcDbTextStyleTableRecord
  2
ACJISTS
 70
     0
 40
1.0
 41
1.0
 50
0.0
 71
     0
 42
2.5
  3
simplex.shx
  4
bigfont.shx
  0
STYLE
  5
269
330
3
100
AcDbSymbolTableRecord
100
AcDbTextStyleTableRecord
  2
ACJISGDT
 70
     0
 40
0.0
 41
1.0
 50
0.0
 71
     0
 42
2.5
  3
amgdtans.shx
  4

  0
ENDTAB
  0
TABLE
  2
VIEW
  5
6
330
0
100
AcDbSymbolTable
 70
     0
  0
ENDTAB
  0
TABLE
  2
UCS
  5
7
330
0
100
AcDbSymbolTable
 70
     0
  0
ENDTAB
  0
TABLE
  2
APPID
  5
9
330
0
100
AcDbSymbolTable
 70
    16
  0
APPID
  5
12
330
9
100
AcDbSymbolTableRecord
100
AcDbRegAppTableRecord
  2
ACAD
 70
     0
  0
APPID
  5
30
330
9
100
AcDbSymbolTableRecord
100
AcDbRegAppTableRecord
  2
MCAD_NO_VIS
 70
     0
  0
APPID
  5
31
330
9
100
AcDbSymbolTableRecord
100
AcDbRegAppTableRecord
  2
ACAD_TEMP_GRAPHIC
 70
     0
  0
APPID
  5
2C2
330
9
100
AcDbSymbolTableRecord
100
AcDbRegAppTableRecord
  2
GENIUS_GENDTOL_13
 70
     0
  0
APPID
  5
339
330
9
100
AcDbSymbolTableRecord
100
AcDbRegAppTableRecord
  2
GENIUS_GENODEF_13
 70
     0
  0
APPID
  5
33A
330
9
100
AcDbSymbolTableRecord
100
AcDbRegAppTableRecord
  2
GENIUS_GENOBJ-N-RSBK_13
 70
     0
  0
APPID
  5
33B
330
9
100
AcDbSymbolTableRecord
100
AcDbRegAppTableRecord
  2
GENIUS_GENOBJ-N-LIB_13
 70
     0
  0
APPID
  5
33C
330
9
100
AcDbSymbolTableRecord
100
AcDbRegAppTableRecord
  2
GENIUS_GENSCALE_13
 70
     0
  0
APPID
  5
378
330
9
100
AcDbSymbolTableRecord
100
AcDbRegAppTableRecord
  2
GENIUS_GENDIMSH_14
 70
     0
  0
APPID
  5
C82
330
9
100
AcDbSymbolTableRecord
100
AcDbRegAppTableRecord
  2
GENIUS_GENOBJ-N-CRS_13
 70
     0
  0
APPID
  5
C83
330
9
100
AcDbSymbolTableRecord
100
AcDbRegAppTableRecord
  2
GENIUS_GENOENT_13
 70
     0
  0
APPID
  5
C84
330
9
100
AcDbSymbolTableRecord
100
AcDbRegAppTableRecord
  2
GENIUS_GENOREF_13
 70
     0
  0
APPID
  5
C85
330
9
100
AcDbSymbolTableRecord
100
AcDbRegAppTableRecord
  2
GENIUS_GENOLIS_13
 70
     0
  0
APPID
  5
CA0
330
9
100
AcDbSymbolTableRecord
100
AcDbRegAppTableRecord
  2
GENIUS_GENOBJ-N-CEN_13
 70
     0
  0
APPID
  5
1E1E
330
9
100
AcDbSymbolTableRecord
100
AcDbRegAppTableRecord
  2
GENIUS_GENFIL_13
 70
     0
  0
APPID
  5
1E1F
330
9
100
AcDbSymbolTableRecord
100
AcDbRegAppTableRecord
  2
GENIUS_GENOBJ-N-CHA_13
 70
     0
  0
ENDTAB
  0
TABLE
  2
DIMSTYLE
  5
A
330
0
100
AcDbSymbolTable
 70
     9
  0
DIMSTYLE
105
58
330
A
100
AcDbSymbolTableRecord
100
AcDbDimStyleTableRecord
  2
AM_JIS
 70
     0
  3

  4
"
  5
OPEN30
  6

  7

 40
1.0
 41
2.5
 42
1.0
 43
12.0
 44
1.0
 45
0.0
 46
0.0
 47
0.1
 48
0.1
140
3.2
141
0.0
142
0.0
143
0.0393701
144
1.0
145
0.0
146
0.71
147
1.5
 71
     0
 72
     0
 73
     0
 74
     0
 75
     0
 76
     0
 77
     3
 78
     8
170
     0
171
     2
172
     1
173
     0
174
     0
175
     0
176
   256
177
   256
178
     2
270
     2
271
     3
272
     3
273
     2
274
     2
340
6B
275
     0
280
     0
281
     0
282
     0
283
     0
284
     0
285
     0
286
     0
287
     3
288
     0
  0
DIMSTYLE
105
5F
330
A
100
AcDbSymbolTableRecord
100
AcDbDimStyleTableRecord
  2
AM_JIS$3
 70
     0
  3

  4
"
  5
OPEN30
  6

  7

 40
1.0
 41
2.5
 42
1.0
 43
10.0
 44
1.0
 45
0.0
 46
0.0
 47
0.1
 48
0.1
140
3.2
141
0.0
142
0.0
143
0.0393701
144
1.0
145
0.0
146
0.71
147
1.5
 71
     0
 72
     0
 73
     0
 74
     1
 75
     0
 76
     0
 77
     3
 78
     8
170
     0
171
     2
172
     0
173
     0
174
     0
175
     0
176
   256
177
   256
178
     2
270
     2
271
     2
272
     3
273
     2
274
     2
340
6B
275
     0
280
     0
281
     0
282
     0
283
     0
284
     0
285
     0
286
     0
287
     0
288
     1
  0
DIMSTYLE
105
60
330
A
100
AcDbSymbolTableRecord
100
AcDbDimStyleTableRecord
  2
AM_JIS$4
 70
     0
  3

  4
"
  5
OPEN30
  6

  7

 40
1.0
 41
2.5
 42
1.0
 43
10.0
 44
1.0
 45
0.0
 46
0.0
 47
0.1
 48
0.1
140
3.2
141
0.0
142
0.0
143
0.0393701
144
1.0
145
0.0
146
0.71
147
1.5
 71
     0
 72
     0
 73
     0
 74
     1
 75
     0
 76
     0
 77
     3
 78
     8
170
     0
171
     2
172
     0
173
     0
174
     0
175
     0
176
   256
177
   256
178
     2
270
     2
271
     2
272
     3
273
     2
274
     2
340
6B
275
     0
280
     0
281
     0
282
     0
283
     0
284
     0
285
     0
286
     0
287
     0
288
     1
  0
DIMSTYLE
105
61
330
A
100
AcDbSymbolTableRecord
100
AcDbDimStyleTableRecord
  2
AM_JIS$6
 70
     0
  3

  4
"
  5
OPEN30
  6

  7

 40
1.0
 41
2.5
 42
1.0
 43
10.0
 44
1.0
 45
0.0
 46
0.0
 47
0.1
 48
0.1
140
3.2
141
0.0
142
0.0
143
0.0393701
144
1.0
145
0.0
146
0.71
147
1.5
 71
     0
 72
     0
 73
     0
 74
     0
 75
     0
 76
     0
 77
     0
 78
     8
170
     0
171
     2
172
     1
173
     0
174
     0
175
     0
176
   256
177
   256
178
     2
270
     2
271
     2
272
     2
273
     2
274
     2
340
6B
275
     0
280
     0
281
     0
282
     0
283
     0
284
     0
285
     0
286
     0
287
     3
288
     0
  0
DIMSTYLE
105
62
330
A
100
AcDbSymbolTableRecord
100
AcDbDimStyleTableRecord
  2
AM_JIS$7
 70
     0
  3

  4
"
  5
OPEN30
  6

  7

 40
1.0
 41
2.5
 42
1.0
 43
10.0
 44
1.0
 45
0.0
 46
0.0
 47
0.1
 48
0.1
140
3.2
141
0.0
142
0.0
143
0.0393701
144
1.0
145
0.0
146
0.71
147
1.5
 71
     0
 72
     0
 73
     0
 74
     0
 75
     0
 76
     0
 77
     3
 78
     8
170
     0
171
     2
172
     1
173
     0
174
     0
175
     0
176
   256
177
   256
178
     2
270
     2
271
     2
272
     3
273
     2
274
     2
340
6B
275
     0
280
     0
281
     0
282
     0
283
     0
284
     0
285
     0
286
     0
287
     3
288
     0
  0
DIMSTYLE
105
63
330
A
100
AcDbSymbolTableRecord
100
AcDbDimStyleTableRecord
  2
AM_JIS$SF
 70
     0
  3

  4
"
  5
OPEN30
  6

  7

 40
1.0
 41
2.5
 42
1.0
 43
10.0
 44
1.0
 45
0.0
 46
0.0
 47
0.1
 48
0.1
140
3.2
141
0.0
142
0.0
143
0.0393701
144
1.0
145
0.0
146
0.71
147
1.5
 71
     0
 72
     0
 73
     0
 74
     0
 75
     1
 76
     1
 77
     3
 78
     8
170
     0
171
     2
172
     1
173
     0
174
     0
175
     0
176
   256
177
   256
178
     2
270
     2
271
     2
272
     2
273
     2
274
     2
340
6B
275
     0
280
     0
281
     0
282
     0
283
     0
284
     0
285
     0
286
     0
287
     3
288
     0
  0
DIMSTYLE
105
68
330
A
100
AcDbSymbolTableRecord
100
AcDbDimStyleTableRecord
  2
AM_JIS$SH
 70
     0
  3

  4
"
  5

  6
GENAXEH
  7
OPEN30
 40
1.0
 41
2.5
 42
1.0
 43
10.0
 44
1.0
 45
0.0
 46
0.0
 47
0.1
 48
0.1
140
3.2
141
0.0
142
0.0
143
0.0393701
144
2.0
145
0.0
146
0.71
147
1.5
 71
     0
 72
     0
 73
     0
 74
     0
 75
     1
 76
     1
 77
     3
 78
     8
170
     0
171
     2
172
     1
173
     1
174
     0
175
     0
176
   256
177
   256
178
     2
270
     2
271
     2
272
     2
273
     2
274
     2
340
6B
275
     0
280
     0
281
     0
282
     0
283
     0
284
     0
285
     0
286
     0
287
     3
288
     0
  0
DIMSTYLE
105
B34
102
{ACAD_REACTORS
330
3D6F
102
}
330
A
100
AcDbSymbolTableRecord
100
AcDbDimStyleTableRecord
  2
AM_JIS$2
 70
     0
  3

  4
"
  5
OPEN30
  6

  7

 40
1.0
 41
2.5
 42
1.0
 43
12.0
 44
1.0
 45
0.0
 46
0.0
 47
0.1
 48
0.1
140
3.2
141
0.0
142
0.0
143
0.0393701
144
1.0
145
0.0
146
0.71
147
1.5
 71
     0
 72
     0
 73
     0
 74
     0
 75
     0
 76
     0
 77
     3
 78
     8
170
     0
171
     2
172
     1
173
     0
174
     0
175
     0
176
   256
177
   256
178
     2
270
     2
271
     3
272
     3
273
     2
274
     2
340
6B
275
     0
280
     0
281
     0
282
     0
283
     0
284
     0
285
     0
286
     0
287
     3
288
     0
  0
DIMSTYLE
105
BA5
102
{ACAD_REACTORS
330
CC6
330
DF5
330
1FB6
330
2216
102
}
330
A
100
AcDbSymbolTableRecord
100
AcDbDimStyleTableRecord
  2
AM_JIS$0
 70
     0
  3

  4
"
  5
OPEN30
  6

  7

 40
1.0
 41
2.5
 42
0.0
 43
10.0
 44
1.0
 45
0.0
 46
0.0
 47
0.1
 48
0.1000000001
140
3.799999999999999
141
0.0
142
0.0
143
0.0393701
144
1.0
145
0.0
146
0.71
147
1.5
 71
     0
 72
     0
 73
     0
 74
     0
 75
     0
 76
     0
 77
     3
 78
     1
170
     0
171
     2
172
     1
173
     0
174
     0
175
     0
176
     3
177
     3
178
     2
270
     2
271
     2
272
     2
273
     2
274
     2
340
11
275
     1
280
     0
281
     0
282
     0
283
     0
284
     8
285
     0
286
     0
287
     0
288
     0
  0
ENDTAB
  0
TABLE
  2
BLOCK_RECORD
  5
1
330
0
100
AcDbSymbolTable
 70
    10
  0
BLOCK_RECORD
  5
1F
102
{ACAD_XDICTIONARY
360
74
102
}
330
1
100
AcDbSymbolTableRecord
100
AcDbBlockTableRecord
  2
*MODEL_SPACE
  0
BLOCK_RECORD
  5
101
102
{ACAD_XDICTIONARY
360
3ED7
102
}
330
1
100
AcDbSymbolTableRecord
100
AcDbBlockTableRecord
  2
*PAPER_SPACE
  0
BLOCK_RECORD
  5
59
330
1
100
AcDbSymbolTableRecord
100
AcDbBlockTableRecord
  2
_OPEN30
  0
BLOCK_RECORD
  5
64
330
1
100
AcDbSymbolTableRecord
100
AcDbBlockTableRecord
  2
GENAXEH
  0
BLOCK_RECORD
  5
CC8
330
1
100
AcDbSymbolTableRecord
100
AcDbBlockTableRecord
  2
*D5
  0
BLOCK_RECORD
  5
DF6
330
1
100
AcDbSymbolTableRecord
100
AcDbBlockTableRecord
  2
*D6
  0
BLOCK_RECORD
  5
1FB7
330
1
100
AcDbSymbolTableRecord
100
AcDbBlockTableRecord
  2
*D7
  0
BLOCK_RECORD
  5
2217
330
1
100
AcDbSymbolTableRecord
100
AcDbBlockTableRecord
  2
*D8
  0
BLOCK_RECORD
  5
3D70
330
1
100
AcDbSymbolTableRecord
100
AcDbBlockTableRecord
  2
*D9
  0
ENDTAB
  0
ENDSEC
  0
SECTION
  2
BLOCKS
  0
BLOCK
  5
20
330
1F
100
AcDbEntity
  8
0
100
AcDbBlockBegin
  2
*MODEL_SPACE
 70
     0
 10
0.0
 20
0.0
 30
0.0
  3
*MODEL_SPACE
  1

  0
ENDBLK
  5
21
330
1F
100
AcDbEntity
  8
0
100
AcDbBlockEnd
  0
BLOCK
  5
103
330
101
100
AcDbEntity
 67
     1
  8
0
100
AcDbBlockBegin
  2
*PAPER_SPACE
 70
     0
 10
0.0
 20
0.0
 30
0.0
  3
*PAPER_SPACE
  1

  0
ENDBLK
  5
104
330
101
100
AcDbEntity
 67
     1
  8
0
100
AcDbBlockEnd
  0
BLOCK
  5
5D
330
59
100
AcDbEntity
  8
0
100
AcDbBlockBegin
  2
_OPEN30
 70
     0
 10
0.0
 20
0.0
 30
0.0
  3
_OPEN30
  1

  0
LINE
  5
5A
330
59
100
AcDbEntity
  8
0
 62
     0
100
AcDbLine
 10
-1.0
 20
0.26794919
 30
0.0
 11
0.0
 21
0.0
 31
0.0
  0
LINE
  5
5B
330
59
100
AcDbEntity
  8
0
 62
     0
100
AcDbLine
 10
0.0
 20
0.0
 30
0.0
 11
-1.0
 21
-0.26794919
 31
0.0
  0
LINE
  5
5C
330
59
100
AcDbEntity
  8
0
 62
     0
100
AcDbLine
 10
0.0
 20
0.0
 30
0.0
 11
-1.0
 21
0.0
 31
0.0
  0
ENDBLK
  5
5E
330
59
100
AcDbEntity
  8
0
100
AcDbBlockEnd
  0
BLOCK
  5
66
330
64
100
AcDbEntity
  8
0
100
AcDbBlockBegin
  2
GENAXEH
 70
     0
 10
0.0
 20
0.0
 30
0.0
  3
GENAXEH
  1

  0
LINE
  5
65
330
64
100
AcDbEntity
  8
0
100
AcDbLine
 10
-1.0
 20
0.0
 30
0.0
 11
1.0
 21
0.0
 31
0.0
  0
ENDBLK
  5
67
330
64
100
AcDbEntity
  8
0
100
AcDbBlockEnd
  0
BLOCK
  5
CD2
330
CC8
100
AcDbEntity
  8
0
100
AcDbBlockBegin
  2
*D5
 70
     1
 10
0.0
 20
0.0
 30
0.0
  3
*D5
  1

  0
LINE
  5
3D51
330
CC8
100
AcDbEntity
  8
AM_5
 62
     3
100
AcDbLine
 10
-179.0
 20
-6.500002054481138
 30
0.0
 11
-179.0
 21
-32.00000305448093
 31
0.0
  0
LINE
  5
3D52
330
CC8
100
AcDbEntity
  8
AM_5
 62
     3
100
AcDbLine
 10
-2.999999999999349
 20
-6.700000584580969
 30
0.0
 11
-2.999999999999351
 21
-32.00000305448093
 31
0.0
  0
LINE
  5
3D53
330
CC8
100
AcDbEntity
  8
AM_5
 62
     3
100
AcDbLine
 10
-176.5
 20
-31.00000305448093
 30
0.0
 11
-5.499999999999351
 21
-31.00000305448093
 31
0.0
  0
INSERT
  5
3D54
330
CC8
100
AcDbEntity
  8
AM_5
 62
     3
100
AcDbBlockReference
  2
_OPEN30
 10
-179.0
 20
-31.00000305448093
 30
0.0
 41
2.5
 42
2.5
 43
2.5
 50
180.0
  0
INSERT
  5
3D55
330
CC8
100
AcDbEntity
  8
AM_5
 62
     3
100
AcDbBlockReference
  2
_OPEN30
 10
-2.999999999999351
 20
-31.00000305448093
 30
0.0
 41
2.5
 42
2.5
 43
2.5
  0
MTEXT
  5
3D56
330
CC8
100
AcDbEntity
  8
AM_5
 62
     2
100
AcDbMText
 10
-90.99999999999967
 20
-27.60000305448093
 30
0.0
 40
3.799999999999999
 41
0.0
 71
     5
 72
     1
  1
176
1001
ACAD
1000
MTEXTBEGIN
1070
    73
1070
     1
1070
    44
1040
1.0
1070
    74
1070
     0
1000
MTEXTEND
  0
POINT
  5
3D57
330
CC8
100
AcDbEntity
  8
DEFPOINTS
 62
     0
100
AcDbPoint
 10
-179.0
 20
-6.500002054481138
 30
0.0
  0
POINT
  5
3D58
330
CC8
100
AcDbEntity
  8
DEFPOINTS
 62
     0
100
AcDbPoint
 10
-2.999999999999349
 20
-6.700000584580969
 30
0.0
  0
POINT
  5
3D59
330
CC8
100
AcDbEntity
  8
DEFPOINTS
 62
     0
100
AcDbPoint
 10
-2.999999999999351
 20
-31.00000305448093
 30
0.0
  0
ENDBLK
  5
CD3
330
CC8
100
AcDbEntity
  8
0
100
AcDbBlockEnd
  0
BLOCK
  5
E00
330
DF6
100
AcDbEntity
  8
0
100
AcDbBlockBegin
  2
*D6
 70
     1
 10
0.0
 20
0.0
 30
0.0
  3
*D6
  1

  0
LINE
  5
3D48
330
DF6
100
AcDbEntity
  8
AM_5
 62
     3
100
AcDbLine
 10
-114.9999999999993
 20
-7.000002054481154
 30
0.0
 11
-114.9999999999993
 21
-22.00000305448085
 31
0.0
  0
LINE
  5
3D49
330
DF6
100
AcDbEntity
  8
AM_5
 62
     3
100
AcDbLine
 10
-2.999999999999338
 20
-6.700000584580953
 30
0.0
 11
-2.999999999999339
 21
-22.00000305448085
 31
0.0
  0
LINE
  5
3D4A
330
DF6
100
AcDbEntity
  8
AM_5
 62
     3
100
AcDbLine
 10
-112.4999999999993
 20
-21.00000305448085
 30
0.0
 11
-5.499999999999339
 21
-21.00000305448085
 31
0.0
  0
INSERT
  5
3D4B
330
DF6
100
AcDbEntity
  8
AM_5
 62
     3
100
AcDbBlockReference
  2
_OPEN30
 10
-114.9999999999993
 20
-21.00000305448085
 30
0.0
 41
2.5
 42
2.5
 43
2.5
 50
180.0
  0
INSERT
  5
3D4C
330
DF6
100
AcDbEntity
  8
AM_5
 62
     3
100
AcDbBlockReference
  2
_OPEN30
 10
-2.999999999999339
 20
-21.00000305448085
 30
0.0
 41
2.5
 42
2.5
 43
2.5
  0
MTEXT
  5
3D4D
330
DF6
100
AcDbEntity
  8
AM_5
 62
     2
100
AcDbMText
 10
-58.99999999999933
 20
-17.60000305448085
 30
0.0
 40
3.799999999999999
 41
0.0
 71
     5
 72
     1
  1
112
1001
ACAD
1000
MTEXTBEGIN
1070
    73
1070
     1
1070
    44
1040
1.0
1070
    74
1070
     0
1000
MTEXTEND
  0
POINT
  5
3D4E
330
DF6
100
AcDbEntity
  8
DEFPOINTS
 62
     0
100
AcDbPoint
 10
-114.9999999999993
 20
-7.000002054481154
 30
0.0
  0
POINT
  5
3D4F
330
DF6
100
AcDbEntity
  8
DEFPOINTS
 62
     0
100
AcDbPoint
 10
-2.999999999999338
 20
-6.700000584580953
 30
0.0
  0
POINT
  5
3D50
330
DF6
100
AcDbEntity
  8
DEFPOINTS
 62
     0
100
AcDbPoint
 10
-2.999999999999339
 20
-21.00000305448085
 30
0.0
  0
ENDBLK
  5
E01
330
DF6
100
AcDbEntity
  8
0
100
AcDbBlockEnd
  0
BLOCK
  5
1FC3
330
1FB7
100
AcDbEntity
  8
0
100
AcDbBlockBegin
  2
*D7
 70
     1
 10
0.0
 20
0.0
 30
0.0
  3
*D7
  1

  0
LINE
  5
3E3C
330
1FB7
100
AcDbEntity
  8
AM_5
 62
     3
100
AcDbLine
 10
-2.999999999999349
 20
-6.700000584580969
 30
0.0
 11
17.55592102485801
 21
-6.700000584580974
 31
0.0
  0
LINE
  5
3E3D
330
1FB7
100
AcDbEntity
  8
AM_5
 62
     3
100
AcDbLine
 10
-2.999999999999264
 20
6.699999415418723
 30
0.0
 11
17.55592102485801
 21
6.699999415418718
 31
0.0
  0
LINE
  5
3E3E
330
1FB7
100
AcDbEntity
  8
AM_5
 62
     3
100
AcDbLine
 10
16.55592102485801
 20
-9.200000584580974
 30
0.0
 11
16.55592102485801
 21
-11.70000058458097
 31
0.0
  0
LINE
  5
3E3F
330
1FB7
100
AcDbEntity
  8
AM_5
 62
     3
100
AcDbLine
 10
16.55592102485802
 20
9.199999415418718
 30
0.0
 11
16.55592102485802
 21
29.17618989160919
 31
0.0
  0
LINE
  5
3E40
330
1FB7
100
AcDbEntity
  8
AM_5
 62
     3
100
AcDbLine
 10
16.55592102485801
 20
-6.700000584580974
 30
0.0
 11
16.55592102485801
 21
6.699999415418718
 31
0.0
  0
INSERT
  5
3E41
330
1FB7
100
AcDbEntity
  8
AM_5
 62
     3
100
AcDbBlockReference
  2
_OPEN30
 10
16.55592102485801
 20
-6.700000584580974
 30
0.0
 41
2.5
 42
2.5
 43
2.5
 50
90.0
  0
INSERT
  5
3E42
330
1FB7
100
AcDbEntity
  8
AM_5
 62
     3
100
AcDbBlockReference
  2
_OPEN30
 10
16.55592102485801
 20
6.699999415418718
 30
0.0
 41
2.5
 42
2.5
 43
2.5
 50
270.0
  0
MTEXT
  5
3E43
330
1FB7
100
AcDbEntity
  8
AM_5
 62
     2
100
AcDbMText
 10
13.15592102485801
 20
20.43809465351395
 30
0.0
 40
3.799999999999999
 41
0.0
 71
     5
 72
     1
  1
%%c13.4
 11
0.0000000000000001
 21
1.0
 31
0.0
1001
ACAD
1000
MTEXTBEGIN
1070
    73
1070
     1
1070
    44
1040
1.0
1070
    74
1070
     0
1000
MTEXTEND
  0
POINT
  5
3E44
330
1FB7
100
AcDbEntity
  8
DEFPOINTS
 62
     0
100
AcDbPoint
 10
-2.999999999999349
 20
-6.700000584580969
 30
0.0
  0
POINT
  5
3E45
330
1FB7
100
AcDbEntity
  8
DEFPOINTS
 62
     0
100
AcDbPoint
 10
-2.999999999999264
 20
6.699999415418723
 30
0.0
  0
POINT
  5
3E46
330
1FB7
100
AcDbEntity
  8
DEFPOINTS
 62
     0
100
AcDbPoint
 10
16.55592102485801
 20
6.699999415418718
 30
0.0
  0
ENDBLK
  5
1FC4
330
1FB7
100
AcDbEntity
  8
0
100
AcDbBlockEnd
  0
BLOCK
  5
2221
330
2217
100
AcDbEntity
  8
0
100
AcDbBlockBegin
  2
*D8
 70
     1
 10
0.0
 20
0.0
 30
0.0
  3
*D8
  1

  0
LINE
  5
3D5A
330
2217
100
AcDbEntity
  8
AM_5
 62
     3
100
AcDbLine
 10
-178.5000000000005
 20
6.999999999998649
 30
0.0
 11
-196.000001
 21
6.9999999999986
 31
0.0
  0
LINE
  5
3D5B
330
2217
100
AcDbEntity
  8
AM_5
 62
     3
100
AcDbLine
 10
-178.5000000000004
 20
-7.000002054481175
 30
0.0
 11
-196.0000009999999
 21
-7.000002054481225
 31
0.0
  0
LINE
  5
3D5C
330
2217
100
AcDbEntity
  8
AM_5
 62
     3
100
AcDbLine
 10
-195.000001
 20
4.499999999998602
 30
0.0
 11
-195.000001
 21
-4.500002054481222
 31
0.0
  0
INSERT
  5
3D5D
330
2217
100
AcDbEntity
  8
AM_5
 62
     3
100
AcDbBlockReference
  2
_OPEN30
 10
-195.000001
 20
6.999999999998602
 30
0.0
 41
2.5
 42
2.5
 43
2.5
 50
90.00000000000017
  0
INSERT
  5
3D5E
330
2217
100
AcDbEntity
  8
AM_5
 62
     3
100
AcDbBlockReference
  2
_OPEN30
 10
-195.0000009999999
 20
-7.000002054481222
 30
0.0
 41
2.5
 42
2.5
 43
2.5
 50
270.0000000000001
  0
MTEXT
  5
3D5F
330
2217
100
AcDbEntity
  8
AM_5
 62
     2
100
AcDbMText
 10
-198.400001
 20
-0.0000010272413116
 30
0.0
 40
3.799999999999999
 41
0.0
 71
     5
 72
     1
  1
%%c14
 11
-0.0000000000000028
 21
1.0
 31
0.0
1001
ACAD
1000
MTEXTBEGIN
1070
    73
1070
     1
1070
    44
1040
1.0
1070
    74
1070
     0
1000
MTEXTEND
  0
POINT
  5
3D60
330
2217
100
AcDbEntity
  8
DEFPOINTS
 62
     0
100
AcDbPoint
 10
-178.5000000000004
 20
6.999999999999205
 30
0.0
  0
POINT
  5
3D61
330
2217
100
AcDbEntity
  8
DEFPOINTS
 62
     0
100
AcDbPoint
 10
-178.5000000000005
 20
-7.00000205448062
 30
0.0
  0
POINT
  5
3D62
330
2217
100
AcDbEntity
  8
DEFPOINTS
 62
     0
100
AcDbPoint
 10
-195.000001
 20
-7.000002054480615
 30
0.0
  0
ENDBLK
  5
2222
330
2217
100
AcDbEntity
  8
0
100
AcDbBlockEnd
  0
BLOCK
  5
3D7E
330
3D70
100
AcDbEntity
  8
0
100
AcDbBlockBegin
  2
*D9
 70
     1
 10
0.0
 20
0.0
 30
0.0
  3
*D9
  1

  0
LINE
  5
3ED9
330
3D70
100
AcDbEntity
  8
AM_5
100
AcDbLine
 10
0.3420201408161121
 20
-0.9396926216993126
 30
0.0
 11
12.91527976327147
 21
-35.4844398103815
 31
0.0
  0
LINE
  5
3EDA
330
3D70
100
AcDbEntity
  8
AM_5
100
AcDbLine
 10
0.3420224212243546
 20
0.9396917916954532
 30
0.0
 11
12.91536587548216
 21
35.48440846798192
 31
0.0
  0
ARC
  5
3EDB
330
3D70
100
AcDbEntity
  8
AM_5
100
AcDbCircle
 10
-0.0000000000000303
 20
-0.0000000000000053
 30
0.0
 40
36.76175207826243
100
AcDbArc
 50
293.897177129251
 51
66.10268382759534
  0
INSERT
  5
3EDC
330
3D70
100
AcDbEntity
  8
AM_5
100
AcDbBlockReference
  2
_OPEN30
 10
12.57325962245533
 20
-34.5447471886822
 30
0.0
 41
2.5
 42
2.5
 43
2.5
 50
201.9485884881188
  0
INSERT
  5
3EDD
330
3D70
100
AcDbEntity
  8
AM_5
100
AcDbBlockReference
  2
_OPEN30
 10
12.57334345425778
 20
34.54471667628647
 30
0.0
 41
2.5
 42
2.5
 43
2.5
 50
158.0512724687274
  0
MTEXT
  5
3EDE
330
3D70
100
AcDbEntity
  8
AM_5
 62
     2
100
AcDbMText
 10
33.66175207823762
 20
-0.0000408445107654
 30
0.0
 40
3.2
 41
0.0
 71
     5
 72
     1
  1
140°
  7
ASAMI
 11
0.0000012133804164
 21
0.999999999999264
 31
0.0
  0
POINT
  5
3EDF
330
3D70
100
AcDbEntity
  8
DEFPOINTS
 62
     0
100
AcDbPoint
 10
33.75522108407366
 20
-14.56061349768409
 30
0.0
  0
POINT
  5
3EE0
330
3D70
100
AcDbEntity
  8
DEFPOINTS
 62
     0
100
AcDbPoint
 10
-0.0000000000000284
 20
0.0
 30
0.0
  0
POINT
  5
3EE1
330
3D70
100
AcDbEntity
  8
DEFPOINTS
 62
     0
100
AcDbPoint
 10
-0.0000000000000284
 20
-0.0000000000000106
 30
0.0
  0
POINT
  5
3EE2
330
3D70
100
AcDbEntity
  8
DEFPOINTS
 62
     0
100
AcDbPoint
 10
-0.5872917675983729
 20
1.613570883515823
 30
0.0
  0
POINT
  5
3EE3
330
3D70
100
AcDbEntity
  8
DEFPOINTS
 62
     0
100
AcDbPoint
 10
-0.5873037318976897
 20
-1.613591571338162
 30
0.0
  0
ENDBLK
  5
3D7F
330
3D70
100
AcDbEntity
  8
0
100
AcDbBlockEnd
  0
ENDSEC
  0
SECTION
  2
ENTITIES
  0
LINE
  5
C9F
330
1F
100
AcDbEntity
  8
AM_7
100
AcDbLine
 10
-181.0
 20
-0.0000000000003117
 30
0.0
 11
0.5559200248580254
 21
0.000000000000001
 31
0.0
1001
GENIUS_GENODEF_13
1002
{
1000
HIER
1070
     0
1002
}
1002
{
1000
MANEDIT
1070
     0
1002
}
1002
{
1000
NOSEL
1070
     0
1002
}
1002
{
1000
BEHIND
1070
     0
1002
}
1002
{
1000
REACTOR
1002
}
1001
GENIUS_GENOBJ-N-CEN_13
1002
{
1000
OWNER
1000
GEN
1002
}
  0
DIMENSION
  5
CC6
330
1F
100
AcDbEntity
  8
AM_5
100
AcDbDimension
  2
*D5
 10
-2.999999999999351
 20
-31.00000305448093
 30
0.0
 11
-90.99999999999967
 21
-27.60000305448093
 31
0.0
 70
    32
  1
<>
  3
AM_JIS$0
100
AcDbAlignedDimension
 13
-179.0
 23
-6.500002054481138
 33
0.0
 14
-2.999999999999349
 24
-6.700000584580969
 34
0.0
 50
0.0000000000001132
100
AcDbRotatedDimension
1001
GENIUS_GENDTOL_13
1000

1000
h7
1000

1040
0.0
1001
ACAD
1000
DSTYLE
1002
{
1070
   271
1070
     0
1002
}
  0
DIMENSION
  5
DF5
330
1F
100
AcDbEntity
  8
AM_5
100
AcDbDimension
  2
*D6
 10
-2.999999999999339
 20
-21.00000305448085
 30
0.0
 11
-58.99999999999933
 21
-17.60000305448085
 31
0.0
 70
    32
  1
<>
  3
AM_JIS$0
100
AcDbAlignedDimension
 13
-114.9999999999993
 23
-7.000002054481154
 33
0.0
 14
-2.999999999999338
 24
-6.700000584580953
 34
0.0
 50
0.0000000000001527
100
AcDbRotatedDimension
1001
GENIUS_GENDTOL_13
1000

1000
h7
1000

1040
0.0
1001
ACAD
1000
DSTYLE
1002
{
1070
   271
1070
     0
1002
}
  0
TEXT
  5
19BD
330
1F
100
AcDbEntity
  8
AM_6
100
AcDbText
 10
-112.1904761904757
 20
-53.50000305448099
 30
0.0
 40
5.0
  1
MDW134LHK
 50
0.0000000000001527
 72
     4
 11
-90.99999999999958
 21
-51.00000305448094
 31
0.0
100
AcDbText
  0
LINE
  5
1E25
330
1F
100
AcDbEntity
  8
AM_0
100
AcDbLine
 10
-114.9999999999993
 20
-7.000002054481156
 30
0.0
 11
-114.4803495431738
 21
-6.699981723348445
 31
0.0
  0
LINE
  5
1E26
330
1F
100
AcDbEntity
  8
AM_0
100
AcDbLine
 10
-114.4803837452095
 20
6.699999415421538
 30
0.0
 11
-115.0000192404462
 21
7.000011108476912
 31
0.0
  0
DIMENSION
  5
1FB6
330
1F
100
AcDbEntity
  8
AM_5
100
AcDbDimension
  2
*D7
 10
16.55592102485801
 20
6.699999415418718
 30
0.0
 11
16.55592102485801
 21
20.43809465351395
 31
0.0
 70
   160
  1
%%c<>
  3
AM_JIS$0
100
AcDbAlignedDimension
 13
-2.999999999999349
 23
-6.700000584580969
 33
0.0
 14
-2.999999999999264
 24
6.699999415418723
 34
0.0
 50
89.99999999999969
100
AcDbRotatedDimension
1001
ACAD
1000
DSTYLE
1002
{
1070
   271
1070
     1
1002
}
1001
GENIUS_GENDTOL_13
1000

1000
h7
1000

1040
0.0
  0
LINE
  5
1FD9
330
1F
100
AcDbEntity
  8
AM_0
100
AcDbLine
 10
-114.4803789327671
 20
-6.699998691438016
 30
0.0
 11
-114.4803837452095
 21
6.69999941542154
 31
0.0
  0
LINE
  5
21D7
330
1F
100
AcDbEntity
  8
AM_0
 48
0.5
100
AcDbLine
 10
-114.9999999999993
 20
-7.000002054481142
 30
0.0
 11
-114.9999999999993
 21
6.999999999999688
 31
0.0
  0
LINE
  5
21D8
330
1F
100
AcDbEntity
  8
AM_0
 48
0.5
100
AcDbLine
 10
-178.5
 20
6.999999999999688
 30
0.0
 11
-114.9999999999993
 21
6.999999999999688
 31
0.0
1001
GENIUS_GENODEF_13
1002
{
1000
HIER
1070
     0
1002
}
1002
{
1000
MANEDIT
1070
     0
1002
}
1002
{
1000
NOSEL
1070
     0
1002
}
1002
{
1000
BEHIND
1070
     0
1002
}
1002
{
1000
REACTOR
1002
}
1001
GENIUS_GENOBJ-N-CEN_13
1002
{
1000
OWNER
1000
GEN
1002
}
  0
LINE
  5
21D9
330
1F
100
AcDbEntity
  8
AM_0
 48
0.5
100
AcDbLine
 10
-178.5
 20
-7.000002054481142
 30
0.0
 11
-114.9999999999993
 21
-7.000002054481142
 31
0.0
1001
GENIUS_GENODEF_13
1002
{
1000
HIER
1070
     0
1002
}
1002
{
1000
MANEDIT
1070
     0
1002
}
1002
{
1000
NOSEL
1070
     0
1002
}
1002
{
1000
BEHIND
1070
     0
1002
}
1002
{
1000
REACTOR
1002
}
1001
GENIUS_GENOBJ-N-CEN_13
1002
{
1000
OWNER
1000
GEN
1002
}
  0
LINE
  5
21DC
330
1F
100
AcDbEntity
  8
AM_0
100
AcDbLine
 10
-178.5000000000005
 20
-7.000002054480616
 30
0.0
 11
-178.5000000000004
 21
6.999999999999205
 31
0.0
  0
LINE
  5
21DD
330
1F
100
AcDbEntity
  8
AM_0
 48
0.5
100
AcDbLine
 10
-179.0
 20
-6.500002054481142
 30
0.0
 11
-179.0
 21
6.499999999999702
 31
0.0
  0
DIMENSION
  5
2216
330
1F
100
AcDbEntity
  8
AM_5
100
AcDbDimension
  2
*D8
 10
-195.000001
 20
-7.000002054480615
 30
0.0
 11
-198.400001
 21
-0.0000010272407343
 31
0.0
 70
    32
  1
%%c<>
 51
359.9999999999998
  3
AM_JIS$0
100
AcDbAlignedDimension
 13
-178.5000000000004
 23
6.999999999999205
 33
0.0
 14
-178.5000000000005
 24
-7.00000205448062
 34
0.0
 50
269.9999999999999
100
AcDbRotatedDimension
1001
ACAD
1000
DSTYLE
1002
{
1070
   271
1070
     0
1002
}
1001
GENIUS_GENDTOL_13
1000

1000
h7
1000

1040
0.0
  0
ELLIPSE
  5
2694
330
1F
100
AcDbEntity
  8
AM_0
 48
0.5
100
AcDbEllipse
 10
8.240586575836466
 20
6.617376299158917
 30
0.0
 11
10.17240772368207
 21
0.0000000000010035
 31
0.0
210
0.0
220
0.0
230
1.0
 40
0.9899999999999971
 41
3.323896559076802
 42
3.661579236128986
  0
LINE
  5
2695
330
1F
100
AcDbEntity
  8
AM_0
 48
0.5
100
AcDbLine
 10
-1.763250261309863
 20
4.7916038607996
 30
0.0
 11
-2.999999999999264
 21
6.699999415418723
 31
0.0
  0
LINE
  5
2696
330
1F
100
AcDbEntity
  8
AM_0
 48
0.5
100
AcDbLine
 10
-0.0000000000000284
 20
-0.0000000000000106
 30
0.0
 11
-0.5872917675983729
 21
1.613570883515823
 31
0.0
  0
LINE
  5
2699
330
1F
100
AcDbEntity
  8
AM_0
 48
0.5
100
AcDbLine
 10
-0.0000000000000284
 20
0.0
 30
0.0
 11
-0.5873037318976897
 21
-1.613591571338162
 31
0.0
  0
LINE
  5
2CB4
330
1F
100
AcDbEntity
  8
AM_0
 48
0.5
100
AcDbLine
 10
-179.0
 20
6.499999999999688
 30
0.0
 11
-178.5
 21
6.999999999999688
 31
0.0
1001
GENIUS_GENFIL_13
1070
     0
1040
0.5
1040
0.5
1040
20.0
1040
0.0
1002
{
1002
}
1001
GENIUS_GENODEF_13
1002
{
1000
HIER
1070
     0
1002
}
1002
{
1000
MANEDIT
1070
     0
1002
}
1002
{
1000
NOSEL
1070
     0
1002
}
1002
{
1000
BEHIND
1070
     0
1002
}
1002
{
1000
REACTOR
1002
}
1001
GENIUS_GENOBJ-N-CHA_13
1002
{
1000
OWNER
1000
GEN
1002
}
  0
LINE
  5
2CB7
330
1F
100
AcDbEntity
  8
AM_0
 48
0.5
100
AcDbLine
 10
-178.5
 20
-7.000002054481142
 30
0.0
 11
-179.0
 21
-6.500002054481142
 31
0.0
1001
GENIUS_GENFIL_13
1070
     0
1040
0.5
1040
0.5
1040
20.0
1040
0.0
1002
{
1002
}
1001
GENIUS_GENODEF_13
1002
{
1000
HIER
1070
     0
1002
}
1002
{
1000
MANEDIT
1070
     0
1002
}
1002
{
1000
NOSEL
1070
     0
1002
}
1002
{
1000
BEHIND
1070
     0
1002
}
1002
{
1000
REACTOR
1002
}
1001
GENIUS_GENOBJ-N-CHA_13
1002
{
1000
OWNER
1000
GEN
1002
}
  0
ELLIPSE
  5
3366
330
1F
100
AcDbEntity
  8
AM_0
 48
0.5
100
AcDbEllipse
 10
8.240586575836488
 20
-6.617376299158896
 30
0.0
 11
10.17240772368207
 21
-0.0000000000009696
 31
0.0
210
0.0
220
0.0
230
-1.0
 40
0.9899999999999971
 41
3.323896559076802
 42
3.661579236128986
  0
LINE
  5
3367
330
1F
100
AcDbEntity
  8
AM_0
 48
0.5
100
AcDbLine
 10
-1.763250261309849
 20
-4.791603860799622
 30
0.0
 11
-2.999999999999349
 21
-6.700000584580969
 31
0.0
  0
LINE
  5
3CB8
330
1F
100
AcDbEntity
  8
AM_0
100
AcDbLine
 10
-106.2493088532296
 20
6.699999415421333
 30
0.0
 11
-114.4803837452095
 21
6.699999415421537
 31
0.0
  0
LINE
  5
3CB9
330
1F
100
AcDbEntity
  8
AM_0
100
AcDbLine
 10
-109.8890155749512
 20
-6.700340779621139
 30
0.0
 11
-114.4803495431738
 21
-6.699981723348445
 31
0.0
  0
LINE
  5
3CBA
330
1F
100
AcDbEntity
  8
AM_0
 48
0.5
100
AcDbLine
 10
-7.796128460450777
 20
6.699999415418848
 30
0.0
 11
-2.999999999999264
 21
6.699999415418723
 31
0.0
  0
LINE
  5
3CBB
330
1F
100
AcDbEntity
  8
AM_0
 48
0.5
100
AcDbLine
 10
-7.796128460451125
 20
-6.700000584581159
 30
0.0
 11
-2.999999999999328
 21
-6.700000584580979
 31
0.0
  0
LINE
  5
3CBC
330
1F
100
AcDbEntity
  8
AM_11
 48
0.5
100
AcDbLine
 10
-28.19777885313771
 20
-6.700000584580587
 30
0.0
 11
-7.796128460451125
 21
-6.700000584581159
 31
0.0
  0
LINE
  5
3CBD
330
1F
100
AcDbEntity
  8
AM_11
 48
0.5
100
AcDbLine
 10
-28.19777885313735
 20
6.699999415419405
 30
0.0
 11
-7.796128460450777
 21
6.699999415418848
 31
0.0
  0
LINE
  5
3CBE
330
1F
100
AcDbEntity
  8
AM_11
 48
0.5
100
AcDbLine
 10
-66.75372440868532
 20
-6.700000584579677
 30
0.0
 11
-46.35207401600133
 21
-6.700952441172608
 31
0.0
  0
LINE
  5
3CBF
330
1F
100
AcDbEntity
  8
AM_11
 48
0.5
100
AcDbLine
 10
-64.10924570372015
 20
6.700951272012783
 30
0.0
 11
-51.08969459050985
 21
6.699999415420029
 31
0.0
  0
LINE
  5
3CC0
330
1F
100
AcDbEntity
  8
AM_0
 48
0.5
100
AcDbLine
 10
-46.35207401600131
 20
-6.700000584580235
 30
0.0
 11
-28.19777885313771
 21
-6.700000584580587
 31
0.0
  0
LINE
  5
3CC1
330
1F
100
AcDbEntity
  8
AM_0
 48
0.5
100
AcDbLine
 10
-51.08971216233133
 20
6.699999415420029
 30
0.0
 11
-28.19777885313735
 21
6.699999415419405
 31
0.0
  0
LINE
  5
3CC2
330
1F
100
AcDbEntity
  8
AM_0
 48
0.5
100
AcDbLine
 10
-0.0000000000000304
 20
-0.0000000000000053
 30
0.0
 11
-5.147426701679002
 21
2.572595901827799
 31
0.0
  0
SPLINE
  5
3CC3
330
1F
100
AcDbEntity
  8
AM_0
100
AcDbSpline
210
0.0
220
0.0
230
1.0
 70
     8
 71
     3
 72
    17
 73
    13
 74
     0
 42
0.0000000001
 43
0.0000000001
 40
1.580019955310467
 40
1.580019955310467
 40
1.580019955310467
 40
1.580019955310467
 40
2.030549285115227
 40
3.082371838836284
 40
4.126290986361125
 40
5.162752068350215
 40
6.192395305374981
 40
7.216039564037012
 40
8.234688489606833
 40
9.249433870634691
 40
10.26152376260694
 40
11.27226744710342
 40
11.27226744710342
 40
11.27226744710342
 40
11.27226744710352
 10
-17.99615779452513
 20
-4.944797876736287
 30
0.0
 10
-18.14938961915075
 20
-4.995725181014983
 30
0.0
 10
-18.66123539350056
 20
-5.162646223102237
 30
0.0
 10
-19.53508306275577
 20
-5.424467850154615
 30
0.0
 10
-20.61747267333335
 20
-5.717673339438579
 30
0.0
 10
-21.70016026475733
 20
-5.975068829654692
 30
0.0
 10
-22.7828974645488
 20
-6.195789928896357
 30
0.0
 10
-23.86575262661767
 20
-6.378231101228429
 30
0.0
 10
-24.94868260004242
 20
-6.521351235325841
 30
0.0
 10
-26.0316800053561
 20
-6.624222864831066
 30
0.0
 10
-27.11471816030721
 20
-6.686183793118289
 30
0.0
 10
-27.83691883876044
 20
-6.70000062291836
 30
0.0
 10
-28.19777885313762
 20
-6.700000584580592
 30
0.0
  0
SPLINE
  5
3CC4
330
1F
100
AcDbEntity
  8
AM_0
100
AcDbSpline
210
0.0
220
0.0
230
1.0
 70
     8
 71
     3
 72
    22
 73
    18
 74
     0
 42
0.0000000001
 43
0.0000000001
 40
17.17441611292
 40
17.17441611292
 40
17.17441611292
 40
17.17441611292
 40
17.38177636558528
 40
18.41823744757437
 40
19.46215659509824
 40
20.51397914882054
 40
21.57394542641293
 40
22.64209583141747
 40
23.71826625065247
 40
24.80210429862395
 40
25.8930771157021
 40
26.99048705697709
 40
28.09349309193389
 40
29.20112995599786
 40
30.31233024745139
 40
31.42594771747373
 40
32.5407895042663
 40
32.54078950426994
 40
32.54078950426994
 40
32.54078950426994
 10
-32.33149565438233
 20
-6.016649076829175
 30
0.0
 10
-32.40401743321091
 20
-6.001139233977028
 30
0.0
 10
-32.83874589083799
 20
-5.906667085897013
 30
0.0
 10
-33.63514392835979
 20
-5.717238133172742
 30
0.0
 10
-34.71768422606996
 20
-5.424482868891343
 30
0.0
 10
-35.80011421519619
 20
-5.098296813388309
 30
0.0
 10
-36.8824415376335
 20
-4.740716100900932
 30
0.0
 10
-37.96466476370275
 20
-4.353933229886476
 30
0.0
 10
-39.04679721431694
 20
-3.940355328881551
 30
0.0
 10
-40.12884390005353
 20
-3.502524114596751
 30
0.0
 10
-41.21081483241738
 20
-3.043139668140188
 30
0.0
 10
-42.29272204223931
 20
-2.565036100567545
 30
0.0
 10
-43.37457491982108
 20
-2.071153285174033
 30
0.0
 10
-44.45638435576103
 20
-1.56452967249612
 30
0.0
 10
-45.53815993935817
 20
-1.048280424286822
 30
0.0
 10
-46.61991769617711
 20
-0.5255910774444384
 30
0.0
 10
-47.340947976661
 20
-0.1750344198699139
 30
0.0
 10
-47.70166118911212
 20
0.000340195043196
 30
0.0
  0
SPLINE
  5
3CC5
330
1F
100
AcDbEntity
  8
AM_0
100
AcDbSpline
210
0.0
220
0.0
230
1.0
 70
     8
 71
     3
 72
    11
 73
     7
 74
     0
 42
0.0000000001
 43
0.0000000001
 40
11.27226913003534
 40
11.27226913003534
 40
11.27226913003534
 40
11.2722691300354
 40
12.28301561507924
 40
13.29510212255852
 40
14.30984805882082
 40
15.18258238371378
 40
15.18258238371378
 40
15.18258238371378
 40
15.18258238371378
 10
-28.19777885313768
 20
-6.700000584580592
 30
0.0
 10
-28.55726670008487
 20
-6.667208837573298
 30
0.0
 10
-29.27556433154088
 20
-6.587821445223744
 30
0.0
 10
-30.34930162366602
 20
-6.427677438429756
 30
0.0
 10
-31.36829724682947
 20
-6.236402981419867
 30
0.0
 10
-32.02732380204849
 20
-6.089364613623356
 30
0.0
 10
-32.33102200445742
 20
-6.016731721277942
 30
0.0
  0
SPLINE
  5
3CC6
330
1F
100
AcDbEntity
  8
AM_0
100
AcDbSpline
210
0.0
220
0.0
230
1.0
 70
     8
 71
     3
 72
    55
 73
    51
 74
     0
 42
0.0000000001
 43
0.0000000001
 40
0.0
 40
0.0
 40
0.0
 40
0.0
 40
1.010743684496582
 40
2.022833576467832
 40
3.037578957496688
 40
4.056212745003489
 40
5.079857003664532
 40
6.109500240690281
 40
7.145961322679372
 40
8.189895241603872
 40
9.241717795325891
 40
10.30168407291828
 40
11.36983447792315
 40
12.44600489715814
 40
13.52984294512926
 40
14.62081576220742
 40
15.7182257034828
 40
16.82123173843959
 40
17.92886860250316
 40
19.0400688939571
 40
20.15368796660465
 40
21.26852814259644
 40
22.38336992938901
 40
23.49698739941135
 40
24.6081876908653
 40
25.71582455492886
 40
26.81883757994213
 40
27.91624752121713
 40
29.00722033829659
 40
30.09105838626677
 40
31.16722880550176
 40
32.23537921050758
 40
33.29534548809967
 40
34.347168041821
 40
35.39108718934584
 40
36.42754827133493
 40
37.45720575381954
 40
38.48085062012849
 40
39.49948440763516
 40
40.51422944315121
 40
41.52631975251916
 40
42.53706336719636
 40
43.54780698187354
 40
44.55989729124051
 40
45.57464232675757
 40
46.59327611426424
 40
47.6169209805722
 40
48.64656348684535
 40
49.68302456883444
 40
50.58557219878025
 40
50.58557219878025
 40
50.58557219878025
 40
50.58557219878025
 10
-7.796128460451126
 20
-6.700000584581153
 30
0.0
 10
-8.156988479589122
 20
-6.696014246898567
 30
0.0
 10
-8.879189146596749
 20
-6.688036262138291
 30
0.0
 10
-9.962227324519707
 20
-6.623724748558511
 30
0.0
 10
-11.04521927162639
 20
-6.521486242008331
 30
0.0
 10
-12.12814419216405
 20
-6.378195086655074
 30
0.0
 10
-13.21099128024668
 20
-6.19579315238003
 30
0.0
 10
-14.29373917372233
 20
-5.975091551517191
 30
0.0
 10
-15.37639149433466
 20
-5.717577008714678
 30
0.0
 10
-16.45893864114561
 20
-5.424826419821372
 30
0.0
 10
-17.54137324003616
 20
-5.098637255693652
 30
0.0
 10
-18.62370068634437
 20
-4.741056971996149
 30
0.0
 10
-19.70592387875899
 20
-4.354273984579192
 30
0.0
 10
-20.78805633879196
 20
-3.940696115789014
 30
0.0
 10
-21.87010302084873
 20
-3.502864890241023
 30
0.0
 10
-22.95207395846461
 20
-3.043480456405514
 30
0.0
 10
-24.03398115084369
 20
-2.565376849381634
 30
0.0
 10
-25.11583409338113
 20
-2.071494180145148
 30
0.0
 10
-26.19764328558299
 20
-1.564870019236957
 30
0.0
 10
-27.27942030326737
 20
-1.048622578177492
 30
0.0
 10
-28.36117463464843
 20
-0.5259255340752818
 30
0.0
 10
-29.44292155577297
 20
-0.0000019516239387
 30
0.0
 10
-30.52466362075896
 20
0.5259310977796485
 30
0.0
 10
-31.60642157794475
 20
1.048620002106316
 30
0.0
 10
-32.68819726016088
 20
1.564869005817394
 30
0.0
 10
-33.77000838121658
 20
2.071495096737827
 30
0.0
 10
-34.85186581179897
 20
2.56537355109289
 30
0.0
 10
-35.93377471171345
 20
3.043479582767281
 30
0.0
 10
-37.01574580552994
 20
3.502863644089378
 30
0.0
 10
-38.09779244821452
 20
3.940694961711629
 30
0.0
 10
-39.17992491101836
 20
4.354272831106783
 30
0.0
 10
-40.26214813099805
 20
4.741055726038096
 30
0.0
 10
-41.34447546559826
 20
5.098636374857963
 30
0.0
 10
-42.42690541258253
 20
5.424822658739542
 30
0.0
 10
-43.50944586508975
 20
5.71757708193517
 30
0.0
 10
-44.59209778409425
 20
5.975096803031175
 30
0.0
 10
-45.67485340875275
 20
6.195773196707537
 30
0.0
 10
-46.75770407425617
 20
6.378231588237152
 30
0.0
 10
-47.84062931582123
 20
6.5213528904207
 30
0.0
 10
-48.92362201542365
 20
6.624212254177388
 30
0.0
 10
-50.00665927505928
 20
6.686192624294591
 30
0.0
 10
-51.08972033378192
 20
6.706898215079124
 30
0.0
 10
-52.17278139091095
 20
6.68619262426218
 30
0.0
 10
-53.2558186553366
 20
6.624212254307722
 30
0.0
 10
-54.33881133730359
 20
6.521352889930023
 30
0.0
 10
-55.42173664498808
 20
6.378231590081719
 30
0.0
 10
-56.50458178282009
 20
6.195774079286486
 30
0.0
 10
-57.58733314183354
 20
5.975099059328329
 30
0.0
 10
-58.6207592276221
 20
5.729266846905966
 30
0.0
 10
-59.29125784107251
 20
5.549487425944009
 30
0.0
 10
-59.60233011822785
 20
5.461872143940936
 30
0.0
  0
SPLINE
  5
3CC7
330
1F
100
AcDbEntity
  8
AM_0
 48
0.5
100
AcDbSpline
210
0.0
220
0.0
230
1.0
 70
     8
 71
     3
 72
    10
 73
     6
 74
     0
 42
0.0000000001
 43
0.0000000001
 40
0.0
 40
0.0
 40
0.0
 40
0.0
 40
2.69986029516136
 40
4.147722969032201
 40
6.285750005020438
 40
6.285750005020438
 40
6.285750005020438
 40
6.285750005020438
 10
-9.059050416487526
 20
1.212663701714329
 30
0.0
 10
-8.288230279273435
 20
0.5901874026276197
 30
0.0
 10
-7.104039973632367
 20
-0.3661062426499833
 30
0.0
 10
-4.303588975938039
 20
0.0968522638801614
 30
0.0
 10
-4.830995354943214
 20
1.656157772402365
 30
0.0
 10
-5.179471792815376
 20
2.606602505163683
 30
0.0
  0
SPLINE
  5
3CC8
330
1F
100
AcDbEntity
  8
AM_0
 48
0.5
100
AcDbSpline
210
0.0
220
0.0
230
1.0
 70
     8
 71
     3
 72
    25
 73
    21
 74
     0
 42
0.0000000001
 43
0.0000000001
 40
6.846175049578289
 40
6.846175049578289
 40
6.846175049578289
 40
6.846175049578289
 40
7.604337694224321
 40
8.711974558287883
 40
9.814980593243754
 40
10.91239053451967
 40
12.0033633515982
 40
13.08720139956839
 40
14.16337181880432
 40
15.23152222380919
 40
16.29148850140128
 40
17.34331105512262
 40
18.38723020264746
 40
19.42369128463655
 40
20.45333379090873
 40
21.47697865721768
 40
22.49561244472435
 40
23.5103574802404
 40
24.52244778960836
 40
25.53320666051913
 40
25.53320666051913
 40
25.53320666051913
 40
25.53320666051913
 10
-9.05922357044821
 20
1.2127432793195
 30
0.0
 10
-9.305252770871614
 20
1.330383363413375
 30
0.0
 10
-9.911235835026273
 20
1.618712401747075
 30
0.0
 10
-10.87807331818767
 20
2.071492785409828
 30
0.0
 10
-11.9599261366452
 20
2.565375740360823
 30
0.0
 10
-13.04183336218361
 20
3.043479270771591
 30
0.0
 10
-14.12380429040226
 20
3.502863727268713
 30
0.0
 10
-15.20585097712741
 20
3.940694938269599
 30
0.0
 10
-16.28798342789215
 20
4.35427284242952
 30
0.0
 10
-17.37020665239978
 20
4.741055704175584
 30
0.0
 10
-18.45253398086411
 20
5.098636450234838
 30
0.0
 10
-19.53496394768478
 20
5.424822382037627
 30
0.0
 10
-20.6175043277291
 20
5.717578102784739
 30
0.0
 10
-21.70015130066226
 20
5.975091792964557
 30
0.0
 10
-22.78290063711803
 20
6.195785077898686
 30
0.0
 10
-23.86574631210528
 20
6.378195100128827
 30
0.0
 10
-24.94867147698007
 20
6.521487017749588
 30
0.0
 10
-26.03166419680805
 20
6.623714571005355
 30
0.0
 10
-27.11470689135395
 20
6.688044056040945
 30
0.0
 10
-27.83691331786228
 20
6.696016044679756
 30
0.0
 10
-28.19777885313735
 20
6.699999415419407
 30
0.0
  0
SPLINE
  5
3CCA
330
1F
100
AcDbEntity
  8
AM_0
 48
0.5
100
AcDbSpline
210
0.0
220
0.0
230
1.0
 70
     8
 71
     3
 72
    17
 73
    13
 74
     0
 42
0.0000000001
 43
0.0000000001
 40
0.0
 40
0.0
 40
0.0
 40
0.0
 40
1.010743614677189
 40
2.022833924044153
 40
3.037578959561199
 40
4.056212747067873
 40
5.079857613375832
 40
6.109500119648989
 40
7.14596120163808
 40
8.18989512056258
 40
9.241717674284874
 40
9.693948937866434
 40
9.693948937866434
 40
9.693948937866434
 40
9.693948937866434
 10
-7.796128460450779
 20
6.699999415418846
 30
0.0
 10
-8.156988545260988
 20
6.696015950485047
 30
0.0
 10
-8.8791895176814
 20
6.688043713128064
 30
0.0
 10
-9.962226783194454
 20
6.623714601317762
 30
0.0
 10
-11.04521946069194
 20
6.521486915920937
 30
0.0
 10
-12.12814478526147
 20
6.378195479351277
 30
0.0
 10
-13.21098985957618
 20
6.195783652393988
 30
0.0
 10
-14.29374145775391
 20
5.975097161561364
 30
0.0
 10
-15.37638504744845
 20
5.717556638778487
 30
0.0
 10
-16.45896263957695
 20
5.424895913171743
 30
0.0
 10
-17.33284750153671
 20
5.161252838447087
 30
0.0
 10
-17.8460439292925
 20
4.996438003211108
 30
0.0
 10
-18.00007796357606
 20
4.94598928546431
 30
0.0
  0
SPLINE
  5
3CCB
330
1F
100
AcDbEntity
  8
AM_0
100
AcDbSpline
210
0.0
220
0.0
230
1.0
 70
     8
 71
     3
 72
    17
 73
    13
 74
     0
 42
0.0000000001
 43
0.0000000001
 40
1.580019955310467
 40
1.580019955310467
 40
1.580019955310467
 40
1.580019955310467
 40
2.030549285115227
 40
3.082371838836284
 40
4.126290986361125
 40
5.162752068350215
 40
6.192395305374981
 40
7.216039564037012
 40
8.234688489606833
 40
9.249433870634691
 40
10.26152376260694
 40
11.27226744710342
 40
11.27226744710342
 40
11.27226744710342
 40
11.27226744710352
 10
-56.55210335007535
 20
-4.944797876735369
 30
0.0
 10
-56.70533517470096
 20
-4.995725181014064
 30
0.0
 10
-57.21718094905076
 20
-5.162646223101319
 30
0.0
 10
-58.09102861830597
 20
-5.424467850153695
 30
0.0
 10
-59.17341822888354
 20
-5.717673339437665
 30
0.0
 10
-60.25610582030752
 20
-5.975068829653776
 30
0.0
 10
-61.33884302009898
 20
-6.195789928895441
 30
0.0
 10
-62.42169818216785
 20
-6.378231101227513
 30
0.0
 10
-63.50462815559259
 20
-6.521351235324921
 30
0.0
 10
-64.58762556090626
 20
-6.624222864830146
 30
0.0
 10
-65.67066371585738
 20
-6.686183793117367
 30
0.0
 10
-66.39286439431064
 20
-6.700000622917436
 30
0.0
 10
-66.7537244086878
 20
-6.700000584579676
 30
0.0
  0
SPLINE
  5
3CCC
330
1F
100
AcDbEntity
  8
AM_0
100
AcDbSpline
210
0.0
220
0.0
230
1.0
 70
     8
 71
     3
 72
    11
 73
     7
 74
     0
 42
0.0000000001
 43
0.0000000001
 40
11.27226913003534
 40
11.27226913003534
 40
11.27226913003534
 40
11.2722691300354
 40
12.28301561507924
 40
13.29510212255852
 40
14.30984805882082
 40
15.18258238371378
 40
15.18258238371378
 40
15.18258238371378
 40
15.18258238371378
 10
-66.75372440868788
 20
-6.700000584579676
 30
0.0
 10
-67.11321225563505
 20
-6.66720883757238
 30
0.0
 10
-67.83150988709104
 20
-6.587821445222824
 30
0.0
 10
-68.90524717921619
 20
-6.427677438428838
 30
0.0
 10
-69.92424280237965
 20
-6.236402981418954
 30
0.0
 10
-70.58326935759869
 20
-6.089364613622437
 30
0.0
 10
-70.88696756000762
 20
-6.016731721277023
 30
0.0
  0
SPLINE
  5
3CCD
330
1F
100
AcDbEntity
  8
AM_0
100
AcDbSpline
210
0.0
220
0.0
230
1.0
 70
     8
 71
     3
 72
    23
 73
    19
 74
     0
 42
0.0000000001
 43
0.0000000001
 40
16.03460024169435
 40
16.03460024169435
 40
16.03460024169435
 40
16.03460024169435
 40
16.35212704903564
 40
17.38177054169784
 40
18.41822485651776
 40
19.46214173629503
 40
20.51396345435107
 40
21.57393551351153
 40
22.64208202342361
 40
23.7182574881101
 40
24.80209208578934
 40
25.89306333925047
 40
26.99048218457928
 40
28.09348763352352
 40
29.20111863782268
 40
30.31232390128032
 40
31.42594612798585
 40
32.5407912310448
 40
32.5407912310486
 40
32.5407912310486
 40
32.5407912310486
 10
-64.10924570372015
 20
6.700951272012781
 30
0.0
 10
-63.99797684095426
 20
6.678333251880202
 30
0.0
 10
-63.52637050725375
 20
6.579838140183968
 30
0.0
 10
-62.69563087158812
 20
6.386852001064281
 30
0.0
 10
-61.61982086865145
 20
6.099883722669172
 30
0.0
 10
-60.54501012864816
 20
5.777666178800794
 30
0.0
 10
-59.47113514015446
 20
5.422064200254988
 30
0.0
 10
-58.398157789444
 20
5.035060276023012
 30
0.0
 10
-57.32601606099741
 20
4.618866683740422
 30
0.0
 10
-56.25463529493978
 20
4.175905565718067
 30
0.0
 10
-55.18395461156799
 20
3.708685384941032
 30
0.0
 10
-54.11388817052923
 20
3.219924786776511
 30
0.0
 10
-53.04434925490465
 20
2.71246465898925
 30
0.0
 10
-51.97526660436679
 20
2.189222684573104
 30
0.0
 10
-50.9065507700687
 20
1.653241443954232
 30
0.0
 10
-49.83810276629035
 20
1.107650674351408
 30
0.0
 10
-48.76983559120326
 20
0.555611926533712
 30
0.0
 10
-48.05784876527226
 20
0.1855001312886968
 30
0.0
 10
-47.70166118910732
 20
0.0003401950407887
 30
0.0
  0
SPLINE
  5
3CCE
330
1F
100
AcDbEntity
  8
AM_0
100
AcDbSpline
210
0.0
220
0.0
230
1.0
 70
     8
 71
     3
 72
    46
 73
    42
 74
     0
 42
0.0000000001
 43
0.0000000001
 40
0.0
 40
0.0
 40
0.0
 40
0.0
 40
1.348332046947657
 40
2.024828967632895
 40
2.703918159304097
 40
3.386347665078124
 40
4.072776489761952
 40
4.763750544421347
 40
5.459696642770596
 40
6.160921452191754
 40
6.867565637253344
 40
7.579665907256596
 40
8.297112853413899
 40
9.019671552060676
 40
9.746986763446127
 40
10.47859339096366
 40
11.21393074760089
 40
11.95235532364328
 40
12.69315551794651
 40
13.43556823304427
 40
14.1787950170388
 40
14.92202180103393
 40
15.66443451613169
 40
16.40523471043432
 40
17.14365928647669
 40
17.87899664311455
 40
18.61060327063121
 40
19.3379184820169
 40
20.06048192311554
 40
20.77792886927283
 40
21.49002913927608
 40
22.19667332433747
 40
22.89788836015233
 40
23.59383445850158
 40
24.28480851316097
 40
24.97123685067576
 40
25.65366676154838
 40
26.33276604526152
 40
27.00926273560555
 40
27.68398960851751
 40
28.357818684969
 40
28.357818684969
 40
28.357818684969
 40
28.357818684969
 10
-4.764357480028292
 20
-6.700000584581238
 30
0.0
 10
-5.486593432609565
 20
-6.684737466665088
 30
0.0
 10
-6.571195909842879
 20
-6.661816404035918
 30
0.0
 10
-8.013439121421846
 20
-6.520695632251451
 30
0.0
 10
-9.096375676864189
 20
-6.378408354503331
 30
0.0
 10
-10.17921966701082
 20
-6.195735659628875
 30
0.0
 10
-11.26196823927989
 20
-5.975106612617514
 30
0.0
 10
-12.34461583137965
 20
-5.717576008272398
 30
0.0
 10
-13.42716063003804
 20
-5.424821495001383
 30
0.0
 10
-14.50959781754835
 20
-5.098640628852916
 30
0.0
 10
-15.59192955744289
 20
-4.741056504520898
 30
0.0
 10
-16.67415293857842
 20
-4.354274111274195
 30
0.0
 10
-17.75628534745253
 20
-3.940696081434258
 30
0.0
 10
-18.83833204344506
 20
-3.502864899683042
 30
0.0
 10
-19.92030297698456
 20
-3.043480453311787
 30
0.0
 10
-21.00221017161467
 20
-2.565376852251485
 30
0.0
 10
-22.08406310922486
 20
-2.07149417172635
 30
0.0
 10
-23.16587231897377
 20
-1.564870050201644
 30
0.0
 10
-24.247649271123
 20
-1.048622462284135
 30
0.0
 10
-25.32940384777562
 20
-0.5259259677492914
 30
0.0
 10
-26.4111493310083
 20
-0.0000005846870546
 30
0.0
 10
-27.49289481400332
 20
0.5259247990142882
 30
0.0
 10
-28.57464939136878
 20
1.048621291632752
 30
0.0
 10
-29.65642634091254
 20
1.564868886553777
 30
0.0
 10
-30.73823556032264
 20
2.071492982104976
 30
0.0
 10
-31.82008846211006
 20
2.565375758937276
 30
0.0
 10
-32.90199578940402
 20
3.043479003338238
 30
0.0
 10
-33.98396858438067
 20
3.502865767677913
 30
0.0
 10
-35.06601948468466
 20
3.9406929715109
 30
0.0
 10
-36.14815382391713
 20
4.354273122037339
 30
0.0
 10
-37.23037717985539
 20
4.741055630372374
 30
0.0
 10
-38.31270447365414
 20
5.098636468811877
 30
0.0
 10
-39.39513444910804
 20
5.424822380702045
 30
0.0
 10
-40.47767482889118
 20
5.717578089907284
 30
0.0
 10
-41.56032179441136
 20
5.975091845248247
 30
0.0
 10
-42.64307116048544
 20
6.195784883377373
 30
0.0
 10
-43.72592206142597
 20
6.378196719301195
 30
0.0
 10
-44.80885303677079
 20
6.521485672977741
 30
0.0
 10
-45.89185101252808
 20
6.623714796385627
 30
0.0
 10
-46.97488830030626
 20
6.68804366449121
 30
0.0
 10
-47.69708926976396
 20
6.696015934280718
 30
0.0
 10
-48.05794935309367
 20
6.69999941541995
 30
0.0
  0
ELLIPSE
  5
3CCF
330
1F
100
AcDbEntity
  8
AM_0
 48
0.5
100
AcDbEllipse
 10
-19.90251556268616
 20
45.99037667976925
 30
0.0
 11
0.0100309725528862
 21
50.23270410193651
 31
0.0
210
0.0
220
0.0
230
1.0
 40
0.9850814331270637
 41
3.480654934520239
 42
3.555721160751021
  0
ELLIPSE
  5
3CD0
330
1F
100
AcDbEntity
  8
AM_0
 48
0.5
100
AcDbEllipse
 10
-13.11315099232035
 20
11.24502835625507
 30
0.0
 11
-0.0000000000097091
 21
16.15440986951119
 31
0.0
210
0.0
220
0.0
230
1.0
 40
0.959116579265793
 41
3.652175978817569
 42
3.740670756497072
  0
ELLIPSE
  5
3CD1
330
1F
100
AcDbEntity
  8
AM_0
 48
0.5
100
AcDbEllipse
 10
2.112920074665043
 20
8.043761622449794
 30
0.0
 11
0.000000000000376
 21
13.50347986221288
 31
0.0
210
0.0
220
0.0
230
1.0
 40
0.9591165792658339
 41
2.10116388002899
 42
2.509284810223885
  0
ELLIPSE
  5
3CD2
330
1F
100
AcDbEntity
  8
AM_0
 48
0.5
100
AcDbEllipse
 10
-3.903882710023265
 20
-1.746117032030432
 30
0.0
 11
-0.9205640898524096
 21
0.5702144333026834
 31
0.0
210
0.0
220
0.0
230
1.0
 40
0.5099726348866324
 41
4.508769477276159
 42
7.652209818605665
  0
ELLIPSE
  5
3CD3
330
1F
100
AcDbEntity
  8
AM_0
 48
0.5
100
AcDbEllipse
 10
-3.903882710023265
 20
-1.746117032030432
 30
0.0
 11
-0.1812605276371235
 21
1.100521845975257
 31
0.0
210
0.0
220
0.0
230
1.0
 40
0.4806880044561312
 41
1.814790149016328
 42
4.950132038728304
  0
ELLIPSE
  5
3CD4
330
1F
100
AcDbEntity
  8
AM_0
 48
0.5
100
AcDbEllipse
 10
4.657214521661051
 20
-1.489318287828149
 30
0.0
 11
10.16831319500898
 21
1.593303176745282
 31
0.0
210
0.0
220
0.0
230
1.0
 40
0.6617925640189246
 41
3.107016559730861
 42
3.76246301058824
  0
LINE
  5
3CD5
330
1F
100
AcDbEntity
  8
AM_11
 48
0.5
100
AcDbLine
 10
-106.2493088532296
 20
6.699999415421333
 30
0.0
 11
-89.64580643195553
 21
6.699999415420952
 31
0.0
  0
LINE
  5
3CD6
330
1F
100
AcDbEntity
  8
AM_0
 48
0.5
100
AcDbLine
 10
-94.8529975941504
 20
3.511477650105818
 30
0.0
 11
-112.504171295795
 21
-0.2164066678928178
 31
0.0
  0
LINE
  5
3CD7
330
1F
100
AcDbEntity
  8
AM_11
 48
0.5
100
AcDbLine
 10
-109.8890155749512
 20
-6.700340779621139
 30
0.0
 11
-89.64580643195581
 21
-6.700000584579054
 31
0.0
  0
SPLINE
  5
3CD8
330
1F
100
AcDbEntity
  8
AM_0
100
AcDbSpline
210
0.0
220
0.0
230
1.0
 70
     8
 71
     3
 72
    23
 73
    19
 74
     0
 42
0.0000000001
 43
0.0000000001
 40
16.03460024169435
 40
16.03460024169435
 40
16.03460024169435
 40
16.03460024169435
 40
16.35212704903564
 40
17.38177054169784
 40
18.41822485651776
 40
19.46214173629503
 40
20.51396345435107
 40
21.57393551351153
 40
22.64208202342361
 40
23.7182574881101
 40
24.80209208578934
 40
25.89306333925047
 40
26.99048218457928
 40
28.09348763352352
 40
29.20111863782268
 40
30.31232390128032
 40
31.42594612798585
 40
32.5407912310448
 40
32.5407912310486
 40
32.5407912310486
 40
32.5407912310486
 10
-106.2529751105912
 20
6.700611076971131
 30
0.0
 10
-106.1173707653232
 20
6.677993056838544
 30
0.0
 10
-105.5426199633825
 20
6.57949794514231
 30
0.0
 10
-104.530190236122
 20
6.386511806022645
 30
0.0
 10
-103.2190910889331
 20
6.099543527627527
 30
0.0
 10
-101.909209752302
 20
5.77732598375916
 30
0.0
 10
-100.6004688242958
 20
5.421724005213369
 30
0.0
 10
-99.29282185537992
 20
5.034720080981404
 30
0.0
 10
-97.98619326669346
 20
4.618526488698827
 30
0.0
 10
-96.68049206958759
 20
4.175565370676507
 30
0.0
 10
-95.37564406943088
 20
3.708345189899453
 30
0.0
 10
-94.07154465182768
 20
3.219584591734939
 30
0.0
 10
-92.76808813410342
 20
2.712124463947698
 30
0.0
 10
-91.46518767066796
 20
2.188882489531565
 30
0.0
 10
-90.16273424942189
 20
1.652901248912682
 30
0.0
 10
-88.86060723559445
 20
1.107310479309901
 30
0.0
 10
-87.55870059928936
 20
0.5552717314921939
 30
0.0
 10
-86.69099596953158
 20
0.1851599362471824
 30
0.0
 10
-86.25690702624753
 20
-0.0000000000007088
 30
0.0
  0
SPLINE
  5
3CD9
330
1F
100
AcDbEntity
  8
AM_0
 48
0.5
100
AcDbSpline
210
0.0
220
0.0
230
1.0
 70
     8
 71
     3
 72
    26
 73
    22
 74
     0
 42
0.0000000001
 43
0.0000000001
 40
0.0
 40
0.0
 40
0.0
 40
0.0
 40
0.4211432018735474
 40
0.8428473235286537
 40
1.265657898956934
 40
1.690088643751428
 40
2.116607084860617
 40
2.545625100287603
 40
2.977483884449724
 40
3.412450195918404
 40
3.850709593302191
 40
4.292362208965671
 40
4.737427885281768
 40
5.185826256336565
 40
5.637431371058531
 40
6.092003378174421
 40
6.549257520372505
 40
7.008843368271169
 40
7.470358728297647
 40
7.933358849736796
 40
8.383035712276667
 40
8.383035712276667
 40
8.383035712276667
 40
8.383035712276667
 10
-86.69111855679778
 20
-6.700340779621552
 30
0.0
 10
-87.13090184763155
 20
-6.69635444211267
 30
0.0
 10
-88.01105417577742
 20
-6.688376457700039
 30
0.0
 10
-89.33096236283251
 20
-6.624064941508064
 30
0.0
 10
-90.65081421181526
 20
-6.521826444925364
 30
0.0
 10
-91.97058436047928
 20
-6.378535252105073
 30
0.0
 10
-93.29025970836681
 20
-6.196133458721225
 30
0.0
 10
-94.60981396242544
 20
-5.975431327368885
 30
0.0
 10
-95.92924624481446
 20
-5.717920007280417
 30
0.0
 10
-97.24854755703496
 20
-5.425163492520978
 30
0.0
 10
-98.56771478013071
 20
-5.098978288350492
 30
0.0
 10
-99.88675877089718
 20
-4.74139459861075
 30
0.0
 10
-101.2056740636472
 20
-4.354620387324501
 30
0.0
 10
-102.5244756020621
 20
-3.941028223413581
 30
0.0
 10
-103.8431810194277
 20
-3.50320962772242
 30
0.0
 10
-105.1617931649707
 20
-3.043820520679769
 30
0.0
 10
-106.4803218682518
 20
-2.565714981651729
 30
0.0
 10
-107.7987913424992
 20
-2.071842818590435
 30
0.0
 10
-109.1171797985413
 20
-1.565178332890395
 30
0.0
 10
-110.3502705148136
 20
-1.054409000660907
 30
0.0
 10
-111.1807721803377
 20
-0.8524785753834702
 30
0.0
 10
-112.504171295795
 20
-0.2164066678928178
 30
0.0
  0
ELLIPSE
  5
3CDA
330
1F
100
AcDbEntity
  8
AM_0
 48
0.5
100
AcDbEllipse
 10
-110.4416475519233
 20
-4.424733601573825
 30
0.0
 11
2.038356540051952
 21
0.3556864886450082
 31
0.0
210
0.0
220
0.0
230
0.9999999999999996
 40
0.818728257131891
 41
1.030383405444952
 42
2.973593341110746
  0
ELLIPSE
  5
3CDB
330
1F
100
AcDbEntity
  8
AM_0
 48
0.5
100
AcDbEllipse
 10
-109.8890147554699
 20
-4.467007446287919
 30
0.0
 11
-2.611219454135524
 21
0.0022417654889042
 31
0.0
210
0.0
220
0.0
230
1.0
 40
0.8552832608444647
 41
0.0141480313799825
 42
1.571530284512884
  0
SPLINE
  5
3CDC
330
1F
100
AcDbEntity
  8
AM_0
 48
0.5
100
AcDbSpline
210
0.0
220
0.0
230
1.0
 70
     8
 71
     3
 72
    19
 73
    15
 74
     0
 42
0.0000000001
 43
0.0000000001
 40
3.111699631838226
 40
3.111699631838226
 40
3.111699631838226
 40
3.111699631838226
 40
4.056212471389632
 40
5.079857945358201
 40
6.109499720892564
 40
7.145961650132166
 40
8.189873411961459
 40
9.241710626092514
 40
10.30166235592959
 40
11.36982472628033
 40
12.44598212828784
 40
13.52983440361964
 40
14.62080578343036
 40
14.90544694398022
 40
14.90544694398022
 40
14.90544694398022
 40
14.90544694398022
 10
-94.10849362879957
 20
-6.700058776390855
 30
0.0
 10
-94.92227616291009
 20
-6.59834544044721
 30
0.0
 10
-95.69727334915281
 20
-6.470884931007722
 30
0.0
 10
-97.0998010224272
 20
-6.263343163814404
 30
0.0
 10
-98.30466210960588
 20
-5.975436019235576
 30
0.0
 10
-99.6240886471358
 20
-5.717915341450467
 30
0.0
 10
-100.9433920028486
 20
-5.425154588176872
 30
0.0
 10
-102.2625602944758
 20
-5.098981708615291
 30
0.0
 10
-103.5816004158612
 20
-4.741381827651971
 30
0.0
 10
-104.9005208699674
 20
-4.354630516826121
 30
0.0
 10
-106.2193206661302
 20
-3.941026996308211
 30
0.0
 10
-107.5380245105101
 20
-3.503206107784322
 30
0.0
 10
-108.5291226064244
 20
-3.157936966715118
 30
0.0
 10
-109.0813970511946
 20
-2.960592224057916
 30
0.0
 10
-109.6426452602011
 20
-2.810695043130151
 30
0.0
  0
SPLINE
  5
3CDD
330
1F
100
AcDbEntity
  8
AM_0
100
AcDbSpline
210
0.0
220
0.0
230
1.0
 70
     8
 71
     3
 72
    13
 73
     9
 74
     0
 42
0.0000000001
 43
0.0000000001
 40
16.03460056234195
 40
16.03460056234195
 40
16.03460056234195
 40
16.03460056234195
 40
16.35212717791071
 40
17.38177067057215
 40
18.41822498539278
 40
19.46214186516937
 40
20.5139635832251
 40
21.34083983469381
 40
21.34083983469381
 40
21.34083983469381
 40
21.34083983469381
 10
-109.6515904218496
 20
-6.70095011509273
 30
0.0
 10
-109.5159860216288
 20
-6.678332761081493
 30
0.0
 10
-108.9412347440937
 20
-6.57984035177355
 30
0.0
 10
-107.9288055687242
 20
-6.386851959495429
 30
0.0
 10
-106.6177062565394
 20
-6.099884476794627
 30
0.0
 10
-105.3078249645924
 20
-5.777666717438805
 30
0.0
 10
-104.0957538588367
 20
-5.448331247478562
 30
0.0
 10
-103.322473837821
 20
-5.221560338821972
 30
0.0
 10
-102.6217578950976
 20
-4.999482675304419
 30
0.0
  0
SPLINE
  5
3CDE
330
1F
100
AcDbEntity
  8
AM_0
100
AcDbSpline
210
0.0
220
0.0
230
1.0
 70
     8
 71
     3
 72
    46
 73
    42
 74
     0
 42
0.0000000001
 43
0.0000000001
 40
0.0
 40
0.0
 40
0.0
 40
0.0
 40
1.348332046947654
 40
2.024828967632893
 40
2.703918159304094
 40
3.386347665078122
 40
4.072776489761951
 40
4.763750544421345
 40
5.459696642770595
 40
6.160921452191748
 40
6.867565637253344
 40
7.579665907256597
 40
8.297112853413899
 40
9.019671552060666
 40
9.746986763446125
 40
10.47859339096365
 40
11.21393074760088
 40
11.95235532364327
 40
12.69315551794651
 40
13.43556823304427
 40
14.1787950170388
 40
14.92202180103393
 40
15.66443451613169
 40
16.40523471043432
 40
17.14365928647669
 40
17.87899664311455
 40
18.61060327063121
 40
19.33791848201689
 40
20.06048192311554
 40
20.77792886927282
 40
21.49002913927608
 40
22.19667332433747
 40
22.89788836015233
 40
23.59383445850157
 40
24.28480851316097
 40
24.97123685067575
 40
25.65366676154837
 40
26.33276604526151
 40
27.00926273560554
 40
27.68398960851752
 40
28.35781868496899
 40
28.35781868496899
 40
28.35781868496899
 40
28.35781868496899
 10
-43.32030303557848
 20
-6.700000584580317
 30
0.0
 10
-44.04253898815975
 20
-6.684737466664172
 30
0.0
 10
-45.12714146539306
 20
-6.661816404034999
 30
0.0
 10
-46.56938467697202
 20
-6.520695632250535
 30
0.0
 10
-47.65232123241438
 20
-6.378408354502416
 30
0.0
 10
-48.73516522256102
 20
-6.195735659627954
 30
0.0
 10
-49.81791379483011
 20
-5.975106612616596
 30
0.0
 10
-50.90056138692986
 20
-5.717576008271479
 30
0.0
 10
-51.98310618558822
 20
-5.424821495000463
 30
0.0
 10
-53.06554337309856
 20
-5.09864062885199
 30
0.0
 10
-54.14787511299312
 20
-4.741056504519979
 30
0.0
 10
-55.23009849412862
 20
-4.354274111273277
 30
0.0
 10
-56.31223090300274
 20
-3.940696081433344
 30
0.0
 10
-57.39427759899525
 20
-3.502864899682113
 30
0.0
 10
-58.47624853253478
 20
-3.043480453310881
 30
0.0
 10
-59.55815572716492
 20
-2.565376852250555
 30
0.0
 10
-60.64000866477505
 20
-2.07149417172544
 30
0.0
 10
-61.72181787452397
 20
-1.564870050200718
 30
0.0
 10
-62.80359482667316
 20
-1.048622462283221
 30
0.0
 10
-63.88534940332583
 20
-0.5259259677483722
 30
0.0
 10
-64.96709488655852
 20
-0.0000005846861347
 30
0.0
 10
-66.04884036955354
 20
0.5259247990152055
 30
0.0
 10
-67.13059494691901
 20
1.04862129163367
 30
0.0
 10
-68.2123718964628
 20
1.564868886554695
 30
0.0
 10
-69.2941811158729
 20
2.071492982105892
 30
0.0
 10
-70.37603401766031
 20
2.565375758938197
 30
0.0
 10
-71.45794134495417
 20
3.043479003339156
 30
0.0
 10
-72.53991413993083
 20
3.502865767678832
 30
0.0
 10
-73.62196504023483
 20
3.940692971511818
 30
0.0
 10
-74.70409937946732
 20
4.354273122038256
 30
0.0
 10
-75.7863227354056
 20
4.741055630373296
 30
0.0
 10
-76.86865002920433
 20
5.098636468812796
 30
0.0
 10
-77.95108000465828
 20
5.424822380702964
 30
0.0
 10
-79.03362038444142
 20
5.717578089908202
 30
0.0
 10
-80.11626734996159
 20
5.975091845249162
 30
0.0
 10
-81.19901671603567
 20
6.195784883378292
 30
0.0
 10
-82.28186761697617
 20
6.378196719302111
 30
0.0
 10
-83.36479859232101
 20
6.52148567297866
 30
0.0
 10
-84.44779656807829
 20
6.62371479638655
 30
0.0
 10
-85.53083385585649
 20
6.688043664492126
 30
0.0
 10
-86.25303482531419
 20
6.696015934281638
 30
0.0
 10
-86.61389490864388
 20
6.699999415420871
 30
0.0
  0
SPLINE
  5
3CDF
330
1F
100
AcDbEntity
  8
AM_0
100
AcDbSpline
210
0.0
220
0.0
230
1.0
 70
     8
 71
     3
 72
    22
 73
    18
 74
     0
 42
0.0000000001
 43
0.0000000001
 40
17.17441611292
 40
17.17441611292
 40
17.17441611292
 40
17.17441611292
 40
17.38177636558528
 40
18.41823744757437
 40
19.46215659509824
 40
20.51397914882054
 40
21.57394542641293
 40
22.64209583141747
 40
23.71826625065247
 40
24.80210429862395
 40
25.8930771157021
 40
26.99048705697709
 40
28.09349309193389
 40
29.20112995599786
 40
30.31233024745139
 40
31.42594771747373
 40
32.5407895042663
 40
32.54078950426994
 40
32.54078950426994
 40
32.54078950426994
 10
-70.88744120993253
 20
-6.016649076828253
 30
0.0
 10
-70.95996298876109
 20
-6.001139233976111
 30
0.0
 10
-71.3946914463882
 20
-5.906667085896092
 30
0.0
 10
-72.19108948391
 20
-5.717238133171827
 30
0.0
 10
-73.27362978162018
 20
-5.424482868890423
 30
0.0
 10
-74.3560597707464
 20
-5.098296813387388
 30
0.0
 10
-75.43838709318369
 20
-4.740716100900011
 30
0.0
 10
-76.52061031925298
 20
-4.353933229885557
 30
0.0
 10
-77.6027427698672
 20
-3.940355328880633
 30
0.0
 10
-78.68478945560379
 20
-3.502524114595832
 30
0.0
 10
-79.76676038796767
 20
-3.043139668139271
 30
0.0
 10
-80.84866759778947
 20
-2.565036100566629
 30
0.0
 10
-81.9305204753712
 20
-2.071153285173115
 30
0.0
 10
-83.01232991131115
 20
-1.564529672495201
 30
0.0
 10
-84.09410549490837
 20
-1.048280424285903
 30
0.0
 10
-85.17586325172732
 20
-0.5255910774435196
 30
0.0
 10
-85.89689353221123
 20
-0.1750344198689955
 30
0.0
 10
-86.25760674466233
 20
0.0003401950441144
 30
0.0
  0
SPLINE
  5
3CE0
330
1F
100
AcDbEntity
  8
AM_0
100
AcDbSpline
210
0.0
220
0.0
230
1.0
 70
     8
 71
     3
 72
    55
 73
    51
 74
     0
 42
0.0000000001
 43
0.0000000001
 40
0.0
 40
0.0
 40
0.0
 40
0.0
 40
1.010743684496582
 40
2.022833576467832
 40
3.037578957496688
 40
4.056212745003489
 40
5.079857003664532
 40
6.109500240690281
 40
7.145961322679372
 40
8.189895241603872
 40
9.241717795325891
 40
10.30168407291828
 40
11.36983447792315
 40
12.44600489715814
 40
13.52984294512926
 40
14.62081576220742
 40
15.7182257034828
 40
16.82123173843959
 40
17.92886860250316
 40
19.0400688939571
 40
20.15368796660465
 40
21.26852814259644
 40
22.38336992938901
 40
23.49698739941135
 40
24.6081876908653
 40
25.71582455492886
 40
26.81883757994213
 40
27.91624752121713
 40
29.00722033829659
 40
30.09105838626677
 40
31.16722880550176
 40
32.23537921050758
 40
33.29534548809967
 40
34.347168041821
 40
35.39108718934584
 40
36.42754827133493
 40
37.45720575381954
 40
38.48085062012849
 40
39.49948440763516
 40
40.51422944315121
 40
41.52631975251916
 40
42.53706336719636
 40
43.54780698187354
 40
44.55989729124051
 40
45.57464232675757
 40
46.59327611426424
 40
47.6169209805722
 40
48.64656348684535
 40
49.68302456883444
 40
50.58557219878025
 40
50.58557219878025
 40
50.58557219878025
 40
50.58557219878025
 10
-46.35207401600132
 20
-6.700000584580237
 30
0.0
 10
-46.71293403513931
 20
-6.696014246897645
 30
0.0
 10
-47.43513470214693
 20
-6.688036262137369
 30
0.0
 10
-48.5181728800699
 20
-6.623724748557591
 30
0.0
 10
-49.60116482717658
 20
-6.521486242007412
 30
0.0
 10
-50.68408974771426
 20
-6.378195086654156
 30
0.0
 10
-51.76693683579689
 20
-6.195793152379113
 30
0.0
 10
-52.84968472927253
 20
-5.975091551516274
 30
0.0
 10
-53.93233704988485
 20
-5.717577008713764
 30
0.0
 10
-55.01488419669581
 20
-5.424826419820451
 30
0.0
 10
-56.09731879558637
 20
-5.098637255692732
 30
0.0
 10
-57.17964624189459
 20
-4.741056971995234
 30
0.0
 10
-58.26186943430921
 20
-4.354273984578273
 30
0.0
 10
-59.34400189434214
 20
-3.940696115788097
 30
0.0
 10
-60.42604857639894
 20
-3.502864890240105
 30
0.0
 10
-61.50801951401483
 20
-3.043480456404596
 30
0.0
 10
-62.58992670639392
 20
-2.565376849380717
 30
0.0
 10
-63.67177964893133
 20
-2.071494180144231
 30
0.0
 10
-64.75358884113319
 20
-1.564870019236038
 30
0.0
 10
-65.83536585881756
 20
-1.048622578176573
 30
0.0
 10
-66.91712019019863
 20
-0.5259255340743635
 30
0.0
 10
-67.9988671113232
 20
-0.0000019516230203
 30
0.0
 10
-69.08060917630916
 20
0.5259310977805669
 30
0.0
 10
-70.16236713349499
 20
1.048620002107235
 30
0.0
 10
-71.24414281571114
 20
1.564869005818312
 30
0.0
 10
-72.32595393676684
 20
2.071495096738744
 30
0.0
 10
-73.40781136734921
 20
2.56537355109381
 30
0.0
 10
-74.48972026726359
 20
3.043479582768199
 30
0.0
 10
-75.57169136108007
 20
3.502863644090296
 30
0.0
 10
-76.65373800376468
 20
3.940694961712548
 30
0.0
 10
-77.73587046656856
 20
4.354272831107702
 30
0.0
 10
-78.81809368654828
 20
4.741055726039014
 30
0.0
 10
-79.90042102114846
 20
5.098636374858882
 30
0.0
 10
-80.98285096813274
 20
5.424822658740465
 30
0.0
 10
-82.06539142063997
 20
5.717577081936092
 30
0.0
 10
-83.14804333964447
 20
5.975096803032097
 30
0.0
 10
-84.23079896430298
 20
6.195773196708453
 30
0.0
 10
-85.3136496298064
 20
6.37823158823807
 30
0.0
 10
-86.39657487137148
 20
6.521352890421617
 30
0.0
 10
-87.47956757097387
 20
6.624212254178305
 30
0.0
 10
-88.5626048306095
 20
6.686192624295506
 30
0.0
 10
-89.64566588933211
 20
6.706898215080039
 30
0.0
 10
-90.72872694646118
 20
6.6861926242631
 30
0.0
 10
-91.81176421088682
 20
6.624212254308645
 30
0.0
 10
-92.89475689285382
 20
6.521352889930942
 30
0.0
 10
-93.97768220053832
 20
6.378231590082643
 30
0.0
 10
-95.0605273383703
 20
6.195774079287403
 30
0.0
 10
-96.14327869738373
 20
5.975099059329246
 30
0.0
 10
-97.17670478317231
 20
5.729266846906881
 30
0.0
 10
-97.84720339662271
 20
5.549487425944924
 30
0.0
 10
-99.30058246278139
 20
5.032186658920391
 30
0.0
  0
LINE
  5
3CE1
330
1F
100
AcDbEntity
  8
AM_0
 48
0.5
100
AcDbLine
 10
-89.64581460317846
 20
-6.700000584578953
 30
0.0
 11
-66.7537214028536
 21
-6.700000584579518
 31
0.0
  0
LINE
  5
3CE2
330
1F
100
AcDbEntity
  8
AM_0
100
AcDbLine
 10
-89.64580643195553
 20
6.699999415420952
 30
0.0
 11
-64.10924570372015
 21
6.700951272012783
 31
0.0
  0
DIMENSION
  5
3D6F
330
1F
100
AcDbEntity
  8
AM_5
100
AcDbDimension
  2
*D9
 10
-0.5873037318976897
 20
-1.613591571338162
 30
0.0
 11
33.66175207823762
 21
-0.0000408445108613
 31
0.0
 70
    34
  1
<>
 51
359.9999999999998
  3
AM_JIS$2
100
AcDb2LineAngularDimension
 13
-0.0000000000000284
 23
-0.0000000000000106
 33
0.0
 14
-0.5872917675983729
 24
1.613570883515823
 34
0.0
 15
-0.0000000000000284
 25
0.0
 35
0.0
 16
33.75522108407366
 26
-14.56061349768409
 36
0.0
1001
GENIUS_GENDTOL_13
1000

1000
h7
1000

1040
0.0
1001
ACAD
1000
DSTYLE
1002
{
1070
   271
1070
     0
1002
}
  0
ELLIPSE
  5
3E7A
330
1F
100
AcDbEntity
  8
AM_11
 48
0.5
100
AcDbEllipse
 10
3.310487223358705
 20
27.82689745097787
 30
0.0
 11
-31.07765833536794
 21
0.0000000000288672
 31
0.0
210
0.0
220
0.0
230
1.0
 40
0.9899999999999861
 41
1.130070686341231
 42
1.291800737381917
  0
ELLIPSE
  5
3E7B
330
1F
100
AcDbEntity
  8
AM_11
 48
0.5
100
AcDbEllipse
 10
-23.20466429179299
 20
-27.82687566608721
 30
0.0
 11
-31.07765833536737
 21
0.0000000000017409
 31
0.0
210
0.0
220
0.0
230
1.0
 40
0.9900000000000009
 41
4.271664206181739
 42
5.153113667165048
  0
ELLIPSE
  5
3E7C
330
1F
100
AcDbEntity
  8
AM_11
 48
0.5
100
AcDbEllipse
 10
-23.20466429179279
 20
27.82689745097796
 30
0.0
 11
-31.0776583353674
 21
0.0000000000010094
 31
0.0
210
0.0
220
0.0
230
1.0
 40
0.9899999999999995
 41
1.130070686340335
 42
2.011520147323624
  0
ELLIPSE
  5
3E7D
330
1F
100
AcDbEntity
  8
AM_11
 48
0.5
100
AcDbEllipse
 10
-49.71981580694446
 20
-27.82687566608716
 30
0.0
 11
-31.07765833536731
 21
0.000000000001451
 31
0.0
210
0.0
220
0.0
230
1.0
 40
0.9900000000000032
 41
4.271664206181728
 42
5.153113667165039
  0
ELLIPSE
  5
3E7E
330
1F
100
AcDbEntity
  8
AM_11
 48
0.5
100
AcDbEllipse
 10
-76.23490313694005
 20
27.82689745097772
 30
0.0
 11
-31.0776583353674
 21
0.0000000000010094
 31
0.0
210
0.0
220
0.0
230
1.0
 40
0.9899999999999995
 41
1.130070686340335
 42
2.011520147323624
  0
ELLIPSE
  5
3E7F
330
1F
100
AcDbEntity
  8
AM_11
 48
0.5
100
AcDbEllipse
 10
-76.23490313694024
 20
-27.82687566608745
 30
0.0
 11
-31.07765833536737
 21
0.0000000000017409
 31
0.0
210
0.0
220
0.0
230
1.0
 40
0.9900000000000009
 41
4.271664206181739
 42
5.153113667165048
  0
ELLIPSE
  5
3E80
330
1F
100
AcDbEntity
  8
AM_11
 48
0.5
100
AcDbEllipse
 10
-49.71981580694436
 20
27.82689745097802
 30
0.0
 11
-31.0776583353674
 21
0.000000000000133
 31
0.0
210
0.0
220
0.0
230
1.0
 40
0.9900000000000002
 41
1.130070686340306
 42
2.011520147323597
  0
ELLIPSE
  5
3E81
330
1F
100
AcDbEntity
  8
AM_11
 48
0.5
100
AcDbEllipse
 10
-129.2651992383652
 20
27.82692418676167
 30
0.0
 11
-31.0776583353674
 21
0.0000000000010094
 31
0.0
210
0.0
220
0.0
230
1.0
 40
0.9899999999999995
 41
1.130070686340335
 42
2.011520147323624
  0
ELLIPSE
  5
3E82
330
1F
100
AcDbEntity
  8
AM_11
 48
0.5
100
AcDbEllipse
 10
-129.2651992383654
 20
-27.82684893030351
 30
0.0
 11
-31.07765833536737
 21
0.0000000000017409
 31
0.0
210
0.0
220
0.0
230
1.0
 40
0.9900000000000009
 41
4.271664206181739
 42
5.153113667165048
  0
ELLIPSE
  5
3E83
330
1F
100
AcDbEntity
  8
AM_11
 48
0.5
100
AcDbEllipse
 10
-102.7500546520917
 20
-27.8268756660874
 30
0.0
 11
-31.07765833536731
 21
0.000000000001451
 31
0.0
210
0.0
220
0.0
230
1.0
 40
0.9900000000000032
 41
4.271664206181728
 42
5.153113667165039
  0
ELLIPSE
  5
3E84
330
1F
100
AcDbEntity
  8
AM_11
 48
0.5
100
AcDbEllipse
 10
-102.7500546520916
 20
27.82689745097778
 30
0.0
 11
-31.0776583353674
 21
0.000000000000133
 31
0.0
210
0.0
220
0.0
230
1.0
 40
0.9900000000000002
 41
1.130070686340306
 42
2.011520147323597
  0
ELLIPSE
  5
3E85
330
1F
100
AcDbEntity
  8
AM_11
 48
0.5
100
AcDbEllipse
 10
-182.2954953397904
 20
27.82695092254561
 30
0.0
 11
-31.0776583353674
 21
0.0000000000010094
 31
0.0
210
0.0
220
0.0
230
1.0
 40
0.9899999999999995
 41
1.677036728370183
 42
2.011520147323624
  0
ELLIPSE
  5
3E86
330
1F
100
AcDbEntity
  8
AM_11
 48
0.5
100
AcDbEllipse
 10
-182.2954953397906
 20
-27.82682219451956
 30
0.0
 11
-31.07765833536737
 21
0.0000000000017409
 31
0.0
210
0.0
220
0.0
230
1.0
 40
0.9900000000000009
 41
4.271664206181739
 42
4.606148578809484
  0
ELLIPSE
  5
3E87
330
1F
100
AcDbEntity
  8
AM_11
 48
0.5
100
AcDbEllipse
 10
-155.7803507535169
 20
-27.82684893030346
 30
0.0
 11
-31.07765833536731
 21
0.000000000001451
 31
0.0
210
0.0
220
0.0
230
1.0
 40
0.9900000000000032
 41
4.271664206181728
 42
5.153113667165039
  0
ELLIPSE
  5
3E88
330
1F
100
AcDbEntity
  8
AM_11
 48
0.5
100
AcDbEllipse
 10
-155.7803507535168
 20
27.82692418676173
 30
0.0
 11
-31.0776583353674
 21
0.000000000000133
 31
0.0
210
0.0
220
0.0
230
1.0
 40
0.9900000000000002
 41
1.130070686340306
 42
2.011520147323597
  0
VIEWPORT
  5
110
330
101
100
AcDbEntity
 67
     1
  8
0
100
AcDbViewport
 10
420.5
 20
297.0
 30
0.0
 40
948.9782706766916
 41
628.452
 68
     1
 69
     1
1001
ACAD
1000
MVIEW
1002
{
1070
    16
1010
0.0
1020
0.0
1030
0.0
1010
0.0
1020
0.0
1030
1.0
1040
0.0
1040
628.452
1040
420.5
1040
297.0
1040
50.0
1040
0.0
1040
0.0
1070
     0
1070
   100
1070
     1
1070
     1
1070
     0
1070
     0
1070
     0
1070
     0
1040
0.0
1040
0.0
1040
0.0
1040
10.0
1040
10.0
1040
10.0
1040
10.0
1070
     0
1002
{
1002
}
1002
}
  0
ENDSEC
  0
SECTION
  2
OBJECTS
  0
DICTIONARY
  5
C
330
0
100
AcDbDictionary
  3
ACAD_GROUP
350
D
  3
ACAD_LAYOUT
350
1A
  3
ACAD_MLINESTYLE
350
17
  3
ACAD_PLOTSETTINGS
350
19
  3
ACAD_PLOTSTYLENAME
350
E
  3
ACDBVARIABLEDICTIONARY
350
34
  3
ACMDICTIONARY
350
43
  3
AMG
350
2B
  3
AMGSNAPSETTINGS
350
6E
  3
DWGPROPS
350
3EA2
  3
ACDBHEADERROUNDTRIPXREC
350
3EAF
  0
DICTIONARY
  5
74
330
1F
100
AcDbDictionary
280
     1
  3
ACAD_INDEX
360
3EA4
  3
ACAD_LAYOUTSELFREF
360
3ED2
  0
DICTIONARY
  5
3ED7
330
101
100
AcDbDictionary
280
     1
  3
ACAD_LAYOUTSELFREF
360
3ED8
  0
DICTIONARY
  5
D
102
{ACAD_REACTORS
330
C
102
}
330
C
100
AcDbDictionary
  0
DICTIONARY
  5
1A
102
{ACAD_REACTORS
330
C
102
}
330
C
100
AcDbDictionary
  0
DICTIONARY
  5
17
102
{ACAD_REACTORS
330
C
102
}
330
C
100
AcDbDictionary
  3
STANDARD
350
18
  0
DICTIONARY
  5
19
102
{ACAD_REACTORS
330
C
102
}
330
C
100
AcDbDictionary
  0
ACDBDICTIONARYWDFLT
  5
E
102
{ACAD_REACTORS
330
C
102
}
330
C
100
AcDbDictionary
281
     1
  3
Normal
350
F
100
AcDbDictionaryWithDefault
340
F
  0
DICTIONARY
  5
34
102
{ACAD_REACTORS
330
C
102
}
330
C
100
AcDbDictionary
  3
INDEXCTL
350
35
  3
SORTENTS
350
B5E
  0
DICTIONARY
  5
43
102
{ACAD_REACTORS
330
C
102
}
330
C
100
AcDbDictionary
  3
ACMSTDDICTIONARY
350
260
  0
DICTIONARY
  5
2B
102
{ACAD_REACTORS
330
C
102
}
330
C
100
AcDbDictionary
  3
ACMGSETTINGS
350
2C
  0
DICTIONARY
  5
6E
102
{ACAD_REACTORS
330
C
102
}
330
C
100
AcDbDictionary
  0
XRECORD
  5
3EA2
102
{ACAD_REACTORS
330
C
102
}
330
C
100
AcDbXrecord
  1
DWGPROPS COOKIE
  2

  3

  4

  6

  7

  8

  9

300
AmdtFileType=82
301
=
302
=
303
=
304
=
305
=
306
=
307
=
308
=
309
=
 40
0.0837556134259259
 41
2452800.443498622
 42
2452948.661954745
  1

 90
        1
  0
DICTIONARY
  5
3EAF
102
{ACAD_REACTORS
330
C
102
}
330
C
100
AcDbDictionary
  3
TSTACKALIGN
350
3EB0
  3
TSTACKSIZE
350
3EB1
  3
HYPERLINKBASE
350
3EB2
  3
STYLESHEET
350
3EB3
  3
LAYOUTDICT
350
3EB4
  3
PLOTSETDICT
350
3EB5
  3
PLOTSTYLNAMDICT
350
3EB6
  3
LWETCUNION
350
3EB7
  3
INSUNITS
350
3EB8
  3
CEPSNTYPE
350
3EB9
  3
FINGERPRINTGUID
350
3EBA
  3
VERSIONGUID
350
3EBB
  3
PSVPSCALE
350
3EBC
  3
DIMSTYLEDATA
350
3EBD
  3
PUCSORTHOREF
350
3EBE
  3
PUCSORTHOVIEW
350
3EBF
  3
PUCSBASE
350
3EC0
  3
PUCSORGTOP
350
3EC1
  3
PUCSORGBOTTOM
350
3EC2
  3
PUCSORGLEFT
350
3EC3
  3
PUCSORGRIGHT
350
3EC4
  3
PUCSORGFRONT
350
3EC5
  3
PUCSORGBACK
350
3EC6
  3
UCSORTHOREF
350
3EC7
  3
UCSORTHOVIEW
350
3EC8
  3
UCSBASE
350
3EC9
  3
UCSORGTOP
350
3ECA
  3
UCSORGBOTTOM
350
3ECB
  3
UCSORGLEFT
350
3ECC
  3
UCSORGRIGHT
350
3ECD
  3
UCSORGFRONT
350
3ECE
  3
UCSORGBACK
350
3ECF
  0
DICTIONARY
  5
3EA4
102
{ACAD_REACTORS
330
74
102
}
330
74
100
AcDbDictionary
  3
*A1
350
3EA5
  0
XRECORD
  5
3ED2
102
{ACAD_REACTORS
330
74
102
}
330
74
100
AcDbXrecord
340
1F
  0
XRECORD
  5
3ED8
102
{ACAD_REACTORS
330
3ED7
102
}
330
3ED7
100
AcDbXrecord
340
101
  0
MLINESTYLE
  5
18
102
{ACAD_REACTORS
330
17
102
}
330
17
100
AcDbMlineStyle
  2
STANDARD
 70
     0
  3

 62
   256
 51
90.0
 52
90.0
 71
     2
 49
0.5
 62
   256
  6
BYLAYER
 49
-0.5
 62
   256
  6
BYLAYER
  0
ACDBPLACEHOLDER
  5
F
102
{ACAD_REACTORS
330
E
102
}
330
E
100
AcDbPlaceHolder
280
     0
  0
DICTIONARYVAR
  5
35
102
{ACAD_REACTORS
330
34
102
}
330
34
100
DictionaryVariables
280
     0
  1
1
  0
DICTIONARYVAR
  5
B5E
102
{ACAD_REACTORS
330
34
102
}
330
34
100
DictionaryVariables
280
     0
  1
96
  0
DICTIONARY
  5
260
102
{ACAD_REACTORS
330
43
102
}
330
43
100
AcDbDictionary
  0
DICTIONARY
  5
2C
102
{ACAD_REACTORS
330
2B
102
}
330
2B
100
AcDbDictionary
  3
DWGSETTINGS
350
2D
  0
XRECORD
  5
3EB0
102
{ACAD_REACTORS
330
3EAF
102
}
330
3EAF
100
AcDbXrecord
 90
        1
  0
XRECORD
  5
3EB1
102
{ACAD_REACTORS
330
3EAF
102
}
330
3EAF
100
AcDbXrecord
 90
       70
  0
XRECORD
  5
3EB2
102
{ACAD_REACTORS
330
3EAF
102
}
330
3EAF
100
AcDbXrecord
  1

  0
XRECORD
  5
3EB3
102
{ACAD_REACTORS
330
3EAF
102
}
330
3EAF
100
AcDbXrecord
  1
ASAMI.ctb
  0
XRECORD
  5
3EB4
102
{ACAD_REACTORS
330
3EAF
102
}
330
3EAF
100
AcDbXrecord
340
1A
  0
XRECORD
  5
3EB5
102
{ACAD_REACTORS
330
3EAF
102
}
330
3EAF
100
AcDbXrecord
340
19
  0
XRECORD
  5
3EB6
102
{ACAD_REACTORS
330
3EAF
102
}
330
3EAF
100
AcDbXrecord
340
E
  0
XRECORD
  5
3EB7
102
{ACAD_REACTORS
330
3EAF
102
}
330
3EAF
100
AcDbXrecord
 90
    10781
  0
XRECORD
  5
3EB8
102
{ACAD_REACTORS
330
3EAF
102
}
330
3EAF
100
AcDbXrecord
 90
        4
  0
XRECORD
  5
3EB9
102
{ACAD_REACTORS
330
3EAF
102
}
330
3EAF
100
AcDbXrecord
 90
        0
  0
XRECORD
  5
3EBA
102
{ACAD_REACTORS
330
3EAF
102
}
330
3EAF
100
AcDbXrecord
  1
{AFB28963-8C59-40AE-9337-C84526B81ACE}
  0
XRECORD
  5
3EBB
102
{ACAD_REACTORS
330
3EAF
102
}
330
3EAF
100
AcDbXrecord
  1
{43CA5DF0-FD96-45F8-9F16-D4FA758AB1EC}
  0
XRECORD
  5
3EBC
102
{ACAD_REACTORS
330
3EAF
102
}
330
3EAF
100
AcDbXrecord
 40
0.0
  0
XRECORD
  5
3EBD
102
{ACAD_REACTORS
330
3EAF
102
}
330
3EAF
100
AcDbXrecord
1000
DSTYLE
1002
{
1070
    79
 70
     2
1070
   341
340
59
1070
   342
340
59
1070
   371
 70
    -1
1070
   372
 70
    -1
1002
}
  0
XRECORD
  5
3EBE
102
{ACAD_REACTORS
330
3EAF
102
}
330
3EAF
100
AcDbXrecord
340
0
  0
XRECORD
  5
3EBF
102
{ACAD_REACTORS
330
3EAF
102
}
330
3EAF
100
AcDbXrecord
 70
     0
  0
XRECORD
  5
3EC0
102
{ACAD_REACTORS
330
3EAF
102
}
330
3EAF
100
AcDbXrecord
340
0
  0
XRECORD
  5
3EC1
102
{ACAD_REACTORS
330
3EAF
102
}
330
3EAF
100
AcDbXrecord
 10
0.0
 20
0.0
 30
0.0
  0
XRECORD
  5
3EC2
102
{ACAD_REACTORS
330
3EAF
102
}
330
3EAF
100
AcDbXrecord
 10
0.0
 20
0.0
 30
0.0
  0
XRECORD
  5
3EC3
102
{ACAD_REACTORS
330
3EAF
102
}
330
3EAF
100
AcDbXrecord
 10
0.0
 20
0.0
 30
0.0
  0
XRECORD
  5
3EC4
102
{ACAD_REACTORS
330
3EAF
102
}
330
3EAF
100
AcDbXrecord
 10
0.0
 20
0.0
 30
0.0
  0
XRECORD
  5
3EC5
102
{ACAD_REACTORS
330
3EAF
102
}
330
3EAF
100
AcDbXrecord
 10
0.0
 20
0.0
 30
0.0
  0
XRECORD
  5
3EC6
102
{ACAD_REACTORS
330
3EAF
102
}
330
3EAF
100
AcDbXrecord
 10
0.0
 20
0.0
 30
0.0
  0
XRECORD
  5
3EC7
102
{ACAD_REACTORS
330
3EAF
102
}
330
3EAF
100
AcDbXrecord
340
0
  0
XRECORD
  5
3EC8
102
{ACAD_REACTORS
330
3EAF
102
}
330
3EAF
100
AcDbXrecord
 70
     0
  0
XRECORD
  5
3EC9
102
{ACAD_REACTORS
330
3EAF
102
}
330
3EAF
100
AcDbXrecord
340
0
  0
XRECORD
  5
3ECA
102
{ACAD_REACTORS
330
3EAF
102
}
330
3EAF
100
AcDbXrecord
 10
0.0
 20
0.0
 30
0.0
  0
XRECORD
  5
3ECB
102
{ACAD_REACTORS
330
3EAF
102
}
330
3EAF
100
AcDbXrecord
 10
0.0
 20
0.0
 30
0.0
  0
XRECORD
  5
3ECC
102
{ACAD_REACTORS
330
3EAF
102
}
330
3EAF
100
AcDbXrecord
 10
0.0
 20
0.0
 30
0.0
  0
XRECORD
  5
3ECD
102
{ACAD_REACTORS
330
3EAF
102
}
330
3EAF
100
AcDbXrecord
 10
0.0
 20
0.0
 30
0.0
  0
XRECORD
  5
3ECE
102
{ACAD_REACTORS
330
3EAF
102
}
330
3EAF
100
AcDbXrecord
 10
0.0
 20
0.0
 30
0.0
  0
XRECORD
  5
3ECF
102
{ACAD_REACTORS
330
3EAF
102
}
330
3EAF
100
AcDbXrecord
 10
0.0
 20
0.0
 30
0.0
  0
LAYER_INDEX
  5
3EA5
102
{ACAD_REACTORS
330
3EA4
102
}
330
3EA4
100
AcDbIndex
 40
2453151.667750821
100
AcDbLayerIndex
  8
0
360
3EA6
 90
        0
  8
AM_0
360
3EA7
 90
       52
  8
AM_7
360
3EA8
 90
        1
  8
AM_11
360
3EA9
 90
       21
  8
AM_5
360
3EAA
 90
        5
  8
Defpoints
360
3EAB
 90
        0
  8
AM_6
360
3EAC
 90
        1
  8
AM_CL
360
3EAD
 90
        0
  0
XRECORD
  5
2D
102
{ACAD_REACTORS
330
2C
102
}
330
2C
100
AcDbXrecord
  1
VERSION
140
15.0
  1
PRODUCT
  2
AutoCAD Mechanical 2000
  0
IDBUFFER
  5
3EA6
330
0
100
AcDbIdBuffer
  0
IDBUFFER
  5
3EA7
330
0
100
AcDbIdBuffer
330
3CDF
330
3CE0
330
3CE1
330
3CE2
330
1E25
330
1E26
330
1FD9
330
21D7
330
21D8
330
21D9
330
21DC
330
21DD
330
2694
330
2695
330
2696
330
2699
330
2CB4
330
2CB7
330
3366
330
3367
330
3CB8
330
3CB9
330
3CBA
330
3CBB
330
3CC0
330
3CC1
330
3CC2
330
3CC3
330
3CC4
330
3CC5
330
3CC6
330
3CC7
330
3CC8
330
3CCA
330
3CCB
330
3CCC
330
3CCD
330
3CCE
330
3CCF
330
3CD0
330
3CD1
330
3CD2
330
3CD3
330
3CD4
330
3CD6
330
3CD8
330
3CD9
330
3CDA
330
3CDB
330
3CDC
330
3CDD
330
3CDE
  0
IDBUFFER
  5
3EA8
330
0
100
AcDbIdBuffer
330
C9F
  0
IDBUFFER
  5
3EA9
330
0
100
AcDbIdBuffer
330
3E84
330
3E85
330
3E86
330
3E87
330
3E88
330
3CBC
330
3CBD
330
3CBE
330
3CBF
330
3CD5
330
3CD7
330
3E7A
330
3E7B
330
3E7C
330
3E7D
330
3E7E
330
3E7F
330
3E80
330
3E81
330
3E82
330
3E83
  0
IDBUFFER
  5
3EAA
330
0
100
AcDbIdBuffer
330
CC6
330
DF5
330
1FB6
330
2216
330
3D6F
  0
IDBUFFER
  5
3EAB
330
0
100
AcDbIdBuffer
  0
IDBUFFER
  5
3EAC
330
0
100
AcDbIdBuffer
330
19BD
  0
IDBUFFER
  5
3EAD
330
0
100
AcDbIdBuffer
  0
ENDSEC
  0
EOF
