  0
SECTION
  2
HEADER
  9
$ACADVER
  1
AC1014
  9
$ACADMAINTVER
 70
     9
  9
$DWGCODEPAGE
  3
ANSI_932
  9
$INSBASE
 10
0.0
 20
0.0
 30
0.0
  9
$EXTMIN
 10
-149.150001
 20
-30.25000099999957
 30
-0.00000001
  9
$EXTMAX
 10
13.98299130850146
 20
13.65957798971914
 30
0.00000001
  9
$LIMMIN
 10
-156.1444050923396
 20
-44.51020785580943
  9
$LIMMAX
 10
20.31336096277607
 20
28.16015358894219
  9
$ORTHOMODE
 70
     0
  9
$REGENMODE
 70
     1
  9
$FILLMODE
 70
     1
  9
$QTEXTMODE
 70
     0
  9
$MIRRTEXT
 70
     0
  9
$DRAGMODE
 70
     2
  9
$LTSCALE
 40
1.0
  9
$OSMODE
 70
    55
  9
$ATTMODE
 70
     1
  9
$TEXTSIZE
 40
2.5
  9
$TRACEWID
 40
1.0
  9
$TEXTSTYLE
  7
STANDARD
  9
$CLAYER
  8
AM_0
  9
$CELTYPE
  6
BYLAYER
  9
$CECOLOR
 62
   256
  9
$CELTSCALE
 40
1.0
  9
$DELOBJ
 70
     1
  9
$DISPSILH
 70
     0
  9
$DIMSCALE
 40
0.5
  9
$DIMASZ
 40
2.5
  9
$DIMEXO
 40
1.0
  9
$DIMDLI
 40
12.0
  9
$DIMRND
 40
0.0
  9
$DIMDLE
 40
0.0
  9
$DIMEXE
 40
1.0
  9
$DIMTP
 40
0.1
  9
$DIMTM
 40
0.1
  9
$DIMTXT
 40
3.2
  9
$DIMCEN
 40
0.0
  9
$DIMTSZ
 40
0.0
  9
$DIMTOL
 70
     0
  9
$DIMLIM
 70
     0
  9
$DIMTIH
 70
     0
  9
$DIMTOH
 70
     0
  9
$DIMSE1
 70
     0
  9
$DIMSE2
 70
     0
  9
$DIMTAD
 70
     3
  9
$DIMZIN
 70
     8
  9
$DIMBLK
  1
OPEN30
  9
$DIMASO
 70
     1
  9
$DIMSHO
 70
     1
  9
$DIMPOST
  1

  9
$DIMAPOST
  1
"
  9
$DIMALT
 70
     0
  9
$DIMALTD
 70
     2
  9
$DIMALTF
 40
0.0393701
  9
$DIMLFAC
 40
1.0
  9
$DIMTOFL
 70
     1
  9
$DIMTVP
 40
0.0
  9
$DIMTIX
 70
     0
  9
$DIMSOXD
 70
     0
  9
$DIMSAH
 70
     0
  9
$DIMBLK1
  1

  9
$DIMBLK2
  1

  9
$DIMSTYLE
  2
AM_JIS
  9
$DIMCLRD
 70
   256
  9
$DIMCLRE
 70
   256
  9
$DIMCLRT
 70
     2
  9
$DIMTFAC
 40
0.71
  9
$DIMGAP
 40
1.5
  9
$DIMJUST
 70
     0
  9
$DIMSD1
 70
     0
  9
$DIMSD2
 70
     0
  9
$DIMTOLJ
 70
     0
  9
$DIMTZIN
 70
     0
  9
$DIMALTZ
 70
     0
  9
$DIMALTTZ
 70
     0
  9
$DIMFIT
 70
     3
  9
$DIMUPT
 70
     0
  9
$DIMUNIT
 70
     2
  9
$DIMDEC
 70
     3
  9
$DIMTDEC
 70
     3
  9
$DIMALTU
 70
     2
  9
$DIMALTTD
 70
     2
  9
$DIMTXSTY
  7
ASAMI
  9
$DIMAUNIT
 70
     0
  9
$LUNITS
 70
     2
  9
$LUPREC
 70
     2
  9
$SKETCHINC
 40
1.0
  9
$FILLETRAD
 40
2.5
  9
$AUNITS
 70
     0
  9
$AUPREC
 70
     0
  9
$MENU
  1
.
  9
$ELEVATION
 40
0.0
  9
$PELEVATION
 40
0.0
  9
$THICKNESS
 40
0.0
  9
$LIMCHECK
 70
     0
  9
$BLIPMODE
 70
     0
  9
$CHAMFERA
 40
0.75
  9
$CHAMFERB
 40
0.75
  9
$CHAMFERC
 40
20.0
  9
$CHAMFERD
 40
0.0
  9
$SKPOLY
 70
     0
  9
$TDCREATE
 40
2452800.443498622
  9
$TDUPDATE
 40
2453151.564326516
  9
$TDINDWG
 40
0.0851719444
  9
$TDUSRTIMER
 40
0.0851719444
  9
$USRTIMER
 70
     1
  9
$ANGBASE
 50
0.0
  9
$ANGDIR
 70
     0
  9
$PDMODE
 70
     0
  9
$PDSIZE
 40
0.0
  9
$PLINEWID
 40
0.0
  9
$COORDS
 70
     1
  9
$SPLFRAME
 70
     0
  9
$SPLINETYPE
 70
     6
  9
$SPLINESEGS
 70
     8
  9
$ATTDIA
 70
     1
  9
$ATTREQ
 70
     1
  9
$HANDLING
 70
 12289
  9
$HANDSEED
  5
3F4B
  9
$SURFTAB1
 70
     6
  9
$SURFTAB2
 70
     6
  9
$SURFTYPE
 70
     6
  9
$SURFU
 70
     6
  9
$SURFV
 70
     6
  9
$UCSNAME
  2

  9
$UCSORG
 10
0.0
 20
0.0
 30
0.0
  9
$UCSXDIR
 10
1.0
 20
0.0000000000000027
 30
0.0
  9
$UCSYDIR
 10
-0.0000000000000027
 20
1.0
 30
0.0
  9
$PUCSNAME
  2

  9
$PUCSORG
 10
0.0
 20
0.0
 30
0.0
  9
$PUCSXDIR
 10
1.0
 20
0.0
 30
0.0
  9
$PUCSYDIR
 10
0.0
 20
1.0
 30
0.0
  9
$USERI1
 70
     0
  9
$USERI2
 70
     0
  9
$USERI3
 70
     0
  9
$USERI4
 70
     0
  9
$USERI5
 70
     0
  9
$USERR1
 40
0.0
  9
$USERR2
 40
0.0
  9
$USERR3
 40
0.0
  9
$USERR4
 40
0.0
  9
$USERR5
 40
0.0
  9
$WORLDVIEW
 70
     1
  9
$SHADEDGE
 70
     3
  9
$SHADEDIF
 70
    70
  9
$TILEMODE
 70
     1
  9
$MAXACTVP
 70
    64
  9
$PINSBASE
 10
0.0
 20
0.0
 30
0.0
  9
$PLIMCHECK
 70
     0
  9
$PEXTMIN
 10
1.000000000000000E+20
 20
1.000000000000000E+20
 30
1.000000000000000E+20
  9
$PEXTMAX
 10
-1.000000000000000E+20
 20
-1.000000000000000E+20
 30
-1.000000000000000E+20
  9
$PLIMMIN
 10
0.0
 20
0.0
  9
$PLIMMAX
 10
841.0
 20
594.0
  9
$UNITMODE
 70
     0
  9
$VISRETAIN
 70
     1
  9
$PLINEGEN
 70
     0
  9
$PSLTSCALE
 70
     0
  9
$TREEDEPTH
 70
  3020
  9
$PICKSTYLE
 70
     0
  9
$CMLSTYLE
  2
STANDARD
  9
$CMLJUST
 70
     0
  9
$CMLSCALE
 40
20.0
  9
$PROXYGRAPHICS
 70
     1
  9
$MEASUREMENT
 70
     1
  0
ENDSEC
  0
SECTION
  2
CLASSES
  0
CLASS
  1
ACDBDICTIONARYWDFLT
  2
AcDbDictionaryWithDefault
  3
AutoCAD 2000
 90
        0
280
     0
281
     0
  0
CLASS
  1
ACDBPLACEHOLDER
  2
AcDbPlaceHolder
  3
AutoCAD 2000
 90
        0
280
     0
281
     0
  0
CLASS
  1
LAYOUT
  2
AcDbLayout
  3
AutoCAD 2000
 90
        0
280
     0
281
     0
  0
CLASS
  1
AMGSETTINGSOBJ
  2
AmgSettingsObj
  3
"AcadM|Product Description: AutoCAD Mechanical 2000|Company: Autodesk"
 90
        0
280
     0
281
     0
  0
CLASS
  1
ACME_DOCUMENT
  2
AcMeDbDoc
  3
AcMeServices
 90
        0
280
     0
281
     0
  0
CLASS
  1
ACMESCOPE
  2
AcMeScope
  3
AcMeServices
 90
        0
280
     0
281
     0
  0
CLASS
  1
ACMECOMMANDHISTORY
  2
AcMeCommandHistory
  3
AcMeServices
 90
        0
280
     0
281
     0
  0
CLASS
  1
DICTIONARYVAR
  2
AcDbDictionaryVar
  3
AutoCAD 2000
 90
        0
280
     0
281
     0
  0
CLASS
  1
ACIMSYSVARMAN
  2
AcImSysVarManager
  3
AcMeServices
 90
        0
280
     0
281
     0
  0
CLASS
  1
ACIMREALSYSVAR
  2
AcImRealSysVar
  3
AcMeServices
 90
        0
280
     0
281
     0
  0
CLASS
  1
ACIMINTSYSVAR
  2
AcImIntSysVar
  3
AcMeServices
 90
        0
280
     0
281
     0
  0
CLASS
  1
ACMEDRAWINGMAN
  2
AcMeDrawingMan
  3
AcMeServices
 90
        0
280
     0
281
     0
  0
CLASS
  1
ACMEVIEW
  2
AcMeView
  3
AcMeServices
 90
        0
280
     0
281
     0
  0
CLASS
  1
ACDBENTITYCACHE
  2
AcMeEntityCache
  3
AcMeServices
 90
        0
280
     0
281
     0
  0
CLASS
  1
GSMANAGER
  2
AcMeGSManager
  3
AcMeServices
 90
        0
280
     0
281
     0
  0
CLASS
  1
AmdtInternalReactor
  2
AmdtInternalReactor
  3
AcMeServices
 90
        0
280
     0
281
     0
  0
CLASS
  1
ACMESTATEMGR
  2
AcMeStateMgr
  3
AcMeServices
 90
        0
280
     0
281
     0
  0
CLASS
  1
ACME_DATABASE
  2
AcMeDbDatabase
  3
AcMeServices
 90
        0
280
     0
281
     0
  0
CLASS
  1
ACRFINSADJUSTERMGR
  2
AcRfInsAdjusterMgr
  3
AcMeServices
 90
        0
280
     0
281
     0
  0
CLASS
  1
ACMDATADICTIONARY
  2
AcmDataDictionary
  3
"AcmSymBB|Product Description: AutoCAD Mechanical 2000|Company: Autodesk"
 90
        0
280
     0
281
     0
  0
CLASS
  1
ACMDATAENTRYBLOCK
  2
AcmDataEntryBlock
  3
"AcmSymBB|Product Description: AutoCAD Mechanical 2000|Company: Autodesk"
 90
        0
280
     0
281
     0
  0
CLASS
  1
AMGOBJPROPCFG
  2
AmgObjPropCfg
  3
"AmgLay|Product Description: AutoCAD Mechanical 2000|Company: Autodesk"
 90
        1
280
     0
281
     0
  0
CLASS
  1
ACAMGFILTERDAT
  2
AcAmgFilterDat
  3
"AcadM|Product Description: AutoCAD Mechanical 2000|Company: Autodesk"
 90
        0
280
     0
281
     0
  0
CLASS
  1
LAYER_INDEX
  2
AcDbLayerIndex
  3
AutoCAD 2000
 90
        0
280
     0
281
     0
  0
CLASS
  1
IDBUFFER
  2
AcDbIdBuffer
  3
AutoCAD 2000
 90
        0
280
     0
281
     0
  0
CLASS
  1
ACIMSTRSYSVAR
  2
AcImStrSysVar
  3
AcMeServices
 90
        0
280
     0
281
     0
  0
CLASS
  1
ACMSTANDARDJIS
  2
AcmStandardJIS
  3
"AcmSymBB|Product Description: AutoCAD Mechanical 2000|Company: Autodesk"
 90
        0
280
     0
281
     0
  0
CLASS
  1
ACMSURFSTANDARDJIS
  2
AcmSurfTextStdJIS
  3
"AcmSymBB|Product Description: AutoCAD Mechanical 2000|Company: Autodesk"
 90
        0
280
     0
281
     0
  0
CLASS
  1
ACMFCFSTANDARDJIS
  2
AcmFCFStdJIS
  3
"AcmSymBB|Product Description: AutoCAD Mechanical 2000|Company: Autodesk"
 90
        0
280
     0
281
     0
  0
CLASS
  1
ACMWELDSTANDARDJIS
  2
AcmWeldingStdJIS
  3
"AcmSymBB|Product Description: AutoCAD Mechanical 2000|Company: Autodesk"
 90
        0
280
     0
281
     0
  0
CLASS
  1
ACMIDSTANDARDJIS
  2
AcmIdStdJIS
  3
"AcmSymBB|Product Description: AutoCAD Mechanical 2000|Company: Autodesk"
 90
        0
280
     0
281
     0
  0
CLASS
  1
ACMDATUMSTANDARDJIS
  2
AcmDatumStdJIS
  3
"AcmSymBB|Product Description: AutoCAD Mechanical 2000|Company: Autodesk"
 90
        0
280
     0
281
     0
  0
CLASS
  1
ACMBOMSTANDARDJIS
  2
AcmBOMStdJIS
  3
"AcmSymBB|Product Description: AutoCAD Mechanical 2000|Company: Autodesk"
 90
        0
280
     0
281
     0
  0
CLASS
  1
ACMSTANDARDANSI
  2
AcmStandardANSI
  3
"AcmSymBB|Product Description: AutoCAD Mechanical 2000|Company: Autodesk"
 90
        0
280
     0
281
     0
  0
CLASS
  1
ACMSURFSTANDARDANSI
  2
AcmSurfTextStdANSI
  3
"AcmSymBB|Product Description: AutoCAD Mechanical 2000|Company: Autodesk"
 90
        0
280
     0
281
     0
  0
CLASS
  1
ACMFCFSTANDARDANSI
  2
AcmFCFStdANSI
  3
"AcmSymBB|Product Description: AutoCAD Mechanical 2000|Company: Autodesk"
 90
        0
280
     0
281
     0
  0
CLASS
  1
ACMWELDSTANDARDANSI
  2
AcmWeldingStdANSI
  3
"AcmSymBB|Product Description: AutoCAD Mechanical 2000|Company: Autodesk"
 90
        0
280
     0
281
     0
  0
CLASS
  1
ACMIDSTANDARDANSI
  2
AcmIdStdANSI
  3
"AcmSymBB|Product Description: AutoCAD Mechanical 2000|Company: Autodesk"
 90
        0
280
     0
281
     0
  0
CLASS
  1
ACMDATUMSTANDARDANSI
  2
AcmDatumStdANSI
  3
"AcmSymBB|Product Description: AutoCAD Mechanical 2000|Company: Autodesk"
 90
        0
280
     0
281
     0
  0
CLASS
  1
ACMBOMSTANDARDANSI
  2
AcmBOMStdANSI
  3
"AcmSymBB|Product Description: AutoCAD Mechanical 2000|Company: Autodesk"
 90
        0
280
     0
281
     0
  0
CLASS
  1
ACMSTANDARDBSI
  2
AcmStandardBSI
  3
"AcmSymBB|Product Description: AutoCAD Mechanical 2000|Company: Autodesk"
 90
        0
280
     0
281
     0
  0
CLASS
  1
ACMSURFSTANDARDBSI
  2
AcmSurfTextStdBSI
  3
"AcmSymBB|Product Description: AutoCAD Mechanical 2000|Company: Autodesk"
 90
        0
280
     0
281
     0
  0
CLASS
  1
ACMFCFSTANDARDBSI
  2
AcmFCFStdBSI
  3
"AcmSymBB|Product Description: AutoCAD Mechanical 2000|Company: Autodesk"
 90
        0
280
     0
281
     0
  0
CLASS
  1
ACMWELDSTANDARDBSI
  2
AcmWeldingStdBSI
  3
"AcmSymBB|Product Description: AutoCAD Mechanical 2000|Company: Autodesk"
 90
        0
280
     0
281
     0
  0
CLASS
  1
ACMIDSTANDARDBSI
  2
AcmIdStdBSI
  3
"AcmSymBB|Product Description: AutoCAD Mechanical 2000|Company: Autodesk"
 90
        0
280
     0
281
     0
  0
CLASS
  1
ACMDATUMSTANDARDBSI
  2
AcmDatumStdBSI
  3
"AcmSymBB|Product Description: AutoCAD Mechanical 2000|Company: Autodesk"
 90
        0
280
     0
281
     0
  0
CLASS
  1
ACMBOMSTANDARDBSI
  2
AcmBOMStdBSI
  3
"AcmSymBB|Product Description: AutoCAD Mechanical 2000|Company: Autodesk"
 90
        0
280
     0
281
     0
  0
CLASS
  1
LONG_TRANSACTION
  2
AcDbLongTransaction
  3
AutoCAD 2000
 90
        0
280
     0
281
     0
  0
CLASS
  1
LWPOLYLINE
  2
AcDbPolyline
  3
AutoCAD 2000
 90
        0
280
     0
281
     1
  0
CLASS
  1
HATCH
  2
AcDbHatch
  3
AutoCAD 2000
 90
        0
280
     0
281
     1
  0
CLASS
  1
XRECORD
  2
AcDbXrecord
  3
AutoCAD 2000
 90
        0
280
     0
281
     0
  0
ENDSEC
  0
SECTION
  2
TABLES
  0
TABLE
  2
VPORT
  5
8
330
0
100
AcDbSymbolTable
 70
     3
  0
VPORT
  5
3F15
330
8
100
AcDbSymbolTableRecord
100
AcDbViewportTableRecord
  2
*ACTIVE
 70
     0
 10
0.0
 20
0.0
 11
1.0
 21
1.0
 12
-64.52675494054782
 22
-8.294229598884484
 13
0.0
 23
0.0
 14
2.5
 24
2.5
 15
10.0
 25
10.0
 16
0.0
 26
0.0
 36
1.0
 17
0.0
 27
0.0
 37
0.0
 40
108.6153805074216
 41
1.56570841889117
 42
50.0
 43
0.0
 44
0.0
 50
0.0
 51
0.0
 71
     0
 72
   100
 73
     1
 74
     1
 75
     0
 76
     0
 77
     0
 78
     0
  0
ENDTAB
  0
TABLE
  2
LTYPE
  5
5
330
0
100
AcDbSymbolTable
 70
    10
  0
LTYPE
  5
14
330
5
100
AcDbSymbolTableRecord
100
AcDbLinetypeTableRecord
  2
BYBLOCK
 70
     0
  3

 72
    65
 73
     0
 40
0.0
  0
LTYPE
  5
15
330
5
100
AcDbSymbolTableRecord
100
AcDbLinetypeTableRecord
  2
BYLAYER
 70
     0
  3

 72
    65
 73
     0
 40
0.0
  0
LTYPE
  5
16
330
5
100
AcDbSymbolTableRecord
100
AcDbLinetypeTableRecord
  2
CONTINUOUS
 70
     0
  3
Solid line
 72
    65
 73
     0
 40
0.0
  0
LTYPE
  5
4B
330
5
100
AcDbSymbolTableRecord
100
AcDbLinetypeTableRecord
  2
AM_ISO02W050
 70
     0
  3
__ __ __ __ __ __ __ __ __ __ __ __ __ __ __
 72
    65
 73
     2
 40
7.5
 49
6.0
 74
     0
 49
-1.5
 74
     0
  0
LTYPE
  5
4C
330
5
100
AcDbSymbolTableRecord
100
AcDbLinetypeTableRecord
  2
AM_ISO08W050
 70
     0
  3
____ . ____ . ____ . ____ . ____ . ____ . ____
 72
    65
 73
     4
 40
18.0
 49
12.0
 74
     0
 49
-1.5
 74
     0
 49
3.0
 74
     0
 49
-1.5
 74
     0
  0
LTYPE
  5
4D
330
5
100
AcDbSymbolTableRecord
100
AcDbLinetypeTableRecord
  2
AM_ISO09W050
 70
     0
  3
_____ . . _____ . . _____ . . ____ .. ____
 72
    65
 73
     6
 40
22.5
 49
12.0
 74
     0
 49
-1.5
 74
     0
 49
3.0
 74
     0
 49
-1.5
 74
     0
 49
3.0
 74
     0
 49
-1.5
 74
     0
  0
LTYPE
  5
4E
330
5
100
AcDbSymbolTableRecord
100
AcDbLinetypeTableRecord
  2
AMCONSTR
 70
     0
  3
_______________________
 72
    65
 73
     2
 40
9999.0
 49
9999.0
 74
     0
 49
0.0
 74
     0
  0
LTYPE
  5
4F
330
5
100
AcDbSymbolTableRecord
100
AcDbLinetypeTableRecord
  2
AM_ISO02W050X2
 70
     0
  3
 _ _ _ _ _ _ _ _ _ _ _ _
 72
    65
 73
     2
 40
3.75
 49
3.0
 74
     0
 49
-0.75
 74
     0
  0
LTYPE
  5
50
330
5
100
AcDbSymbolTableRecord
100
AcDbLinetypeTableRecord
  2
AM_ISO08W050X2
 70
     0
  3
__ . __ . __ . __ . __ . __
 72
    65
 73
     4
 40
9.0
 49
6.0
 74
     0
 49
-0.75
 74
     0
 49
1.5
 74
     0
 49
-0.75
 74
     0
  0
LTYPE
  5
53
330
5
100
AcDbSymbolTableRecord
100
AcDbLinetypeTableRecord
  2
AMZIGZAG
 70
     0
  3
/\/-/\/-/\/-/\/-/\/-/\/
 72
    65
 73
     2
 40
11.00009999999999
 49
0.0001
 74
     4
 75
   135
340
52
 46
0.04
 50
0.0
 44
0.0
 45
0.0
 49
-11.0
 74
     0
  0
LTYPE
  5
166
330
5
100
AcDbSymbolTableRecord
100
AcDbLinetypeTableRecord
  2
ACJISTGL
 70
     0
  3
_ _ _ _ _
 72
    65
 73
     2
 40
3.0
 49
2.0
 74
     0
 49
-1.0
 74
     0
  0
LTYPE
  5
26A
330
5
100
AcDbSymbolTableRecord
100
AcDbLinetypeTableRecord
  2
ACJISTGB
 70
     0
  3
__ . . __ . .
 72
    65
 73
     6
 40
9.0
 49
4.0
 74
     0
 49
-1.0
 74
     0
 49
1.0
 74
     0
 49
-1.0
 74
     0
 49
1.0
 74
     0
 49
-1.0
 74
     0
  0
ENDTAB
  0
TABLE
  2
LAYER
  5
2
330
0
100
AcDbSymbolTable
 70
     7
  0
LAYER
  5
10
330
2
100
AcDbSymbolTableRecord
100
AcDbLayerTableRecord
  2
0
 70
     0
 62
     7
  6
CONTINUOUS
  0
LAYER
  5
3F9
330
2
100
AcDbSymbolTableRecord
100
AcDbLayerTableRecord
  2
AM_0
 70
     0
 62
     7
  6
CONTINUOUS
  0
LAYER
  5
C7C
330
2
100
AcDbSymbolTableRecord
100
AcDbLayerTableRecord
  2
AM_7
 70
     0
 62
     4
  6
AM_ISO08W050
  0
LAYER
  5
C97
330
2
100
AcDbSymbolTableRecord
100
AcDbLayerTableRecord
  2
AM_11
 70
     0
 62
     3
  6
AM_ISO09W050
  0
LAYER
  5
CC5
330
2
100
AcDbSymbolTableRecord
100
AcDbLayerTableRecord
  2
AM_5
 70
     0
 62
     3
  6
CONTINUOUS
  0
LAYER
  5
CC7
330
2
100
AcDbSymbolTableRecord
100
AcDbLayerTableRecord
  2
DEFPOINTS
 70
     0
 62
     7
  6
CONTINUOUS
  0
LAYER
  5
19BC
330
2
100
AcDbSymbolTableRecord
100
AcDbLayerTableRecord
  2
AM_6
 70
     0
 62
     2
  6
CONTINUOUS
  0
ENDTAB
  0
TABLE
  2
STYLE
  5
3
330
0
100
AcDbSymbolTable
 70
     5
  0
STYLE
  5
11
330
3
100
AcDbSymbolTableRecord
100
AcDbTextStyleTableRecord
  2
STANDARD
 70
     0
 40
0.0
 41
1.0
 50
0.0
 71
     0
 42
2.5
  3
simplex.shx
  4
EXTFONT.SHX
  0
STYLE
  5
52
330
3
100
AcDbSymbolTableRecord
100
AcDbTextStyleTableRecord
  2

 70
     1
 40
0.0
 41
1.0
 50
0.0
 71
     0
 42
2.5
  3
ltypeshp.shx
  4

  0
STYLE
  5
6B
330
3
100
AcDbSymbolTableRecord
100
AcDbTextStyleTableRecord
  2
ASAMI
 70
     0
 40
0.0
 41
1.0
 50
0.0
 71
     0
 42
2.5
  3
simplex.shx
  4
EXTFONT.SHX
  0
STYLE
  5
262
330
3
100
AcDbSymbolTableRecord
100
AcDbTextStyleTableRecord
  2
ACJISTS
 70
     0
 40
1.0
 41
1.0
 50
0.0
 71
     0
 42
2.5
  3
simplex.shx
  4
bigfont.shx
  0
STYLE
  5
269
330
3
100
AcDbSymbolTableRecord
100
AcDbTextStyleTableRecord
  2
ACJISGDT
 70
     0
 40
0.0
 41
1.0
 50
0.0
 71
     0
 42
2.5
  3
amgdtans.shx
  4

  0
ENDTAB
  0
TABLE
  2
VIEW
  5
6
330
0
100
AcDbSymbolTable
 70
     0
  0
ENDTAB
  0
TABLE
  2
UCS
  5
7
330
0
100
AcDbSymbolTable
 70
     0
  0
ENDTAB
  0
TABLE
  2
APPID
  5
9
330
0
100
AcDbSymbolTable
 70
    16
  0
APPID
  5
12
330
9
100
AcDbSymbolTableRecord
100
AcDbRegAppTableRecord
  2
ACAD
 70
     0
  0
APPID
  5
30
330
9
100
AcDbSymbolTableRecord
100
AcDbRegAppTableRecord
  2
MCAD_NO_VIS
 70
     0
  0
APPID
  5
31
330
9
100
AcDbSymbolTableRecord
100
AcDbRegAppTableRecord
  2
ACAD_TEMP_GRAPHIC
 70
     0
  0
APPID
  5
2C2
330
9
100
AcDbSymbolTableRecord
100
AcDbRegAppTableRecord
  2
GENIUS_GENDTOL_13
 70
     0
  0
APPID
  5
339
330
9
100
AcDbSymbolTableRecord
100
AcDbRegAppTableRecord
  2
GENIUS_GENODEF_13
 70
     0
  0
APPID
  5
33A
330
9
100
AcDbSymbolTableRecord
100
AcDbRegAppTableRecord
  2
GENIUS_GENOBJ-N-RSBK_13
 70
     0
  0
APPID
  5
33B
330
9
100
AcDbSymbolTableRecord
100
AcDbRegAppTableRecord
  2
GENIUS_GENOBJ-N-LIB_13
 70
     0
  0
APPID
  5
33C
330
9
100
AcDbSymbolTableRecord
100
AcDbRegAppTableRecord
  2
GENIUS_GENSCALE_13
 70
     0
  0
APPID
  5
378
330
9
100
AcDbSymbolTableRecord
100
AcDbRegAppTableRecord
  2
GENIUS_GENDIMSH_14
 70
     0
  0
APPID
  5
C82
330
9
100
AcDbSymbolTableRecord
100
AcDbRegAppTableRecord
  2
GENIUS_GENOBJ-N-CRS_13
 70
     0
  0
APPID
  5
C83
330
9
100
AcDbSymbolTableRecord
100
AcDbRegAppTableRecord
  2
GENIUS_GENOENT_13
 70
     0
  0
APPID
  5
C84
330
9
100
AcDbSymbolTableRecord
100
AcDbRegAppTableRecord
  2
GENIUS_GENOREF_13
 70
     0
  0
APPID
  5
C85
330
9
100
AcDbSymbolTableRecord
100
AcDbRegAppTableRecord
  2
GENIUS_GENOLIS_13
 70
     0
  0
APPID
  5
CA0
330
9
100
AcDbSymbolTableRecord
100
AcDbRegAppTableRecord
  2
GENIUS_GENOBJ-N-CEN_13
 70
     0
  0
APPID
  5
2796
330
9
100
AcDbSymbolTableRecord
100
AcDbRegAppTableRecord
  2
GENIUS_GENFIL_13
 70
     0
  0
APPID
  5
2797
330
9
100
AcDbSymbolTableRecord
100
AcDbRegAppTableRecord
  2
GENIUS_GENOBJ-N-CHA_13
 70
     0
  0
ENDTAB
  0
TABLE
  2
DIMSTYLE
  5
A
330
0
100
AcDbSymbolTable
 70
     9
  0
DIMSTYLE
105
58
330
A
100
AcDbSymbolTableRecord
100
AcDbDimStyleTableRecord
  2
AM_JIS
 70
     0
  3

  4
"
  5
OPEN30
  6

  7

 40
0.5
 41
2.5
 42
1.0
 43
12.0
 44
1.0
 45
0.0
 46
0.0
 47
0.1
 48
0.1
140
3.2
141
0.0
142
0.0
143
0.0393701
144
1.0
145
0.0
146
0.71
147
1.5
 71
     0
 72
     0
 73
     0
 74
     0
 75
     0
 76
     0
 77
     3
 78
     8
170
     0
171
     2
172
     1
173
     0
174
     0
175
     0
176
   256
177
   256
178
     2
270
     2
271
     3
272
     3
273
     2
274
     2
340
6B
275
     0
280
     0
281
     0
282
     0
283
     0
284
     0
285
     0
286
     0
287
     3
288
     0
  0
DIMSTYLE
105
5F
330
A
100
AcDbSymbolTableRecord
100
AcDbDimStyleTableRecord
  2
AM_JIS$3
 70
     0
  3

  4
"
  5
OPEN30
  6

  7

 40
0.5
 41
2.5
 42
1.0
 43
10.0
 44
1.0
 45
0.0
 46
0.0
 47
0.1
 48
0.1
140
3.2
141
0.0
142
0.0
143
0.0393701
144
1.0
145
0.0
146
0.71
147
1.5
 71
     0
 72
     0
 73
     0
 74
     1
 75
     0
 76
     0
 77
     3
 78
     8
170
     0
171
     2
172
     0
173
     0
174
     0
175
     0
176
   256
177
   256
178
     2
270
     2
271
     2
272
     3
273
     2
274
     2
340
6B
275
     0
280
     0
281
     0
282
     0
283
     0
284
     0
285
     0
286
     0
287
     0
288
     1
  0
DIMSTYLE
105
60
330
A
100
AcDbSymbolTableRecord
100
AcDbDimStyleTableRecord
  2
AM_JIS$4
 70
     0
  3

  4
"
  5
OPEN30
  6

  7

 40
0.5
 41
2.5
 42
1.0
 43
10.0
 44
1.0
 45
0.0
 46
0.0
 47
0.1
 48
0.1
140
3.2
141
0.0
142
0.0
143
0.0393701
144
1.0
145
0.0
146
0.71
147
1.5
 71
     0
 72
     0
 73
     0
 74
     1
 75
     0
 76
     0
 77
     3
 78
     8
170
     0
171
     2
172
     0
173
     0
174
     0
175
     0
176
   256
177
   256
178
     2
270
     2
271
     2
272
     3
273
     2
274
     2
340
6B
275
     0
280
     0
281
     0
282
     0
283
     0
284
     0
285
     0
286
     0
287
     0
288
     1
  0
DIMSTYLE
105
61
330
A
100
AcDbSymbolTableRecord
100
AcDbDimStyleTableRecord
  2
AM_JIS$6
 70
     0
  3

  4
"
  5
OPEN30
  6

  7

 40
0.5
 41
2.5
 42
1.0
 43
10.0
 44
1.0
 45
0.0
 46
0.0
 47
0.1
 48
0.1
140
3.2
141
0.0
142
0.0
143
0.0393701
144
1.0
145
0.0
146
0.71
147
1.5
 71
     0
 72
     0
 73
     0
 74
     0
 75
     0
 76
     0
 77
     0
 78
     8
170
     0
171
     2
172
     1
173
     0
174
     0
175
     0
176
   256
177
   256
178
     2
270
     2
271
     2
272
     2
273
     2
274
     2
340
6B
275
     0
280
     0
281
     0
282
     0
283
     0
284
     0
285
     0
286
     0
287
     3
288
     0
  0
DIMSTYLE
105
62
330
A
100
AcDbSymbolTableRecord
100
AcDbDimStyleTableRecord
  2
AM_JIS$7
 70
     0
  3

  4
"
  5
OPEN30
  6

  7

 40
0.5
 41
2.5
 42
1.0
 43
10.0
 44
1.0
 45
0.0
 46
0.0
 47
0.1
 48
0.1
140
3.2
141
0.0
142
0.0
143
0.0393701
144
1.0
145
0.0
146
0.71
147
1.5
 71
     0
 72
     0
 73
     0
 74
     0
 75
     0
 76
     0
 77
     3
 78
     8
170
     0
171
     2
172
     1
173
     0
174
     0
175
     0
176
   256
177
   256
178
     2
270
     2
271
     2
272
     3
273
     2
274
     2
340
6B
275
     0
280
     0
281
     0
282
     0
283
     0
284
     0
285
     0
286
     0
287
     3
288
     0
  0
DIMSTYLE
105
63
330
A
100
AcDbSymbolTableRecord
100
AcDbDimStyleTableRecord
  2
AM_JIS$SF
 70
     0
  3

  4
"
  5
OPEN30
  6

  7

 40
0.5
 41
2.5
 42
1.0
 43
10.0
 44
1.0
 45
0.0
 46
0.0
 47
0.1
 48
0.1
140
3.2
141
0.0
142
0.0
143
0.0393701
144
1.0
145
0.0
146
0.71
147
1.5
 71
     0
 72
     0
 73
     0
 74
     0
 75
     1
 76
     1
 77
     3
 78
     8
170
     0
171
     2
172
     1
173
     0
174
     0
175
     0
176
   256
177
   256
178
     2
270
     2
271
     2
272
     2
273
     2
274
     2
340
6B
275
     0
280
     0
281
     0
282
     0
283
     0
284
     0
285
     0
286
     0
287
     3
288
     0
  0
DIMSTYLE
105
68
330
A
100
AcDbSymbolTableRecord
100
AcDbDimStyleTableRecord
  2
AM_JIS$SH
 70
     0
  3

  4
"
  5

  6
GENAXEH
  7
OPEN30
 40
0.5
 41
2.5
 42
1.0
 43
10.0
 44
1.0
 45
0.0
 46
0.0
 47
0.1
 48
0.1
140
3.2
141
0.0
142
0.0
143
0.0393701
144
2.0
145
0.0
146
0.71
147
1.5
 71
     0
 72
     0
 73
     0
 74
     0
 75
     1
 76
     1
 77
     3
 78
     8
170
     0
171
     2
172
     1
173
     1
174
     0
175
     0
176
   256
177
   256
178
     2
270
     2
271
     2
272
     2
273
     2
274
     2
340
6B
275
     0
280
     0
281
     0
282
     0
283
     0
284
     0
285
     0
286
     0
287
     3
288
     0
  0
DIMSTYLE
105
B34
102
{ACAD_REACTORS
330
39C8
102
}
330
A
100
AcDbSymbolTableRecord
100
AcDbDimStyleTableRecord
  2
AM_JIS$2
 70
     0
  3

  4
"
  5
OPEN30
  6

  7

 40
0.5
 41
2.5
 42
1.0
 43
12.0
 44
1.0
 45
0.0
 46
0.0
 47
0.1
 48
0.1
140
3.2
141
0.0
142
0.0
143
0.0393701
144
1.0
145
0.0
146
0.71
147
1.5
 71
     0
 72
     0
 73
     0
 74
     0
 75
     0
 76
     0
 77
     3
 78
     8
170
     0
171
     2
172
     1
173
     0
174
     0
175
     0
176
   256
177
   256
178
     2
270
     2
271
     3
272
     3
273
     2
274
     2
340
6B
275
     0
280
     0
281
     0
282
     0
283
     0
284
     0
285
     0
286
     0
287
     3
288
     0
  0
DIMSTYLE
105
BA5
102
{ACAD_REACTORS
330
CC6
330
2069
330
2D60
330
324F
102
}
330
A
100
AcDbSymbolTableRecord
100
AcDbDimStyleTableRecord
  2
AM_JIS$0
 70
     0
  3

  4
"
  5
OPEN30
  6

  7

 40
0.5
 41
2.5
 42
0.0
 43
10.0
 44
1.0
 45
0.0
 46
0.0
 47
0.1
 48
0.1000000001
140
3.799999999999999
141
0.0
142
0.0
143
0.0393701
144
1.0
145
0.0
146
0.71
147
1.5
 71
     0
 72
     0
 73
     0
 74
     0
 75
     0
 76
     0
 77
     3
 78
     1
170
     0
171
     2
172
     1
173
     0
174
     0
175
     0
176
     3
177
     3
178
     2
270
     2
271
     2
272
     2
273
     2
274
     2
340
11
275
     1
280
     0
281
     0
282
     0
283
     0
284
     8
285
     0
286
     0
287
     0
288
     0
  0
ENDTAB
  0
TABLE
  2
BLOCK_RECORD
  5
1
330
0
100
AcDbSymbolTable
 70
    10
  0
BLOCK_RECORD
  5
1F
102
{ACAD_XDICTIONARY
360
74
102
}
330
1
100
AcDbSymbolTableRecord
100
AcDbBlockTableRecord
  2
*MODEL_SPACE
  0
BLOCK_RECORD
  5
101
102
{ACAD_XDICTIONARY
360
3F3E
102
}
330
1
100
AcDbSymbolTableRecord
100
AcDbBlockTableRecord
  2
*PAPER_SPACE
  0
BLOCK_RECORD
  5
59
330
1
100
AcDbSymbolTableRecord
100
AcDbBlockTableRecord
  2
_OPEN30
  0
BLOCK_RECORD
  5
64
330
1
100
AcDbSymbolTableRecord
100
AcDbBlockTableRecord
  2
GENAXEH
  0
BLOCK_RECORD
  5
CC8
330
1
100
AcDbSymbolTableRecord
100
AcDbBlockTableRecord
  2
*D5
  0
BLOCK_RECORD
  5
206A
330
1
100
AcDbSymbolTableRecord
100
AcDbBlockTableRecord
  2
*D6
  0
BLOCK_RECORD
  5
2D61
330
1
100
AcDbSymbolTableRecord
100
AcDbBlockTableRecord
  2
*D7
  0
BLOCK_RECORD
  5
3250
330
1
100
AcDbSymbolTableRecord
100
AcDbBlockTableRecord
  2
*D8
  0
BLOCK_RECORD
  5
39C9
330
1
100
AcDbSymbolTableRecord
100
AcDbBlockTableRecord
  2
*D9
  0
ENDTAB
  0
ENDSEC
  0
SECTION
  2
BLOCKS
  0
BLOCK
  5
20
330
1F
100
AcDbEntity
  8
0
100
AcDbBlockBegin
  2
*MODEL_SPACE
 70
     0
 10
0.0
 20
0.0
 30
0.0
  3
*MODEL_SPACE
  1

  0
ENDBLK
  5
21
330
1F
100
AcDbEntity
  8
0
100
AcDbBlockEnd
  0
BLOCK
  5
103
330
101
100
AcDbEntity
 67
     1
  8
0
100
AcDbBlockBegin
  2
*PAPER_SPACE
 70
     0
 10
0.0
 20
0.0
 30
0.0
  3
*PAPER_SPACE
  1

  0
ENDBLK
  5
104
330
101
100
AcDbEntity
 67
     1
  8
0
100
AcDbBlockEnd
  0
BLOCK
  5
5D
330
59
100
AcDbEntity
  8
0
100
AcDbBlockBegin
  2
_OPEN30
 70
     0
 10
0.0
 20
0.0
 30
0.0
  3
_OPEN30
  1

  0
LINE
  5
5A
330
59
100
AcDbEntity
  8
0
 62
     0
100
AcDbLine
 10
-1.0
 20
0.26794919
 30
0.0
 11
0.0
 21
0.0
 31
0.0
  0
LINE
  5
5B
330
59
100
AcDbEntity
  8
0
 62
     0
100
AcDbLine
 10
0.0
 20
0.0
 30
0.0
 11
-1.0
 21
-0.26794919
 31
0.0
  0
LINE
  5
5C
330
59
100
AcDbEntity
  8
0
 62
     0
100
AcDbLine
 10
0.0
 20
0.0
 30
0.0
 11
-1.0
 21
0.0
 31
0.0
  0
ENDBLK
  5
5E
330
59
100
AcDbEntity
  8
0
100
AcDbBlockEnd
  0
BLOCK
  5
66
330
64
100
AcDbEntity
  8
0
100
AcDbBlockBegin
  2
GENAXEH
 70
     0
 10
0.0
 20
0.0
 30
0.0
  3
GENAXEH
  1

  0
LINE
  5
65
330
64
100
AcDbEntity
  8
0
100
AcDbLine
 10
-1.0
 20
0.0
 30
0.0
 11
1.0
 21
0.0
 31
0.0
  0
ENDBLK
  5
67
330
64
100
AcDbEntity
  8
0
100
AcDbBlockEnd
  0
BLOCK
  5
CD2
330
CC8
100
AcDbEntity
  8
0
100
AcDbBlockBegin
  2
*D5
 70
     1
 10
0.0
 20
0.0
 30
0.0
  3
*D5
  1

  0
LINE
  5
3ECC
330
CC8
100
AcDbEntity
  8
AM_5
 62
     3
100
AcDbLine
 10
-137.0
 20
-6.249999999999392
 30
0.0
 11
-137.0
 21
-19.50000099999954
 31
0.0
  0
LINE
  5
3ECD
330
CC8
100
AcDbEntity
  8
AM_5
 62
     3
100
AcDbLine
 10
-2.999999999999864
 20
-6.850000000000222
 30
0.0
 11
-2.999999999999864
 21
-19.50000099999954
 31
0.0
  0
LINE
  5
3ECE
330
CC8
100
AcDbEntity
  8
AM_5
 62
     3
100
AcDbLine
 10
-135.75
 20
-19.00000099999954
 30
0.0
 11
-4.249999999999864
 21
-19.00000099999954
 31
0.0
  0
INSERT
  5
3ECF
330
CC8
100
AcDbEntity
  8
AM_5
 62
     3
100
AcDbBlockReference
  2
_OPEN30
 10
-137.0
 20
-19.00000099999954
 30
0.0
 41
1.25
 42
1.25
 43
1.25
 50
180.0
  0
INSERT
  5
3ED0
330
CC8
100
AcDbEntity
  8
AM_5
 62
     3
100
AcDbBlockReference
  2
_OPEN30
 10
-2.999999999999864
 20
-19.00000099999954
 30
0.0
 41
1.25
 42
1.25
 43
1.25
  0
MTEXT
  5
3ED1
330
CC8
100
AcDbEntity
  8
AM_5
 62
     2
100
AcDbMText
 10
-69.99999999999994
 20
-17.30000099999954
 30
0.0
 40
1.9
 41
0.0
 71
     5
 72
     1
  1
134
1001
ACAD
1000
MTEXTBEGIN
1070
    73
1070
     1
1070
    44
1040
1.0
1070
    74
1070
     0
1000
MTEXTEND
  0
POINT
  5
3ED2
330
CC8
100
AcDbEntity
  8
DEFPOINTS
 62
     0
100
AcDbPoint
 10
-137.0
 20
-6.249999999999392
 30
0.0
  0
POINT
  5
3ED3
330
CC8
100
AcDbEntity
  8
DEFPOINTS
 62
     0
100
AcDbPoint
 10
-2.999999999999864
 20
-6.850000000000222
 30
0.0
  0
POINT
  5
3ED4
330
CC8
100
AcDbEntity
  8
DEFPOINTS
 62
     0
100
AcDbPoint
 10
-2.999999999999864
 20
-19.00000099999954
 30
0.0
  0
ENDBLK
  5
CD3
330
CC8
100
AcDbEntity
  8
0
100
AcDbBlockEnd
  0
BLOCK
  5
2074
330
206A
100
AcDbEntity
  8
0
100
AcDbBlockBegin
  2
*D6
 70
     1
 10
0.0
 20
0.0
 30
0.0
  3
*D6
  1

  0
LINE
  5
3EC3
330
206A
100
AcDbEntity
  8
AM_5
 62
     3
100
AcDbLine
 10
-72.99999999999956
 20
-6.99999999999965
 30
0.0
 11
-72.99999999999953
 21
-14.50000099999966
 31
0.0
  0
LINE
  5
3EC4
330
206A
100
AcDbEntity
  8
AM_5
 62
     3
100
AcDbLine
 10
-2.999999999999844
 20
-6.850000000000231
 30
0.0
 11
-2.999999999999822
 21
-14.50000099999946
 31
0.0
  0
LINE
  5
3EC5
330
206A
100
AcDbEntity
  8
AM_5
 62
     3
100
AcDbLine
 10
-71.74999999999953
 20
-14.00000099999966
 30
0.0
 11
-4.249999999999824
 21
-14.00000099999946
 31
0.0
  0
INSERT
  5
3EC6
330
206A
100
AcDbEntity
  8
AM_5
 62
     3
100
AcDbBlockReference
  2
_OPEN30
 10
-72.99999999999953
 20
-14.00000099999966
 30
0.0
 41
1.25
 42
1.25
 43
1.25
 50
180.0000000000001
  0
INSERT
  5
3EC7
330
206A
100
AcDbEntity
  8
AM_5
 62
     3
100
AcDbBlockReference
  2
_OPEN30
 10
-2.999999999999823
 20
-14.00000099999946
 30
0.0
 41
1.25
 42
1.25
 43
1.25
 50
0.0000000000001527
  0
MTEXT
  5
3EC8
330
206A
100
AcDbEntity
  8
AM_5
 62
     2
100
AcDbMText
 10
-37.99999999999968
 20
-12.30000099999956
 30
0.0
 40
1.9
 41
0.0
 71
     5
 72
     1
  1
70
1001
ACAD
1000
MTEXTBEGIN
1070
    73
1070
     1
1070
    44
1040
1.0
1070
    74
1070
     0
1000
MTEXTEND
  0
POINT
  5
3EC9
330
206A
100
AcDbEntity
  8
DEFPOINTS
 62
     0
100
AcDbPoint
 10
-72.99999999999958
 20
-6.999999999999437
 30
0.0
  0
POINT
  5
3ECA
330
206A
100
AcDbEntity
  8
DEFPOINTS
 62
     0
100
AcDbPoint
 10
-2.999999999999864
 20
-6.850000000000222
 30
0.0
  0
POINT
  5
3ECB
330
206A
100
AcDbEntity
  8
DEFPOINTS
 62
     0
100
AcDbPoint
 10
-2.999999999999864
 20
-14.00000099999945
 30
0.0
  0
ENDBLK
  5
2075
330
206A
100
AcDbEntity
  8
0
100
AcDbBlockEnd
  0
BLOCK
  5
2D6B
330
2D61
100
AcDbEntity
  8
0
100
AcDbBlockBegin
  2
*D7
 70
     1
 10
0.0
 20
0.0
 30
0.0
  3
*D7
  1

  0
LINE
  5
3EE9
330
2D61
100
AcDbEntity
  8
AM_5
 62
     3
100
AcDbLine
 10
-2.999999999999909
 20
6.850000000000004
 30
0.0
 11
8.819925075540092
 21
6.849958510221878
 31
0.0
  0
LINE
  5
3EEA
330
2D61
100
AcDbEntity
  8
AM_5
 62
     3
100
AcDbLine
 10
-2.999999999999948
 20
-6.850000000000378
 30
0.0
 11
8.819876986406139
 21
-6.850041489609703
 31
0.0
  0
LINE
  5
3EEB
330
2D61
100
AcDbEntity
  8
AM_5
 62
     3
100
AcDbLine
 10
8.319920687848471
 20
5.599960265307461
 30
0.0
 11
8.319881374103925
 21
-5.600039734539522
 31
0.0
  0
INSERT
  5
3EEC
330
2D61
100
AcDbEntity
  8
AM_5
 62
     3
100
AcDbBlockReference
  2
_OPEN30
 10
8.319925075543174
 20
6.849960265299761
 30
0.0
 41
1.25
 42
1.25
 43
1.25
 50
89.99979888288931
  0
INSERT
  5
3EED
330
2D61
100
AcDbEntity
  8
AM_5
 62
     3
100
AcDbBlockReference
  2
_OPEN30
 10
8.319876986409219
 20
-6.850039734531821
 30
0.0
 41
1.25
 42
1.25
 43
1.25
 50
269.9997988828893
  0
MTEXT
  5
3EEE
330
2D61
100
AcDbEntity
  8
AM_5
 62
     2
100
AcDbMText
 10
6.61990103098667
 20
-0.0000337673512334
 30
0.0
 40
1.9
 41
0.0
 71
     5
 72
     1
  1
%%c13.7
 11
0.0000035101557632
 21
0.9999999999938395
 31
0.0
1001
ACAD
1000
MTEXTBEGIN
1070
    73
1070
     1
1070
    44
1040
1.0
1070
    74
1070
     0
1000
MTEXTEND
  0
POINT
  5
3EEF
330
2D61
100
AcDbEntity
  8
DEFPOINTS
 62
     0
100
AcDbPoint
 10
-2.99999999999989
 20
6.850000000000013
 30
0.0
  0
POINT
  5
3EF0
330
2D61
100
AcDbEntity
  8
DEFPOINTS
 62
     0
100
AcDbPoint
 10
-2.999999999999968
 20
-6.85000000000037
 30
0.0
  0
POINT
  5
3EF1
330
2D61
100
AcDbEntity
  8
DEFPOINTS
 62
     0
100
AcDbPoint
 10
8.3198769864092
 20
-6.850039734531845
 30
0.0
  0
ENDBLK
  5
2D6C
330
2D61
100
AcDbEntity
  8
0
100
AcDbBlockEnd
  0
BLOCK
  5
325A
330
3250
100
AcDbEntity
  8
0
100
AcDbBlockBegin
  2
*D8
 70
     1
 10
0.0
 20
0.0
 30
0.0
  3
*D8
  1

  0
LINE
  5
3ED5
330
3250
100
AcDbEntity
  8
AM_5
 62
     3
100
AcDbLine
 10
-136.2499999999993
 20
-7.000000000000657
 30
0.0
 11
-147.000001
 21
-7.000000000000704
 31
0.0
  0
LINE
  5
3ED6
330
3250
100
AcDbEntity
  8
AM_5
 62
     3
100
AcDbLine
 10
-136.25
 20
6.999999999999969
 30
0.0
 11
-147.000001
 21
6.999999999999922
 31
0.0
  0
LINE
  5
3ED7
330
3250
100
AcDbEntity
  8
AM_5
 62
     3
100
AcDbLine
 10
-146.500001
 20
-5.750000000000702
 30
0.0
 11
-146.500001
 21
5.749999999999924
 31
0.0
  0
INSERT
  5
3ED8
330
3250
100
AcDbEntity
  8
AM_5
 62
     3
100
AcDbBlockReference
  2
_OPEN30
 10
-146.500001
 20
-7.000000000000702
 30
0.0
 41
1.25
 42
1.25
 43
1.25
 50
270.0000000000002
  0
INSERT
  5
3ED9
330
3250
100
AcDbEntity
  8
AM_5
 62
     3
100
AcDbBlockReference
  2
_OPEN30
 10
-146.500001
 20
6.999999999999924
 30
0.0
 41
1.25
 42
1.25
 43
1.25
 50
90.00000000000026
  0
MTEXT
  5
3EDA
330
3250
100
AcDbEntity
  8
AM_5
 62
     2
100
AcDbMText
 10
-148.200001
 20
0.0000129000658633
 30
0.0
 40
1.9
 41
0.0
 71
     5
 72
     1
  1
%%c14
 11
-0.0000000000000046
 21
1.0
 31
0.0
1001
ACAD
1000
MTEXTBEGIN
1070
    73
1070
     1
1070
    44
1040
1.0
1070
    74
1070
     0
1000
MTEXTEND
  0
POINT
  5
3EDB
330
3250
100
AcDbEntity
  8
DEFPOINTS
 62
     0
100
AcDbPoint
 10
-136.2499999999994
 20
-7.000000000000022
 30
0.0
  0
POINT
  5
3EDC
330
3250
100
AcDbEntity
  8
DEFPOINTS
 62
     0
100
AcDbPoint
 10
-136.2499999999999
 20
7.000000000000604
 30
0.0
  0
POINT
  5
3EDD
330
3250
100
AcDbEntity
  8
DEFPOINTS
 62
     0
100
AcDbPoint
 10
-146.500001
 20
7.000000000000608
 30
0.0
  0
ENDBLK
  5
325B
330
3250
100
AcDbEntity
  8
0
100
AcDbBlockEnd
  0
BLOCK
  5
39D7
330
39C9
100
AcDbEntity
  8
0
100
AcDbBlockBegin
  2
*D9
 70
     1
 10
0.0
 20
0.0
 30
0.0
  3
*D9
  1

  0
LINE
  5
3F40
330
39C9
100
AcDbEntity
  8
AM_5
100
AcDbLine
 10
0.1710100704080502
 20
-0.4698463108496696
 30
0.0
 11
4.971683767991252
 21
-13.659589002728
 31
0.0
  0
LINE
  5
3F41
330
39C9
100
AcDbEntity
  8
AM_5
100
AcDbLine
 10
0.171011111182964
 20
0.4698459320372577
 30
0.0
 11
4.971714025880348
 21
13.65957798971914
 31
0.0
  0
ARC
  5
3F42
330
39C9
100
AcDbEntity
  8
AM_5
100
AcDbCircle
 10
-0.0000000000000212
 20
-0.0000000000000102
 30
0.0
 40
14.03623098373012
100
AcDbArc
 50
295.1041772050756
 51
64.89569587675413
  0
INSERT
  5
3F43
330
39C9
100
AcDbEntity
  8
AM_5
100
AcDbBlockReference
  2
_OPEN30
 10
4.800673697583182
 20
-13.18974269187835
 30
0.0
 41
1.25
 42
1.25
 43
1.25
 50
202.552088526031
  0
INSERT
  5
3F44
330
39C9
100
AcDbEntity
  8
AM_5
100
AcDbBlockReference
  2
_OPEN30
 10
4.800702914697366
 20
13.18973205768188
 30
0.0
 41
1.25
 42
1.25
 43
1.25
 50
157.4477845557987
  0
MTEXT
  5
3F45
330
39C9
100
AcDbEntity
  8
AM_5
 62
     2
100
AcDbMText
 10
12.48623098372243
 20
-0.000013829374558
 30
0.0
 40
1.6
 41
0.0
 71
     5
 72
     1
  1
140°
  7
ASAMI
 11
0.0000011075699751
 21
0.9999999999993868
 31
0.0
  0
POINT
  5
3F46
330
39C9
100
AcDbEntity
  8
DEFPOINTS
 62
     0
100
AcDbPoint
 10
12.88828925920116
 20
-5.559476612036871
 30
0.0
  0
POINT
  5
3F47
330
39C9
100
AcDbEntity
  8
DEFPOINTS
 62
     0
100
AcDbPoint
 10
-0.0000000000000184
 20
-0.0000000000000025
 30
0.0
  0
POINT
  5
3F48
330
39C9
100
AcDbEntity
  8
DEFPOINTS
 62
     0
100
AcDbPoint
 10
-0.0000000000000184
 20
-0.0000000000000179
 30
0.0
  0
POINT
  5
3F49
330
39C9
100
AcDbEntity
  8
DEFPOINTS
 62
     0
100
AcDbPoint
 10
-0.8156548808968672
 20
2.240993385953342
 30
0.0
  0
POINT
  5
3F4A
330
39C9
100
AcDbEntity
  8
DEFPOINTS
 62
     0
100
AcDbPoint
 10
-0.8156711850108194
 20
-2.241022735343
 30
0.0
  0
ENDBLK
  5
39D8
330
39C9
100
AcDbEntity
  8
0
100
AcDbBlockEnd
  0
ENDSEC
  0
SECTION
  2
ENTITIES
  0
LINE
  5
C1D
330
1F
100
AcDbEntity
  8
AM_0
 48
0.5
100
AcDbLine
 10
-0.0000000000000184
 20
-0.0000000000000179
 30
0.0
 11
-0.8156548808968672
 21
2.240993385953342
 31
0.0
  0
LINE
  5
C20
330
1F
100
AcDbEntity
  8
AM_0
 48
0.5
100
AcDbLine
 10
-0.0000000000000184
 20
-0.0000000000000025
 30
0.0
 11
-0.8156711850108193
 21
-2.241022735342999
 31
0.0
  0
DIMENSION
  5
CC6
330
1F
100
AcDbEntity
  8
AM_5
100
AcDbDimension
  2
*D5
 10
-2.999999999999864
 20
-19.00000099999954
 30
0.0
 11
-69.99999999999994
 21
-17.30000099999954
 31
0.0
 70
    32
  1
<>
  3
AM_JIS$0
100
AcDbAlignedDimension
 13
-137.0
 23
-6.249999999999392
 33
0.0
 14
-2.999999999999864
 24
-6.850000000000222
 34
0.0
 50
0.0000000000001132
100
AcDbRotatedDimension
1001
GENIUS_GENDTOL_13
1000

1000
h7
1000

1040
0.0
1001
ACAD
1000
DSTYLE
1002
{
1070
   271
1070
     0
1002
}
  0
TEXT
  5
19BD
330
1F
100
AcDbEntity
  8
AM_6
100
AcDbText
 10
-81.01190476190472
 20
-30.25000099999957
 30
0.0
 40
2.5
  1
MDW137MHK
 50
0.0000000000001527
 72
     4
 11
-69.99999999999996
 21
-29.00000099999954
 31
0.0
100
AcDbText
  0
DIMENSION
  5
2069
330
1F
100
AcDbEntity
  8
AM_5
100
AcDbDimension
  2
*D6
 10
-2.999999999999864
 20
-14.00000099999945
 30
0.0
 11
-37.99999999999971
 21
-12.30000099999945
 31
0.0
 70
    32
  1
<>
 51
359.9999999999998
  3
AM_JIS$0
100
AcDbAlignedDimension
 13
-72.99999999999958
 23
-6.999999999999437
 33
0.0
 14
-2.999999999999864
 24
-6.850000000000222
 34
0.0
 50
0.0000000000001527
100
AcDbRotatedDimension
1001
ACAD
1000
DSTYLE
1002
{
1070
   271
1070
     0
1070
   174
1070
     1
1002
}
1001
GENIUS_GENDTOL_13
1000

1000
h7
1000

1040
0.0
  0
LINE
  5
23EF
330
1F
100
AcDbEntity
  8
AM_7
100
AcDbLine
 10
-139.5
 20
0.0000000000006254
 30
0.0
 11
1.31990003107253
 21
-0.0000000000000059
 31
0.0
1001
GENIUS_GENODEF_13
1002
{
1000
HIER
1070
     0
1002
}
1002
{
1000
MANEDIT
1070
     0
1002
}
1002
{
1000
NOSEL
1070
     0
1002
}
1002
{
1000
BEHIND
1070
     0
1002
}
1002
{
1000
REACTOR
1002
}
1001
GENIUS_GENOBJ-N-CEN_13
1002
{
1000
OWNER
1000
GEN
1002
}
  0
LINE
  5
24A7
330
1F
100
AcDbEntity
  8
AM_0
 48
0.5
100
AcDbLine
 10
-2.03549264257601
 20
5.238137003253047
 30
0.0
 11
-2.999999999999889
 21
6.850000000000012
 31
0.0
  0
ELLIPSE
  5
24B7
330
1F
100
AcDbEntity
  8
AM_11
 48
0.5
100
AcDbEllipse
 10
-23.32861992899415
 20
25.5782585445966
 30
0.0
 11
-29.52377541859904
 21
0.0000000000002247
 31
0.0
210
0.0
220
0.0
230
1.0
 40
0.9578947368421056
 41
1.130070686340284
 42
2.011520147323574
  0
ELLIPSE
  5
24B8
330
1F
100
AcDbEntity
  8
AM_11
 48
0.5
100
AcDbEllipse
 10
-23.32861992899555
 20
-25.5782399771502
 30
0.0
 11
-29.523775418599
 21
0.0000000000001329
 31
0.0
210
0.0
220
0.0
230
1.0
 40
0.9578947368421054
 41
4.271664206181664
 42
5.153113667164971
  0
ELLIPSE
  5
24BE
330
1F
100
AcDbEntity
  8
AM_0
 48
0.5
100
AcDbEllipse
 10
6.427941069841749
 20
6.822151504816332
 30
0.0
 11
-4.125194819159457
 21
8.273242462115604
 31
0.0
210
0.0
220
0.0
230
1.0
 40
0.9264225005910461
 41
1.312765717361252
 42
1.664773036319176
  0
ELLIPSE
  5
24C7
330
1F
100
AcDbEntity
  8
AM_11
 48
0.5
100
AcDbEllipse
 10
-98.89680174716888
 20
25.57825854459852
 30
0.0
 11
-29.52377541859904
 21
0.0000000000006574
 31
0.0
210
0.0
220
0.0
230
1.0
 40
0.9578947368421056
 41
1.130070686340301
 42
2.011520147323591
  0
ELLIPSE
  5
24C8
330
1F
100
AcDbEntity
  8
AM_11
 48
0.5
100
AcDbEllipse
 10
-98.89680174717033
 20
-25.57823997714828
 30
0.0
 11
29.523775418599
 21
0.0000000000004935
 31
0.0
210
0.0
220
0.0
230
1.0
 40
0.957894736842107
 41
1.13007155259185
 42
2.011521013575156
  0
ELLIPSE
  5
24D4
330
1F
100
AcDbEntity
  8
AM_11
 48
0.5
100
AcDbEllipse
 10
-73.70740780777495
 20
25.57825854459791
 30
0.0
 11
-29.52377541859908
 21
0.0000000000001723
 31
0.0
210
0.0
220
0.0
230
1.0
 40
0.9578947368421049
 41
1.130070686340283
 42
2.011520147323574
  0
ELLIPSE
  5
24D5
330
1F
100
AcDbEntity
  8
AM_11
 48
0.5
100
AcDbEllipse
 10
-73.70740780777636
 20
-25.57823997714889
 30
0.0
 11
-29.52377541859895
 21
0.0000000000005328
 31
0.0
210
0.0
220
0.0
230
1.0
 40
0.9578947368421083
 41
4.271664206181676
 42
5.153113667164986
  0
ELLIPSE
  5
24E6
330
1F
100
AcDbEntity
  8
AM_11
 48
0.5
100
AcDbEllipse
 10
-48.5180138683895
 20
-25.57823997714956
 30
0.0
 11
-29.52377541859899
 21
0.0000000000008016
 31
0.0
210
0.0
220
0.0
230
1.0
 40
0.957894736842106
 41
4.271664206181685
 42
5.153113667164993
  0
ELLIPSE
  5
24E7
330
1F
100
AcDbEntity
  8
AM_11
 48
0.5
100
AcDbEllipse
 10
-48.51801386838809
 20
25.57825854459724
 30
0.0
 11
29.52377541859905
 21
0.0000000000000477
 31
0.0
210
0.0
220
0.0
230
1.0
 40
0.9578947368421053
 41
4.271663339930067
 42
5.153112800913361
  0
ELLIPSE
  5
2BF3
330
1F
100
AcDbEntity
  8
AM_11
 48
0.5
100
AcDbEllipse
 10
-124.0861956865524
 20
25.57825854459774
 30
0.0
 11
-29.52377541859908
 21
0.0000000000001723
 31
0.0
210
0.0
220
0.0
230
1.0
 40
0.9578947368421049
 41
1.130070686340283
 42
2.011520147323574
  0
ELLIPSE
  5
2BF5
330
1F
100
AcDbEntity
  8
AM_11
 48
0.5
100
AcDbEllipse
 10
-124.0861956865538
 20
-25.57823997714906
 30
0.0
 11
-29.52377541859895
 21
0.0000000000005328
 31
0.0
210
0.0
220
0.0
230
1.0
 40
0.9578947368421083
 41
4.271664206181676
 42
5.153113667164986
  0
LINE
  5
2C0E
330
1F
100
AcDbEntity
  8
AM_0
 48
0.5
100
AcDbLine
 10
-72.99999999999996
 20
-6.999999999999437
 30
0.0
 11
-72.99999999999996
 21
7.000000000000559
 31
0.0
  0
DIMENSION
  5
2D60
330
1F
100
AcDbEntity
  8
AM_5
100
AcDbDimension
  2
*D7
 10
8.3198769864092
 20
-6.850039734531845
 30
0.0
 11
6.61990103098667
 21
-0.0000337673512526
 31
0.0
 70
    32
  1
%%c<>
 51
359.9999999999998
  3
AM_JIS$0
100
AcDbAlignedDimension
 13
-2.999999999999889
 23
6.850000000000012
 33
0.0
 14
-2.999999999999968
 24
-6.850000000000369
 34
0.0
 50
89.99979888288933
100
AcDbRotatedDimension
1001
ACAD
1000
DSTYLE
1002
{
1070
   271
1070
     1
1002
}
1001
GENIUS_GENDTOL_13
1000

1000
h7
1000

1040
0.0
  0
LINE
  5
2FB7
330
1F
100
AcDbEntity
  8
AM_0
100
AcDbLine
 10
-72.99999999999996
 20
7.000000000000537
 30
0.0
 11
-72.74026113681792
 21
6.850039697423389
 31
0.0
  0
LINE
  5
2FB9
330
1F
100
AcDbEntity
  8
AM_0
100
AcDbLine
 10
-72.99999999999993
 20
-6.99999999999964
 30
0.0
 11
-72.74019200441806
 21
-6.849999783812842
 31
0.0
  0
LINE
  5
324C
330
1F
100
AcDbEntity
  8
AM_0
100
AcDbLine
 10
-136.25
 20
-6.999999999999393
 30
0.0
 11
-72.99999999999996
 21
-6.999999999999437
 31
0.0
  0
DIMENSION
  5
324F
330
1F
100
AcDbEntity
  8
AM_5
100
AcDbDimension
  2
*D8
 10
-146.500001
 20
7.000000000000608
 30
0.0
 11
-146.500001
 21
0.0000129000665575
 31
0.0
 70
   160
  1
%%c<>
 51
359.9999999999997
  3
AM_JIS$0
100
AcDbAlignedDimension
 13
-136.2499999999994
 23
-7.000000000000022
 33
0.0
 14
-136.2499999999999
 24
7.000000000000604
 34
0.0
 50
270.0
100
AcDbRotatedDimension
1001
ACAD
1000
DSTYLE
1002
{
1070
   271
1070
     0
1002
}
1001
GENIUS_GENDTOL_13
1000

1000
h7
1000

1040
0.0
  0
LINE
  5
325C
330
1F
100
AcDbEntity
  8
AM_0
 48
0.5
100
AcDbLine
 10
-136.2499999999999
 20
-6.999999999999393
 30
0.0
 11
-136.2499999999999
 21
7.000000000000604
 31
0.0
  0
LINE
  5
325D
330
1F
100
AcDbEntity
  8
AM_0
 48
0.5
100
AcDbLine
 10
-137.0
 20
-6.249999999999392
 30
0.0
 11
-136.9999999999999
 21
6.250000000000605
 31
0.0
  0
LINE
  5
325E
330
1F
100
AcDbEntity
  8
AM_0
100
AcDbLine
 10
-72.99999999999996
 20
7.000000000000558
 30
0.0
 11
-136.2499999999999
 21
7.000000000000604
 31
0.0
  0
ELLIPSE
  5
353A
330
1F
100
AcDbEntity
  8
AM_11
 48
0.5
100
AcDbEllipse
 10
-149.275536059299
 20
-25.57823997714844
 30
0.0
 11
29.523775418599
 21
0.0000000000004935
 31
0.0
210
0.0
220
0.0
230
1.0
 40
0.957894736842107
 41
1.13007155259185
 42
1.141990804268682
  0
ELLIPSE
  5
353B
330
1F
100
AcDbEntity
  8
AM_11
 48
0.5
100
AcDbEllipse
 10
-149.2755360592975
 20
25.57825854459835
 30
0.0
 11
-29.52377541859904
 21
0.0000000000006574
 31
0.0
210
0.0
220
0.0
230
1.0
 40
0.9578947368421056
 41
1.999601849321061
 42
2.011520147323591
  0
LINE
  5
3921
330
1F
100
AcDbEntity
  8
AM_0
 48
0.5
100
AcDbLine
 10
-136.2499999999999
 20
7.000000000000604
 30
0.0
 11
-136.9999999999999
 21
6.250000000000605
 31
0.0
1001
GENIUS_GENFIL_13
1070
     0
1040
0.75
1040
0.75
1040
20.0
1040
0.0
1002
{
1002
}
1001
GENIUS_GENODEF_13
1002
{
1000
HIER
1070
     0
1002
}
1002
{
1000
MANEDIT
1070
     0
1002
}
1002
{
1000
NOSEL
1070
     0
1002
}
1002
{
1000
BEHIND
1070
     0
1002
}
1002
{
1000
REACTOR
1002
}
1001
GENIUS_GENOBJ-N-CHA_13
1002
{
1000
OWNER
1000
GEN
1002
}
  0
LINE
  5
3924
330
1F
100
AcDbEntity
  8
AM_0
100
AcDbLine
 10
-137.0
 20
-6.249999999999392
 30
0.0
 11
-136.25
 21
-6.999999999999393
 31
0.0
1001
GENIUS_GENFIL_13
1070
     0
1040
0.75
1040
0.75
1040
20.0
1040
0.0
1002
{
1002
}
1001
GENIUS_GENODEF_13
1002
{
1000
HIER
1070
     0
1002
}
1002
{
1000
MANEDIT
1070
     0
1002
}
1002
{
1000
NOSEL
1070
     0
1002
}
1002
{
1000
BEHIND
1070
     0
1002
}
1002
{
1000
REACTOR
1002
}
1001
GENIUS_GENOBJ-N-CHA_13
1002
{
1000
OWNER
1000
GEN
1002
}
  0
ELLIPSE
  5
3976
330
1F
100
AcDbEntity
  8
AM_0
 48
0.5
100
AcDbEllipse
 10
6.427941069842399
 20
-6.822151504815858
 30
0.0
 11
-4.125194819158669
 21
-8.273242462115996
 31
0.0
210
0.0
220
0.0
230
-1.0
 40
0.9264225005910461
 41
1.312765717361252
 42
1.664773036319176
  0
LINE
  5
3977
330
1F
100
AcDbEntity
  8
AM_0
 48
0.5
100
AcDbLine
 10
-2.035492642575511
 20
-5.238137003253379
 30
0.0
 11
-2.999999999999968
 21
-6.850000000000369
 31
0.0
  0
DIMENSION
  5
39C8
330
1F
100
AcDbEntity
  8
AM_5
100
AcDbDimension
  2
*D9
 10
-0.8156711850108193
 20
-2.241022735342999
 30
0.0
 11
12.48623098372243
 21
-0.000013829374595
 31
0.0
 70
    34
  1
<>
 51
359.9999999999998
  3
AM_JIS$2
100
AcDb2LineAngularDimension
 13
-0.0000000000000184
 23
-0.0000000000000179
 33
0.0
 14
-0.8156548808968672
 24
2.240993385953342
 34
0.0
 15
-0.0000000000000184
 25
-0.0000000000000025
 35
0.0
 16
12.88828925920116
 26
-5.559476612036871
 36
0.0
1001
GENIUS_GENDTOL_13
1000

1000
h7
1000

1040
0.0
1001
ACAD
1000
DSTYLE
1002
{
1070
   271
1070
     1
1070
   179
1070
     1
1002
}
  0
ELLIPSE
  5
3D65
330
1F
100
AcDbEntity
  8
AM_11
 48
0.5
100
AcDbEllipse
 10
1.860774010399947
 20
25.96293718039568
 30
0.0
 11
-29.52377541860006
 21
0.0000000000180494
 31
0.0
210
0.0
220
0.0
230
1.0
 40
0.9723007856340966
 41
1.13007068634088
 42
1.291800737381565
  0
LINE
  5
3E50
330
1F
100
AcDbEntity
  8
AM_0
 48
0.5
100
AcDbLine
 10
-72.74019200441808
 20
-6.849999783812841
 30
0.0
 11
-70.58583774446184
 21
-6.849999912539483
 31
0.0
  0
ELLIPSE
  5
3E51
330
1F
100
AcDbEntity
  8
AM_0
 48
0.5
100
AcDbEllipse
 10
-71.17692627981741
 20
-4.405090347334989
 30
0.0
 11
1.508402133588173
 21
1.117169399127894
 31
0.0
210
0.0
220
0.0
230
1.0
 40
0.9172709773945308
 41
0.7397835474143753
 42
2.568029729676204
  0
LINE
  5
3E52
330
1F
100
AcDbEntity
  8
AM_0
100
AcDbLine
 10
-72.74030162213778
 20
-5.530232693378813
 30
0.0
 11
-72.74030593797622
 21
-6.850001335219094
 31
0.0
  0
ELLIPSE
  5
3E53
330
1F
100
AcDbEntity
  8
AM_0
 48
0.5
100
AcDbEllipse
 10
-70.67019212651198
 20
-4.567015075681132
 30
0.0
 11
-2.008703082160184
 21
1.247200244345391
 31
0.0
210
0.0
220
0.0
230
1.0
 40
0.9520004284870621
 41
0.5891710174776393
 42
2.140801247990177
  0
LINE
  5
3E54
330
1F
100
AcDbEntity
  8
AM_0
100
AcDbLine
 10
-72.74026113681791
 20
6.850039697423381
 30
0.0
 11
-72.74028382895611
 21
-0.0891385840930246
 31
0.0
  0
LINE
  5
3E55
330
1F
100
AcDbEntity
  8
AM_0
100
AcDbLine
 10
-72.74028439227675
 20
-0.261400105958606
 30
0.0
 11
-72.74029537015197
 21
-3.618396810949077
 31
0.0
  0
SPLINE
  5
3E56
330
1F
100
AcDbEntity
  8
AM_0
 48
0.5
100
AcDbSpline
210
0.0
220
0.0
230
1.0
 70
     8
 71
     3
 72
    26
 73
    22
 74
     0
 42
0.0000000001
 43
0.0000000001
 40
0.0
 40
0.0
 40
0.0
 40
0.0
 40
0.8422864037471089
 40
1.685694647057321
 40
2.531315797913884
 40
3.380177287502886
 40
4.233214169721234
 40
5.09125020057522
 40
5.954967768899448
 40
6.824900391836836
 40
7.701419186604396
 40
8.584724417931369
 40
9.47485577056355
 40
10.37165251267315
 40
11.27486274211709
 40
12.18400675634887
 40
13.09851504074504
 40
14.01768673654235
 40
14.94071745659532
 40
15.8667176994736
 40
16.58504726436246
 40
16.58504726436246
 40
16.58504726436246
 40
16.58504726436246
 10
-49.73435900326812
 20
-6.850348409015333
 30
0.0
 10
-50.12687864861565
 20
-6.846272825144313
 30
0.0
 10
-50.91244073543497
 20
-6.838116229140324
 30
0.0
 10
-52.09049798379475
 20
-6.772364902884319
 30
0.0
 10
-53.26850494875204
 20
-6.667837484736278
 30
0.0
 10
-54.44643899374903
 20
-6.521338280136409
 30
0.0
 10
-55.62428842623802
 20
-6.334852864512606
 30
0.0
 10
-56.80202977888921
 20
-6.109209640667269
 30
0.0
 10
-57.97966226820371
 20
-5.845933141770817
 30
0.0
 10
-59.15717786275384
 20
-5.54662237668091
 30
0.0
 10
-60.33457377877878
 20
-5.213134518685655
 30
0.0
 10
-61.51185970629086
 20
-4.847545223951714
 30
0.0
 10
-62.6890307670017
 20
-4.452111888532152
 30
0.0
 10
-63.86610029859088
 20
-4.029260198563515
 30
0.0
 10
-65.0430840392892
 20
-3.581639694013548
 30
0.0
 10
-66.21998453211657
 20
-3.111965756216177
 30
0.0
 10
-67.39681055024757
 20
-2.623156361836727
 30
0.0
 10
-68.57358370470739
 20
-2.118227359303866
 30
0.0
 10
-69.75028454801338
 20
-1.600219638849321
 30
0.0
 10
-70.83819008051309
 20
-1.112410512027679
 30
0.0
 10
-71.53343747263038
 20
-0.7967384753345681
 30
0.0
 10
-72.99999999999996
 20
-0.1461510574368001
 30
0.0
  0
LINE
  5
3E57
330
1F
100
AcDbEntity
  8
AM_0
 48
0.5
100
AcDbLine
 10
-57.83199978713465
 20
3.183503789769952
 30
0.0
 11
-72.99999999999996
 21
-0.146151057436782
 31
0.0
  0
LINE
  5
3E58
330
1F
100
AcDbEntity
  8
AM_0
 48
0.5
100
AcDbLine
 10
-68.94189973754063
 20
6.85010751666954
 30
0.0
 11
-72.74026113681791
 21
6.850039697423382
 31
0.0
  0
LINE
  5
3E59
330
1F
100
AcDbEntity
  8
AM_0
 48
0.5
100
AcDbLine
 10
-7.688035859564173
 20
6.850000000000245
 30
0.0
 11
-2.999999999999889
 21
6.850000000000012
 31
0.0
  0
LINE
  5
3E5A
330
1F
100
AcDbEntity
  8
AM_0
 48
0.5
100
AcDbLine
 10
-7.688035858001611
 20
-6.849999291712109
 30
0.0
 11
-3.000000000000112
 21
-6.850000000000369
 31
0.0
  0
LINE
  5
3E5B
330
1F
100
AcDbEntity
  8
AM_0
 48
0.5
100
AcDbLine
 10
-0.0000000000000351
 20
0.0000000000000245
 30
0.0
 11
-4.443180192990654
 21
2.630192638422345
 31
0.0
  0
LINE
  5
3E5C
330
1F
100
AcDbEntity
  8
AM_0
 48
0.5
100
AcDbLine
 10
-53.66808207559795
 20
-6.849999291710294
 30
0.0
 11
-29.87960557730701
 21
-6.849999999999524
 31
0.0
  0
LINE
  5
3E5D
330
1F
100
AcDbEntity
  8
AM_0
 48
0.5
100
AcDbLine
 10
-54.77993082335254
 20
6.850000708290022
 30
0.0
 11
-29.87960087363085
 21
6.850000000001247
 31
0.0
  0
LINE
  5
3E5E
330
1F
100
AcDbEntity
  8
AM_11
 48
0.5
100
AcDbLine
 10
-29.87960557730701
 20
-6.849999999999524
 30
0.0
 11
-7.688035858001611
 21
-6.849999291712109
 31
0.0
  0
LINE
  5
3E5F
330
1F
100
AcDbEntity
  8
AM_11
 48
0.5
100
AcDbLine
 10
-29.87960087363085
 20
6.850000000001247
 30
0.0
 11
-7.688035859564175
 21
6.850000000000246
 31
0.0
  0
ELLIPSE
  5
3E60
330
1F
100
AcDbEntity
  8
AM_0
 48
0.5
100
AcDbEllipse
 10
-16.93721493653149
 20
30.51869553924661
 30
0.0
 11
0.000000000047607
 21
35.28654013889972
 31
0.0
210
0.0
220
0.0
230
1.0
 40
0.9562043795621381
 41
3.579847691618428
 42
3.667473607415498
  0
ELLIPSE
  5
3E61
330
1F
100
AcDbEntity
  8
AM_0
 48
0.5
100
AcDbEllipse
 10
-8.85345340353767
 20
6.988295049667852
 30
0.0
 11
0.0000000000008347
 21
10.64249332296051
 31
0.0
210
0.0
220
0.0
230
1.0
 40
0.9562043795620462
 41
3.517054509082743
 42
3.681821570856246
  0
ELLIPSE
  5
3E62
330
1F
100
AcDbEntity
  8
AM_0
 48
0.5
100
AcDbEllipse
 10
-3.11984240909801
 20
-1.782778380970094
 30
0.0
 11
-0.1958931212009418
 21
1.12428598559043
 31
0.0
210
0.0
220
0.0
230
1.0
 40
0.4983656842983065
 41
1.804962831171545
 42
4.940304720883522
  0
ELLIPSE
  5
3E63
330
1F
100
AcDbEntity
  8
AM_0
 48
0.5
100
AcDbEllipse
 10
-3.119940665648383
 20
-1.785207898432743
 30
0.0
 11
-0.9866789439308973
 21
0.5713378877799685
 31
0.0
210
0.0
220
0.0
230
1.0
 40
0.500440774334402
 41
4.484857757124611
 42
7.628298098454123
  0
ELLIPSE
  5
3E64
330
1F
100
AcDbEntity
  8
AM_0
 48
0.5
100
AcDbEllipse
 10
5.762601090860431
 20
-1.829393368986202
 30
0.0
 11
-10.39977389718287
 21
5.342620864885019
 31
0.0
210
0.0
220
0.0
230
1.0
 40
0.820934215627547
 41
0.666944179321741
 42
1.08102983778386
  0
SPLINE
  5
3E65
330
1F
100
AcDbEntity
  8
AM_0
100
AcDbSpline
210
0.0
220
0.0
230
1.0
 70
     8
 71
     3
 72
    11
 73
     7
 74
     0
 42
0.0000000001
 43
0.0000000001
 40
11.27226913003534
 40
11.27226913003534
 40
11.27226913003534
 40
11.2722691300354
 40
12.28301561507924
 40
13.29510212255852
 40
14.30984805882082
 40
15.18258238371378
 40
15.18258238371378
 40
15.18258238371378
 40
15.18258238371378
 10
-29.87960557730708
 20
-6.849999999999528
 30
0.0
 10
-30.27062795927663
 20
-6.816473401114089
 30
0.0
 10
-31.05194458225044
 20
-6.735308679085046
 30
0.0
 10
-32.2198849433285
 20
-6.571579358706104
 30
0.0
 10
-33.32828093998704
 20
-6.376022637733288
 30
0.0
 10
-34.04512640908603
 20
-6.225692366180123
 30
0.0
 10
-34.37546921340294
 20
-6.151433364304581
 30
0.0
  0
SPLINE
  5
3E66
330
1F
100
AcDbEntity
  8
AM_0
100
AcDbSpline
210
0.0
220
0.0
230
1.0
 70
     8
 71
     3
 72
    17
 73
    13
 74
     0
 42
0.0000000001
 43
0.0000000001
 40
1.580019955310467
 40
1.580019955310467
 40
1.580019955310467
 40
1.580019955310467
 40
2.030549285115227
 40
3.082371838836284
 40
4.126290986361125
 40
5.162752068350215
 40
6.192395305374981
 40
7.216039564037012
 40
8.234688489606833
 40
9.249433870634691
 40
10.26152376260694
 40
11.27226744710342
 40
11.27226744710342
 40
11.27226744710342
 40
11.27226744710352
 10
-18.78295267873253
 20
-5.055501000855573
 30
0.0
 10
-18.94962811591297
 20
-5.107568468662899
 30
0.0
 10
-19.50638007274147
 20
-5.278226549005823
 30
0.0
 10
-20.45689373175501
 20
-5.54590985427578
 30
0.0
 10
-21.634245512192
 20
-5.84567964555862
 30
0.0
 10
-22.81192141647188
 20
-6.108837721376558
 30
0.0
 10
-23.98965128145055
 20
-6.334500337765395
 30
0.0
 10
-25.16750945798726
 20
-6.521026013955629
 30
0.0
 10
-26.34544900936551
 20
-6.667350330159674
 30
0.0
 10
-27.52346190868953
 20
-6.772525055847834
 30
0.0
 10
-28.70151913277216
 20
-6.835873169096678
 30
0.0
 10
-29.48708123194641
 20
-6.849999330907195
 30
0.0
 10
-29.87960557730701
 20
-6.849999999999528
 30
0.0
  0
SPLINE
  5
3E67
330
1F
100
AcDbEntity
  8
AM_0
100
AcDbSpline
210
0.0
220
0.0
230
1.0
 70
     8
 71
     3
 72
    22
 73
    18
 74
     0
 42
0.0000000001
 43
0.0000000001
 40
17.17441611292
 40
17.17441611292
 40
17.17441611292
 40
17.17441611292
 40
17.38177636558528
 40
18.41823744757437
 40
19.46215659509824
 40
20.51397914882054
 40
21.57394542641293
 40
22.64209583141747
 40
23.71826625065247
 40
24.80210429862395
 40
25.8930771157021
 40
26.99048705697709
 40
28.09349309193389
 40
29.20112995599786
 40
30.31233024745139
 40
31.42594771747373
 40
32.5407895042663
 40
32.54078950426994
 40
32.54078950426994
 40
32.54078950426994
 10
-34.37598441844271
 20
-6.151348869606961
 30
0.0
 10
-34.45486880959899
 20
-6.135491791467077
 30
0.0
 10
-34.92773765330563
 20
-6.038904595295709
 30
0.0
 10
-35.79400672892294
 20
-5.845234695868636
 30
0.0
 10
-36.97152241684954
 20
-5.545925209252558
 30
0.0
 10
-38.14891811839929
 20
-5.212436480865103
 30
0.0
 10
-39.32620214591983
 20
-4.846850230038427
 30
0.0
 10
-40.50337294430081
 20
-4.451408041016168
 30
0.0
 10
-41.68044500314976
 20
-4.028570933272308
 30
0.0
 10
-42.85742377264121
 20
-3.5809375276229
 30
0.0
 10
-44.03432014262753
 20
-3.11126835475311
 30
0.0
 10
-45.21114719945016
 20
-2.622460975966132
 30
0.0
 10
-46.38791515725801
 20
-2.117521082616023
 30
0.0
 10
-47.56463586212301
 20
-1.599555150251265
 30
0.0
 10
-48.74131974465004
 20
-1.071748083052185
 30
0.0
 10
-49.91798423638763
 20
-0.5373567359073369
 30
0.0
 10
-50.70227325411363
 20
-0.1789517949542635
 30
0.0
 10
-51.09463321281631
 20
0.0003491173076551
 30
0.0
  0
SPLINE
  5
3E68
330
1F
100
AcDbEntity
  8
AM_0
 48
0.5
100
AcDbSpline
210
0.0
220
0.0
230
1.0
 70
     8
 71
     3
 72
    17
 73
    13
 74
     0
 42
0.0000000001
 43
0.0000000001
 40
0.0
 40
0.0
 40
0.0
 40
0.0
 40
1.010743614677189
 40
2.022833924044153
 40
3.037578959561199
 40
4.056212747067873
 40
5.079857613375832
 40
6.109500119648989
 40
7.14596120163808
 40
8.18989512056258
 40
9.241717674284874
 40
9.693948937866434
 40
9.693948937866434
 40
9.693948937866434
 40
9.693948937866434
 10
-7.688035859564173
 20
6.850000000000246
 30
0.0
 10
-8.080555576298365
 20
6.845927353015698
 30
0.0
 10
-8.866117995230659
 20
6.837776632732825
 30
0.0
 10
-10.04417425184142
 20
6.772007316926796
 30
0.0
 10
-11.22218200855991
 20
6.667490952006177
 30
0.0
 10
-12.40011650322113
 20
6.520991498199906
 30
0.0
 10
-13.57796370696652
 20
6.334495824370463
 30
0.0
 10
-14.75570923355681
 20
6.108868591205787
 30
0.0
 10
-15.93333727566764
 20
5.845562235823313
 30
0.0
 10
-17.11089352999417
 20
5.546349404419436
 30
0.0
 10
-18.06144764477013
 20
5.276803872797976
 30
0.0
 10
-18.61966875298066
 20
5.108299153191053
 30
0.0
 10
-18.78721678073277
 20
5.05672098653948
 30
0.0
  0
SPLINE
  5
3E69
330
1F
100
AcDbEntity
  8
AM_0
 48
0.5
100
AcDbSpline
210
0.0
220
0.0
230
1.0
 70
     8
 71
     3
 72
    25
 73
    21
 74
     0
 42
0.0000000001
 43
0.0000000001
 40
6.846175049578289
 40
6.846175049578289
 40
6.846175049578289
 40
6.846175049578289
 40
7.604337694224321
 40
8.711974558287883
 40
9.814980593243754
 40
10.91239053451967
 40
12.0033633515982
 40
13.08720139956839
 40
14.16337181880432
 40
15.23152222380919
 40
16.29148850140128
 40
17.34331105512262
 40
18.38723020264746
 40
19.42369128463655
 40
20.45333379090873
 40
21.47697865721768
 40
22.49561244472435
 40
23.5103574802404
 40
24.52244778960836
 40
25.53320666051913
 40
25.53320666051913
 40
25.53320666051913
 40
25.53320666051913
 10
-9.061947120714698
 20
1.239895554216191
 30
0.0
 10
-9.32956140149426
 20
1.360169371536054
 30
0.0
 10
-9.988709671696557
 20
1.654953537593654
 30
0.0
 10
-11.04037149574703
 20
2.117870795517534
 30
0.0
 10
-12.2171393892434
 20
2.622810831549545
 30
0.0
 10
-13.39396646316142
 20
3.11161817234267
 30
0.0
 10
-14.57086282863886
 20
3.581287355477809
 30
0.0
 10
-15.74784159920559
 20
4.02892075776978
 30
0.0
 10
-16.92491365821828
 20
4.451757868739275
 30
0.0
 10
-18.10208445490064
 20
4.84720004828565
 30
0.0
 10
-19.27936848897698
 20
5.212786333435808
 30
0.0
 10
-20.45676416626423
 20
5.546274935353602
 30
0.0
 10
-21.63427994374847
 20
5.845584888654772
 30
0.0
 10
-22.81191166592233
 20
6.10886381070431
 30
0.0
 10
-23.98965473236117
 20
6.334497990077302
 30
0.0
 10
-25.16750258947839
 20
6.520991818775298
 30
0.0
 10
-26.34543691043422
 20
6.667491764402517
 30
0.0
 10
-27.52344471319702
 20
6.772007994223727
 30
0.0
 10
-28.70150687515039
 20
6.837777691610894
 30
0.0
 10
-29.48707522667854
 20
6.845928157607302
 30
0.0
 10
-29.87960087363085
 20
6.850000000001247
 30
0.0
  0
ELLIPSE
  5
3E6A
330
1F
100
AcDbEntity
  8
AM_0
 48
0.5
100
AcDbEllipse
 10
3.023189323224979
 20
8.223847143834248
 30
0.0
 11
-12.04251629305701
 21
10.98712336180252
 31
0.0
210
0.0
220
0.0
230
1.0
 40
0.8449703669454013
 41
1.308905072720297
 42
1.662270368957613
  0
SPLINE
  5
3E6B
330
1F
100
AcDbEntity
  8
AM_0
 48
0.5
100
AcDbSpline
210
0.0
220
0.0
230
1.0
 70
     8
 71
     3
 72
    10
 73
     6
 74
     0
 42
0.0000000001
 43
0.0000000001
 40
0.0
 40
0.0
 40
0.0
 40
0.0
 40
2.69986029516136
 40
4.147722969032201
 40
6.285750005020438
 40
6.285750005020438
 40
6.285750005020438
 40
6.285750005020438
 10
-9.061890443300701
 20
1.239814195022822
 30
0.0
 10
-8.044544002265935
 20
0.603401859389379
 30
0.0
 10
-6.784461986000892
 20
-0.3743013451108785
 30
0.0
 10
-3.804537287397798
 20
0.0990219041027259
 30
0.0
 10
-4.365743784598513
 20
1.6932372374426
 30
0.0
 10
-4.443180192990654
 20
2.630192638422345
 30
0.0
  0
SPLINE
  5
3E6C
330
1F
100
AcDbEntity
  8
AM_0
100
AcDbSpline
210
0.0
220
0.0
230
1.0
 70
     8
 71
     3
 72
    46
 73
    42
 74
     0
 42
0.0000000001
 43
0.0000000001
 40
0.0
 40
0.0
 40
0.0
 40
0.0
 40
1.685415058684571
 40
2.531036209541119
 40
3.379897699130121
 40
4.232934581347655
 40
5.090970612202441
 40
5.954688180526682
 40
6.824620803463246
 40
7.701151815239689
 40
8.584457046566678
 40
9.474582384070741
 40
10.37139106676737
 40
11.27458944007583
 40
12.18373345430765
 40
13.09824173870457
 40
14.01741343450111
 40
14.9404441545541
 40
15.86644439743314
 40
16.79446029130534
 40
17.7234937712985
 40
18.65252725129241
 40
19.58054314516461
 40
20.50654338804289
 40
21.42957410809586
 40
22.34874580389317
 40
23.26325408828901
 40
24.17239810252111
 40
25.07560240389441
 40
25.97241108659103
 40
26.8625364240951
 40
27.74584165542183
 40
28.62236045019041
 40
29.49229307312697
 40
30.35601064145121
 40
31.21404606334468
 40
32.06708345193547
 40
32.91595755657689
 40
33.76157841950693
 40
34.60498701064689
 40
35.44727335621125
 40
35.44727335621125
 40
35.44727335621125
 40
35.44727335621125
 10
-4.390276043240156
 20
-6.849999291712268
 30
0.0
 10
-5.175876511276266
 20
-6.834394462200958
 30
0.0
 10
-6.355635301602805
 20
-6.8109602414532
 30
0.0
 10
-7.924412012300879
 20
-6.666680049404881
 30
0.0
 10
-9.102358723162224
 20
-6.521207235587747
 30
0.0
 10
-10.28020474762132
 20
-6.334444853514583
 30
0.0
 10
-11.45794698282844
 20
-6.108876350226824
 30
0.0
 10
-12.63557937849075
 20
-5.84558013533665
 30
0.0
 10
-13.81309996225092
 20
-5.546271416544618
 30
0.0
 10
-14.99050349372646
 20
-5.212787993691311
 30
0.0
 10
-16.16779232626461
 20
-4.847198254635411
 30
0.0
 10
-17.34496329331643
 20
-4.451756554077202
 30
0.0
 10
-18.52203530676327
 20
-4.028919314613959
 30
0.0
 10
-19.69901408741048
 20
-3.581285942226494
 30
0.0
 10
-20.87591045867553
 20
-3.111616769443926
 30
0.0
 10
-22.05273749897359
 20
-2.622809356419561
 30
0.0
 10
-23.22950552207633
 20
-2.117869600957279
 30
0.0
 10
-24.40622598090573
 20
-1.599903148353631
 30
0.0
 10
-25.58291135205316
 20
-1.072097778617055
 30
0.0
 10
-26.75957238461627
 20
-0.5376991237567812
 30
0.0
 10
-27.93622352595905
 20
0.000000708180007
 30
0.0
 10
-29.11287466704332
 20
0.5377005407702092
 30
0.0
 10
-30.28953570038178
 20
1.072099193671196
 30
0.0
 10
-31.46622106869518
 20
1.59990457056809
 30
0.0
 10
-32.64294153803337
 20
2.117870996616724
 30
0.0
 10
-33.81970952217051
 20
2.622810850542312
 30
0.0
 10
-34.99653670677146
 20
3.111617898922418
 30
0.0
 10
-36.1734351027847
 20
3.58128944156823
 30
0.0
 10
-37.35041845660363
 20
4.028918746979589
 30
0.0
 10
-38.52749256976652
 20
4.451758154607394
 30
0.0
 10
-39.70466350941044
 20
4.847199972830556
 30
0.0
 10
-40.88194750577984
 20
5.21278635242917
 30
0.0
 10
-42.05934319245774
 20
5.546274933988541
 30
0.0
 10
-43.2368589696579
 20
5.845584875489439
 30
0.0
 10
-44.41449068376844
 20
6.108863864158957
 30
0.0
 10
-45.5922337824241
 20
6.334497791201444
 30
0.0
 10
-46.7700873239874
 20
6.520993474198212
 30
0.0
 10
-47.94802796518797
 20
6.667490389524259
 30
0.0
 10
-49.12604148500273
 20
6.772008224650254
 30
0.0
 10
-50.30409776583205
 20
6.837777291295539
 30
0.0
 10
-51.0896601815417
 20
6.845928044737065
 30
0.0
 10
-51.4821798966655
 20
6.850000708289875
 30
0.0
  0
SPLINE
  5
3E6D
330
1F
100
AcDbEntity
  8
AM_0
100
AcDbSpline
210
0.0
220
0.0
230
1.0
 70
     8
 71
     3
 72
    55
 73
    51
 74
     0
 42
0.0000000001
 43
0.0000000001
 40
0.0
 40
0.0
 40
0.0
 40
0.0
 40
1.010743684496582
 40
2.022833576467832
 40
3.037578957496688
 40
4.056212745003489
 40
5.079857003664532
 40
6.109500240690281
 40
7.145961322679372
 40
8.189895241603872
 40
9.241717795325891
 40
10.30168407291828
 40
11.36983447792315
 40
12.44600489715814
 40
13.52984294512926
 40
14.62081576220742
 40
15.7182257034828
 40
16.82123173843959
 40
17.92886860250316
 40
19.0400688939571
 40
20.15368796660465
 40
21.26852814259644
 40
22.38336992938901
 40
23.49698739941135
 40
24.6081876908653
 40
25.71582455492886
 40
26.81883757994213
 40
27.91624752121713
 40
29.00722033829659
 40
30.09105838626677
 40
31.16722880550176
 40
32.23537921050758
 40
33.29534548809967
 40
34.347168041821
 40
35.39108718934584
 40
36.42754827133493
 40
37.45720575381954
 40
38.48085062012849
 40
39.49948440763516
 40
40.51422944315121
 40
41.52631975251916
 40
42.53706336719636
 40
43.54780698187354
 40
44.55989729124051
 40
45.57464232675757
 40
46.59327611426424
 40
47.6169209805722
 40
48.64656348684535
 40
49.68302456883444
 40
50.58557219878025
 40
50.58557219878025
 40
50.58557219878025
 40
50.58557219878025
 10
-7.688035858001607
 20
-6.849999291712109
 30
0.0
 10
-8.080555503301916
 20
-6.845923707663492
 30
0.0
 10
-8.866117590026391
 20
-6.837767111304096
 30
0.0
 10
-10.04417483909626
 20
-6.772015787718767
 30
0.0
 10
-11.22218180134398
 20
-6.66748835938013
 30
0.0
 10
-12.40011585652606
 20
-6.52098919308611
 30
0.0
 10
-13.57796525071491
 20
-6.334503633416826
 30
0.0
 10
-14.75570674757545
 20
-6.108860951937625
 30
0.0
 10
-15.93334428660079
 20
-5.845581158176831
 30
0.0
 10
-17.11086742452591
 20
-5.546276451621702
 30
0.0
 10
-18.2882681402722
 20
-5.212784545013488
 30
0.0
 10
-19.46555230253131
 20
-4.847198732576467
 30
0.0
 10
-20.642723064305
 20
-4.451756424545672
 30
0.0
 10
-21.81979513339907
 20
-4.028919349737789
 30
0.0
 10
-22.99677389888788
 20
-3.581285932573029
 30
0.0
 10
-24.17367027458697
 20
-3.11161677260685
 30
0.0
 10
-25.35049731243646
 20
-2.622809353485398
 30
0.0
 10
-26.52726534089878
 20
-2.117869609564489
 30
0.0
 10
-27.70398578064165
 20
-1.599903116695643
 30
0.0
 10
-28.88067122307388
 20
-1.072097897104974
 30
0.0
 10
-30.05733198884681
 20
-0.5376986803735875
 30
0.0
 10
-31.23398469423319
 20
-0.0000006893598774
 30
0.0
 10
-32.41063211743345
 20
0.537706980552768
 30
0.0
 10
-33.58729682711679
 20
1.072097875274831
 30
0.0
 10
-34.76398081691506
 20
1.599904692501852
 30
0.0
 10
-35.94070335473747
 20
2.11787315859217
 30
0.0
 10
-37.11747626499805
 20
2.622808593268637
 30
0.0
 10
-38.29430516019151
 20
3.111618491323821
 30
0.0
 10
-39.47120170579534
 20
3.581287270436734
 30
0.0
 10
-40.64818042845766
 20
4.02892078173712
 30
0.0
 10
-41.82525250056569
 20
4.451757857163531
 30
0.0
 10
-43.00242329232285
 20
4.847200070638113
 30
0.0
 10
-44.17970733307338
 20
5.212786256371876
 30
0.0
 10
-45.35710298878392
 20
5.546275218250829
 30
0.0
 10
-46.53461884508848
 20
5.845583844950855
 30
0.0
 10
-47.71225594727143
 20
6.108868932937087
 30
0.0
 10
-48.89000585360097
 20
6.334485842889811
 30
0.0
 10
-50.06785913907137
 20
6.521029123782054
 30
0.0
 10
-51.24579354344581
 20
6.66735463422347
 30
0.0
 10
-52.42380132420855
 20
6.772516819556821
 30
0.0
 10
-53.60185757442628
 20
6.835884809900545
 30
0.0
 10
-54.77993971171565
 20
6.857053958687743
 30
0.0
 10
-55.95802184727162
 20
6.835884809867459
 30
0.0
 10
-57.13607810269959
 20
6.772516819690169
 30
0.0
 10
-58.31408586427973
 20
6.667354633721942
 30
0.0
 10
-59.49202034057454
 20
6.521029125668104
 30
0.0
 10
-60.66986761340979
 20
6.334486745228221
 30
0.0
 10
-61.84761287985301
 20
6.108871239748637
 30
0.0
 10
-62.97170537867508
 20
5.85753532107803
 30
0.0
 10
-63.70102939344015
 20
5.673730987706492
 30
0.0
 10
-64.03939322821313
 20
5.584154169539183
 30
0.0
  0
SPLINE
  5
3E6E
330
1F
100
AcDbEntity
  8
AM_0
100
AcDbSpline
210
0.0
220
0.0
230
1.0
 70
     8
 71
     3
 72
    23
 73
    19
 74
     0
 42
0.0000000001
 43
0.0000000001
 40
16.03460024169435
 40
16.03460024169435
 40
16.03460024169435
 40
16.03460024169435
 40
16.35212704903564
 40
17.38177054169784
 40
18.41822485651776
 40
19.46214173629503
 40
20.51396345435107
 40
21.57393551351153
 40
22.64208202342361
 40
23.7182574881101
 40
24.80209208578934
 40
25.89306333925047
 40
26.99048218457928
 40
28.09348763352352
 40
29.20111863782268
 40
30.31232390128032
 40
31.42594612798585
 40
32.5407912310448
 40
32.5407912310486
 40
32.5407912310486
 40
32.5407912310486
 10
-69.75528780127142
 20
6.850000000001093
 30
0.0
 10
-68.85406324224681
 20
6.768640854074377
 30
0.0
 10
-68.30770465080793
 20
6.726175380146254
 30
0.0
 10
-67.40408105762819
 20
6.528868655822378
 30
0.0
 10
-66.23388613891171
 20
6.235475714478099
 30
0.0
 10
-65.06477815227795
 20
5.906044345000707
 30
0.0
 10
-63.89668801420365
 20
5.54248112812922
 30
0.0
 10
-62.72957426709978
 20
5.146812936936809
 30
0.0
 10
-61.56336945458885
 20
4.721301577662792
 30
0.0
 10
-60.39799236660034
 20
4.268423419684693
 30
0.0
 10
-59.23337678222255
 20
3.790743085606652
 30
0.0
 10
-58.069429330001
 20
3.291040085990664
 30
0.0
 10
-56.90605568501069
 20
2.772218910566351
 30
0.0
 10
-55.74317833498383
 20
2.237262563588626
 30
0.0
 10
-54.58069998338498
 20
1.689281742955879
 30
0.0
 10
-53.41851296009899
 20
1.13147625463058
 30
0.0
 10
-52.25652263029526
 20
0.5670784303691811
 30
0.0
 10
-51.48207048389093
 20
0.1886805501559788
 30
0.0
 10
-51.09463321281113
 20
-0.0006247577989796
 30
0.0
  0
LINE
  5
3E6F
330
1F
100
AcDbEntity
  8
AM_11
 48
0.5
100
AcDbLine
 10
-69.75528780127142
 20
6.850000000001093
 30
0.0
 11
-54.77991170988811
 21
6.850000000000868
 31
0.0
  0
SPLINE
  5
3E70
330
1F
100
AcDbEntity
  8
AM_0
 48
0.5
100
AcDbSpline
210
0.0
220
0.0
230
1.0
 70
     8
 71
     3
 72
    22
 73
    18
 74
     0
 42
0.0000000001
 43
0.0000000001
 40
0.0
 40
0.0
 40
0.0
 40
0.0
 40
1.010743684496582
 40
2.022833993863546
 40
3.037578683882831
 40
4.056212471389632
 40
5.079857945358201
 40
6.109499720892564
 40
7.145961650132166
 40
8.189873411961459
 40
9.241710626092514
 40
10.30166235592959
 40
11.36982472628033
 40
12.44598212828784
 40
13.52983440361964
 40
14.62080578343036
 40
14.90544694398022
 40
14.90544694398022
 40
14.90544694398022
 40
14.90544694398022
 10
-53.0319221993369
 20
-6.849999999999154
 30
0.0
 10
-53.42463853833366
 20
-6.846274042555565
 30
0.0
 10
-54.21020093726018
 20
-6.838119881313343
 30
0.0
 10
-55.38825695194731
 20
-6.772350241940015
 30
0.0
 10
-56.56626518892311
 20
-6.667840411166091
 30
0.0
 10
-57.74419987045398
 20
-6.521341109821021
 30
0.0
 10
-58.92204605657297
 20
-6.334838151860364
 30
0.0
 10
-60.09979145963611
 20
-6.109214437575658
 30
0.0
 10
-61.27741882149322
 20
-5.845928371481886
 30
0.0
 10
-62.45493623992099
 20
-5.546613272985711
 30
0.0
 10
-63.63233310964193
 20
-5.213138015523463
 30
0.0
 10
-64.80961558361652
 20
-4.847532167075848
 30
0.0
 10
-65.98679125099099
 20
-4.452122244813581
 30
0.0
 10
-67.16385922756832
 20
-4.029258943985532
 30
0.0
 10
-68.34084156433025
 20
-3.581636095270753
 30
0.0
 10
-69.22542604314347
 20
-3.228637048058182
 30
0.0
 10
-69.7183473835263
 20
-3.026874139520609
 30
0.0
 10
-70.75360934724253
 20
-2.647200164618242
 30
0.0
  0
SPLINE
  5
3E71
330
1F
100
AcDbEntity
  8
AM_0
100
AcDbSpline
210
0.0
220
0.0
230
1.0
 70
     8
 71
     3
 72
    13
 73
     9
 74
     0
 42
0.0000000001
 43
0.0000000001
 40
16.03460056234195
 40
16.03460056234195
 40
16.03460056234195
 40
16.03460056234195
 40
16.35212717791071
 40
17.38177067057215
 40
18.41822498539278
 40
19.46214186516937
 40
20.5139635832251
 40
21.34083983469381
 40
21.34083983469381
 40
21.34083983469381
 40
21.34083983469381
 10
-70.58583872644731
 20
-6.849999999998893
 30
0.0
 10
-70.33711443699925
 20
-6.827847673641729
 30
0.0
 10
-69.82413185597977
 20
-6.727150210394087
 30
0.0
 10
-68.9205087553792
 20
-6.529841182467957
 30
0.0
 10
-67.75031368939898
 20
-6.23644905463212
 30
0.0
 10
-66.58120574264718
 20
-5.90701746484298
 30
0.0
 10
-65.49939629130287
 20
-5.570308812719465
 30
0.0
 10
-64.80922091190638
 20
-5.338460943421328
 30
0.0
 10
-64.17768206978805
 20
-5.042456492161279
 30
0.0
  0
LINE
  5
3E72
330
1F
100
AcDbEntity
  8
AM_11
 48
0.5
100
AcDbLine
 10
-70.58583774446184
 20
-6.849999912539483
 30
0.0
 11
-53.45441161764293
 21
-6.849999291710299
 31
0.0
  0
VIEWPORT
  5
110
330
101
100
AcDbEntity
 67
     1
  8
0
100
AcDbViewport
 10
420.5
 20
297.0
 30
0.0
 40
948.9782706766916
 41
628.452
 68
     1
 69
     1
1001
ACAD
1000
MVIEW
1002
{
1070
    16
1010
0.0
1020
0.0
1030
0.0
1010
0.0
1020
0.0
1030
1.0
1040
0.0
1040
628.452
1040
420.5
1040
297.0
1040
50.0
1040
0.0
1040
0.0
1070
     0
1070
   100
1070
     1
1070
     1
1070
     0
1070
     0
1070
     0
1070
     0
1040
0.0
1040
0.0
1040
0.0
1040
10.0
1040
10.0
1040
10.0
1040
10.0
1070
     0
1002
{
1002
}
1002
}
  0
ENDSEC
  0
SECTION
  2
OBJECTS
  0
DICTIONARY
  5
C
330
0
100
AcDbDictionary
  3
ACAD_GROUP
350
D
  3
ACAD_LAYOUT
350
1A
  3
ACAD_MLINESTYLE
350
17
  3
ACAD_PLOTSETTINGS
350
19
  3
ACAD_PLOTSTYLENAME
350
E
  3
ACDBVARIABLEDICTIONARY
350
34
  3
ACMDICTIONARY
350
43
  3
AMG
350
2B
  3
AMGSNAPSETTINGS
350
6E
  3
DWGPROPS
350
3F0A
  3
ACDBHEADERROUNDTRIPXREC
350
3F16
  0
DICTIONARY
  5
74
330
1F
100
AcDbDictionary
280
     1
  3
ACAD_INDEX
360
3F0C
  3
ACAD_LAYOUTSELFREF
360
3F39
  0
DICTIONARY
  5
3F3E
330
101
100
AcDbDictionary
280
     1
  3
ACAD_LAYOUTSELFREF
360
3F3F
  0
DICTIONARY
  5
D
102
{ACAD_REACTORS
330
C
102
}
330
C
100
AcDbDictionary
  0
DICTIONARY
  5
1A
102
{ACAD_REACTORS
330
C
102
}
330
C
100
AcDbDictionary
  0
DICTIONARY
  5
17
102
{ACAD_REACTORS
330
C
102
}
330
C
100
AcDbDictionary
  3
STANDARD
350
18
  0
DICTIONARY
  5
19
102
{ACAD_REACTORS
330
C
102
}
330
C
100
AcDbDictionary
  0
ACDBDICTIONARYWDFLT
  5
E
102
{ACAD_REACTORS
330
C
102
}
330
C
100
AcDbDictionary
281
     1
  3
Normal
350
F
100
AcDbDictionaryWithDefault
340
F
  0
DICTIONARY
  5
34
102
{ACAD_REACTORS
330
C
102
}
330
C
100
AcDbDictionary
  3
INDEXCTL
350
35
  3
SORTENTS
350
B5E
  0
DICTIONARY
  5
43
102
{ACAD_REACTORS
330
C
102
}
330
C
100
AcDbDictionary
  3
ACMSTDDICTIONARY
350
260
  0
DICTIONARY
  5
2B
102
{ACAD_REACTORS
330
C
102
}
330
C
100
AcDbDictionary
  3
ACMGSETTINGS
350
2C
  0
DICTIONARY
  5
6E
102
{ACAD_REACTORS
330
C
102
}
330
C
100
AcDbDictionary
  0
XRECORD
  5
3F0A
102
{ACAD_REACTORS
330
C
102
}
330
C
100
AcDbXrecord
  1
DWGPROPS COOKIE
  2

  3

  4

  6

  7

  8

  9

300
AmdtFileType=82
301
=
302
=
303
=
304
=
305
=
306
=
307
=
308
=
309
=
 40
0.0850956365740741
 41
2452800.443498622
 42
2452946.636174398
  1

 90
        1
  0
DICTIONARY
  5
3F16
102
{ACAD_REACTORS
330
C
102
}
330
C
100
AcDbDictionary
  3
TSTACKALIGN
350
3F17
  3
TSTACKSIZE
350
3F18
  3
HYPERLINKBASE
350
3F19
  3
STYLESHEET
350
3F1A
  3
LAYOUTDICT
350
3F1B
  3
PLOTSETDICT
350
3F1C
  3
PLOTSTYLNAMDICT
350
3F1D
  3
LWETCUNION
350
3F1E
  3
INSUNITS
350
3F1F
  3
CEPSNTYPE
350
3F20
  3
FINGERPRINTGUID
350
3F21
  3
VERSIONGUID
350
3F22
  3
PSVPSCALE
350
3F23
  3
DIMSTYLEDATA
350
3F24
  3
PUCSORTHOREF
350
3F25
  3
PUCSORTHOVIEW
350
3F26
  3
PUCSBASE
350
3F27
  3
PUCSORGTOP
350
3F28
  3
PUCSORGBOTTOM
350
3F29
  3
PUCSORGLEFT
350
3F2A
  3
PUCSORGRIGHT
350
3F2B
  3
PUCSORGFRONT
350
3F2C
  3
PUCSORGBACK
350
3F2D
  3
UCSORTHOREF
350
3F2E
  3
UCSORTHOVIEW
350
3F2F
  3
UCSBASE
350
3F30
  3
UCSORGTOP
350
3F31
  3
UCSORGBOTTOM
350
3F32
  3
UCSORGLEFT
350
3F33
  3
UCSORGRIGHT
350
3F34
  3
UCSORGFRONT
350
3F35
  3
UCSORGBACK
350
3F36
  0
DICTIONARY
  5
3F0C
102
{ACAD_REACTORS
330
74
102
}
330
74
100
AcDbDictionary
  3
*A1
350
3F0D
  0
XRECORD
  5
3F39
102
{ACAD_REACTORS
330
74
102
}
330
74
100
AcDbXrecord
340
1F
  0
XRECORD
  5
3F3F
102
{ACAD_REACTORS
330
3F3E
102
}
330
3F3E
100
AcDbXrecord
340
101
  0
MLINESTYLE
  5
18
102
{ACAD_REACTORS
330
17
102
}
330
17
100
AcDbMlineStyle
  2
STANDARD
 70
     0
  3

 62
   256
 51
90.0
 52
90.0
 71
     2
 49
0.5
 62
   256
  6
BYLAYER
 49
-0.5
 62
   256
  6
BYLAYER
  0
ACDBPLACEHOLDER
  5
F
102
{ACAD_REACTORS
330
E
102
}
330
E
100
AcDbPlaceHolder
280
     0
  0
DICTIONARYVAR
  5
35
102
{ACAD_REACTORS
330
34
102
}
330
34
100
DictionaryVariables
280
     0
  1
1
  0
DICTIONARYVAR
  5
B5E
102
{ACAD_REACTORS
330
34
102
}
330
34
100
DictionaryVariables
280
     0
  1
96
  0
DICTIONARY
  5
260
102
{ACAD_REACTORS
330
43
102
}
330
43
100
AcDbDictionary
  0
DICTIONARY
  5
2C
102
{ACAD_REACTORS
330
2B
102
}
330
2B
100
AcDbDictionary
  3
DWGSETTINGS
350
2D
  0
XRECORD
  5
3F17
102
{ACAD_REACTORS
330
3F16
102
}
330
3F16
100
AcDbXrecord
 90
        1
  0
XRECORD
  5
3F18
102
{ACAD_REACTORS
330
3F16
102
}
330
3F16
100
AcDbXrecord
 90
       70
  0
XRECORD
  5
3F19
102
{ACAD_REACTORS
330
3F16
102
}
330
3F16
100
AcDbXrecord
  1

  0
XRECORD
  5
3F1A
102
{ACAD_REACTORS
330
3F16
102
}
330
3F16
100
AcDbXrecord
  1
ASAMI.ctb
  0
XRECORD
  5
3F1B
102
{ACAD_REACTORS
330
3F16
102
}
330
3F16
100
AcDbXrecord
340
1A
  0
XRECORD
  5
3F1C
102
{ACAD_REACTORS
330
3F16
102
}
330
3F16
100
AcDbXrecord
340
19
  0
XRECORD
  5
3F1D
102
{ACAD_REACTORS
330
3F16
102
}
330
3F16
100
AcDbXrecord
340
E
  0
XRECORD
  5
3F1E
102
{ACAD_REACTORS
330
3F16
102
}
330
3F16
100
AcDbXrecord
 90
    10781
  0
XRECORD
  5
3F1F
102
{ACAD_REACTORS
330
3F16
102
}
330
3F16
100
AcDbXrecord
 90
        4
  0
XRECORD
  5
3F20
102
{ACAD_REACTORS
330
3F16
102
}
330
3F16
100
AcDbXrecord
 90
        0
  0
XRECORD
  5
3F21
102
{ACAD_REACTORS
330
3F16
102
}
330
3F16
100
AcDbXrecord
  1
{AFB28963-8C59-40AE-9337-C84526B81ACE}
  0
XRECORD
  5
3F22
102
{ACAD_REACTORS
330
3F16
102
}
330
3F16
100
AcDbXrecord
  1
{6A60049C-9768-4585-9C18-82F069A4A410}
  0
XRECORD
  5
3F23
102
{ACAD_REACTORS
330
3F16
102
}
330
3F16
100
AcDbXrecord
 40
0.0
  0
XRECORD
  5
3F24
102
{ACAD_REACTORS
330
3F16
102
}
330
3F16
100
AcDbXrecord
1000
DSTYLE
1002
{
1070
    79
 70
     2
1070
   341
340
59
1070
   342
340
59
1070
   371
 70
    -1
1070
   372
 70
    -1
1002
}
  0
XRECORD
  5
3F25
102
{ACAD_REACTORS
330
3F16
102
}
330
3F16
100
AcDbXrecord
340
0
  0
XRECORD
  5
3F26
102
{ACAD_REACTORS
330
3F16
102
}
330
3F16
100
AcDbXrecord
 70
     0
  0
XRECORD
  5
3F27
102
{ACAD_REACTORS
330
3F16
102
}
330
3F16
100
AcDbXrecord
340
0
  0
XRECORD
  5
3F28
102
{ACAD_REACTORS
330
3F16
102
}
330
3F16
100
AcDbXrecord
 10
0.0
 20
0.0
 30
0.0
  0
XRECORD
  5
3F29
102
{ACAD_REACTORS
330
3F16
102
}
330
3F16
100
AcDbXrecord
 10
0.0
 20
0.0
 30
0.0
  0
XRECORD
  5
3F2A
102
{ACAD_REACTORS
330
3F16
102
}
330
3F16
100
AcDbXrecord
 10
0.0
 20
0.0
 30
0.0
  0
XRECORD
  5
3F2B
102
{ACAD_REACTORS
330
3F16
102
}
330
3F16
100
AcDbXrecord
 10
0.0
 20
0.0
 30
0.0
  0
XRECORD
  5
3F2C
102
{ACAD_REACTORS
330
3F16
102
}
330
3F16
100
AcDbXrecord
 10
0.0
 20
0.0
 30
0.0
  0
XRECORD
  5
3F2D
102
{ACAD_REACTORS
330
3F16
102
}
330
3F16
100
AcDbXrecord
 10
0.0
 20
0.0
 30
0.0
  0
XRECORD
  5
3F2E
102
{ACAD_REACTORS
330
3F16
102
}
330
3F16
100
AcDbXrecord
340
0
  0
XRECORD
  5
3F2F
102
{ACAD_REACTORS
330
3F16
102
}
330
3F16
100
AcDbXrecord
 70
     0
  0
XRECORD
  5
3F30
102
{ACAD_REACTORS
330
3F16
102
}
330
3F16
100
AcDbXrecord
340
0
  0
XRECORD
  5
3F31
102
{ACAD_REACTORS
330
3F16
102
}
330
3F16
100
AcDbXrecord
 10
0.0
 20
0.0
 30
0.0
  0
XRECORD
  5
3F32
102
{ACAD_REACTORS
330
3F16
102
}
330
3F16
100
AcDbXrecord
 10
0.0
 20
0.0
 30
0.0
  0
XRECORD
  5
3F33
102
{ACAD_REACTORS
330
3F16
102
}
330
3F16
100
AcDbXrecord
 10
0.0
 20
0.0
 30
0.0
  0
XRECORD
  5
3F34
102
{ACAD_REACTORS
330
3F16
102
}
330
3F16
100
AcDbXrecord
 10
0.0
 20
0.0
 30
0.0
  0
XRECORD
  5
3F35
102
{ACAD_REACTORS
330
3F16
102
}
330
3F16
100
AcDbXrecord
 10
0.0
 20
0.0
 30
0.0
  0
XRECORD
  5
3F36
102
{ACAD_REACTORS
330
3F16
102
}
330
3F16
100
AcDbXrecord
 10
0.0
 20
0.0
 30
0.0
  0
LAYER_INDEX
  5
3F0D
102
{ACAD_REACTORS
330
3F0C
102
}
330
3F0C
100
AcDbIndex
 40
2453151.564326516
100
AcDbLayerIndex
  8
0
360
3F0E
 90
        0
  8
AM_0
360
3F0F
 90
       46
  8
AM_7
360
3F10
 90
        1
  8
AM_11
360
3F11
 90
       17
  8
AM_5
360
3F12
 90
        5
  8
Defpoints
360
3F13
 90
        0
  8
AM_6
360
3F14
 90
        1
  0
XRECORD
  5
2D
102
{ACAD_REACTORS
330
2C
102
}
330
2C
100
AcDbXrecord
  1
VERSION
140
15.0
  1
PRODUCT
  2
AutoCAD Mechanical 2000
  0
IDBUFFER
  5
3F0E
330
0
100
AcDbIdBuffer
  0
IDBUFFER
  5
3F0F
330
0
100
AcDbIdBuffer
330
3E51
330
3E52
330
3E53
330
3E54
330
3E55
330
3E56
330
3E57
330
3E58
330
3E59
330
3E5A
330
3E5B
330
3E5C
330
3E5D
330
3E60
330
3E61
330
3E62
330
3E63
330
3E64
330
3E65
330
3E66
330
3E67
330
3E68
330
3E69
330
3E6A
330
3E6B
330
3E6C
330
3E6D
330
3E6E
330
3E70
330
3E71
330
C1D
330
C20
330
24A7
330
24BE
330
2C0E
330
2FB7
330
2FB9
330
324C
330
325C
330
325D
330
325E
330
3921
330
3924
330
3976
330
3977
330
3E50
  0
IDBUFFER
  5
3F10
330
0
100
AcDbIdBuffer
330
23EF
  0
IDBUFFER
  5
3F11
330
0
100
AcDbIdBuffer
330
3E72
330
24B7
330
24B8
330
24C7
330
24C8
330
24D4
330
24D5
330
24E6
330
24E7
330
2BF3
330
2BF5
330
353A
330
353B
330
3D65
330
3E5E
330
3E5F
330
3E6F
  0
IDBUFFER
  5
3F12
330
0
100
AcDbIdBuffer
330
CC6
330
2069
330
2D60
330
324F
330
39C8
  0
IDBUFFER
  5
3F13
330
0
100
AcDbIdBuffer
  0
IDBUFFER
  5
3F14
330
0
100
AcDbIdBuffer
330
19BD
  0
ENDSEC
  0
EOF
