  0
SECTION
  2
HEADER
  9
$ACADVER
  1
AC1014
  9
$ACADMAINTVER
 70
     9
  9
$DWGCODEPAGE
  3
ANSI_932
  9
$INSBASE
 10
0.0
 20
0.0
 30
0.0
  9
$EXTMIN
 10
-200.3000010000013
 20
-53.50000305448099
 30
-0.00000001
  9
$EXTMAX
 10
22.59360911693418
 20
22.17072082367057
 30
0.00000001
  9
$LIMMIN
 10
-212.4283160478946
 20
-92.01098889734623
  9
$LIMMAX
 10
49.45840178964954
 20
64.30738472477009
  9
$ORTHOMODE
 70
     0
  9
$REGENMODE
 70
     1
  9
$FILLMODE
 70
     1
  9
$QTEXTMODE
 70
     0
  9
$MIRRTEXT
 70
     0
  9
$DRAGMODE
 70
     2
  9
$LTSCALE
 40
1.0
  9
$OSMODE
 70
    55
  9
$ATTMODE
 70
     1
  9
$TEXTSIZE
 40
2.5
  9
$TRACEWID
 40
1.0
  9
$TEXTSTYLE
  7
STANDARD
  9
$CLAYER
  8
AM_0
  9
$CELTYPE
  6
BYLAYER
  9
$CECOLOR
 62
   256
  9
$CELTSCALE
 40
1.0
  9
$DELOBJ
 70
     1
  9
$DISPSILH
 70
     0
  9
$DIMSCALE
 40
1.0
  9
$DIMASZ
 40
2.5
  9
$DIMEXO
 40
1.0
  9
$DIMDLI
 40
12.0
  9
$DIMRND
 40
0.0
  9
$DIMDLE
 40
0.0
  9
$DIMEXE
 40
1.0
  9
$DIMTP
 40
0.1
  9
$DIMTM
 40
0.1
  9
$DIMTXT
 40
3.2
  9
$DIMCEN
 40
0.0
  9
$DIMTSZ
 40
0.0
  9
$DIMTOL
 70
     0
  9
$DIMLIM
 70
     0
  9
$DIMTIH
 70
     0
  9
$DIMTOH
 70
     0
  9
$DIMSE1
 70
     0
  9
$DIMSE2
 70
     0
  9
$DIMTAD
 70
     3
  9
$DIMZIN
 70
     8
  9
$DIMBLK
  1
OPEN30
  9
$DIMASO
 70
     1
  9
$DIMSHO
 70
     1
  9
$DIMPOST
  1

  9
$DIMAPOST
  1
"
  9
$DIMALT
 70
     0
  9
$DIMALTD
 70
     2
  9
$DIMALTF
 40
0.0393701
  9
$DIMLFAC
 40
1.0
  9
$DIMTOFL
 70
     1
  9
$DIMTVP
 40
0.0
  9
$DIMTIX
 70
     0
  9
$DIMSOXD
 70
     0
  9
$DIMSAH
 70
     0
  9
$DIMBLK1
  1

  9
$DIMBLK2
  1

  9
$DIMSTYLE
  2
AM_JIS
  9
$DIMCLRD
 70
   256
  9
$DIMCLRE
 70
   256
  9
$DIMCLRT
 70
     2
  9
$DIMTFAC
 40
0.71
  9
$DIMGAP
 40
1.5
  9
$DIMJUST
 70
     0
  9
$DIMSD1
 70
     0
  9
$DIMSD2
 70
     0
  9
$DIMTOLJ
 70
     0
  9
$DIMTZIN
 70
     0
  9
$DIMALTZ
 70
     0
  9
$DIMALTTZ
 70
     0
  9
$DIMFIT
 70
     3
  9
$DIMUPT
 70
     0
  9
$DIMUNIT
 70
     2
  9
$DIMDEC
 70
     3
  9
$DIMTDEC
 70
     3
  9
$DIMALTU
 70
     2
  9
$DIMALTTD
 70
     2
  9
$DIMTXSTY
  7
ASAMI
  9
$DIMAUNIT
 70
     0
  9
$LUNITS
 70
     2
  9
$LUPREC
 70
     2
  9
$SKETCHINC
 40
1.0
  9
$FILLETRAD
 40
2.5
  9
$AUNITS
 70
     0
  9
$AUPREC
 70
     0
  9
$MENU
  1
.
  9
$ELEVATION
 40
0.0
  9
$PELEVATION
 40
0.0
  9
$THICKNESS
 40
0.0
  9
$LIMCHECK
 70
     0
  9
$BLIPMODE
 70
     0
  9
$CHAMFERA
 40
0.5
  9
$CHAMFERB
 40
0.5
  9
$CHAMFERC
 40
20.0
  9
$CHAMFERD
 40
0.0
  9
$SKPOLY
 70
     0
  9
$TDCREATE
 40
2452800.443498622
  9
$TDUPDATE
 40
2453151.668842755
  9
$TDINDWG
 40
0.0942961458
  9
$TDUSRTIMER
 40
0.0942961458
  9
$USRTIMER
 70
     1
  9
$ANGBASE
 50
0.0
  9
$ANGDIR
 70
     0
  9
$PDMODE
 70
     3
  9
$PDSIZE
 40
0.0
  9
$PLINEWID
 40
0.0
  9
$COORDS
 70
     1
  9
$SPLFRAME
 70
     0
  9
$SPLINETYPE
 70
     6
  9
$SPLINESEGS
 70
     8
  9
$ATTDIA
 70
     1
  9
$ATTREQ
 70
     1
  9
$HANDLING
 70
 12289
  9
$HANDSEED
  5
4476
  9
$SURFTAB1
 70
     6
  9
$SURFTAB2
 70
     6
  9
$SURFTYPE
 70
     6
  9
$SURFU
 70
     6
  9
$SURFV
 70
     6
  9
$UCSNAME
  2

  9
$UCSORG
 10
0.0
 20
0.0
 30
0.0
  9
$UCSXDIR
 10
1.0
 20
0.0000000000000027
 30
0.0
  9
$UCSYDIR
 10
-0.0000000000000027
 20
1.0
 30
0.0
  9
$PUCSNAME
  2

  9
$PUCSORG
 10
0.0
 20
0.0
 30
0.0
  9
$PUCSXDIR
 10
1.0
 20
0.0
 30
0.0
  9
$PUCSYDIR
 10
0.0
 20
1.0
 30
0.0
  9
$USERI1
 70
     0
  9
$USERI2
 70
     0
  9
$USERI3
 70
     0
  9
$USERI4
 70
     0
  9
$USERI5
 70
     0
  9
$USERR1
 40
0.0
  9
$USERR2
 40
0.0
  9
$USERR3
 40
0.0
  9
$USERR4
 40
0.0
  9
$USERR5
 40
0.0
  9
$WORLDVIEW
 70
     1
  9
$SHADEDGE
 70
     3
  9
$SHADEDIF
 70
    70
  9
$TILEMODE
 70
     1
  9
$MAXACTVP
 70
    64
  9
$PINSBASE
 10
0.0
 20
0.0
 30
0.0
  9
$PLIMCHECK
 70
     0
  9
$PEXTMIN
 10
1.000000000000000E+20
 20
1.000000000000000E+20
 30
1.000000000000000E+20
  9
$PEXTMAX
 10
-1.000000000000000E+20
 20
-1.000000000000000E+20
 30
-1.000000000000000E+20
  9
$PLIMMIN
 10
0.0
 20
0.0
  9
$PLIMMAX
 10
841.0
 20
594.0
  9
$UNITMODE
 70
     0
  9
$VISRETAIN
 70
     1
  9
$PLINEGEN
 70
     0
  9
$PSLTSCALE
 70
     0
  9
$TREEDEPTH
 70
  3020
  9
$PICKSTYLE
 70
     0
  9
$CMLSTYLE
  2
STANDARD
  9
$CMLJUST
 70
     0
  9
$CMLSCALE
 40
20.0
  9
$PROXYGRAPHICS
 70
     1
  9
$MEASUREMENT
 70
     1
  0
ENDSEC
  0
SECTION
  2
CLASSES
  0
CLASS
  1
ACDBDICTIONARYWDFLT
  2
AcDbDictionaryWithDefault
  3
AutoCAD 2000
 90
        0
280
     0
281
     0
  0
CLASS
  1
ACDBPLACEHOLDER
  2
AcDbPlaceHolder
  3
AutoCAD 2000
 90
        0
280
     0
281
     0
  0
CLASS
  1
LAYOUT
  2
AcDbLayout
  3
AutoCAD 2000
 90
        0
280
     0
281
     0
  0
CLASS
  1
AMGSETTINGSOBJ
  2
AmgSettingsObj
  3
"AcadM|Product Description: AutoCAD Mechanical 2000|Company: Autodesk"
 90
        0
280
     0
281
     0
  0
CLASS
  1
ACME_DOCUMENT
  2
AcMeDbDoc
  3
AcMeServices
 90
        0
280
     0
281
     0
  0
CLASS
  1
ACMESCOPE
  2
AcMeScope
  3
AcMeServices
 90
        0
280
     0
281
     0
  0
CLASS
  1
ACMECOMMANDHISTORY
  2
AcMeCommandHistory
  3
AcMeServices
 90
        0
280
     0
281
     0
  0
CLASS
  1
DICTIONARYVAR
  2
AcDbDictionaryVar
  3
AutoCAD 2000
 90
        0
280
     0
281
     0
  0
CLASS
  1
ACIMSYSVARMAN
  2
AcImSysVarManager
  3
AcMeServices
 90
        0
280
     0
281
     0
  0
CLASS
  1
ACIMREALSYSVAR
  2
AcImRealSysVar
  3
AcMeServices
 90
        0
280
     0
281
     0
  0
CLASS
  1
ACIMINTSYSVAR
  2
AcImIntSysVar
  3
AcMeServices
 90
        0
280
     0
281
     0
  0
CLASS
  1
ACMEDRAWINGMAN
  2
AcMeDrawingMan
  3
AcMeServices
 90
        0
280
     0
281
     0
  0
CLASS
  1
ACMEVIEW
  2
AcMeView
  3
AcMeServices
 90
        0
280
     0
281
     0
  0
CLASS
  1
ACDBENTITYCACHE
  2
AcMeEntityCache
  3
AcMeServices
 90
        0
280
     0
281
     0
  0
CLASS
  1
GSMANAGER
  2
AcMeGSManager
  3
AcMeServices
 90
        0
280
     0
281
     0
  0
CLASS
  1
AmdtInternalReactor
  2
AmdtInternalReactor
  3
AcMeServices
 90
        0
280
     0
281
     0
  0
CLASS
  1
ACMESTATEMGR
  2
AcMeStateMgr
  3
AcMeServices
 90
        0
280
     0
281
     0
  0
CLASS
  1
ACME_DATABASE
  2
AcMeDbDatabase
  3
AcMeServices
 90
        0
280
     0
281
     0
  0
CLASS
  1
ACRFINSADJUSTERMGR
  2
AcRfInsAdjusterMgr
  3
AcMeServices
 90
        0
280
     0
281
     0
  0
CLASS
  1
ACMDATADICTIONARY
  2
AcmDataDictionary
  3
"AcmSymBB|Product Description: AutoCAD Mechanical 2000|Company: Autodesk"
 90
        0
280
     0
281
     0
  0
CLASS
  1
ACMDATAENTRYBLOCK
  2
AcmDataEntryBlock
  3
"AcmSymBB|Product Description: AutoCAD Mechanical 2000|Company: Autodesk"
 90
        0
280
     0
281
     0
  0
CLASS
  1
AMGOBJPROPCFG
  2
AmgObjPropCfg
  3
"AmgLay|Product Description: AutoCAD Mechanical 2000|Company: Autodesk"
 90
        1
280
     0
281
     0
  0
CLASS
  1
ACAMGFILTERDAT
  2
AcAmgFilterDat
  3
"AcadM|Product Description: AutoCAD Mechanical 2000|Company: Autodesk"
 90
        0
280
     0
281
     0
  0
CLASS
  1
LAYER_INDEX
  2
AcDbLayerIndex
  3
AutoCAD 2000
 90
        0
280
     0
281
     0
  0
CLASS
  1
IDBUFFER
  2
AcDbIdBuffer
  3
AutoCAD 2000
 90
        0
280
     0
281
     0
  0
CLASS
  1
ACIMSTRSYSVAR
  2
AcImStrSysVar
  3
AcMeServices
 90
        0
280
     0
281
     0
  0
CLASS
  1
ACMSTANDARDJIS
  2
AcmStandardJIS
  3
"AcmSymBB|Product Description: AutoCAD Mechanical 2000|Company: Autodesk"
 90
        0
280
     0
281
     0
  0
CLASS
  1
ACMSURFSTANDARDJIS
  2
AcmSurfTextStdJIS
  3
"AcmSymBB|Product Description: AutoCAD Mechanical 2000|Company: Autodesk"
 90
        0
280
     0
281
     0
  0
CLASS
  1
ACMFCFSTANDARDJIS
  2
AcmFCFStdJIS
  3
"AcmSymBB|Product Description: AutoCAD Mechanical 2000|Company: Autodesk"
 90
        0
280
     0
281
     0
  0
CLASS
  1
ACMWELDSTANDARDJIS
  2
AcmWeldingStdJIS
  3
"AcmSymBB|Product Description: AutoCAD Mechanical 2000|Company: Autodesk"
 90
        0
280
     0
281
     0
  0
CLASS
  1
ACMIDSTANDARDJIS
  2
AcmIdStdJIS
  3
"AcmSymBB|Product Description: AutoCAD Mechanical 2000|Company: Autodesk"
 90
        0
280
     0
281
     0
  0
CLASS
  1
ACMDATUMSTANDARDJIS
  2
AcmDatumStdJIS
  3
"AcmSymBB|Product Description: AutoCAD Mechanical 2000|Company: Autodesk"
 90
        0
280
     0
281
     0
  0
CLASS
  1
ACMBOMSTANDARDJIS
  2
AcmBOMStdJIS
  3
"AcmSymBB|Product Description: AutoCAD Mechanical 2000|Company: Autodesk"
 90
        0
280
     0
281
     0
  0
CLASS
  1
ACMSTANDARDANSI
  2
AcmStandardANSI
  3
"AcmSymBB|Product Description: AutoCAD Mechanical 2000|Company: Autodesk"
 90
        0
280
     0
281
     0
  0
CLASS
  1
ACMSURFSTANDARDANSI
  2
AcmSurfTextStdANSI
  3
"AcmSymBB|Product Description: AutoCAD Mechanical 2000|Company: Autodesk"
 90
        0
280
     0
281
     0
  0
CLASS
  1
ACMFCFSTANDARDANSI
  2
AcmFCFStdANSI
  3
"AcmSymBB|Product Description: AutoCAD Mechanical 2000|Company: Autodesk"
 90
        0
280
     0
281
     0
  0
CLASS
  1
ACMWELDSTANDARDANSI
  2
AcmWeldingStdANSI
  3
"AcmSymBB|Product Description: AutoCAD Mechanical 2000|Company: Autodesk"
 90
        0
280
     0
281
     0
  0
CLASS
  1
ACMIDSTANDARDANSI
  2
AcmIdStdANSI
  3
"AcmSymBB|Product Description: AutoCAD Mechanical 2000|Company: Autodesk"
 90
        0
280
     0
281
     0
  0
CLASS
  1
ACMDATUMSTANDARDANSI
  2
AcmDatumStdANSI
  3
"AcmSymBB|Product Description: AutoCAD Mechanical 2000|Company: Autodesk"
 90
        0
280
     0
281
     0
  0
CLASS
  1
ACMBOMSTANDARDANSI
  2
AcmBOMStdANSI
  3
"AcmSymBB|Product Description: AutoCAD Mechanical 2000|Company: Autodesk"
 90
        0
280
     0
281
     0
  0
CLASS
  1
ACMSTANDARDBSI
  2
AcmStandardBSI
  3
"AcmSymBB|Product Description: AutoCAD Mechanical 2000|Company: Autodesk"
 90
        0
280
     0
281
     0
  0
CLASS
  1
ACMSURFSTANDARDBSI
  2
AcmSurfTextStdBSI
  3
"AcmSymBB|Product Description: AutoCAD Mechanical 2000|Company: Autodesk"
 90
        0
280
     0
281
     0
  0
CLASS
  1
ACMFCFSTANDARDBSI
  2
AcmFCFStdBSI
  3
"AcmSymBB|Product Description: AutoCAD Mechanical 2000|Company: Autodesk"
 90
        0
280
     0
281
     0
  0
CLASS
  1
ACMWELDSTANDARDBSI
  2
AcmWeldingStdBSI
  3
"AcmSymBB|Product Description: AutoCAD Mechanical 2000|Company: Autodesk"
 90
        0
280
     0
281
     0
  0
CLASS
  1
ACMIDSTANDARDBSI
  2
AcmIdStdBSI
  3
"AcmSymBB|Product Description: AutoCAD Mechanical 2000|Company: Autodesk"
 90
        0
280
     0
281
     0
  0
CLASS
  1
ACMDATUMSTANDARDBSI
  2
AcmDatumStdBSI
  3
"AcmSymBB|Product Description: AutoCAD Mechanical 2000|Company: Autodesk"
 90
        0
280
     0
281
     0
  0
CLASS
  1
ACMBOMSTANDARDBSI
  2
AcmBOMStdBSI
  3
"AcmSymBB|Product Description: AutoCAD Mechanical 2000|Company: Autodesk"
 90
        0
280
     0
281
     0
  0
CLASS
  1
LONG_TRANSACTION
  2
AcDbLongTransaction
  3
AutoCAD 2000
 90
        0
280
     0
281
     0
  0
CLASS
  1
LWPOLYLINE
  2
AcDbPolyline
  3
AutoCAD 2000
 90
        0
280
     0
281
     1
  0
CLASS
  1
HATCH
  2
AcDbHatch
  3
AutoCAD 2000
 90
        0
280
     0
281
     1
  0
CLASS
  1
XRECORD
  2
AcDbXrecord
  3
AutoCAD 2000
 90
        0
280
     0
281
     0
  0
ENDSEC
  0
SECTION
  2
TABLES
  0
TABLE
  2
VPORT
  5
8
330
0
100
AcDbSymbolTable
 70
     3
  0
VPORT
  5
4440
330
8
100
AcDbSymbolTableRecord
100
AcDbViewportTableRecord
  2
*ACTIVE
 70
     0
 10
0.0
 20
0.0
 11
1.0
 21
1.0
 12
-84.7170899777318
 22
-15.66457583260799
 13
0.0
 23
0.0
 14
2.5
 24
2.5
 15
10.0
 25
10.0
 16
0.0
 26
0.0
 36
1.0
 17
0.0
 27
0.0
 37
0.0
 40
148.3615039317312
 41
1.56570841889117
 42
50.0
 43
0.0
 44
0.0
 50
0.0
 51
0.0
 71
     0
 72
   100
 73
     1
 74
     1
 75
     0
 76
     0
 77
     0
 78
     0
  0
ENDTAB
  0
TABLE
  2
LTYPE
  5
5
330
0
100
AcDbSymbolTable
 70
    10
  0
LTYPE
  5
14
330
5
100
AcDbSymbolTableRecord
100
AcDbLinetypeTableRecord
  2
BYBLOCK
 70
     0
  3

 72
    65
 73
     0
 40
0.0
  0
LTYPE
  5
15
330
5
100
AcDbSymbolTableRecord
100
AcDbLinetypeTableRecord
  2
BYLAYER
 70
     0
  3

 72
    65
 73
     0
 40
0.0
  0
LTYPE
  5
16
330
5
100
AcDbSymbolTableRecord
100
AcDbLinetypeTableRecord
  2
CONTINUOUS
 70
     0
  3
Solid line
 72
    65
 73
     0
 40
0.0
  0
LTYPE
  5
4B
330
5
100
AcDbSymbolTableRecord
100
AcDbLinetypeTableRecord
  2
AM_ISO02W050
 70
     0
  3
__ __ __ __ __ __ __ __ __ __ __ __ __ __ __
 72
    65
 73
     2
 40
7.5
 49
6.0
 74
     0
 49
-1.5
 74
     0
  0
LTYPE
  5
4C
330
5
100
AcDbSymbolTableRecord
100
AcDbLinetypeTableRecord
  2
AM_ISO08W050
 70
     0
  3
____ . ____ . ____ . ____ . ____ . ____ . ____
 72
    65
 73
     4
 40
18.0
 49
12.0
 74
     0
 49
-1.5
 74
     0
 49
3.0
 74
     0
 49
-1.5
 74
     0
  0
LTYPE
  5
4D
330
5
100
AcDbSymbolTableRecord
100
AcDbLinetypeTableRecord
  2
AM_ISO09W050
 70
     0
  3
_____ . . _____ . . _____ . . ____ .. ____
 72
    65
 73
     6
 40
22.5
 49
12.0
 74
     0
 49
-1.5
 74
     0
 49
3.0
 74
     0
 49
-1.5
 74
     0
 49
3.0
 74
     0
 49
-1.5
 74
     0
  0
LTYPE
  5
4E
330
5
100
AcDbSymbolTableRecord
100
AcDbLinetypeTableRecord
  2
AMCONSTR
 70
     0
  3
_______________________
 72
    65
 73
     2
 40
9999.0
 49
9999.0
 74
     0
 49
0.0
 74
     0
  0
LTYPE
  5
4F
330
5
100
AcDbSymbolTableRecord
100
AcDbLinetypeTableRecord
  2
AM_ISO02W050X2
 70
     0
  3
 _ _ _ _ _ _ _ _ _ _ _ _
 72
    65
 73
     2
 40
3.75
 49
3.0
 74
     0
 49
-0.75
 74
     0
  0
LTYPE
  5
50
330
5
100
AcDbSymbolTableRecord
100
AcDbLinetypeTableRecord
  2
AM_ISO08W050X2
 70
     0
  3
__ . __ . __ . __ . __ . __
 72
    65
 73
     4
 40
9.0
 49
6.0
 74
     0
 49
-0.75
 74
     0
 49
1.5
 74
     0
 49
-0.75
 74
     0
  0
LTYPE
  5
53
330
5
100
AcDbSymbolTableRecord
100
AcDbLinetypeTableRecord
  2
AMZIGZAG
 70
     0
  3
/\/-/\/-/\/-/\/-/\/-/\/
 72
    65
 73
     2
 40
11.00009999999999
 49
0.0001
 74
     4
 75
   135
340
52
 46
0.04
 50
0.0
 44
0.0
 45
0.0
 49
-11.0
 74
     0
  0
LTYPE
  5
166
330
5
100
AcDbSymbolTableRecord
100
AcDbLinetypeTableRecord
  2
ACJISTGL
 70
     0
  3
_ _ _ _ _
 72
    65
 73
     2
 40
3.0
 49
2.0
 74
     0
 49
-1.0
 74
     0
  0
LTYPE
  5
26A
330
5
100
AcDbSymbolTableRecord
100
AcDbLinetypeTableRecord
  2
ACJISTGB
 70
     0
  3
__ . . __ . .
 72
    65
 73
     6
 40
9.0
 49
4.0
 74
     0
 49
-1.0
 74
     0
 49
1.0
 74
     0
 49
-1.0
 74
     0
 49
1.0
 74
     0
 49
-1.0
 74
     0
  0
ENDTAB
  0
TABLE
  2
LAYER
  5
2
330
0
100
AcDbSymbolTable
 70
     8
  0
LAYER
  5
10
330
2
100
AcDbSymbolTableRecord
100
AcDbLayerTableRecord
  2
0
 70
     0
 62
     7
  6
CONTINUOUS
  0
LAYER
  5
3F9
330
2
100
AcDbSymbolTableRecord
100
AcDbLayerTableRecord
  2
AM_0
 70
     0
 62
     7
  6
CONTINUOUS
  0
LAYER
  5
C7C
330
2
100
AcDbSymbolTableRecord
100
AcDbLayerTableRecord
  2
AM_7
 70
     0
 62
     4
  6
AM_ISO08W050
  0
LAYER
  5
C97
330
2
100
AcDbSymbolTableRecord
100
AcDbLayerTableRecord
  2
AM_11
 70
     0
 62
     3
  6
AM_ISO09W050
  0
LAYER
  5
CC5
330
2
100
AcDbSymbolTableRecord
100
AcDbLayerTableRecord
  2
AM_5
 70
     0
 62
     3
  6
CONTINUOUS
  0
LAYER
  5
CC7
330
2
100
AcDbSymbolTableRecord
100
AcDbLayerTableRecord
  2
DEFPOINTS
 70
     0
 62
     7
  6
CONTINUOUS
  0
LAYER
  5
19BC
330
2
100
AcDbSymbolTableRecord
100
AcDbLayerTableRecord
  2
AM_6
 70
     0
 62
     2
  6
CONTINUOUS
  0
LAYER
  5
429D
330
2
100
AcDbSymbolTableRecord
100
AcDbLayerTableRecord
  2
AM_CL
 70
     0
 62
     1
  6
AMCONSTR
  0
ENDTAB
  0
TABLE
  2
STYLE
  5
3
330
0
100
AcDbSymbolTable
 70
     5
  0
STYLE
  5
11
330
3
100
AcDbSymbolTableRecord
100
AcDbTextStyleTableRecord
  2
STANDARD
 70
     0
 40
0.0
 41
1.0
 50
0.0
 71
     0
 42
2.5
  3
simplex.shx
  4
EXTFONT.SHX
  0
STYLE
  5
52
330
3
100
AcDbSymbolTableRecord
100
AcDbTextStyleTableRecord
  2

 70
     1
 40
0.0
 41
1.0
 50
0.0
 71
     0
 42
2.5
  3
ltypeshp.shx
  4

  0
STYLE
  5
6B
330
3
100
AcDbSymbolTableRecord
100
AcDbTextStyleTableRecord
  2
ASAMI
 70
     0
 40
0.0
 41
1.0
 50
0.0
 71
     0
 42
2.5
  3
simplex.shx
  4
EXTFONT.SHX
  0
STYLE
  5
262
330
3
100
AcDbSymbolTableRecord
100
AcDbTextStyleTableRecord
  2
ACJISTS
 70
     0
 40
1.0
 41
1.0
 50
0.0
 71
     0
 42
2.5
  3
simplex.shx
  4
bigfont.shx
  0
STYLE
  5
269
330
3
100
AcDbSymbolTableRecord
100
AcDbTextStyleTableRecord
  2
ACJISGDT
 70
     0
 40
0.0
 41
1.0
 50
0.0
 71
     0
 42
2.5
  3
amgdtans.shx
  4

  0
ENDTAB
  0
TABLE
  2
VIEW
  5
6
330
0
100
AcDbSymbolTable
 70
     0
  0
ENDTAB
  0
TABLE
  2
UCS
  5
7
330
0
100
AcDbSymbolTable
 70
     0
  0
ENDTAB
  0
TABLE
  2
APPID
  5
9
330
0
100
AcDbSymbolTable
 70
    16
  0
APPID
  5
12
330
9
100
AcDbSymbolTableRecord
100
AcDbRegAppTableRecord
  2
ACAD
 70
     0
  0
APPID
  5
30
330
9
100
AcDbSymbolTableRecord
100
AcDbRegAppTableRecord
  2
MCAD_NO_VIS
 70
     0
  0
APPID
  5
31
330
9
100
AcDbSymbolTableRecord
100
AcDbRegAppTableRecord
  2
ACAD_TEMP_GRAPHIC
 70
     0
  0
APPID
  5
2C2
330
9
100
AcDbSymbolTableRecord
100
AcDbRegAppTableRecord
  2
GENIUS_GENDTOL_13
 70
     0
  0
APPID
  5
339
330
9
100
AcDbSymbolTableRecord
100
AcDbRegAppTableRecord
  2
GENIUS_GENODEF_13
 70
     0
  0
APPID
  5
33A
330
9
100
AcDbSymbolTableRecord
100
AcDbRegAppTableRecord
  2
GENIUS_GENOBJ-N-RSBK_13
 70
     0
  0
APPID
  5
33B
330
9
100
AcDbSymbolTableRecord
100
AcDbRegAppTableRecord
  2
GENIUS_GENOBJ-N-LIB_13
 70
     0
  0
APPID
  5
33C
330
9
100
AcDbSymbolTableRecord
100
AcDbRegAppTableRecord
  2
GENIUS_GENSCALE_13
 70
     0
  0
APPID
  5
378
330
9
100
AcDbSymbolTableRecord
100
AcDbRegAppTableRecord
  2
GENIUS_GENDIMSH_14
 70
     0
  0
APPID
  5
C82
330
9
100
AcDbSymbolTableRecord
100
AcDbRegAppTableRecord
  2
GENIUS_GENOBJ-N-CRS_13
 70
     0
  0
APPID
  5
C83
330
9
100
AcDbSymbolTableRecord
100
AcDbRegAppTableRecord
  2
GENIUS_GENOENT_13
 70
     0
  0
APPID
  5
C84
330
9
100
AcDbSymbolTableRecord
100
AcDbRegAppTableRecord
  2
GENIUS_GENOREF_13
 70
     0
  0
APPID
  5
C85
330
9
100
AcDbSymbolTableRecord
100
AcDbRegAppTableRecord
  2
GENIUS_GENOLIS_13
 70
     0
  0
APPID
  5
CA0
330
9
100
AcDbSymbolTableRecord
100
AcDbRegAppTableRecord
  2
GENIUS_GENOBJ-N-CEN_13
 70
     0
  0
APPID
  5
1E1E
330
9
100
AcDbSymbolTableRecord
100
AcDbRegAppTableRecord
  2
GENIUS_GENFIL_13
 70
     0
  0
APPID
  5
1E1F
330
9
100
AcDbSymbolTableRecord
100
AcDbRegAppTableRecord
  2
GENIUS_GENOBJ-N-CHA_13
 70
     0
  0
ENDTAB
  0
TABLE
  2
DIMSTYLE
  5
A
330
0
100
AcDbSymbolTable
 70
     9
  0
DIMSTYLE
105
58
330
A
100
AcDbSymbolTableRecord
100
AcDbDimStyleTableRecord
  2
AM_JIS
 70
     0
  3

  4
"
  5
OPEN30
  6

  7

 40
1.0
 41
2.5
 42
1.0
 43
12.0
 44
1.0
 45
0.0
 46
0.0
 47
0.1
 48
0.1
140
3.2
141
0.0
142
0.0
143
0.0393701
144
1.0
145
0.0
146
0.71
147
1.5
 71
     0
 72
     0
 73
     0
 74
     0
 75
     0
 76
     0
 77
     3
 78
     8
170
     0
171
     2
172
     1
173
     0
174
     0
175
     0
176
   256
177
   256
178
     2
270
     2
271
     3
272
     3
273
     2
274
     2
340
6B
275
     0
280
     0
281
     0
282
     0
283
     0
284
     0
285
     0
286
     0
287
     3
288
     0
  0
DIMSTYLE
105
5F
330
A
100
AcDbSymbolTableRecord
100
AcDbDimStyleTableRecord
  2
AM_JIS$3
 70
     0
  3

  4
"
  5
OPEN30
  6

  7

 40
1.0
 41
2.5
 42
1.0
 43
10.0
 44
1.0
 45
0.0
 46
0.0
 47
0.1
 48
0.1
140
3.2
141
0.0
142
0.0
143
0.0393701
144
1.0
145
0.0
146
0.71
147
1.5
 71
     0
 72
     0
 73
     0
 74
     1
 75
     0
 76
     0
 77
     3
 78
     8
170
     0
171
     2
172
     0
173
     0
174
     0
175
     0
176
   256
177
   256
178
     2
270
     2
271
     2
272
     3
273
     2
274
     2
340
6B
275
     0
280
     0
281
     0
282
     0
283
     0
284
     0
285
     0
286
     0
287
     0
288
     1
  0
DIMSTYLE
105
60
330
A
100
AcDbSymbolTableRecord
100
AcDbDimStyleTableRecord
  2
AM_JIS$4
 70
     0
  3

  4
"
  5
OPEN30
  6

  7

 40
1.0
 41
2.5
 42
1.0
 43
10.0
 44
1.0
 45
0.0
 46
0.0
 47
0.1
 48
0.1
140
3.2
141
0.0
142
0.0
143
0.0393701
144
1.0
145
0.0
146
0.71
147
1.5
 71
     0
 72
     0
 73
     0
 74
     1
 75
     0
 76
     0
 77
     3
 78
     8
170
     0
171
     2
172
     0
173
     0
174
     0
175
     0
176
   256
177
   256
178
     2
270
     2
271
     2
272
     3
273
     2
274
     2
340
6B
275
     0
280
     0
281
     0
282
     0
283
     0
284
     0
285
     0
286
     0
287
     0
288
     1
  0
DIMSTYLE
105
61
330
A
100
AcDbSymbolTableRecord
100
AcDbDimStyleTableRecord
  2
AM_JIS$6
 70
     0
  3

  4
"
  5
OPEN30
  6

  7

 40
1.0
 41
2.5
 42
1.0
 43
10.0
 44
1.0
 45
0.0
 46
0.0
 47
0.1
 48
0.1
140
3.2
141
0.0
142
0.0
143
0.0393701
144
1.0
145
0.0
146
0.71
147
1.5
 71
     0
 72
     0
 73
     0
 74
     0
 75
     0
 76
     0
 77
     0
 78
     8
170
     0
171
     2
172
     1
173
     0
174
     0
175
     0
176
   256
177
   256
178
     2
270
     2
271
     2
272
     2
273
     2
274
     2
340
6B
275
     0
280
     0
281
     0
282
     0
283
     0
284
     0
285
     0
286
     0
287
     3
288
     0
  0
DIMSTYLE
105
62
330
A
100
AcDbSymbolTableRecord
100
AcDbDimStyleTableRecord
  2
AM_JIS$7
 70
     0
  3

  4
"
  5
OPEN30
  6

  7

 40
1.0
 41
2.5
 42
1.0
 43
10.0
 44
1.0
 45
0.0
 46
0.0
 47
0.1
 48
0.1
140
3.2
141
0.0
142
0.0
143
0.0393701
144
1.0
145
0.0
146
0.71
147
1.5
 71
     0
 72
     0
 73
     0
 74
     0
 75
     0
 76
     0
 77
     3
 78
     8
170
     0
171
     2
172
     1
173
     0
174
     0
175
     0
176
   256
177
   256
178
     2
270
     2
271
     2
272
     3
273
     2
274
     2
340
6B
275
     0
280
     0
281
     0
282
     0
283
     0
284
     0
285
     0
286
     0
287
     3
288
     0
  0
DIMSTYLE
105
63
330
A
100
AcDbSymbolTableRecord
100
AcDbDimStyleTableRecord
  2
AM_JIS$SF
 70
     0
  3

  4
"
  5
OPEN30
  6

  7

 40
1.0
 41
2.5
 42
1.0
 43
10.0
 44
1.0
 45
0.0
 46
0.0
 47
0.1
 48
0.1
140
3.2
141
0.0
142
0.0
143
0.0393701
144
1.0
145
0.0
146
0.71
147
1.5
 71
     0
 72
     0
 73
     0
 74
     0
 75
     1
 76
     1
 77
     3
 78
     8
170
     0
171
     2
172
     1
173
     0
174
     0
175
     0
176
   256
177
   256
178
     2
270
     2
271
     2
272
     2
273
     2
274
     2
340
6B
275
     0
280
     0
281
     0
282
     0
283
     0
284
     0
285
     0
286
     0
287
     3
288
     0
  0
DIMSTYLE
105
68
330
A
100
AcDbSymbolTableRecord
100
AcDbDimStyleTableRecord
  2
AM_JIS$SH
 70
     0
  3

  4
"
  5

  6
GENAXEH
  7
OPEN30
 40
1.0
 41
2.5
 42
1.0
 43
10.0
 44
1.0
 45
0.0
 46
0.0
 47
0.1
 48
0.1
140
3.2
141
0.0
142
0.0
143
0.0393701
144
2.0
145
0.0
146
0.71
147
1.5
 71
     0
 72
     0
 73
     0
 74
     0
 75
     1
 76
     1
 77
     3
 78
     8
170
     0
171
     2
172
     1
173
     1
174
     0
175
     0
176
   256
177
   256
178
     2
270
     2
271
     2
272
     2
273
     2
274
     2
340
6B
275
     0
280
     0
281
     0
282
     0
283
     0
284
     0
285
     0
286
     0
287
     3
288
     0
  0
DIMSTYLE
105
B34
102
{ACAD_REACTORS
330
42FE
102
}
330
A
100
AcDbSymbolTableRecord
100
AcDbDimStyleTableRecord
  2
AM_JIS$2
 70
     0
  3

  4
"
  5
OPEN30
  6

  7

 40
1.0
 41
2.5
 42
1.0
 43
12.0
 44
1.0
 45
0.0
 46
0.0
 47
0.1
 48
0.1
140
3.2
141
0.0
142
0.0
143
0.0393701
144
1.0
145
0.0
146
0.71
147
1.5
 71
     0
 72
     0
 73
     0
 74
     0
 75
     0
 76
     0
 77
     3
 78
     8
170
     0
171
     2
172
     1
173
     0
174
     0
175
     0
176
   256
177
   256
178
     2
270
     2
271
     3
272
     3
273
     2
274
     2
340
6B
275
     0
280
     0
281
     0
282
     0
283
     0
284
     0
285
     0
286
     0
287
     3
288
     0
  0
DIMSTYLE
105
BA5
102
{ACAD_REACTORS
330
CC6
330
DF5
330
2216
330
41AF
102
}
330
A
100
AcDbSymbolTableRecord
100
AcDbDimStyleTableRecord
  2
AM_JIS$0
 70
     0
  3

  4
"
  5
OPEN30
  6

  7

 40
1.0
 41
2.5
 42
0.0
 43
10.0
 44
1.0
 45
0.0
 46
0.0
 47
0.1
 48
0.1000000001
140
3.799999999999999
141
0.0
142
0.0
143
0.0393701
144
1.0
145
0.0
146
0.71
147
1.5
 71
     0
 72
     0
 73
     0
 74
     0
 75
     0
 76
     0
 77
     3
 78
     1
170
     0
171
     2
172
     1
173
     0
174
     0
175
     0
176
     3
177
     3
178
     2
270
     2
271
     2
272
     2
273
     2
274
     2
340
11
275
     1
280
     0
281
     0
282
     0
283
     0
284
     8
285
     0
286
     0
287
     0
288
     0
  0
ENDTAB
  0
TABLE
  2
BLOCK_RECORD
  5
1
330
0
100
AcDbSymbolTable
 70
    10
  0
BLOCK_RECORD
  5
1F
102
{ACAD_XDICTIONARY
360
74
102
}
330
1
100
AcDbSymbolTableRecord
100
AcDbBlockTableRecord
  2
*MODEL_SPACE
  0
BLOCK_RECORD
  5
101
102
{ACAD_XDICTIONARY
360
4469
102
}
330
1
100
AcDbSymbolTableRecord
100
AcDbBlockTableRecord
  2
*PAPER_SPACE
  0
BLOCK_RECORD
  5
59
330
1
100
AcDbSymbolTableRecord
100
AcDbBlockTableRecord
  2
_OPEN30
  0
BLOCK_RECORD
  5
64
330
1
100
AcDbSymbolTableRecord
100
AcDbBlockTableRecord
  2
GENAXEH
  0
BLOCK_RECORD
  5
CC8
330
1
100
AcDbSymbolTableRecord
100
AcDbBlockTableRecord
  2
*D5
  0
BLOCK_RECORD
  5
DF6
330
1
100
AcDbSymbolTableRecord
100
AcDbBlockTableRecord
  2
*D6
  0
BLOCK_RECORD
  5
2217
330
1
100
AcDbSymbolTableRecord
100
AcDbBlockTableRecord
  2
*D7
  0
BLOCK_RECORD
  5
41B0
330
1
100
AcDbSymbolTableRecord
100
AcDbBlockTableRecord
  2
*D8
  0
BLOCK_RECORD
  5
42FF
330
1
100
AcDbSymbolTableRecord
100
AcDbBlockTableRecord
  2
*D9
  0
ENDTAB
  0
ENDSEC
  0
SECTION
  2
BLOCKS
  0
BLOCK
  5
20
330
1F
100
AcDbEntity
  8
0
100
AcDbBlockBegin
  2
*MODEL_SPACE
 70
     0
 10
0.0
 20
0.0
 30
0.0
  3
*MODEL_SPACE
  1

  0
ENDBLK
  5
21
330
1F
100
AcDbEntity
  8
0
100
AcDbBlockEnd
  0
BLOCK
  5
103
330
101
100
AcDbEntity
 67
     1
  8
0
100
AcDbBlockBegin
  2
*PAPER_SPACE
 70
     0
 10
0.0
 20
0.0
 30
0.0
  3
*PAPER_SPACE
  1

  0
ENDBLK
  5
104
330
101
100
AcDbEntity
 67
     1
  8
0
100
AcDbBlockEnd
  0
BLOCK
  5
5D
330
59
100
AcDbEntity
  8
0
100
AcDbBlockBegin
  2
_OPEN30
 70
     0
 10
0.0
 20
0.0
 30
0.0
  3
_OPEN30
  1

  0
LINE
  5
5A
330
59
100
AcDbEntity
  8
0
 62
     0
100
AcDbLine
 10
-1.0
 20
0.26794919
 30
0.0
 11
0.0
 21
0.0
 31
0.0
  0
LINE
  5
5B
330
59
100
AcDbEntity
  8
0
 62
     0
100
AcDbLine
 10
0.0
 20
0.0
 30
0.0
 11
-1.0
 21
-0.26794919
 31
0.0
  0
LINE
  5
5C
330
59
100
AcDbEntity
  8
0
 62
     0
100
AcDbLine
 10
0.0
 20
0.0
 30
0.0
 11
-1.0
 21
0.0
 31
0.0
  0
ENDBLK
  5
5E
330
59
100
AcDbEntity
  8
0
100
AcDbBlockEnd
  0
BLOCK
  5
66
330
64
100
AcDbEntity
  8
0
100
AcDbBlockBegin
  2
GENAXEH
 70
     0
 10
0.0
 20
0.0
 30
0.0
  3
GENAXEH
  1

  0
LINE
  5
65
330
64
100
AcDbEntity
  8
0
100
AcDbLine
 10
-1.0
 20
0.0
 30
0.0
 11
1.0
 21
0.0
 31
0.0
  0
ENDBLK
  5
67
330
64
100
AcDbEntity
  8
0
100
AcDbBlockEnd
  0
BLOCK
  5
CD2
330
CC8
100
AcDbEntity
  8
0
100
AcDbBlockBegin
  2
*D5
 70
     1
 10
0.0
 20
0.0
 30
0.0
  3
*D5
  1

  0
LINE
  5
42CB
330
CC8
100
AcDbEntity
  8
AM_5
 62
     3
100
AcDbLine
 10
-179.0000000000013
 20
-6.500002054481138
 30
0.0
 11
-179.0000000000013
 21
-32.00099608779141
 31
0.0
  0
LINE
  5
42CC
330
CC8
100
AcDbEntity
  8
AM_5
 62
     3
100
AcDbLine
 10
-3.000000000000726
 20
-7.00000061075613
 30
0.0
 11
-3.000000000000727
 21
-32.00099608779142
 31
0.0
  0
LINE
  5
42CD
330
CC8
100
AcDbEntity
  8
AM_5
 62
     3
100
AcDbLine
 10
-176.5000000000013
 20
-31.00099608779141
 30
0.0
 11
-5.500000000000728
 21
-31.00099608779141
 31
0.0
  0
INSERT
  5
42CE
330
CC8
100
AcDbEntity
  8
AM_5
 62
     3
100
AcDbBlockReference
  2
_OPEN30
 10
-179.0000000000013
 20
-31.00099608779141
 30
0.0
 41
2.5
 42
2.5
 43
2.5
 50
180.0
  0
INSERT
  5
42CF
330
CC8
100
AcDbEntity
  8
AM_5
 62
     3
100
AcDbBlockReference
  2
_OPEN30
 10
-3.000000000000727
 20
-31.00099608779141
 30
0.0
 41
2.5
 42
2.5
 43
2.5
  0
MTEXT
  5
42D0
330
CC8
100
AcDbEntity
  8
AM_5
 62
     2
100
AcDbMText
 10
-91.00000000000106
 20
-27.60099608779142
 30
0.0
 40
3.799999999999999
 41
0.0
 71
     5
 72
     1
  1
176
1001
ACAD
1000
MTEXTBEGIN
1070
    73
1070
     1
1070
    44
1040
1.0
1070
    74
1070
     0
1000
MTEXTEND
  0
POINT
  5
42D1
330
CC8
100
AcDbEntity
  8
DEFPOINTS
 62
     0
100
AcDbPoint
 10
-179.0000000000013
 20
-6.500002054481138
 30
0.0
  0
POINT
  5
42D2
330
CC8
100
AcDbEntity
  8
DEFPOINTS
 62
     0
100
AcDbPoint
 10
-3.000000000000726
 20
-7.00000061075613
 30
0.0
  0
POINT
  5
42D3
330
CC8
100
AcDbEntity
  8
DEFPOINTS
 62
     0
100
AcDbPoint
 10
-3.000000000000727
 20
-31.00099608779141
 30
0.0
  0
ENDBLK
  5
CD3
330
CC8
100
AcDbEntity
  8
0
100
AcDbBlockEnd
  0
BLOCK
  5
E00
330
DF6
100
AcDbEntity
  8
0
100
AcDbBlockBegin
  2
*D6
 70
     1
 10
0.0
 20
0.0
 30
0.0
  3
*D6
  1

  0
LINE
  5
42C2
330
DF6
100
AcDbEntity
  8
AM_5
 62
     3
100
AcDbLine
 10
-115.0000000000006
 20
-4.684929834852282
 30
0.0
 11
-115.0000000000006
 21
-22.00099608779134
 31
0.0
  0
LINE
  5
42C3
330
DF6
100
AcDbEntity
  8
AM_5
 62
     3
100
AcDbLine
 10
-3.000000000000738
 20
-7.000000610756151
 30
0.0
 11
-3.000000000000738
 21
-22.00099608779134
 31
0.0
  0
LINE
  5
42C4
330
DF6
100
AcDbEntity
  8
AM_5
 62
     3
100
AcDbLine
 10
-112.5000000000006
 20
-21.00099608779134
 30
0.0
 11
-5.500000000000738
 21
-21.00099608779134
 31
0.0
  0
INSERT
  5
42C5
330
DF6
100
AcDbEntity
  8
AM_5
 62
     3
100
AcDbBlockReference
  2
_OPEN30
 10
-115.0000000000006
 20
-21.00099608779134
 30
0.0
 41
2.5
 42
2.5
 43
2.5
 50
180.0
  0
INSERT
  5
42C6
330
DF6
100
AcDbEntity
  8
AM_5
 62
     3
100
AcDbBlockReference
  2
_OPEN30
 10
-3.000000000000738
 20
-21.00099608779134
 30
0.0
 41
2.5
 42
2.5
 43
2.5
  0
MTEXT
  5
42C7
330
DF6
100
AcDbEntity
  8
AM_5
 62
     2
100
AcDbMText
 10
-59.00000000000071
 20
-17.60099608779134
 30
0.0
 40
3.799999999999999
 41
0.0
 71
     5
 72
     1
  1
112
1001
ACAD
1000
MTEXTBEGIN
1070
    73
1070
     1
1070
    44
1040
1.0
1070
    74
1070
     0
1000
MTEXTEND
  0
POINT
  5
42C8
330
DF6
100
AcDbEntity
  8
DEFPOINTS
 62
     0
100
AcDbPoint
 10
-115.0000000000006
 20
-4.684929834852282
 30
0.0
  0
POINT
  5
42C9
330
DF6
100
AcDbEntity
  8
DEFPOINTS
 62
     0
100
AcDbPoint
 10
-3.000000000000738
 20
-7.000000610756151
 30
0.0
  0
POINT
  5
42CA
330
DF6
100
AcDbEntity
  8
DEFPOINTS
 62
     0
100
AcDbPoint
 10
-3.000000000000738
 20
-21.00099608779134
 30
0.0
  0
ENDBLK
  5
E01
330
DF6
100
AcDbEntity
  8
0
100
AcDbBlockEnd
  0
BLOCK
  5
2221
330
2217
100
AcDbEntity
  8
0
100
AcDbBlockBegin
  2
*D7
 70
     1
 10
0.0
 20
0.0
 30
0.0
  3
*D7
  1

  0
LINE
  5
42D4
330
2217
100
AcDbEntity
  8
AM_5
 62
     3
100
AcDbLine
 10
-178.5000000000018
 20
6.999999999998649
 30
0.0
 11
-196.0000010000013
 21
6.9999999999986
 31
0.0
  0
LINE
  5
42D5
330
2217
100
AcDbEntity
  8
AM_5
 62
     3
100
AcDbLine
 10
-178.5000000000018
 20
-7.000002054481175
 30
0.0
 11
-196.0000010000013
 21
-7.000002054481225
 31
0.0
  0
LINE
  5
42D6
330
2217
100
AcDbEntity
  8
AM_5
 62
     3
100
AcDbLine
 10
-195.0000010000013
 20
4.499999999998602
 30
0.0
 11
-195.0000010000013
 21
-4.500002054481222
 31
0.0
  0
INSERT
  5
42D7
330
2217
100
AcDbEntity
  8
AM_5
 62
     3
100
AcDbBlockReference
  2
_OPEN30
 10
-195.0000010000013
 20
6.999999999998602
 30
0.0
 41
2.5
 42
2.5
 43
2.5
 50
90.00000000000017
  0
INSERT
  5
42D8
330
2217
100
AcDbEntity
  8
AM_5
 62
     3
100
AcDbBlockReference
  2
_OPEN30
 10
-195.0000010000013
 20
-7.000002054481222
 30
0.0
 41
2.5
 42
2.5
 43
2.5
 50
270.0000000000001
  0
MTEXT
  5
42D9
330
2217
100
AcDbEntity
  8
AM_5
 62
     2
100
AcDbMText
 10
-198.4000010000013
 20
-0.0000010272413116
 30
0.0
 40
3.799999999999999
 41
0.0
 71
     5
 72
     1
  1
%%c14
 11
-0.0000000000000028
 21
1.0
 31
0.0
1001
ACAD
1000
MTEXTBEGIN
1070
    73
1070
     1
1070
    44
1040
1.0
1070
    74
1070
     0
1000
MTEXTEND
  0
POINT
  5
42DA
330
2217
100
AcDbEntity
  8
DEFPOINTS
 62
     0
100
AcDbPoint
 10
-178.5000000000018
 20
6.999999999999205
 30
0.0
  0
POINT
  5
42DB
330
2217
100
AcDbEntity
  8
DEFPOINTS
 62
     0
100
AcDbPoint
 10
-178.5000000000018
 20
-7.00000205448062
 30
0.0
  0
POINT
  5
42DC
330
2217
100
AcDbEntity
  8
DEFPOINTS
 62
     0
100
AcDbPoint
 10
-195.0000010000013
 20
-7.000002054480615
 30
0.0
  0
ENDBLK
  5
2222
330
2217
100
AcDbEntity
  8
0
100
AcDbBlockEnd
  0
BLOCK
  5
41BA
330
41B0
100
AcDbEntity
  8
0
100
AcDbBlockBegin
  2
*D8
 70
     1
 10
0.0
 20
0.0
 30
0.0
  3
*D8
  1

  0
LINE
  5
42E8
330
41B0
100
AcDbEntity
  8
AM_5
 62
     3
100
AcDbLine
 10
-3.000000000000541
 20
6.999999389243493
 30
0.0
 11
15.55592102485601
 21
6.999999389243546
 31
0.0
  0
LINE
  5
42E9
330
41B0
100
AcDbEntity
  8
AM_5
 62
     3
100
AcDbLine
 10
-3.000000000000451
 20
-7.000000610755681
 30
0.0
 11
15.55592102485604
 21
-7.000000610755628
 31
0.0
  0
LINE
  5
42EA
330
41B0
100
AcDbEntity
  8
AM_5
 62
     3
100
AcDbLine
 10
14.55592102485602
 20
4.499999389243543
 30
0.0
 11
14.55592102485604
 21
-4.500000610755631
 31
0.0
  0
INSERT
  5
42EB
330
41B0
100
AcDbEntity
  8
AM_5
 62
     3
100
AcDbBlockReference
  2
_OPEN30
 10
14.55592102485601
 20
6.999999389243543
 30
0.0
 41
2.5
 42
2.5
 43
2.5
 50
90.00000000000017
  0
INSERT
  5
42EC
330
41B0
100
AcDbEntity
  8
AM_5
 62
     3
100
AcDbBlockReference
  2
_OPEN30
 10
14.55592102485605
 20
-7.000000610755631
 30
0.0
 41
2.5
 42
2.5
 43
2.5
 50
270.0000000000001
  0
MTEXT
  5
42ED
330
41B0
100
AcDbEntity
  8
AM_5
 62
     2
100
AcDbMText
 10
11.15592102485603
 20
-0.0000006107560542
 30
0.0
 40
3.799999999999999
 41
0.0
 71
     5
 72
     1
  1
%%c14
 11
-0.0000000000000028
 21
1.0
 31
0.0
1001
ACAD
1000
MTEXTBEGIN
1070
    73
1070
     1
1070
    44
1040
1.0
1070
    74
1070
     0
1000
MTEXTEND
  0
POINT
  5
42EE
330
41B0
100
AcDbEntity
  8
DEFPOINTS
 62
     0
100
AcDbPoint
 10
-3.00000000000052
 20
6.999999389243503
 30
0.0
  0
POINT
  5
42EF
330
41B0
100
AcDbEntity
  8
DEFPOINTS
 62
     0
100
AcDbPoint
 10
-3.000000000000473
 20
-7.000000610755671
 30
0.0
  0
POINT
  5
42F0
330
41B0
100
AcDbEntity
  8
DEFPOINTS
 62
     0
100
AcDbPoint
 10
14.55592102485603
 20
-7.000000610755677
 30
0.0
  0
ENDBLK
  5
41BB
330
41B0
100
AcDbEntity
  8
0
100
AcDbBlockEnd
  0
BLOCK
  5
430D
330
42FF
100
AcDbEntity
  8
0
100
AcDbBlockBegin
  2
*D9
 70
     1
 10
0.0
 20
0.0
 30
0.0
  3
*D9
  1

  0
LINE
  5
446B
330
42FF
100
AcDbEntity
  8
AM_5
100
AcDbLine
 10
0.3420201408147764
 20
-0.9396926216993904
 30
0.0
 11
8.069489512539592
 21
-22.1707404064574
 31
0.0
  0
LINE
  5
446C
330
42FF
100
AcDbEntity
  8
AM_5
100
AcDbLine
 10
0.3420224212230498
 20
0.9396917916953528
 30
0.0
 11
8.069543315601018
 21
22.17072082367058
 31
0.0
  0
ARC
  5
446D
330
42FF
100
AcDbEntity
  8
AM_5
100
AcDbCircle
 10
-0.0000000000013642
 20
-0.0000000000000887
 30
0.0
 40
22.59360911695215
100
AcDbArc
 50
296.3430600647894
 51
63.65680089205503
  0
INSERT
  5
446E
330
42FF
100
AcDbEntity
  8
AM_5
100
AcDbBlockReference
  2
_OPEN30
 10
7.727469371723452
 20
-21.2310477847581
 30
0.0
 41
2.5
 42
2.5
 43
2.5
 50
203.1715299558881
  0
INSERT
  5
446F
330
42FF
100
AcDbEntity
  8
AM_5
100
AcDbBlockReference
  2
_OPEN30
 10
7.727520894376604
 20
21.23102903197514
 30
0.0
 41
2.5
 42
2.5
 43
2.5
 50
156.8283310009563
  0
MTEXT
  5
4470
330
42FF
100
AcDbEntity
  8
AM_5
 62
     2
100
AcDbMText
 10
19.49360911693643
 20
-0.0000236531639491
 30
0.0
 40
3.2
 41
0.0
 71
     5
 72
     1
  1
140°
  7
ASAMI
 11
0.0000012133804333
 21
0.999999999999264
 31
0.0
  0
POINT
  5
4471
330
42FF
100
AcDbEntity
  8
DEFPOINTS
 62
     0
100
AcDbPoint
 10
20.74580855684439
 20
-8.948888213198909
 30
0.0
  0
POINT
  5
4472
330
42FF
100
AcDbEntity
  8
DEFPOINTS
 62
     0
100
AcDbPoint
 10
-0.0000000000013642
 20
-0.0000000000000887
 30
0.0
  0
POINT
  5
4473
330
42FF
100
AcDbEntity
  8
DEFPOINTS
 62
     0
100
AcDbPoint
 10
-0.0000000000013927
 20
-0.0000000000000106
 30
0.0
  0
POINT
  5
4474
330
42FF
100
AcDbEntity
  8
DEFPOINTS
 62
     0
100
AcDbPoint
 10
-0.5872917675997372
 20
1.613570883515823
 30
0.0
  0
POINT
  5
4475
330
42FF
100
AcDbEntity
  8
DEFPOINTS
 62
     0
100
AcDbPoint
 10
-0.5873037318990539
 20
-1.613591571338162
 30
0.0
  0
ENDBLK
  5
430E
330
42FF
100
AcDbEntity
  8
0
100
AcDbBlockEnd
  0
ENDSEC
  0
SECTION
  2
ENTITIES
  0
LINE
  5
C9F
330
1F
100
AcDbEntity
  8
AM_7
100
AcDbLine
 10
-181.0000000000013
 20
-0.0000000000003117
 30
0.0
 11
0.5559200248566612
 21
0.000000000000001
 31
0.0
1001
GENIUS_GENODEF_13
1002
{
1000
HIER
1070
     0
1002
}
1002
{
1000
MANEDIT
1070
     0
1002
}
1002
{
1000
NOSEL
1070
     0
1002
}
1002
{
1000
BEHIND
1070
     0
1002
}
1002
{
1000
REACTOR
1002
}
1001
GENIUS_GENOBJ-N-CEN_13
1002
{
1000
OWNER
1000
GEN
1002
}
  0
DIMENSION
  5
CC6
330
1F
100
AcDbEntity
  8
AM_5
100
AcDbDimension
  2
*D5
 10
-3.000000000000727
 20
-31.00099608779141
 30
0.0
 11
-91.00000000000106
 21
-27.60099608779142
 31
0.0
 70
    32
  1
<>
  3
AM_JIS$0
100
AcDbAlignedDimension
 13
-179.0000000000013
 23
-6.500002054481138
 33
0.0
 14
-3.000000000000726
 24
-7.00000061075613
 34
0.0
 50
0.0000000000001132
100
AcDbRotatedDimension
1001
GENIUS_GENDTOL_13
1000

1000
h7
1000

1040
0.0
1001
ACAD
1000
DSTYLE
1002
{
1070
   271
1070
     0
1002
}
  0
DIMENSION
  5
DF5
330
1F
100
AcDbEntity
  8
AM_5
100
AcDbDimension
  2
*D6
 10
-3.000000000000738
 20
-21.00099608779134
 30
0.0
 11
-59.00000000000071
 21
-17.60099608779134
 31
0.0
 70
    32
  1
<>
  3
AM_JIS$0
100
AcDbAlignedDimension
 13
-115.0000000000006
 23
-4.684929834852282
 33
0.0
 14
-3.000000000000738
 24
-7.000000610756151
 34
0.0
 50
0.0000000000001527
100
AcDbRotatedDimension
1001
GENIUS_GENDTOL_13
1000

1000
h7
1000

1040
0.0
1001
ACAD
1000
DSTYLE
1002
{
1070
   271
1070
     0
1002
}
  0
TEXT
  5
19BD
330
1F
100
AcDbEntity
  8
AM_6
100
AcDbText
 10
-112.1904761904771
 20
-53.50000305448099
 30
0.0
 40
5.0
  1
MDW140LHK
 50
0.0000000000001527
 72
     4
 11
-91.000000000001
 21
-51.00000305448094
 31
0.0
100
AcDbText
  0
LINE
  5
21D8
330
1F
100
AcDbEntity
  8
AM_0
 48
0.5
100
AcDbLine
 10
-178.5000000000013
 20
6.999999999999688
 30
0.0
 11
-106.5899819127323
 21
6.999999389247921
 31
0.0
1001
GENIUS_GENODEF_13
1002
{
1000
HIER
1070
     0
1002
}
1002
{
1000
MANEDIT
1070
     0
1002
}
1002
{
1000
NOSEL
1070
     0
1002
}
1002
{
1000
BEHIND
1070
     0
1002
}
1002
{
1000
REACTOR
1002
}
1001
GENIUS_GENOBJ-N-CEN_13
1002
{
1000
OWNER
1000
GEN
1002
}
  0
LINE
  5
21D9
330
1F
100
AcDbEntity
  8
AM_0
 48
0.5
100
AcDbLine
 10
-178.5000000000013
 20
-7.000002054481142
 30
0.0
 11
-112.5559247313363
 21
-7.000002054481151
 31
0.0
1001
GENIUS_GENODEF_13
1002
{
1000
HIER
1070
     0
1002
}
1002
{
1000
MANEDIT
1070
     0
1002
}
1002
{
1000
NOSEL
1070
     0
1002
}
1002
{
1000
BEHIND
1070
     0
1002
}
1002
{
1000
REACTOR
1002
}
1001
GENIUS_GENOBJ-N-CEN_13
1002
{
1000
OWNER
1000
GEN
1002
}
  0
LINE
  5
21DC
330
1F
100
AcDbEntity
  8
AM_0
100
AcDbLine
 10
-178.5000000000018
 20
-7.000002054480616
 30
0.0
 11
-178.5000000000018
 21
6.999999999999205
 31
0.0
  0
LINE
  5
21DD
330
1F
100
AcDbEntity
  8
AM_0
 48
0.5
100
AcDbLine
 10
-179.0000000000013
 20
-6.500002054481142
 30
0.0
 11
-179.0000000000013
 21
6.499999999999702
 31
0.0
  0
DIMENSION
  5
2216
330
1F
100
AcDbEntity
  8
AM_5
100
AcDbDimension
  2
*D7
 10
-195.0000010000013
 20
-7.000002054480615
 30
0.0
 11
-198.4000010000013
 21
-0.0000010272407343
 31
0.0
 70
    32
  1
%%c<>
 51
359.9999999999998
  3
AM_JIS$0
100
AcDbAlignedDimension
 13
-178.5000000000018
 23
6.999999999999205
 33
0.0
 14
-178.5000000000018
 24
-7.00000205448062
 34
0.0
 50
269.9999999999999
100
AcDbRotatedDimension
1001
ACAD
1000
DSTYLE
1002
{
1070
   271
1070
     0
1002
}
1001
GENIUS_GENDTOL_13
1000

1000
h7
1000

1040
0.0
  0
ELLIPSE
  5
2694
330
1F
100
AcDbEntity
  8
AM_0
 48
0.5
100
AcDbEllipse
 10
8.240586575835102
 20
6.617376299158917
 30
0.0
 11
10.17240772368207
 21
0.0000000000010035
 31
0.0
210
0.0
220
0.0
230
1.0
 40
0.9899999999999971
 41
3.323896559076802
 42
3.661579236128986
  0
LINE
  5
2695
330
1F
100
AcDbEntity
  8
AM_0
 48
0.5
100
AcDbLine
 10
-1.763250261311227
 20
4.7916038607996
 30
0.0
 11
-3.00000000000052
 21
6.999999389243502
 31
0.0
  0
LINE
  5
2696
330
1F
100
AcDbEntity
  8
AM_0
 48
0.5
100
AcDbLine
 10
-0.0000000000013927
 20
-0.0000000000000106
 30
0.0
 11
-0.5872917675997372
 21
1.613570883515823
 31
0.0
  0
LINE
  5
2699
330
1F
100
AcDbEntity
  8
AM_0
 48
0.5
100
AcDbLine
 10
-0.0000000000013642
 20
-0.0000000000000887
 30
0.0
 11
-0.5873037318990539
 21
-1.613591571338162
 31
0.0
  0
LINE
  5
2CB4
330
1F
100
AcDbEntity
  8
AM_0
 48
0.5
100
AcDbLine
 10
-179.0000000000013
 20
6.499999999999688
 30
0.0
 11
-178.5000000000013
 21
6.999999999999688
 31
0.0
1001
GENIUS_GENFIL_13
1070
     0
1040
0.5
1040
0.5
1040
20.0
1040
0.0
1002
{
1002
}
1001
GENIUS_GENODEF_13
1002
{
1000
HIER
1070
     0
1002
}
1002
{
1000
MANEDIT
1070
     0
1002
}
1002
{
1000
NOSEL
1070
     0
1002
}
1002
{
1000
BEHIND
1070
     0
1002
}
1002
{
1000
REACTOR
1002
}
1001
GENIUS_GENOBJ-N-CHA_13
1002
{
1000
OWNER
1000
GEN
1002
}
  0
LINE
  5
2CB7
330
1F
100
AcDbEntity
  8
AM_0
 48
0.5
100
AcDbLine
 10
-178.5000000000013
 20
-7.000002054481142
 30
0.0
 11
-179.0000000000013
 21
-6.500002054481142
 31
0.0
1001
GENIUS_GENFIL_13
1070
     0
1040
0.5
1040
0.5
1040
20.0
1040
0.0
1002
{
1002
}
1001
GENIUS_GENODEF_13
1002
{
1000
HIER
1070
     0
1002
}
1002
{
1000
MANEDIT
1070
     0
1002
}
1002
{
1000
NOSEL
1070
     0
1002
}
1002
{
1000
BEHIND
1070
     0
1002
}
1002
{
1000
REACTOR
1002
}
1001
GENIUS_GENOBJ-N-CHA_13
1002
{
1000
OWNER
1000
GEN
1002
}
  0
ELLIPSE
  5
3366
330
1F
100
AcDbEntity
  8
AM_0
 48
0.5
100
AcDbEllipse
 10
8.240586575835123
 20
-6.617376299158896
 30
0.0
 11
10.17240772368207
 21
-0.0000000000009696
 31
0.0
210
0.0
220
0.0
230
-1.0
 40
0.9899999999999971
 41
3.323896559076802
 42
3.661579236128986
  0
LINE
  5
3367
330
1F
100
AcDbEntity
  8
AM_0
 48
0.5
100
AcDbLine
 10
-1.763250261311213
 20
-4.791603860799622
 30
0.0
 11
-3.000000000000773
 21
-7.000000610756208
 31
0.0
  0
SPLINE
  5
4141
330
1F
100
AcDbEntity
  8
AM_0
 48
0.5
100
AcDbSpline
210
0.0
220
0.0
230
1.0
 70
     8
 71
     3
 72
    25
 73
    21
 74
     0
 42
0.0000000001
 43
0.0000000001
 40
6.846175049578289
 40
6.846175049578289
 40
6.846175049578289
 40
6.846175049578289
 40
7.604337694224321
 40
8.711974558287883
 40
9.814980593243754
 40
10.91239053451967
 40
12.0033633515982
 40
13.08720139956839
 40
14.16337181880432
 40
15.23152222380919
 40
16.29148850140128
 40
17.34331105512262
 40
18.38723020264746
 40
19.42369128463655
 40
20.45333379090873
 40
21.47697865721768
 40
22.49561244472435
 40
23.5103574802404
 40
24.52244778960836
 40
25.53320666051913
 40
25.53320666051913
 40
25.53320666051913
 40
25.53320666051913
 10
-9.059223570449553
 20
1.267045217199636
 30
0.0
 10
-9.305252770872957
 20
1.389952767745479
 30
0.0
 10
-9.911235835027612
 20
1.691192061526968
 30
0.0
 10
-10.87807331818901
 20
2.164246193711952
 30
0.0
 10
-11.95992613664652
 20
2.680243310824947
 30
0.0
 10
-13.04183336218492
 20
3.179754462000396
 30
0.0
 10
-14.12380429040357
 20
3.659708371773525
 30
0.0
 10
-15.20585097712871
 20
4.117143965356556
 30
0.0
 10
-16.28798342789343
 20
4.549240283135598
 30
0.0
 10
-17.37020665240105
 20
4.953341780482249
 30
0.0
 10
-18.45253398086539
 20
5.326933604723276
 30
0.0
 10
-19.53496394768606
 20
5.667724876756059
 30
0.0
 10
-20.61750432773038
 20
5.973589062611272
 30
0.0
 10
-21.70015130066353
 20
6.242633216530501
 30
0.0
 10
-22.78290063711929
 20
6.473208290342294
 30
0.0
 10
-23.86574631210654
 20
6.663785925508128
 30
0.0
 10
-24.94867147698133
 20
6.81349389914178
 30
0.0
 10
-26.03166419680931
 20
6.920298805528422
 30
0.0
 10
-27.1147068913552
 20
6.987508715267114
 30
0.0
 10
-27.83691331786354
 20
6.995837658621105
 30
0.0
 10
-28.19777885313861
 20
6.999999389244625
 30
0.0
  0
LINE
  5
4144
330
1F
100
AcDbEntity
  8
AM_0
 48
0.5
100
AcDbLine
 10
-96.7419386012208
 20
4.380608919988052
 30
0.0
 11
-115.0000000000006
 21
0.3518921271952343
 31
0.0
  0
LINE
  5
4145
330
1F
100
AcDbEntity
  8
AM_11
 48
0.5
100
AcDbLine
 10
-112.5229662613697
 20
-7.000140832340963
 30
0.0
 11
-89.64580643195727
 21
-7.000000610752753
 31
0.0
  0
SPLINE
  5
4146
330
1F
100
AcDbEntity
  8
AM_0
 48
0.5
100
AcDbSpline
210
0.0
220
0.0
230
1.0
 70
     8
 71
     3
 72
    26
 73
    22
 74
     0
 42
0.0000000001
 43
0.0000000001
 40
0.0
 40
0.0
 40
0.0
 40
0.0
 40
0.4211432018735474
 40
0.8428473235286537
 40
1.265657898956934
 40
1.690088643751428
 40
2.116607084860617
 40
2.545625100287603
 40
2.977483884449724
 40
3.412450195918404
 40
3.850709593302191
 40
4.292362208965671
 40
4.737427885281768
 40
5.185826256336565
 40
5.637431371058531
 40
6.092003378174421
 40
6.549257520372505
 40
7.008843368271169
 40
7.470358728297647
 40
7.933358849736796
 40
8.383035712276667
 40
8.383035712276667
 40
8.383035712276667
 40
8.383035712276667
 10
-86.69111855679924
 20
-7.000356038409143
 30
0.0
 10
-87.130901847633
 20
-6.996191208175976
 30
0.0
 10
-88.01105417577886
 20
-6.987856000580674
 30
0.0
 10
-89.33096236283395
 20
-6.920664864260678
 30
0.0
 10
-90.65081421181671
 20
-6.813848524547389
 30
0.0
 10
-91.97058436048072
 20
-6.664141308167958
 30
0.0
 10
-93.29025970836827
 20
-6.473572270304214
 30
0.0
 10
-94.6098139624269
 20
-6.242987953965932
 30
0.0
 10
-95.92924624481591
 20
-5.973946276261541
 30
0.0
 10
-97.2485475570364
 20
-5.668081260841209
 30
0.0
 10
-98.56771478013214
 20
-5.327290749021278
 30
0.0
 10
-99.88675877089864
 20
-4.953695849293167
 30
0.0
 10
-101.2056740636487
 20
-4.549603389740347
 30
0.0
 10
-102.2585969582597
 20
-4.391190777629659
 30
0.0
 10
-103.5783591049192
 20
-3.932680554653772
 30
0.0
 10
-105.0440679801003
 20
-3.390014228620717
 30
0.0
 10
-105.9713167148887
 20
-3.204573635191735
 30
0.0
 10
-107.5246444912399
 20
-2.6005820703345
 30
0.0
 10
-108.6942601901172
 20
-2.195169231825388
 30
0.0
 10
-110.4301823418224
 20
-1.486409811838875
 30
0.0
 10
-111.4399482497446
 20
-1.044685671695572
 30
0.0
 10
-115.0000000000006
 20
0.3518921271952343
 30
0.0
  0
ELLIPSE
  5
4147
330
1F
100
AcDbEntity
  8
AM_0
 48
0.5
100
AcDbEllipse
 10
-112.3890147554714
 20
-4.654483026487475
 30
0.0
 11
-2.605814777006059
 21
0.2012611992198222
 31
0.0
210
0.0
220
0.0
230
1.0
 40
0.8997031619547687
 41
0.0985749738233251
 42
1.581670174421498
  0
SPLINE
  5
4148
330
1F
100
AcDbEntity
  8
AM_0
 48
0.5
100
AcDbSpline
210
0.0
220
0.0
230
1.0
 70
     8
 71
     3
 72
    19
 73
    15
 74
     0
 42
0.0000000001
 43
0.0000000001
 40
3.111699631838226
 40
3.111699631838226
 40
3.111699631838226
 40
3.111699631838226
 40
4.056212471389632
 40
5.079857945358201
 40
6.109499720892564
 40
7.145961650132166
 40
8.189873411961459
 40
9.241710626092514
 40
10.30166235592959
 40
11.36982472628033
 40
12.44598212828784
 40
13.52983440361964
 40
14.62080578343036
 40
14.90544694398022
 40
14.90544694398022
 40
14.90544694398022
 40
14.90544694398022
 10
-96.60849362880099
 20
-7.000061408167967
 30
0.0
 10
-97.42227616291151
 20
-6.89379374374922
 30
0.0
 10
-98.19727334915423
 20
-6.760626047319891
 30
0.0
 10
-99.59980102242862
 20
-6.543791365177597
 30
0.0
 10
-100.8046621096073
 20
-6.242992855916112
 30
0.0
 10
-102.1240886471372
 20
-5.973941401513738
 30
0.0
 10
-103.44339200285
 20
-5.668071957795037
 30
0.0
 10
-104.7625602944772
 20
-5.327294322432169
 30
0.0
 10
-106.0816004158626
 20
-4.95368250650032
 30
0.0
 10
-107.4005208699688
 20
-4.549613972801649
 30
0.0
 10
-108.7193206661316
 20
-4.117490891663512
 30
0.0
 10
-110.0380245105115
 20
-3.660066082757934
 30
0.0
 10
-111.0291226064258
 20
-3.299337129402032
 30
0.0
 10
-111.581397051196
 20
-3.093156054984051
 30
0.0
 10
-112.1426452602026
 20
-2.936547059984886
 30
0.0
  0
ELLIPSE
  5
4149
330
1F
100
AcDbEntity
  8
AM_0
 48
0.5
100
AcDbEllipse
 10
-112.9416475519247
 20
-4.61063637163043
 30
0.0
 11
2.026147242726021
 21
0.4328939910446554
 31
0.0
210
0.0
220
0.0
230
1.0
 40
0.8469618616693349
 41
0.9932691762724154
 42
2.936479111938202
  0
SPLINE
  5
414A
330
1F
100
AcDbEntity
  8
AM_0
100
AcDbSpline
210
0.0
220
0.0
230
1.0
 70
     8
 71
     3
 72
    13
 73
     9
 74
     0
 42
0.0000000001
 43
0.0000000001
 40
16.03460056234195
 40
16.03460056234195
 40
16.03460056234195
 40
16.03460056234195
 40
16.35212717791071
 40
17.38177067057215
 40
18.41822498539278
 40
19.46214186516937
 40
20.5139635832251
 40
21.34083983469381
 40
21.34083983469381
 40
21.34083983469381
 40
21.34083983469381
 10
-112.5417447132329
 20
-7.000992657557731
 30
0.0
 10
-112.0159860216302
 20
-6.977362586202707
 30
0.0
 10
-111.4412347440951
 20
-6.874460069015317
 30
0.0
 10
-110.4288055687256
 20
-6.672830405441176
 30
0.0
 10
-109.1177062565408
 20
-6.373013632470208
 30
0.0
 10
-107.8078249645938
 20
-6.03636821224773
 30
0.0
 10
-106.5957538588381
 20
-5.69228637796093
 30
0.0
 10
-105.8224738378225
 20
-5.455361548021221
 30
0.0
 10
-105.121757895099
 20
-5.22334010852528
 30
0.0
  0
LINE
  5
414B
330
1F
100
AcDbEntity
  8
AM_0
 48
0.5
100
AcDbLine
 10
-7.796128460452032
 20
6.99999938924371
 30
0.0
 11
-3.00000000000052
 21
6.999999389243502
 31
0.0
  0
LINE
  5
414C
330
1F
100
AcDbEntity
  8
AM_0
 48
0.5
100
AcDbLine
 10
-7.796128460452599
 20
-7.000000610756297
 30
0.0
 11
-3.000000000000801
 21
-7.000000610756186
 31
0.0
  0
LINE
  5
414D
330
1F
100
AcDbEntity
  8
AM_11
 48
0.5
100
AcDbLine
 10
-28.19777885313918
 20
-7.000000610755365
 30
0.0
 11
-7.796128460452599
 21
-7.000000610756297
 31
0.0
  0
LINE
  5
414E
330
1F
100
AcDbEntity
  8
AM_11
 48
0.5
100
AcDbLine
 10
-28.19777885313861
 20
6.999999389244623
 30
0.0
 11
-7.796128460452032
 21
6.99999938924371
 31
0.0
  0
LINE
  5
414F
330
1F
100
AcDbEntity
  8
AM_11
 48
0.5
100
AcDbLine
 10
-66.75372440868676
 20
-7.000000610753781
 30
0.0
 11
-46.35207401600282
 21
-7.000995087791504
 31
0.0
  0
LINE
  5
4150
330
1F
100
AcDbEntity
  8
AM_11
 48
0.5
100
AcDbLine
 10
-64.1092457037214
 20
7.000993866283073
 30
0.0
 11
-51.08969459051109
 21
6.999999389245654
 31
0.0
  0
LINE
  5
4151
330
1F
100
AcDbEntity
  8
AM_0
 48
0.5
100
AcDbLine
 10
-46.3520740160028
 20
-7.000000610754696
 30
0.0
 11
-28.19777885313918
 21
-7.000000610755365
 31
0.0
  0
LINE
  5
4152
330
1F
100
AcDbEntity
  8
AM_0
 48
0.5
100
AcDbLine
 10
-51.08971216233257
 20
6.999999389245654
 30
0.0
 11
-28.19777885313861
 21
6.999999389244623
 31
0.0
  0
LINE
  5
4153
330
1F
100
AcDbEntity
  8
AM_0
 48
0.5
100
AcDbLine
 10
-0.0000000000011899
 20
-0.0000000000005676
 30
0.0
 11
-5.147426701680323
 21
2.687786763103765
 31
0.0
  0
SPLINE
  5
4154
330
1F
100
AcDbEntity
  8
AM_0
100
AcDbSpline
210
0.0
220
0.0
230
1.0
 70
     8
 71
     3
 72
    46
 73
    42
 74
     0
 42
0.0000000001
 43
0.0000000001
 40
0.0
 40
0.0
 40
0.0
 40
0.0
 40
1.348332046947657
 40
2.024828967632895
 40
2.703918159304097
 40
3.386347665078124
 40
4.072776489761952
 40
4.763750544421347
 40
5.459696642770596
 40
6.160921452191754
 40
6.867565637253344
 40
7.579665907256596
 40
8.297112853413899
 40
9.019671552060676
 40
9.746986763446127
 40
10.47859339096366
 40
11.21393074760089
 40
11.95235532364328
 40
12.69315551794651
 40
13.43556823304427
 40
14.1787950170388
 40
14.92202180103393
 40
15.66443451613169
 40
16.40523471043432
 40
17.14365928647669
 40
17.87899664311455
 40
18.61060327063121
 40
19.3379184820169
 40
20.06048192311554
 40
20.77792886927283
 40
21.49002913927608
 40
22.19667332433747
 40
22.89788836015233
 40
23.59383445850158
 40
24.28480851316097
 40
24.97123685067576
 40
25.65366676154838
 40
26.33276604526152
 40
27.00926273560555
 40
27.68398960851751
 40
28.357818684969
 40
28.357818684969
 40
28.357818684969
 40
28.357818684969
 10
-4.764357480029765
 20
-7.000000610756429
 30
0.0
 10
-5.486593432611038
 20
-6.984054069649992
 30
0.0
 10
-6.571195909844352
 20
-6.960106690783678
 30
0.0
 10
-8.013439121423317
 20
-6.812667078471521
 30
0.0
 10
-9.09637567686566
 20
-6.664008728585409
 30
0.0
 10
-10.17921966701229
 20
-6.473156659313573
 30
0.0
 10
-11.26196823928135
 20
-6.242648699749448
 30
0.0
 10
-12.3446158313811
 20
-5.97358687431423
 30
0.0
 10
-13.42716063003948
 20
-5.667723950001215
 30
0.0
 10
-14.50959781754979
 20
-5.326937970443098
 30
0.0
 10
-15.59192955744433
 20
-4.95334261666336
 30
0.0
 10
-16.67415293857985
 20
-4.549241608793649
 30
0.0
 10
-17.75628534745396
 20
-4.117145159707132
 30
0.0
 10
-18.83833204344649
 20
-3.659709596683455
 30
0.0
 10
-19.92030297698597
 20
-3.179755697489589
 30
0.0
 10
-21.00221017161608
 20
-2.680244472501196
 30
0.0
 10
-22.08406310922627
 20
-2.164247642101783
 30
0.0
 10
-23.16587231897516
 20
-1.634938858419237
 30
0.0
 10
-24.24764927112439
 20
-1.095575706863613
 30
0.0
 10
-25.32940384777699
 20
-0.5494748916779376
 30
0.0
 10
-26.41114933100966
 20
-0.0000006108666279
 30
0.0
 10
-27.49289481400468
 20
0.5494736706124047
 30
0.0
 10
-28.57464939137012
 20
1.095574483795892
 30
0.0
 10
-29.65642634091388
 20
1.634937642668623
 30
0.0
 10
-30.73823556032396
 20
2.164246399214669
 30
0.0
 10
-31.82008846211138
 20
2.680243330233507
 30
0.0
 10
-32.90199578940534
 20
3.179754182592739
 30
0.0
 10
-33.983968584382
 20
3.659710503544655
 30
0.0
 10
-35.06601948468596
 20
4.117141910534361
 30
0.0
 10
-36.14815382391841
 20
4.549240575263493
 30
0.0
 10
-37.23037717985667
 20
4.95334170337474
 30
0.0
 10
-38.31270447365541
 20
5.326933624132451
 30
0.0
 10
-39.39513444910932
 20
5.667724875361003
 30
0.0
 10
-40.47767482889246
 20
5.973589049157537
 30
0.0
 10
-41.56032179441264
 20
6.242633271155573
 30
0.0
 10
-42.64307116048672
 20
6.4732080871114
 30
0.0
 10
-43.72592206142725
 20
6.66378761718108
 30
0.0
 10
-44.80885303677204
 20
6.813492494156592
 30
0.0
 10
-45.89185101252932
 20
6.920299041000668
 30
0.0
 10
-46.97488830030749
 20
6.987508306185628
 30
0.0
 10
-47.6970892697652
 20
6.995837543279155
 30
0.0
 10
-48.0579493530949
 20
6.999999389245522
 30
0.0
  0
SPLINE
  5
4155
330
1F
100
AcDbEntity
  8
AM_0
100
AcDbSpline
210
0.0
220
0.0
230
1.0
 70
     8
 71
     3
 72
    17
 73
    13
 74
     0
 42
0.0000000001
 43
0.0000000001
 40
1.580019955310467
 40
1.580019955310467
 40
1.580019955310467
 40
1.580019955310467
 40
2.030549285115227
 40
3.082371838836284
 40
4.126290986361125
 40
5.162752068350215
 40
6.192395305374981
 40
7.216039564037012
 40
8.234688489606833
 40
9.249433870634691
 40
10.26152376260694
 40
11.27226744710342
 40
11.27226744710342
 40
11.27226744710342
 40
11.27226744710352
 10
-17.99615779452658
 20
-5.16620673688835
 30
0.0
 10
-18.1493896191522
 20
-5.219414368224303
 30
0.0
 10
-18.66123539350201
 20
-5.393809486822914
 30
0.0
 10
-19.53508306275722
 20
-5.667354470310462
 30
0.0
 10
-20.6174726733348
 20
-5.973688563592193
 30
0.0
 10
-21.70016026475879
 20
-6.242609225011996
 30
0.0
 10
-22.78289746455027
 20
-6.473213358548049
 30
0.0
 10
-23.86575262661914
 20
-6.663823538596466
 30
0.0
 10
-24.94868260004389
 20
-6.813352036907173
 30
0.0
 10
-26.03168000535757
 20
-6.920829858778286
 30
0.0
 10
-27.11471816030869
 20
-6.985565156988801
 30
0.0
 10
-27.83691883876191
 20
-7.00000065080976
 30
0.0
 10
-28.19777885313909
 20
-7.000000610755371
 30
0.0
  0
SPLINE
  5
4156
330
1F
100
AcDbEntity
  8
AM_0
100
AcDbSpline
210
0.0
220
0.0
230
1.0
 70
     8
 71
     3
 72
    22
 73
    18
 74
     0
 42
0.0000000001
 43
0.0000000001
 40
17.17441611292
 40
17.17441611292
 40
17.17441611292
 40
17.17441611292
 40
17.38177636558528
 40
18.41823744757437
 40
19.46215659509824
 40
20.51397914882054
 40
21.57394542641293
 40
22.64209583141747
 40
23.71826625065247
 40
24.80210429862395
 40
25.8930771157021
 40
26.99048705697709
 40
28.09349309193389
 40
29.20112995599786
 40
30.31233024745139
 40
31.42594771747373
 40
32.5407895042663
 40
32.54078950426994
 40
32.54078950426994
 40
32.54078950426994
 10
-32.3314956543838
 20
-6.286051274298595
 30
0.0
 10
-32.40401743321237
 20
-6.269846960870979
 30
0.0
 10
-32.83874589083945
 20
-6.171144716608272
 30
0.0
 10
-33.63514392836123
 20
-5.97323387047842
 30
0.0
 10
-34.71768422607141
 20
-5.667370161527688
 30
0.0
 10
-35.80011421519763
 20
-5.326578760255844
 30
0.0
 10
-36.88244153763495
 20
-4.952986971089913
 30
0.0
 10
-37.9646647637042
 20
-4.548885464059863
 30
0.0
 10
-39.04679721431837
 20
-4.116789149577089
 30
0.0
 10
-40.12884390005495
 20
-3.659353552563101
 30
0.0
 10
-41.21081483241879
 20
-3.179399653280105
 30
0.0
 10
-42.29272204224071
 20
-2.67988846327882
 30
0.0
 10
-43.37457491982248
 20
-2.163891491972147
 30
0.0
 10
-44.45638435576245
 20
-1.63458323992058
 30
0.0
 10
-45.53815993935954
 20
-1.095218353731743
 30
0.0
 10
-46.61991769617848
 20
-0.5491250062844584
 30
0.0
 10
-47.34094797666236
 20
-0.182871781952854
 30
0.0
 10
-47.70166118911348
 20
0.0003554276578637
 30
0.0
  0
SPLINE
  5
4157
330
1F
100
AcDbEntity
  8
AM_0
100
AcDbSpline
210
0.0
220
0.0
230
1.0
 70
     8
 71
     3
 72
    11
 73
     7
 74
     0
 42
0.0000000001
 43
0.0000000001
 40
11.27226913003534
 40
11.27226913003534
 40
11.27226913003534
 40
11.2722691300354
 40
12.28301561507924
 40
13.29510212255852
 40
14.30984805882082
 40
15.18258238371378
 40
15.18258238371378
 40
15.18258238371378
 40
15.18258238371378
 10
-28.19777885313915
 20
-7.000000610755371
 30
0.0
 10
-28.55726670008634
 20
-6.965740576568639
 30
0.0
 10
-29.27556433154235
 20
-6.882798524860139
 30
0.0
 10
-30.34930162366749
 20
-6.715483890896249
 30
0.0
 10
-31.36829724683094
 20
-6.515644905960529
 30
0.0
 10
-32.02732380204996
 20
-6.36202273065073
 30
0.0
 10
-32.33102200445888
 20
-6.286137619245068
 30
0.0
  0
SPLINE
  5
4158
330
1F
100
AcDbEntity
  8
AM_0
100
AcDbSpline
210
0.0
220
0.0
230
1.0
 70
     8
 71
     3
 72
    55
 73
    51
 74
     0
 42
0.0000000001
 43
0.0000000001
 40
0.0
 40
0.0
 40
0.0
 40
0.0
 40
1.010743684496582
 40
2.022833576467832
 40
3.037578957496688
 40
4.056212745003489
 40
5.079857003664532
 40
6.109500240690281
 40
7.145961322679372
 40
8.189895241603872
 40
9.241717795325891
 40
10.30168407291828
 40
11.36983447792315
 40
12.44600489715814
 40
13.52984294512926
 40
14.62081576220742
 40
15.7182257034828
 40
16.82123173843959
 40
17.92886860250316
 40
19.0400688939571
 40
20.15368796660465
 40
21.26852814259644
 40
22.38336992938901
 40
23.49698739941135
 40
24.6081876908653
 40
25.71582455492886
 40
26.81883757994213
 40
27.91624752121713
 40
29.00722033829659
 40
30.09105838626677
 40
31.16722880550176
 40
32.23537921050758
 40
33.29534548809967
 40
34.347168041821
 40
35.39108718934584
 40
36.42754827133493
 40
37.45720575381954
 40
38.48085062012849
 40
39.49948440763516
 40
40.51422944315121
 40
41.52631975251916
 40
42.53706336719636
 40
43.54780698187354
 40
44.55989729124051
 40
45.57464232675757
 40
46.59327611426424
 40
47.6169209805722
 40
48.64656348684535
 40
49.68302456883444
 40
50.58557219878025
 40
50.58557219878025
 40
50.58557219878025
 40
50.58557219878025
 10
-7.796128460452599
 20
-7.00000061075629
 30
0.0
 10
-8.156988479590598
 20
-6.995835780341643
 30
0.0
 10
-8.87918914659822
 20
-6.987500572383135
 30
0.0
 10
-9.962227324521178
 20
-6.920309438792298
 30
0.0
 10
-11.04521927162787
 20
-6.813493088665228
 30
0.0
 10
-12.12814419216552
 20
-6.663785911430465
 30
0.0
 10
-13.21099128024815
 20
-6.473216726366969
 30
0.0
 10
-14.29373917372378
 20
-6.242632964271444
 30
0.0
 10
-15.37639149433612
 20
-5.973587919552384
 30
0.0
 10
-16.45893864114706
 20
-5.667729095335483
 30
0.0
 10
-17.54137324003761
 20
-5.326934446246802
 30
0.0
 10
-18.62370068634582
 20
-4.953343105070285
 30
0.0
 10
-19.70592387876042
 20
-4.549241476425686
 30
0.0
 10
-20.78805633879338
 20
-4.117145195600111
 30
0.0
 10
-21.87010302085016
 20
-3.659709586818609
 30
0.0
 10
-22.95207395846602
 20
-3.179755700721791
 30
0.0
 10
-24.0339811508451
 20
-2.680244469502794
 30
0.0
 10
-25.11583409338253
 20
-2.164247650897493
 30
0.0
 10
-26.19764328558438
 20
-1.634938826068022
 30
0.0
 10
-27.27942030326875
 20
-1.095575827946176
 30
0.0
 10
-28.36117463464979
 20
-0.5494744385856389
 30
0.0
 10
-29.44292155577433
 20
-0.0000020390095914
 30
0.0
 10
-30.52466362076033
 20
0.5494802514120848
 30
0.0
 10
-31.60642157794609
 20
1.095573136529516
 30
0.0
 10
-32.6881972601622
 20
1.63493776727245
 30
0.0
 10
-33.77000838121789
 20
2.164248608532622
 30
0.0
 10
-34.85186581180029
 20
2.680241023530467
 30
0.0
 10
-35.93377471171477
 20
3.179754787966416
 30
0.0
 10
-37.01574580553126
 20
3.659708284870117
 30
0.0
 10
-38.09779244821582
 20
4.117143989848605
 30
0.0
 10
-39.17992491101964
 20
4.549240271306245
 30
0.0
 10
-40.26214813099933
 20
4.95334180332405
 30
0.0
 10
-41.34447546559954
 20
5.326933525971695
 30
0.0
 10
-42.42690541258381
 20
5.667725165847989
 30
0.0
 10
-43.50944586509103
 20
5.973587996052392
 30
0.0
 10
-44.59209778409553
 20
6.242638450928831
 30
0.0
 10
-45.67485340875403
 20
6.473195877157889
 30
0.0
 10
-46.75770407425745
 20
6.663824047412727
 30
0.0
 10
-47.84062931582248
 20
6.813353766111973
 30
0.0
 10
-48.92362201542489
 20
6.920818773021961
 30
0.0
 10
-50.00665927506052
 20
6.985574383592195
 30
0.0
 10
-51.08972033378315
 20
7.007207090382022
 30
0.0
 10
-52.17278139091218
 20
6.985574383558366
 30
0.0
 10
-53.25581865533784
 20
6.920818773158202
 30
0.0
 10
-54.33881133730484
 20
6.813353765599432
 30
0.0
 10
-55.42173664498936
 20
6.663824049340028
 30
0.0
 10
-56.50458178282137
 20
6.473196799255473
 30
0.0
 10
-57.58733314183482
 20
6.24264080825443
 30
0.0
 10
-58.62075922762338
 20
5.985801183335564
 30
0.0
 10
-59.29125784107379
 20
5.797971937554426
 30
0.0
 10
-59.60233011822912
 20
5.706433583222858
 30
0.0
  0
SPLINE
  5
4159
330
1F
100
AcDbEntity
  8
AM_0
 48
0.5
100
AcDbSpline
210
0.0
220
0.0
230
1.0
 70
     8
 71
     3
 72
    10
 73
     6
 74
     0
 42
0.0000000001
 43
0.0000000001
 40
0.0
 40
0.0
 40
0.0
 40
0.0
 40
2.69986029516136
 40
4.147722969032201
 40
6.285750005020438
 40
6.285750005020438
 40
6.285750005020438
 40
6.285750005020438
 10
-9.059050416488869
 20
1.266962076418114
 30
0.0
 10
-8.288230279274788
 20
0.6166137042379584
 30
0.0
 10
-7.104039973633737
 20
-0.3824990594849296
 30
0.0
 10
-4.303588975939401
 20
0.1011889324121904
 30
0.0
 10
-4.830995354944552
 20
1.730314090569725
 30
0.0
 10
-5.179471792816698
 20
2.723316050171107
 30
0.0
  0
SPLINE
  5
415A
330
1F
100
AcDbEntity
  8
AM_0
 48
0.5
100
AcDbSpline
210
0.0
220
0.0
230
1.0
 70
     8
 71
     3
 72
    16
 73
    12
 74
     0
 42
0.0000000001
 43
0.0000000001
 40
0.0
 40
0.0
 40
0.0
 40
0.0
 40
1.010743614677189
 40
2.022833924044153
 40
3.037578959561199
 40
4.056212747067873
 40
5.079857613375832
 40
6.109500119648989
 40
7.14596120163808
 40
8.18989512056258
 40
8.545190612624931
 40
8.545190612624931
 40
8.545190612624931
 40
8.545190612624931
 10
-7.796128460452034
 20
6.999999389243707
 30
0.0
 10
-8.156968483790926
 20
6.999957325198868
 30
0.0
 10
-8.879198842854655
 20
6.985593937721858
 30
0.0
 10
-9.962224267295141
 20
6.920813492513197
 30
0.0
 10
-11.04522017159269
 20
6.813355276365432
 30
0.0
 10
-12.12814446855505
 20
6.663823309504889
 30
0.0
 10
-13.21099041497625
 20
6.473198248791018
 30
0.0
 10
-14.29373953799982
 20
6.242635709603088
 30
0.0
 10
-15.37639223883104
 20
5.973587951888603
 30
0.0
 10
-16.21820489308434
 20
5.735736381510594
 30
0.0
 10
-16.6993677946
 20
5.589451776547102
 30
0.0
 10
-17.94891101378108
 20
5.151746670053594
 30
0.0
  0
SPLINE
  5
415C
330
1F
100
AcDbEntity
  8
AM_0
100
AcDbSpline
210
0.0
220
0.0
230
1.0
 70
     8
 71
     3
 72
    17
 73
    13
 74
     0
 42
0.0000000001
 43
0.0000000001
 40
1.580019955310467
 40
1.580019955310467
 40
1.580019955310467
 40
1.580019955310467
 40
2.030549285115227
 40
3.082371838836284
 40
4.126290986361125
 40
5.162752068350215
 40
6.192395305374981
 40
7.216039564037012
 40
8.234688489606833
 40
9.249433870634691
 40
10.26152376260694
 40
11.27226744710342
 40
11.27226744710342
 40
11.27226744710342
 40
11.27226744710352
 10
-56.5521033500768
 20
-5.166206736886762
 30
0.0
 10
-56.70533517470241
 20
-5.219414368222706
 30
0.0
 10
-57.21718094905221
 20
-5.393809486821326
 30
0.0
 10
-58.09102861830742
 20
-5.667354470308867
 30
0.0
 10
-59.17341822888499
 20
-5.97368856359061
 30
0.0
 10
-60.25610582030897
 20
-6.242609225010411
 30
0.0
 10
-61.33884302010043
 20
-6.473213358546457
 30
0.0
 10
-62.4216981821693
 20
-6.663823538594874
 30
0.0
 10
-63.50462815559406
 20
-6.813352036905582
 30
0.0
 10
-64.58762556090771
 20
-6.920829858776696
 30
0.0
 10
-65.67066371585884
 20
-6.985565156987206
 30
0.0
 10
-66.39286439431208
 20
-7.000000650808162
 30
0.0
 10
-66.75372440868925
 20
-7.00000061075378
 30
0.0
  0
SPLINE
  5
415D
330
1F
100
AcDbEntity
  8
AM_0
100
AcDbSpline
210
0.0
220
0.0
230
1.0
 70
     8
 71
     3
 72
    11
 73
     7
 74
     0
 42
0.0000000001
 43
0.0000000001
 40
11.27226913003534
 40
11.27226913003534
 40
11.27226913003534
 40
11.2722691300354
 40
12.28301561507924
 40
13.29510212255852
 40
14.30984805882082
 40
15.18258238371378
 40
15.18258238371378
 40
15.18258238371378
 40
15.18258238371378
 10
-66.75372440868932
 20
-7.00000061075378
 30
0.0
 10
-67.1132122556365
 20
-6.965740576567046
 30
0.0
 10
-67.83150988709249
 20
-6.882798524858544
 30
0.0
 10
-68.90524717921763
 20
-6.715483890894662
 30
0.0
 10
-69.9242428023811
 20
-6.515644905958944
 30
0.0
 10
-70.58326935760014
 20
-6.362022730649142
 30
0.0
 10
-70.88696756000906
 20
-6.28613761924348
 30
0.0
  0
SPLINE
  5
415E
330
1F
100
AcDbEntity
  8
AM_0
100
AcDbSpline
210
0.0
220
0.0
230
1.0
 70
     8
 71
     3
 72
    23
 73
    19
 74
     0
 42
0.0000000001
 43
0.0000000001
 40
16.03460024169435
 40
16.03460024169435
 40
16.03460024169435
 40
16.03460024169435
 40
16.35212704903564
 40
17.38177054169784
 40
18.41822485651776
 40
19.46214173629503
 40
20.51396345435107
 40
21.57393551351153
 40
22.64208202342361
 40
23.7182574881101
 40
24.80209208578934
 40
25.89306333925047
 40
26.99048218457928
 40
28.09348763352352
 40
29.20111863782268
 40
30.31232390128032
 40
31.42594612798585
 40
32.5407912310448
 40
32.5407912310486
 40
32.5407912310486
 40
32.5407912310486
 10
-64.1092457037214
 20
7.00099386628307
 30
0.0
 10
-63.9979768409555
 20
6.977363098980376
 30
0.0
 10
-63.526370507255
 20
6.87445775840221
 30
0.0
 10
-62.6956308715894
 20
6.672830448874169
 30
0.0
 10
-61.61982086865273
 20
6.373012844580754
 30
0.0
 10
-60.54501012864943
 20
6.036367649494368
 30
0.0
 10
-59.47113514015574
 20
5.66484319429724
 30
0.0
 10
-58.39815778944528
 20
5.260510736144413
 30
0.0
 10
-57.32601606099869
 20
4.825681609879004
 30
0.0
 10
-56.25463529494106
 20
4.362886411945178
 30
0.0
 10
-55.18395461156931
 20
3.874745924566171
 30
0.0
 10
-54.11388817053055
 20
3.364100523498746
 30
0.0
 10
-53.04434925490596
 20
2.833918300437412
 30
0.0
 10
-51.9752666043681
 20
2.287247580898136
 30
0.0
 10
-50.90655077007002
 20
1.727267180251535
 30
0.0
 10
-49.83810276629171
 20
1.157246973203791
 30
0.0
 10
-48.76983559120462
 20
0.5804900724987191
 30
0.0
 10
-48.05784876527363
 20
0.1938061073173481
 30
0.0
 10
-47.70166118910868
 20
0.0003554276553486
 30
0.0
  0
ELLIPSE
  5
415F
330
1F
100
AcDbEntity
  8
AM_0
 48
0.5
100
AcDbEllipse
 10
-19.90251556268678
 20
48.04964727737118
 30
0.0
 11
0.0026760480487404
 21
52.48193061351359
 31
0.0
210
0.0
220
0.0
230
1.0
 40
0.9428636582658601
 41
3.480506300054309
 42
3.555572526284786
  0
ELLIPSE
  5
4160
330
1F
100
AcDbEntity
  8
AM_0
 48
0.5
100
AcDbEllipse
 10
-13.11315099232153
 20
11.74853708862493
 30
0.0
 11
-0.0000000000062932
 21
16.8777416547131
 31
0.0
210
0.0
220
0.0
230
1.0
 40
0.9180115830115386
 41
3.652175978817775
 42
3.740670756497281
  0
ELLIPSE
  5
4161
330
1F
100
AcDbEntity
  8
AM_0
 48
0.5
100
AcDbEllipse
 10
2.11292007466381
 20
8.403930053305726
 30
0.0
 11
0.0000000000014085
 21
14.10811328887902
 31
0.0
210
0.0
220
0.0
230
1.0
 40
0.9180115830115855
 41
2.10116388002904
 42
2.509284810223942
  0
ELLIPSE
  5
4162
330
1F
100
AcDbEntity
  8
AM_0
 48
0.5
100
AcDbEllipse
 10
-3.903882710024658
 20
-1.824301376748137
 30
0.0
 11
-0.9120903058088591
 21
0.6092024057231997
 31
0.0
210
0.0
220
0.0
230
1.0
 40
0.5193197957269132
 41
4.536680305986984
 42
7.680120647316494
  0
ELLIPSE
  5
4163
330
1F
100
AcDbEntity
  8
AM_0
 48
0.5
100
AcDbEllipse
 10
-3.903882710024658
 20
-1.824301376748137
 30
0.0
 11
-0.1769011800672026
 21
1.150509108600123
 31
0.0
210
0.0
220
0.0
230
0.9999999999999998
 40
0.4610839927098747
 41
1.823019253871939
 42
4.958361143583919
  0
ELLIPSE
  5
4164
330
1F
100
AcDbEntity
  8
AM_0
 48
0.5
100
AcDbEllipse
 10
4.657214521659661
 20
-1.556004181313057
 30
0.0
 11
10.14813092500452
 21
1.78840554138918
 31
0.0
210
0.0
220
0.0
230
1.0
 40
0.6897988019513774
 41
3.089375760302184
 42
3.744822211159566
  0
LINE
  5
4165
330
1F
100
AcDbEntity
  8
AM_11
 48
0.5
100
AcDbLine
 10
-106.5899819127323
 20
6.999999389247921
 30
0.0
 11
-89.64580643195681
 21
6.999999389247252
 31
0.0
  0
SPLINE
  5
4166
330
1F
100
AcDbEntity
  8
AM_0
100
AcDbSpline
210
0.0
220
0.0
230
1.0
 70
     8
 71
     3
 72
    23
 73
    19
 74
     0
 42
0.0000000001
 43
0.0000000001
 40
16.03460024169435
 40
16.03460024169435
 40
16.03460024169435
 40
16.03460024169435
 40
16.35212704903564
 40
17.38177054169784
 40
18.41822485651776
 40
19.46214173629503
 40
20.51396345435107
 40
21.57393551351153
 40
22.64208202342361
 40
23.7182574881101
 40
24.80209208578934
 40
25.89306333925047
 40
26.99048218457928
 40
28.09348763352352
 40
29.20111863782268
 40
30.31232390128032
 40
31.42594612798585
 40
32.5407912310448
 40
32.5407912310486
 40
32.5407912310486
 40
32.5407912310486
 10
-106.5899819127323
 20
6.999999389247921
 30
0.0
 10
-106.1173707653245
 20
6.977007671325601
 30
0.0
 10
-105.5426199633838
 20
6.874102330747435
 30
0.0
 10
-104.5301902361233
 20
6.672475021219411
 30
0.0
 10
-103.2190910889344
 20
6.372657416925982
 30
0.0
 10
-101.9092097523033
 20
6.036012221839607
 30
0.0
 10
-100.600468824297
 20
5.66448776664249
 30
0.0
 10
-99.2928218553812
 20
5.260155308489674
 30
0.0
 10
-97.98619326669474
 20
4.825326182224273
 30
0.0
 10
-96.68049206958887
 20
4.362530984290484
 30
0.0
 10
-95.37564406943216
 20
3.874390496911452
 30
0.0
 10
-94.07154465182896
 20
3.363745095844028
 30
0.0
 10
-92.7680881341047
 20
2.833562872782709
 30
0.0
 10
-91.46518767066933
 20
2.286892153243444
 30
0.0
 10
-90.16273424942324
 20
1.726911752596829
 30
0.0
 10
-88.86060723559582
 20
1.156891545549125
 30
0.0
 10
-87.55870059929073
 20
0.5801346448440378
 30
0.0
 10
-86.69099596953294
 20
0.1934506796626681
 30
0.0
 10
-86.2569070262489
 20
0.000000000000685
 30
0.0
  0
SPLINE
  5
4167
330
1F
100
AcDbEntity
  8
AM_0
100
AcDbSpline
210
0.0
220
0.0
230
1.0
 70
     8
 71
     3
 72
    46
 73
    42
 74
     0
 42
0.0000000001
 43
0.0000000001
 40
0.0
 40
0.0
 40
0.0
 40
0.0
 40
1.348332046947654
 40
2.024828967632893
 40
2.703918159304094
 40
3.386347665078122
 40
4.072776489761951
 40
4.763750544421345
 40
5.459696642770595
 40
6.160921452191748
 40
6.867565637253344
 40
7.579665907256597
 40
8.297112853413899
 40
9.019671552060666
 40
9.746986763446125
 40
10.47859339096365
 40
11.21393074760088
 40
11.95235532364327
 40
12.69315551794651
 40
13.43556823304427
 40
14.1787950170388
 40
14.92202180103393
 40
15.66443451613169
 40
16.40523471043432
 40
17.14365928647669
 40
17.87899664311455
 40
18.61060327063121
 40
19.33791848201689
 40
20.06048192311554
 40
20.77792886927282
 40
21.49002913927608
 40
22.19667332433747
 40
22.89788836015233
 40
23.59383445850157
 40
24.28480851316097
 40
24.97123685067575
 40
25.65366676154837
 40
26.33276604526151
 40
27.00926273560554
 40
27.68398960851752
 40
28.35781868496899
 40
28.35781868496899
 40
28.35781868496899
 40
28.35781868496899
 10
-43.32030303557997
 20
-7.000000610754832
 30
0.0
 10
-44.04253898816124
 20
-6.984054069648401
 30
0.0
 10
-45.12714146539455
 20
-6.960106690782084
 30
0.0
 10
-46.5693846769735
 20
-6.812667078469935
 30
0.0
 10
-47.65232123241584
 20
-6.664008728583819
 30
0.0
 10
-48.73516522256247
 20
-6.473156659311976
 30
0.0
 10
-49.81791379483156
 20
-6.242648699747856
 30
0.0
 10
-50.90056138693131
 20
-5.973586874312643
 30
0.0
 10
-51.98310618558966
 20
-5.667723949999619
 30
0.0
 10
-53.06554337310001
 20
-5.326937970441496
 30
0.0
 10
-54.14787511299458
 20
-4.953342616661768
 30
0.0
 10
-55.23009849413007
 20
-4.549241608792062
 30
0.0
 10
-56.31223090300417
 20
-4.117145159705544
 30
0.0
 10
-57.39427759899665
 20
-3.659709596681851
 30
0.0
 10
-58.47624853253619
 20
-3.179755697488011
 30
0.0
 10
-59.55815572716632
 20
-2.680244472499591
 30
0.0
 10
-60.64000866477646
 20
-2.164247642100201
 30
0.0
 10
-61.72181787452537
 20
-1.634938858417638
 30
0.0
 10
-62.80359482667453
 20
-1.095575706862027
 30
0.0
 10
-63.8853494033272
 20
-0.5494748916763445
 30
0.0
 10
-64.96709488655989
 20
-0.0000006108650344
 30
0.0
 10
-66.04884036955491
 20
0.5494736706139959
 30
0.0
 10
-67.13059494692038
 20
1.095574483797483
 30
0.0
 10
-68.21237189646416
 20
1.634937642670213
 30
0.0
 10
-69.29418111587427
 20
2.164246399216258
 30
0.0
 10
-70.37603401766168
 20
2.680243330235103
 30
0.0
 10
-71.45794134495544
 20
3.179754182594331
 30
0.0
 10
-72.53991413993211
 20
3.659710503546249
 30
0.0
 10
-73.62196504023611
 20
4.117141910535952
 30
0.0
 10
-74.7040993794686
 20
4.549240575265085
 30
0.0
 10
-75.78632273540688
 20
4.953341703376338
 30
0.0
 10
-76.86865002920561
 20
5.32693362413404
 30
0.0
 10
-77.95108000465956
 20
5.667724875362596
 30
0.0
 10
-79.0336203844427
 20
5.97358904915913
 30
0.0
 10
-80.11626734996287
 20
6.242633271157164
 30
0.0
 10
-81.19901671603695
 20
6.473208087112987
 30
0.0
 10
-82.28186761697745
 20
6.663787617182671
 30
0.0
 10
-83.36479859232229
 20
6.813492494158187
 30
0.0
 10
-84.44779656807957
 20
6.920299041002267
 30
0.0
 10
-85.53083385585777
 20
6.987508306187214
 30
0.0
 10
-86.25303482531547
 20
6.995837543280746
 30
0.0
 10
-86.61389490864516
 20
6.999999389247117
 30
0.0
  0
SPLINE
  5
4168
330
1F
100
AcDbEntity
  8
AM_0
100
AcDbSpline
210
0.0
220
0.0
230
1.0
 70
     8
 71
     3
 72
    22
 73
    18
 74
     0
 42
0.0000000001
 43
0.0000000001
 40
17.17441611292
 40
17.17441611292
 40
17.17441611292
 40
17.17441611292
 40
17.38177636558528
 40
18.41823744757437
 40
19.46215659509824
 40
20.51397914882054
 40
21.57394542641293
 40
22.64209583141747
 40
23.71826625065247
 40
24.80210429862395
 40
25.8930771157021
 40
26.99048705697709
 40
28.09349309193389
 40
29.20112995599786
 40
30.31233024745139
 40
31.42594771747373
 40
32.5407895042663
 40
32.54078950426994
 40
32.54078950426994
 40
32.54078950426994
 10
-70.88744120993398
 20
-6.286051274297004
 30
0.0
 10
-70.95996298876254
 20
-6.269846960869386
 30
0.0
 10
-71.39469144638965
 20
-6.171144716606676
 30
0.0
 10
-72.19108948391145
 20
-5.973233870476834
 30
0.0
 10
-73.27362978162163
 20
-5.6673701615261
 30
0.0
 10
-74.35605977074785
 20
-5.326578760254248
 30
0.0
 10
-75.43838709318514
 20
-4.952986971088315
 30
0.0
 10
-76.52061031925443
 20
-4.548885464058272
 30
0.0
 10
-77.60274276986866
 20
-4.116789149575501
 30
0.0
 10
-78.68478945560524
 20
-3.65935355256151
 30
0.0
 10
-79.76676038796911
 20
-3.179399653278516
 30
0.0
 10
-80.84866759779083
 20
-2.679888463277231
 30
0.0
 10
-81.93052047537257
 20
-2.163891491970557
 30
0.0
 10
-83.01232991131252
 20
-1.634583239918987
 30
0.0
 10
-84.09410549490974
 20
-1.09521835373015
 30
0.0
 10
-85.17586325172869
 20
-0.5491250062828657
 30
0.0
 10
-85.89689353221258
 20
-0.1828717819512622
 30
0.0
 10
-86.25760674466368
 20
0.0003554276594555
 30
0.0
  0
SPLINE
  5
4169
330
1F
100
AcDbEntity
  8
AM_0
100
AcDbSpline
210
0.0
220
0.0
230
1.0
 70
     8
 71
     3
 72
    55
 73
    51
 74
     0
 42
0.0000000001
 43
0.0000000001
 40
0.0
 40
0.0
 40
0.0
 40
0.0
 40
1.010743684496582
 40
2.022833576467832
 40
3.037578957496688
 40
4.056212745003489
 40
5.079857003664532
 40
6.109500240690281
 40
7.145961322679372
 40
8.189895241603872
 40
9.241717795325891
 40
10.30168407291828
 40
11.36983447792315
 40
12.44600489715814
 40
13.52984294512926
 40
14.62081576220742
 40
15.7182257034828
 40
16.82123173843959
 40
17.92886860250316
 40
19.0400688939571
 40
20.15368796660465
 40
21.26852814259644
 40
22.38336992938901
 40
23.49698739941135
 40
24.6081876908653
 40
25.71582455492886
 40
26.81883757994213
 40
27.91624752121713
 40
29.00722033829659
 40
30.09105838626677
 40
31.16722880550176
 40
32.23537921050758
 40
33.29534548809967
 40
34.347168041821
 40
35.39108718934584
 40
36.42754827133493
 40
37.45720575381954
 40
38.48085062012849
 40
39.49948440763516
 40
40.51422944315121
 40
41.52631975251916
 40
42.53706336719636
 40
43.54780698187354
 40
44.55989729124051
 40
45.57464232675757
 40
46.59327611426424
 40
47.6169209805722
 40
48.64656348684535
 40
49.68302456883444
 40
50.58557219878025
 40
50.58557219878025
 40
50.58557219878025
 40
50.58557219878025
 10
-46.35207401600281
 20
-7.0000006107547
 30
0.0
 10
-46.7129340351408
 20
-6.995835780340045
 30
0.0
 10
-47.43513470214843
 20
-6.987500572381536
 30
0.0
 10
-48.51817288007138
 20
-6.920309438790707
 30
0.0
 10
-49.60116482717805
 20
-6.813493088663639
 30
0.0
 10
-50.6840897477157
 20
-6.663785911428872
 30
0.0
 10
-51.76693683579834
 20
-6.473216726365378
 30
0.0
 10
-52.84968472927398
 20
-6.242632964269858
 30
0.0
 10
-53.9323370498863
 20
-5.973587919550801
 30
0.0
 10
-55.01488419669725
 20
-5.667729095333885
 30
0.0
 10
-56.09731879558783
 20
-5.326934446245207
 30
0.0
 10
-57.17964624189605
 20
-4.953343105068701
 30
0.0
 10
-58.26186943431066
 20
-4.549241476424097
 30
0.0
 10
-59.34400189434356
 20
-4.117145195598522
 30
0.0
 10
-60.42604857640035
 20
-3.659709586817017
 30
0.0
 10
-61.50801951401624
 20
-3.1797557007202
 30
0.0
 10
-62.58992670639532
 20
-2.680244469501203
 30
0.0
 10
-63.67177964893273
 20
-2.164247650895904
 30
0.0
 10
-64.75358884113456
 20
-1.63493882606643
 30
0.0
 10
-65.83536585881891
 20
-1.095575827944583
 30
0.0
 10
-66.91712019019999
 20
-0.5494744385840477
 30
0.0
 10
-67.99886711132455
 20
-0.0000020390079995
 30
0.0
 10
-69.08060917631051
 20
0.5494802514136765
 30
0.0
 10
-70.16236713349636
 20
1.095573136531109
 30
0.0
 10
-71.24414281571251
 20
1.634937767274043
 30
0.0
 10
-72.3259539367682
 20
2.164248608534212
 30
0.0
 10
-73.40781136735057
 20
2.680241023532062
 30
0.0
 10
-74.48972026726487
 20
3.179754787968006
 30
0.0
 10
-75.57169136108135
 20
3.659708284871709
 30
0.0
 10
-76.65373800376596
 20
4.117143989850197
 30
0.0
 10
-77.73587046656984
 20
4.54924027130784
 30
0.0
 10
-78.81809368654955
 20
4.953341803325645
 30
0.0
 10
-79.90042102114974
 20
5.326933525973283
 30
0.0
 10
-80.98285096813402
 20
5.667725165849586
 30
0.0
 10
-82.06539142064125
 20
5.973587996053989
 30
0.0
 10
-83.14804333964575
 20
6.24263845093043
 30
0.0
 10
-84.23079896430426
 20
6.473195877159474
 30
0.0
 10
-85.31364962980768
 20
6.66382404741432
 30
0.0
 10
-86.39657487137275
 20
6.813353766113564
 30
0.0
 10
-87.47956757097515
 20
6.920818773023553
 30
0.0
 10
-88.56260483061078
 20
6.98557438359378
 30
0.0
 10
-89.64566588933339
 20
7.007207090383612
 30
0.0
 10
-90.72872694646246
 20
6.98557438355996
 30
0.0
 10
-91.8117642108881
 20
6.9208187731598
 30
0.0
 10
-92.89475689285509
 20
6.813353765601022
 30
0.0
 10
-93.9776822005396
 20
6.663824049341627
 30
0.0
 10
-95.06052733837158
 20
6.473196799257064
 30
0.0
 10
-96.14327869738501
 20
6.242640808256021
 30
0.0
 10
-97.17670478317359
 20
5.985801183337149
 30
0.0
 10
-97.84720339662399
 20
5.797971937556011
 30
0.0
 10
-99.30058246278267
 20
5.257508449619959
 30
0.0
  0
LINE
  5
416A
330
1F
100
AcDbEntity
  8
AM_0
 48
0.5
100
AcDbLine
 10
-89.64581460317992
 20
-7.000000610752646
 30
0.0
 11
-66.75372140285505
 21
-7.000000610753613
 31
0.0
  0
LINE
  5
416B
330
1F
100
AcDbEntity
  8
AM_0
100
AcDbLine
 10
-89.64580643195681
 20
6.999999389247252
 30
0.0
 11
-64.1092457037214
 21
7.000993866283073
 31
0.0
  0
DIMENSION
  5
41AF
330
1F
100
AcDbEntity
  8
AM_5
100
AcDbDimension
  2
*D8
 10
14.55592102485603
 20
-7.000000610755677
 30
0.0
 11
11.15592102485603
 21
-0.0000006107560866
 31
0.0
 70
    32
  1
%%c<>
 51
359.9999999999998
  3
AM_JIS$0
100
AcDbAlignedDimension
 13
-3.00000000000052
 23
6.999999389243503
 33
0.0
 14
-3.000000000000473
 24
-7.000000610755671
 34
0.0
 50
89.99999999999749
100
AcDbRotatedDimension
1001
ACAD
1000
DSTYLE
1002
{
1070
   271
1070
     0
1002
}
1001
GENIUS_GENDTOL_13
1000

1000
h7
1000

1040
0.0
  0
XLINE
  5
42AA
330
1F
100
AcDbEntity
  8
AM_CL
100
AcDbXline
 10
1300.444080098474
 20
-0.0000025431316254
 30
0.0
 11
0.0
 21
1.0
 31
0.0
  0
XLINE
  5
42AE
330
1F
100
AcDbEntity
  8
AM_CL
100
AcDbXline
 10
1300.444080098474
 20
-0.0000025431316254
 30
0.0
 11
0.0
 21
1.0
 31
0.0
  0
DIMENSION
  5
42FE
330
1F
100
AcDbEntity
  8
AM_5
100
AcDbDimension
  2
*D9
 10
-0.5873037318990539
 20
-1.613591571338162
 30
0.0
 11
19.49360911693643
 21
-0.0000236531640068
 31
0.0
 70
    34
  1
<>
 51
359.9999999999998
  3
AM_JIS$2
100
AcDb2LineAngularDimension
 13
-0.0000000000013927
 23
-0.0000000000000106
 33
0.0
 14
-0.5872917675997372
 24
1.613570883515823
 34
0.0
 15
-0.0000000000013642
 25
-0.0000000000000887
 35
0.0
 16
20.74580855684439
 26
-8.948888213198909
 36
0.0
1001
GENIUS_GENDTOL_13
1000

1000
h7
1000

1040
0.0
1001
ACAD
1000
DSTYLE
1002
{
1070
   271
1070
     0
1002
}
  0
ELLIPSE
  5
43FF
330
1F
100
AcDbEntity
  8
AM_11
 48
0.5
100
AcDbEllipse
 10
3.310487223357341
 20
27.82689745097787
 30
0.0
 11
-31.07765833536794
 21
0.0000000000288672
 31
0.0
210
0.0
220
0.0
230
1.0
 40
0.9899999999999861
 41
1.130070686341231
 42
1.291800737381917
  0
ELLIPSE
  5
4400
330
1F
100
AcDbEntity
  8
AM_11
 48
0.5
100
AcDbEllipse
 10
-23.20466429179436
 20
-27.82687566608721
 30
0.0
 11
-31.07765833536737
 21
0.0000000000017409
 31
0.0
210
0.0
220
0.0
230
1.0
 40
0.9900000000000009
 41
4.271664206181739
 42
5.153113667165048
  0
ELLIPSE
  5
4401
330
1F
100
AcDbEntity
  8
AM_11
 48
0.5
100
AcDbEllipse
 10
-23.20466429179416
 20
27.82689745097796
 30
0.0
 11
-31.0776583353674
 21
0.0000000000010094
 31
0.0
210
0.0
220
0.0
230
1.0
 40
0.9899999999999995
 41
1.130070686340335
 42
2.011520147323624
  0
ELLIPSE
  5
4402
330
1F
100
AcDbEntity
  8
AM_11
 48
0.5
100
AcDbEllipse
 10
-49.71981580694583
 20
-27.82687566608716
 30
0.0
 11
-31.07765833536731
 21
0.000000000001451
 31
0.0
210
0.0
220
0.0
230
1.0
 40
0.9900000000000032
 41
4.271664206181728
 42
5.153113667165039
  0
ELLIPSE
  5
4403
330
1F
100
AcDbEntity
  8
AM_11
 48
0.5
100
AcDbEllipse
 10
-76.23490313694141
 20
27.82689745097772
 30
0.0
 11
-31.0776583353674
 21
0.0000000000010094
 31
0.0
210
0.0
220
0.0
230
1.0
 40
0.9899999999999995
 41
1.130070686340335
 42
2.011520147323624
  0
ELLIPSE
  5
4404
330
1F
100
AcDbEntity
  8
AM_11
 48
0.5
100
AcDbEllipse
 10
-76.23490313694161
 20
-27.82687566608745
 30
0.0
 11
-31.07765833536737
 21
0.0000000000017409
 31
0.0
210
0.0
220
0.0
230
1.0
 40
0.9900000000000009
 41
4.271664206181739
 42
5.153113667165048
  0
ELLIPSE
  5
4405
330
1F
100
AcDbEntity
  8
AM_11
 48
0.5
100
AcDbEllipse
 10
-49.71981580694571
 20
27.82689745097802
 30
0.0
 11
-31.0776583353674
 21
0.000000000000133
 31
0.0
210
0.0
220
0.0
230
1.0
 40
0.9900000000000002
 41
1.130070686340306
 42
2.011520147323597
  0
ELLIPSE
  5
4406
330
1F
100
AcDbEntity
  8
AM_11
 48
0.5
100
AcDbEllipse
 10
-129.2651992383666
 20
27.82692418676167
 30
0.0
 11
-31.0776583353674
 21
0.0000000000010094
 31
0.0
210
0.0
220
0.0
230
1.0
 40
0.9899999999999995
 41
1.130070686340335
 42
2.011520147323624
  0
ELLIPSE
  5
4407
330
1F
100
AcDbEntity
  8
AM_11
 48
0.5
100
AcDbEllipse
 10
-129.2651992383668
 20
-27.82684893030351
 30
0.0
 11
-31.07765833536737
 21
0.0000000000017409
 31
0.0
210
0.0
220
0.0
230
1.0
 40
0.9900000000000009
 41
4.271664206181739
 42
5.153113667165048
  0
ELLIPSE
  5
4408
330
1F
100
AcDbEntity
  8
AM_11
 48
0.5
100
AcDbEllipse
 10
-102.7500546520931
 20
-27.8268756660874
 30
0.0
 11
-31.07765833536731
 21
0.000000000001451
 31
0.0
210
0.0
220
0.0
230
1.0
 40
0.9900000000000032
 41
4.271664206181728
 42
5.153113667165039
  0
ELLIPSE
  5
4409
330
1F
100
AcDbEntity
  8
AM_11
 48
0.5
100
AcDbEllipse
 10
-102.7500546520929
 20
27.82689745097778
 30
0.0
 11
-31.0776583353674
 21
0.000000000000133
 31
0.0
210
0.0
220
0.0
230
1.0
 40
0.9900000000000002
 41
1.130070686340306
 42
2.011520147323597
  0
ELLIPSE
  5
440A
330
1F
100
AcDbEntity
  8
AM_11
 48
0.5
100
AcDbEllipse
 10
-182.2954953397918
 20
27.82695092254561
 30
0.0
 11
-31.0776583353674
 21
0.0000000000010094
 31
0.0
210
0.0
220
0.0
230
1.0
 40
0.9899999999999995
 41
1.677036728370183
 42
2.011520147323624
  0
ELLIPSE
  5
440B
330
1F
100
AcDbEntity
  8
AM_11
 48
0.5
100
AcDbEllipse
 10
-182.295495339792
 20
-27.82682219451956
 30
0.0
 11
-31.07765833536737
 21
0.0000000000017409
 31
0.0
210
0.0
220
0.0
230
1.0
 40
0.9900000000000009
 41
4.271664206181739
 42
4.606148578809484
  0
ELLIPSE
  5
440C
330
1F
100
AcDbEntity
  8
AM_11
 48
0.5
100
AcDbEllipse
 10
-155.7803507535183
 20
-27.82684893030346
 30
0.0
 11
-31.07765833536731
 21
0.000000000001451
 31
0.0
210
0.0
220
0.0
230
1.0
 40
0.9900000000000032
 41
4.271664206181728
 42
5.153113667165039
  0
ELLIPSE
  5
440D
330
1F
100
AcDbEntity
  8
AM_11
 48
0.5
100
AcDbEllipse
 10
-155.7803507535181
 20
27.82692418676173
 30
0.0
 11
-31.0776583353674
 21
0.000000000000133
 31
0.0
210
0.0
220
0.0
230
1.0
 40
0.9900000000000002
 41
1.130070686340306
 42
2.011520147323597
  0
VIEWPORT
  5
110
330
101
100
AcDbEntity
 67
     1
  8
0
100
AcDbViewport
 10
420.5
 20
297.0
 30
0.0
 40
948.9782706766916
 41
628.452
 68
     1
 69
     1
1001
ACAD
1000
MVIEW
1002
{
1070
    16
1010
0.0
1020
0.0
1030
0.0
1010
0.0
1020
0.0
1030
1.0
1040
0.0
1040
628.452
1040
420.5
1040
297.0
1040
50.0
1040
0.0
1040
0.0
1070
     0
1070
   100
1070
     1
1070
     1
1070
     0
1070
     0
1070
     0
1070
     0
1040
0.0
1040
0.0
1040
0.0
1040
10.0
1040
10.0
1040
10.0
1040
10.0
1070
     0
1002
{
1002
}
1002
}
  0
ENDSEC
  0
SECTION
  2
OBJECTS
  0
DICTIONARY
  5
C
330
0
100
AcDbDictionary
  3
ACAD_GROUP
350
D
  3
ACAD_LAYOUT
350
1A
  3
ACAD_MLINESTYLE
350
17
  3
ACAD_PLOTSETTINGS
350
19
  3
ACAD_PLOTSTYLENAME
350
E
  3
ACDBVARIABLEDICTIONARY
350
34
  3
ACMDICTIONARY
350
43
  3
AMG
350
2B
  3
AMGSNAPSETTINGS
350
6E
  3
DWGPROPS
350
4434
  3
ACDBHEADERROUNDTRIPXREC
350
4441
  0
DICTIONARY
  5
74
330
1F
100
AcDbDictionary
280
     1
  3
ACAD_INDEX
360
4436
  3
ACAD_LAYOUTSELFREF
360
4464
  0
DICTIONARY
  5
4469
330
101
100
AcDbDictionary
280
     1
  3
ACAD_LAYOUTSELFREF
360
446A
  0
DICTIONARY
  5
D
102
{ACAD_REACTORS
330
C
102
}
330
C
100
AcDbDictionary
  0
DICTIONARY
  5
1A
102
{ACAD_REACTORS
330
C
102
}
330
C
100
AcDbDictionary
  0
DICTIONARY
  5
17
102
{ACAD_REACTORS
330
C
102
}
330
C
100
AcDbDictionary
  3
STANDARD
350
18
  0
DICTIONARY
  5
19
102
{ACAD_REACTORS
330
C
102
}
330
C
100
AcDbDictionary
  0
ACDBDICTIONARYWDFLT
  5
E
102
{ACAD_REACTORS
330
C
102
}
330
C
100
AcDbDictionary
281
     1
  3
Normal
350
F
100
AcDbDictionaryWithDefault
340
F
  0
DICTIONARY
  5
34
102
{ACAD_REACTORS
330
C
102
}
330
C
100
AcDbDictionary
  3
INDEXCTL
350
35
  3
SORTENTS
350
B5E
  0
DICTIONARY
  5
43
102
{ACAD_REACTORS
330
C
102
}
330
C
100
AcDbDictionary
  3
ACMSTDDICTIONARY
350
260
  0
DICTIONARY
  5
2B
102
{ACAD_REACTORS
330
C
102
}
330
C
100
AcDbDictionary
  3
ACMGSETTINGS
350
2C
  0
DICTIONARY
  5
6E
102
{ACAD_REACTORS
330
C
102
}
330
C
100
AcDbDictionary
  0
XRECORD
  5
4434
102
{ACAD_REACTORS
330
C
102
}
330
C
100
AcDbXrecord
  1
DWGPROPS COOKIE
  2

  3

  4

  6

  7

  8

  9

300
AmdtFileType=82
301
=
302
=
303
=
304
=
305
=
306
=
307
=
308
=
309
=
 40
0.094146400462963
 41
2452800.443498622
 42
2452948.663700624
  1

 90
        1
  0
DICTIONARY
  5
4441
102
{ACAD_REACTORS
330
C
102
}
330
C
100
AcDbDictionary
  3
TSTACKALIGN
350
4442
  3
TSTACKSIZE
350
4443
  3
HYPERLINKBASE
350
4444
  3
STYLESHEET
350
4445
  3
LAYOUTDICT
350
4446
  3
PLOTSETDICT
350
4447
  3
PLOTSTYLNAMDICT
350
4448
  3
LWETCUNION
350
4449
  3
INSUNITS
350
444A
  3
CEPSNTYPE
350
444B
  3
FINGERPRINTGUID
350
444C
  3
VERSIONGUID
350
444D
  3
PSVPSCALE
350
444E
  3
DIMSTYLEDATA
350
444F
  3
PUCSORTHOREF
350
4450
  3
PUCSORTHOVIEW
350
4451
  3
PUCSBASE
350
4452
  3
PUCSORGTOP
350
4453
  3
PUCSORGBOTTOM
350
4454
  3
PUCSORGLEFT
350
4455
  3
PUCSORGRIGHT
350
4456
  3
PUCSORGFRONT
350
4457
  3
PUCSORGBACK
350
4458
  3
UCSORTHOREF
350
4459
  3
UCSORTHOVIEW
350
445A
  3
UCSBASE
350
445B
  3
UCSORGTOP
350
445C
  3
UCSORGBOTTOM
350
445D
  3
UCSORGLEFT
350
445E
  3
UCSORGRIGHT
350
445F
  3
UCSORGFRONT
350
4460
  3
UCSORGBACK
350
4461
  0
DICTIONARY
  5
4436
102
{ACAD_REACTORS
330
74
102
}
330
74
100
AcDbDictionary
  3
*A1
350
4437
  0
XRECORD
  5
4464
102
{ACAD_REACTORS
330
74
102
}
330
74
100
AcDbXrecord
340
1F
  0
XRECORD
  5
446A
102
{ACAD_REACTORS
330
4469
102
}
330
4469
100
AcDbXrecord
340
101
  0
MLINESTYLE
  5
18
102
{ACAD_REACTORS
330
17
102
}
330
17
100
AcDbMlineStyle
  2
STANDARD
 70
     0
  3

 62
   256
 51
90.0
 52
90.0
 71
     2
 49
0.5
 62
   256
  6
BYLAYER
 49
-0.5
 62
   256
  6
BYLAYER
  0
ACDBPLACEHOLDER
  5
F
102
{ACAD_REACTORS
330
E
102
}
330
E
100
AcDbPlaceHolder
280
     0
  0
DICTIONARYVAR
  5
35
102
{ACAD_REACTORS
330
34
102
}
330
34
100
DictionaryVariables
280
     0
  1
1
  0
DICTIONARYVAR
  5
B5E
102
{ACAD_REACTORS
330
34
102
}
330
34
100
DictionaryVariables
280
     0
  1
96
  0
DICTIONARY
  5
260
102
{ACAD_REACTORS
330
43
102
}
330
43
100
AcDbDictionary
  0
DICTIONARY
  5
2C
102
{ACAD_REACTORS
330
2B
102
}
330
2B
100
AcDbDictionary
  3
DWGSETTINGS
350
2D
  0
XRECORD
  5
4442
102
{ACAD_REACTORS
330
4441
102
}
330
4441
100
AcDbXrecord
 90
        1
  0
XRECORD
  5
4443
102
{ACAD_REACTORS
330
4441
102
}
330
4441
100
AcDbXrecord
 90
       70
  0
XRECORD
  5
4444
102
{ACAD_REACTORS
330
4441
102
}
330
4441
100
AcDbXrecord
  1

  0
XRECORD
  5
4445
102
{ACAD_REACTORS
330
4441
102
}
330
4441
100
AcDbXrecord
  1
ASAMI.ctb
  0
XRECORD
  5
4446
102
{ACAD_REACTORS
330
4441
102
}
330
4441
100
AcDbXrecord
340
1A
  0
XRECORD
  5
4447
102
{ACAD_REACTORS
330
4441
102
}
330
4441
100
AcDbXrecord
340
19
  0
XRECORD
  5
4448
102
{ACAD_REACTORS
330
4441
102
}
330
4441
100
AcDbXrecord
340
E
  0
XRECORD
  5
4449
102
{ACAD_REACTORS
330
4441
102
}
330
4441
100
AcDbXrecord
 90
    10781
  0
XRECORD
  5
444A
102
{ACAD_REACTORS
330
4441
102
}
330
4441
100
AcDbXrecord
 90
        4
  0
XRECORD
  5
444B
102
{ACAD_REACTORS
330
4441
102
}
330
4441
100
AcDbXrecord
 90
        0
  0
XRECORD
  5
444C
102
{ACAD_REACTORS
330
4441
102
}
330
4441
100
AcDbXrecord
  1
{AFB28963-8C59-40AE-9337-C84526B81ACE}
  0
XRECORD
  5
444D
102
{ACAD_REACTORS
330
4441
102
}
330
4441
100
AcDbXrecord
  1
{963C06F8-B0F8-4521-AE5E-3300B43D64CE}
  0
XRECORD
  5
444E
102
{ACAD_REACTORS
330
4441
102
}
330
4441
100
AcDbXrecord
 40
0.0
  0
XRECORD
  5
444F
102
{ACAD_REACTORS
330
4441
102
}
330
4441
100
AcDbXrecord
1000
DSTYLE
1002
{
1070
    79
 70
     2
1070
   341
340
59
1070
   342
340
59
1070
   371
 70
    -1
1070
   372
 70
    -1
1002
}
  0
XRECORD
  5
4450
102
{ACAD_REACTORS
330
4441
102
}
330
4441
100
AcDbXrecord
340
0
  0
XRECORD
  5
4451
102
{ACAD_REACTORS
330
4441
102
}
330
4441
100
AcDbXrecord
 70
     0
  0
XRECORD
  5
4452
102
{ACAD_REACTORS
330
4441
102
}
330
4441
100
AcDbXrecord
340
0
  0
XRECORD
  5
4453
102
{ACAD_REACTORS
330
4441
102
}
330
4441
100
AcDbXrecord
 10
0.0
 20
0.0
 30
0.0
  0
XRECORD
  5
4454
102
{ACAD_REACTORS
330
4441
102
}
330
4441
100
AcDbXrecord
 10
0.0
 20
0.0
 30
0.0
  0
XRECORD
  5
4455
102
{ACAD_REACTORS
330
4441
102
}
330
4441
100
AcDbXrecord
 10
0.0
 20
0.0
 30
0.0
  0
XRECORD
  5
4456
102
{ACAD_REACTORS
330
4441
102
}
330
4441
100
AcDbXrecord
 10
0.0
 20
0.0
 30
0.0
  0
XRECORD
  5
4457
102
{ACAD_REACTORS
330
4441
102
}
330
4441
100
AcDbXrecord
 10
0.0
 20
0.0
 30
0.0
  0
XRECORD
  5
4458
102
{ACAD_REACTORS
330
4441
102
}
330
4441
100
AcDbXrecord
 10
0.0
 20
0.0
 30
0.0
  0
XRECORD
  5
4459
102
{ACAD_REACTORS
330
4441
102
}
330
4441
100
AcDbXrecord
340
0
  0
XRECORD
  5
445A
102
{ACAD_REACTORS
330
4441
102
}
330
4441
100
AcDbXrecord
 70
     0
  0
XRECORD
  5
445B
102
{ACAD_REACTORS
330
4441
102
}
330
4441
100
AcDbXrecord
340
0
  0
XRECORD
  5
445C
102
{ACAD_REACTORS
330
4441
102
}
330
4441
100
AcDbXrecord
 10
0.0
 20
0.0
 30
0.0
  0
XRECORD
  5
445D
102
{ACAD_REACTORS
330
4441
102
}
330
4441
100
AcDbXrecord
 10
0.0
 20
0.0
 30
0.0
  0
XRECORD
  5
445E
102
{ACAD_REACTORS
330
4441
102
}
330
4441
100
AcDbXrecord
 10
0.0
 20
0.0
 30
0.0
  0
XRECORD
  5
445F
102
{ACAD_REACTORS
330
4441
102
}
330
4441
100
AcDbXrecord
 10
0.0
 20
0.0
 30
0.0
  0
XRECORD
  5
4460
102
{ACAD_REACTORS
330
4441
102
}
330
4441
100
AcDbXrecord
 10
0.0
 20
0.0
 30
0.0
  0
XRECORD
  5
4461
102
{ACAD_REACTORS
330
4441
102
}
330
4441
100
AcDbXrecord
 10
0.0
 20
0.0
 30
0.0
  0
LAYER_INDEX
  5
4437
102
{ACAD_REACTORS
330
4436
102
}
330
4436
100
AcDbIndex
 40
2453151.668842755
100
AcDbLayerIndex
  8
0
360
4438
 90
        0
  8
AM_0
360
4439
 90
       46
  8
AM_7
360
443A
 90
        1
  8
AM_11
360
443B
 90
       21
  8
AM_5
360
443C
 90
        5
  8
Defpoints
360
443D
 90
        0
  8
AM_6
360
443E
 90
        1
  8
AM_CL
360
443F
 90
        2
  0
XRECORD
  5
2D
102
{ACAD_REACTORS
330
2C
102
}
330
2C
100
AcDbXrecord
  1
VERSION
140
15.0
  1
PRODUCT
  2
AutoCAD Mechanical 2000
  0
IDBUFFER
  5
4438
330
0
100
AcDbIdBuffer
  0
IDBUFFER
  5
4439
330
0
100
AcDbIdBuffer
330
4148
330
4149
330
414A
330
414B
330
414C
330
4151
330
4152
330
4153
330
4154
330
4155
330
4156
330
4157
330
4158
330
4159
330
415A
330
415C
330
415D
330
415E
330
415F
330
4160
330
4161
330
4162
330
4163
330
4164
330
4166
330
4167
330
4168
330
4169
330
416A
330
416B
330
21D8
330
21D9
330
21DC
330
21DD
330
2694
330
2695
330
2696
330
2699
330
2CB4
330
2CB7
330
3366
330
3367
330
4141
330
4144
330
4146
330
4147
  0
IDBUFFER
  5
443A
330
0
100
AcDbIdBuffer
330
C9F
  0
IDBUFFER
  5
443B
330
0
100
AcDbIdBuffer
330
4409
330
440A
330
440B
330
440C
330
440D
330
4145
330
414D
330
414E
330
414F
330
4150
330
4165
330
43FF
330
4400
330
4401
330
4402
330
4403
330
4404
330
4405
330
4406
330
4407
330
4408
  0
IDBUFFER
  5
443C
330
0
100
AcDbIdBuffer
330
CC6
330
DF5
330
2216
330
41AF
330
42FE
  0
IDBUFFER
  5
443D
330
0
100
AcDbIdBuffer
  0
IDBUFFER
  5
443E
330
0
100
AcDbIdBuffer
330
19BD
  0
IDBUFFER
  5
443F
330
0
100
AcDbIdBuffer
330
42AA
330
42AE
  0
ENDSEC
  0
EOF
