  0
SECTION
  2
HEADER
  9
$ACADVER
  1
AC1014
  9
$ACADMAINTVER
 70
     9
  9
$DWGCODEPAGE
  3
ANSI_932
  9
$INSBASE
 10
0.0
 20
0.0
 30
0.0
  9
$EXTMIN
 10
-164.8000009999996
 20
-54.00000099999958
 30
-0.00000001
  9
$EXTMAX
 10
35.10340461427169
 20
33.98665354663663
 30
0.00000001
  9
$LIMMIN
 10
-174.4563797951447
 20
-70.82206914383238
  9
$LIMMAX
 10
45.85902212792825
 20
52.2453258987743
  9
$ORTHOMODE
 70
     0
  9
$REGENMODE
 70
     1
  9
$FILLMODE
 70
     1
  9
$QTEXTMODE
 70
     0
  9
$MIRRTEXT
 70
     0
  9
$DRAGMODE
 70
     2
  9
$LTSCALE
 40
1.0
  9
$OSMODE
 70
    55
  9
$ATTMODE
 70
     1
  9
$TEXTSIZE
 40
2.5
  9
$TRACEWID
 40
1.0
  9
$TEXTSTYLE
  7
STANDARD
  9
$CLAYER
  8
AM_0
  9
$CELTYPE
  6
BYLAYER
  9
$CECOLOR
 62
   256
  9
$CELTSCALE
 40
1.0
  9
$DELOBJ
 70
     1
  9
$DISPSILH
 70
     0
  9
$DIMSCALE
 40
1.0
  9
$DIMASZ
 40
2.5
  9
$DIMEXO
 40
1.0
  9
$DIMDLI
 40
12.0
  9
$DIMRND
 40
0.0
  9
$DIMDLE
 40
0.0
  9
$DIMEXE
 40
1.0
  9
$DIMTP
 40
0.1
  9
$DIMTM
 40
0.1
  9
$DIMTXT
 40
3.2
  9
$DIMCEN
 40
0.0
  9
$DIMTSZ
 40
0.0
  9
$DIMTOL
 70
     0
  9
$DIMLIM
 70
     0
  9
$DIMTIH
 70
     0
  9
$DIMTOH
 70
     0
  9
$DIMSE1
 70
     0
  9
$DIMSE2
 70
     0
  9
$DIMTAD
 70
     3
  9
$DIMZIN
 70
     8
  9
$DIMBLK
  1
OPEN30
  9
$DIMASO
 70
     1
  9
$DIMSHO
 70
     1
  9
$DIMPOST
  1

  9
$DIMAPOST
  1
"
  9
$DIMALT
 70
     0
  9
$DIMALTD
 70
     2
  9
$DIMALTF
 40
0.0393701
  9
$DIMLFAC
 40
1.0
  9
$DIMTOFL
 70
     1
  9
$DIMTVP
 40
0.0
  9
$DIMTIX
 70
     0
  9
$DIMSOXD
 70
     0
  9
$DIMSAH
 70
     0
  9
$DIMBLK1
  1

  9
$DIMBLK2
  1

  9
$DIMSTYLE
  2
AM_JIS
  9
$DIMCLRD
 70
   256
  9
$DIMCLRE
 70
   256
  9
$DIMCLRT
 70
     2
  9
$DIMTFAC
 40
0.71
  9
$DIMGAP
 40
1.5
  9
$DIMJUST
 70
     0
  9
$DIMSD1
 70
     0
  9
$DIMSD2
 70
     0
  9
$DIMTOLJ
 70
     0
  9
$DIMTZIN
 70
     0
  9
$DIMALTZ
 70
     0
  9
$DIMALTTZ
 70
     0
  9
$DIMFIT
 70
     3
  9
$DIMUPT
 70
     0
  9
$DIMUNIT
 70
     2
  9
$DIMDEC
 70
     3
  9
$DIMTDEC
 70
     3
  9
$DIMALTU
 70
     2
  9
$DIMALTTD
 70
     2
  9
$DIMTXSTY
  7
ASAMI
  9
$DIMAUNIT
 70
     0
  9
$LUNITS
 70
     2
  9
$LUPREC
 70
     2
  9
$SKETCHINC
 40
1.0
  9
$FILLETRAD
 40
2.5
  9
$AUNITS
 70
     0
  9
$AUPREC
 70
     0
  9
$MENU
  1
.
  9
$ELEVATION
 40
0.0
  9
$PELEVATION
 40
0.0
  9
$THICKNESS
 40
0.0
  9
$LIMCHECK
 70
     0
  9
$BLIPMODE
 70
     0
  9
$CHAMFERA
 40
0.75
  9
$CHAMFERB
 40
0.75
  9
$CHAMFERC
 40
20.0
  9
$CHAMFERD
 40
0.0
  9
$SKPOLY
 70
     0
  9
$TDCREATE
 40
2452800.443498622
  9
$TDUPDATE
 40
2453151.564858020
  9
$TDINDWG
 40
0.0889365972
  9
$TDUSRTIMER
 40
0.0889365972
  9
$USRTIMER
 70
     1
  9
$ANGBASE
 50
0.0
  9
$ANGDIR
 70
     0
  9
$PDMODE
 70
     0
  9
$PDSIZE
 40
0.0
  9
$PLINEWID
 40
0.0
  9
$COORDS
 70
     1
  9
$SPLFRAME
 70
     0
  9
$SPLINETYPE
 70
     6
  9
$SPLINESEGS
 70
     8
  9
$ATTDIA
 70
     1
  9
$ATTREQ
 70
     1
  9
$HANDLING
 70
 12289
  9
$HANDSEED
  5
411E
  9
$SURFTAB1
 70
     6
  9
$SURFTAB2
 70
     6
  9
$SURFTYPE
 70
     6
  9
$SURFU
 70
     6
  9
$SURFV
 70
     6
  9
$UCSNAME
  2

  9
$UCSORG
 10
0.0
 20
0.0
 30
0.0
  9
$UCSXDIR
 10
1.0
 20
0.0000000000000027
 30
0.0
  9
$UCSYDIR
 10
-0.0000000000000027
 20
1.0
 30
0.0
  9
$PUCSNAME
  2

  9
$PUCSORG
 10
0.0
 20
0.0
 30
0.0
  9
$PUCSXDIR
 10
1.0
 20
0.0
 30
0.0
  9
$PUCSYDIR
 10
0.0
 20
1.0
 30
0.0
  9
$USERI1
 70
     0
  9
$USERI2
 70
     0
  9
$USERI3
 70
     0
  9
$USERI4
 70
     0
  9
$USERI5
 70
     0
  9
$USERR1
 40
0.0
  9
$USERR2
 40
0.0
  9
$USERR3
 40
0.0
  9
$USERR4
 40
0.0
  9
$USERR5
 40
0.0
  9
$WORLDVIEW
 70
     1
  9
$SHADEDGE
 70
     3
  9
$SHADEDIF
 70
    70
  9
$TILEMODE
 70
     1
  9
$MAXACTVP
 70
    64
  9
$PINSBASE
 10
0.0
 20
0.0
 30
0.0
  9
$PLIMCHECK
 70
     0
  9
$PEXTMIN
 10
1.000000000000000E+20
 20
1.000000000000000E+20
 30
1.000000000000000E+20
  9
$PEXTMAX
 10
-1.000000000000000E+20
 20
-1.000000000000000E+20
 30
-1.000000000000000E+20
  9
$PLIMMIN
 10
0.0
 20
0.0
  9
$PLIMMAX
 10
841.0
 20
594.0
  9
$UNITMODE
 70
     0
  9
$VISRETAIN
 70
     1
  9
$PLINEGEN
 70
     0
  9
$PSLTSCALE
 70
     0
  9
$TREEDEPTH
 70
  3020
  9
$PICKSTYLE
 70
     0
  9
$CMLSTYLE
  2
STANDARD
  9
$CMLJUST
 70
     0
  9
$CMLSCALE
 40
20.0
  9
$PROXYGRAPHICS
 70
     1
  9
$MEASUREMENT
 70
     1
  0
ENDSEC
  0
SECTION
  2
CLASSES
  0
CLASS
  1
ACDBDICTIONARYWDFLT
  2
AcDbDictionaryWithDefault
  3
AutoCAD 2000
 90
        0
280
     0
281
     0
  0
CLASS
  1
ACDBPLACEHOLDER
  2
AcDbPlaceHolder
  3
AutoCAD 2000
 90
        0
280
     0
281
     0
  0
CLASS
  1
LAYOUT
  2
AcDbLayout
  3
AutoCAD 2000
 90
        0
280
     0
281
     0
  0
CLASS
  1
AMGSETTINGSOBJ
  2
AmgSettingsObj
  3
"AcadM|Product Description: AutoCAD Mechanical 2000|Company: Autodesk"
 90
        0
280
     0
281
     0
  0
CLASS
  1
ACME_DOCUMENT
  2
AcMeDbDoc
  3
AcMeServices
 90
        0
280
     0
281
     0
  0
CLASS
  1
ACMESCOPE
  2
AcMeScope
  3
AcMeServices
 90
        0
280
     0
281
     0
  0
CLASS
  1
ACMECOMMANDHISTORY
  2
AcMeCommandHistory
  3
AcMeServices
 90
        0
280
     0
281
     0
  0
CLASS
  1
DICTIONARYVAR
  2
AcDbDictionaryVar
  3
AutoCAD 2000
 90
        0
280
     0
281
     0
  0
CLASS
  1
ACIMSYSVARMAN
  2
AcImSysVarManager
  3
AcMeServices
 90
        0
280
     0
281
     0
  0
CLASS
  1
ACIMREALSYSVAR
  2
AcImRealSysVar
  3
AcMeServices
 90
        0
280
     0
281
     0
  0
CLASS
  1
ACIMINTSYSVAR
  2
AcImIntSysVar
  3
AcMeServices
 90
        0
280
     0
281
     0
  0
CLASS
  1
ACMEDRAWINGMAN
  2
AcMeDrawingMan
  3
AcMeServices
 90
        0
280
     0
281
     0
  0
CLASS
  1
ACMEVIEW
  2
AcMeView
  3
AcMeServices
 90
        0
280
     0
281
     0
  0
CLASS
  1
ACDBENTITYCACHE
  2
AcMeEntityCache
  3
AcMeServices
 90
        0
280
     0
281
     0
  0
CLASS
  1
GSMANAGER
  2
AcMeGSManager
  3
AcMeServices
 90
        0
280
     0
281
     0
  0
CLASS
  1
AmdtInternalReactor
  2
AmdtInternalReactor
  3
AcMeServices
 90
        0
280
     0
281
     0
  0
CLASS
  1
ACMESTATEMGR
  2
AcMeStateMgr
  3
AcMeServices
 90
        0
280
     0
281
     0
  0
CLASS
  1
ACME_DATABASE
  2
AcMeDbDatabase
  3
AcMeServices
 90
        0
280
     0
281
     0
  0
CLASS
  1
ACRFINSADJUSTERMGR
  2
AcRfInsAdjusterMgr
  3
AcMeServices
 90
        0
280
     0
281
     0
  0
CLASS
  1
ACMDATADICTIONARY
  2
AcmDataDictionary
  3
"AcmSymBB|Product Description: AutoCAD Mechanical 2000|Company: Autodesk"
 90
        0
280
     0
281
     0
  0
CLASS
  1
ACMDATAENTRYBLOCK
  2
AcmDataEntryBlock
  3
"AcmSymBB|Product Description: AutoCAD Mechanical 2000|Company: Autodesk"
 90
        0
280
     0
281
     0
  0
CLASS
  1
AMGOBJPROPCFG
  2
AmgObjPropCfg
  3
"AmgLay|Product Description: AutoCAD Mechanical 2000|Company: Autodesk"
 90
        1
280
     0
281
     0
  0
CLASS
  1
ACAMGFILTERDAT
  2
AcAmgFilterDat
  3
"AcadM|Product Description: AutoCAD Mechanical 2000|Company: Autodesk"
 90
        0
280
     0
281
     0
  0
CLASS
  1
LAYER_INDEX
  2
AcDbLayerIndex
  3
AutoCAD 2000
 90
        0
280
     0
281
     0
  0
CLASS
  1
IDBUFFER
  2
AcDbIdBuffer
  3
AutoCAD 2000
 90
        0
280
     0
281
     0
  0
CLASS
  1
ACIMSTRSYSVAR
  2
AcImStrSysVar
  3
AcMeServices
 90
        0
280
     0
281
     0
  0
CLASS
  1
ACMSTANDARDJIS
  2
AcmStandardJIS
  3
"AcmSymBB|Product Description: AutoCAD Mechanical 2000|Company: Autodesk"
 90
        0
280
     0
281
     0
  0
CLASS
  1
ACMSURFSTANDARDJIS
  2
AcmSurfTextStdJIS
  3
"AcmSymBB|Product Description: AutoCAD Mechanical 2000|Company: Autodesk"
 90
        0
280
     0
281
     0
  0
CLASS
  1
ACMFCFSTANDARDJIS
  2
AcmFCFStdJIS
  3
"AcmSymBB|Product Description: AutoCAD Mechanical 2000|Company: Autodesk"
 90
        0
280
     0
281
     0
  0
CLASS
  1
ACMWELDSTANDARDJIS
  2
AcmWeldingStdJIS
  3
"AcmSymBB|Product Description: AutoCAD Mechanical 2000|Company: Autodesk"
 90
        0
280
     0
281
     0
  0
CLASS
  1
ACMIDSTANDARDJIS
  2
AcmIdStdJIS
  3
"AcmSymBB|Product Description: AutoCAD Mechanical 2000|Company: Autodesk"
 90
        0
280
     0
281
     0
  0
CLASS
  1
ACMDATUMSTANDARDJIS
  2
AcmDatumStdJIS
  3
"AcmSymBB|Product Description: AutoCAD Mechanical 2000|Company: Autodesk"
 90
        0
280
     0
281
     0
  0
CLASS
  1
ACMBOMSTANDARDJIS
  2
AcmBOMStdJIS
  3
"AcmSymBB|Product Description: AutoCAD Mechanical 2000|Company: Autodesk"
 90
        0
280
     0
281
     0
  0
CLASS
  1
ACMSTANDARDANSI
  2
AcmStandardANSI
  3
"AcmSymBB|Product Description: AutoCAD Mechanical 2000|Company: Autodesk"
 90
        0
280
     0
281
     0
  0
CLASS
  1
ACMSURFSTANDARDANSI
  2
AcmSurfTextStdANSI
  3
"AcmSymBB|Product Description: AutoCAD Mechanical 2000|Company: Autodesk"
 90
        0
280
     0
281
     0
  0
CLASS
  1
ACMFCFSTANDARDANSI
  2
AcmFCFStdANSI
  3
"AcmSymBB|Product Description: AutoCAD Mechanical 2000|Company: Autodesk"
 90
        0
280
     0
281
     0
  0
CLASS
  1
ACMWELDSTANDARDANSI
  2
AcmWeldingStdANSI
  3
"AcmSymBB|Product Description: AutoCAD Mechanical 2000|Company: Autodesk"
 90
        0
280
     0
281
     0
  0
CLASS
  1
ACMIDSTANDARDANSI
  2
AcmIdStdANSI
  3
"AcmSymBB|Product Description: AutoCAD Mechanical 2000|Company: Autodesk"
 90
        0
280
     0
281
     0
  0
CLASS
  1
ACMDATUMSTANDARDANSI
  2
AcmDatumStdANSI
  3
"AcmSymBB|Product Description: AutoCAD Mechanical 2000|Company: Autodesk"
 90
        0
280
     0
281
     0
  0
CLASS
  1
ACMBOMSTANDARDANSI
  2
AcmBOMStdANSI
  3
"AcmSymBB|Product Description: AutoCAD Mechanical 2000|Company: Autodesk"
 90
        0
280
     0
281
     0
  0
CLASS
  1
ACMSTANDARDBSI
  2
AcmStandardBSI
  3
"AcmSymBB|Product Description: AutoCAD Mechanical 2000|Company: Autodesk"
 90
        0
280
     0
281
     0
  0
CLASS
  1
ACMSURFSTANDARDBSI
  2
AcmSurfTextStdBSI
  3
"AcmSymBB|Product Description: AutoCAD Mechanical 2000|Company: Autodesk"
 90
        0
280
     0
281
     0
  0
CLASS
  1
ACMFCFSTANDARDBSI
  2
AcmFCFStdBSI
  3
"AcmSymBB|Product Description: AutoCAD Mechanical 2000|Company: Autodesk"
 90
        0
280
     0
281
     0
  0
CLASS
  1
ACMWELDSTANDARDBSI
  2
AcmWeldingStdBSI
  3
"AcmSymBB|Product Description: AutoCAD Mechanical 2000|Company: Autodesk"
 90
        0
280
     0
281
     0
  0
CLASS
  1
ACMIDSTANDARDBSI
  2
AcmIdStdBSI
  3
"AcmSymBB|Product Description: AutoCAD Mechanical 2000|Company: Autodesk"
 90
        0
280
     0
281
     0
  0
CLASS
  1
ACMDATUMSTANDARDBSI
  2
AcmDatumStdBSI
  3
"AcmSymBB|Product Description: AutoCAD Mechanical 2000|Company: Autodesk"
 90
        0
280
     0
281
     0
  0
CLASS
  1
ACMBOMSTANDARDBSI
  2
AcmBOMStdBSI
  3
"AcmSymBB|Product Description: AutoCAD Mechanical 2000|Company: Autodesk"
 90
        0
280
     0
281
     0
  0
CLASS
  1
LONG_TRANSACTION
  2
AcDbLongTransaction
  3
AutoCAD 2000
 90
        0
280
     0
281
     0
  0
CLASS
  1
LWPOLYLINE
  2
AcDbPolyline
  3
AutoCAD 2000
 90
        0
280
     0
281
     1
  0
CLASS
  1
HATCH
  2
AcDbHatch
  3
AutoCAD 2000
 90
        0
280
     0
281
     1
  0
CLASS
  1
XRECORD
  2
AcDbXrecord
  3
AutoCAD 2000
 90
        0
280
     0
281
     0
  0
ENDSEC
  0
SECTION
  2
TABLES
  0
TABLE
  2
VPORT
  5
8
330
0
100
AcDbSymbolTable
 70
     3
  0
VPORT
  5
40E8
330
8
100
AcDbSymbolTableRecord
100
AcDbViewportTableRecord
  2
*ACTIVE
 70
     0
 10
0.0
 20
0.0
 11
1.0
 21
1.0
 12
-61.11401233554662
 22
-10.00665256552224
 13
0.0
 23
0.0
 14
2.5
 24
2.5
 15
10.0
 25
10.0
 16
0.0
 26
0.0
 36
1.0
 17
0.0
 27
0.0
 37
0.0
 40
133.1003338986589
 41
1.56570841889117
 42
50.0
 43
0.0
 44
0.0
 50
0.0
 51
0.0
 71
     0
 72
   100
 73
     1
 74
     1
 75
     0
 76
     0
 77
     0
 78
     0
  0
ENDTAB
  0
TABLE
  2
LTYPE
  5
5
330
0
100
AcDbSymbolTable
 70
    10
  0
LTYPE
  5
14
330
5
100
AcDbSymbolTableRecord
100
AcDbLinetypeTableRecord
  2
BYBLOCK
 70
     0
  3

 72
    65
 73
     0
 40
0.0
  0
LTYPE
  5
15
330
5
100
AcDbSymbolTableRecord
100
AcDbLinetypeTableRecord
  2
BYLAYER
 70
     0
  3

 72
    65
 73
     0
 40
0.0
  0
LTYPE
  5
16
330
5
100
AcDbSymbolTableRecord
100
AcDbLinetypeTableRecord
  2
CONTINUOUS
 70
     0
  3
Solid line
 72
    65
 73
     0
 40
0.0
  0
LTYPE
  5
4B
330
5
100
AcDbSymbolTableRecord
100
AcDbLinetypeTableRecord
  2
AM_ISO02W050
 70
     0
  3
__ __ __ __ __ __ __ __ __ __ __ __ __ __ __
 72
    65
 73
     2
 40
7.5
 49
6.0
 74
     0
 49
-1.5
 74
     0
  0
LTYPE
  5
4C
330
5
100
AcDbSymbolTableRecord
100
AcDbLinetypeTableRecord
  2
AM_ISO08W050
 70
     0
  3
____ . ____ . ____ . ____ . ____ . ____ . ____
 72
    65
 73
     4
 40
18.0
 49
12.0
 74
     0
 49
-1.5
 74
     0
 49
3.0
 74
     0
 49
-1.5
 74
     0
  0
LTYPE
  5
4D
330
5
100
AcDbSymbolTableRecord
100
AcDbLinetypeTableRecord
  2
AM_ISO09W050
 70
     0
  3
_____ . . _____ . . _____ . . ____ .. ____
 72
    65
 73
     6
 40
22.5
 49
12.0
 74
     0
 49
-1.5
 74
     0
 49
3.0
 74
     0
 49
-1.5
 74
     0
 49
3.0
 74
     0
 49
-1.5
 74
     0
  0
LTYPE
  5
4E
330
5
100
AcDbSymbolTableRecord
100
AcDbLinetypeTableRecord
  2
AMCONSTR
 70
     0
  3
_______________________
 72
    65
 73
     2
 40
9999.0
 49
9999.0
 74
     0
 49
0.0
 74
     0
  0
LTYPE
  5
4F
330
5
100
AcDbSymbolTableRecord
100
AcDbLinetypeTableRecord
  2
AM_ISO02W050X2
 70
     0
  3
 _ _ _ _ _ _ _ _ _ _ _ _
 72
    65
 73
     2
 40
3.75
 49
3.0
 74
     0
 49
-0.75
 74
     0
  0
LTYPE
  5
50
330
5
100
AcDbSymbolTableRecord
100
AcDbLinetypeTableRecord
  2
AM_ISO08W050X2
 70
     0
  3
__ . __ . __ . __ . __ . __
 72
    65
 73
     4
 40
9.0
 49
6.0
 74
     0
 49
-0.75
 74
     0
 49
1.5
 74
     0
 49
-0.75
 74
     0
  0
LTYPE
  5
53
330
5
100
AcDbSymbolTableRecord
100
AcDbLinetypeTableRecord
  2
AMZIGZAG
 70
     0
  3
/\/-/\/-/\/-/\/-/\/-/\/
 72
    65
 73
     2
 40
11.00009999999999
 49
0.0001
 74
     4
 75
   135
340
52
 46
0.04
 50
0.0
 44
0.0
 45
0.0
 49
-11.0
 74
     0
  0
LTYPE
  5
166
330
5
100
AcDbSymbolTableRecord
100
AcDbLinetypeTableRecord
  2
ACJISTGL
 70
     0
  3
_ _ _ _ _
 72
    65
 73
     2
 40
3.0
 49
2.0
 74
     0
 49
-1.0
 74
     0
  0
LTYPE
  5
26A
330
5
100
AcDbSymbolTableRecord
100
AcDbLinetypeTableRecord
  2
ACJISTGB
 70
     0
  3
__ . . __ . .
 72
    65
 73
     6
 40
9.0
 49
4.0
 74
     0
 49
-1.0
 74
     0
 49
1.0
 74
     0
 49
-1.0
 74
     0
 49
1.0
 74
     0
 49
-1.0
 74
     0
  0
ENDTAB
  0
TABLE
  2
LAYER
  5
2
330
0
100
AcDbSymbolTable
 70
     7
  0
LAYER
  5
10
330
2
100
AcDbSymbolTableRecord
100
AcDbLayerTableRecord
  2
0
 70
     0
 62
     7
  6
CONTINUOUS
  0
LAYER
  5
3F9
330
2
100
AcDbSymbolTableRecord
100
AcDbLayerTableRecord
  2
AM_0
 70
     0
 62
     7
  6
CONTINUOUS
  0
LAYER
  5
C7C
330
2
100
AcDbSymbolTableRecord
100
AcDbLayerTableRecord
  2
AM_7
 70
     0
 62
     4
  6
AM_ISO08W050
  0
LAYER
  5
C97
330
2
100
AcDbSymbolTableRecord
100
AcDbLayerTableRecord
  2
AM_11
 70
     0
 62
     3
  6
AM_ISO09W050
  0
LAYER
  5
CC5
330
2
100
AcDbSymbolTableRecord
100
AcDbLayerTableRecord
  2
AM_5
 70
     0
 62
     3
  6
CONTINUOUS
  0
LAYER
  5
CC7
330
2
100
AcDbSymbolTableRecord
100
AcDbLayerTableRecord
  2
DEFPOINTS
 70
     0
 62
     7
  6
CONTINUOUS
  0
LAYER
  5
19BC
330
2
100
AcDbSymbolTableRecord
100
AcDbLayerTableRecord
  2
AM_6
 70
     0
 62
     2
  6
CONTINUOUS
  0
ENDTAB
  0
TABLE
  2
STYLE
  5
3
330
0
100
AcDbSymbolTable
 70
     5
  0
STYLE
  5
11
330
3
100
AcDbSymbolTableRecord
100
AcDbTextStyleTableRecord
  2
STANDARD
 70
     0
 40
0.0
 41
1.0
 50
0.0
 71
     0
 42
2.5
  3
simplex.shx
  4
EXTFONT.SHX
  0
STYLE
  5
52
330
3
100
AcDbSymbolTableRecord
100
AcDbTextStyleTableRecord
  2

 70
     1
 40
0.0
 41
1.0
 50
0.0
 71
     0
 42
2.5
  3
ltypeshp.shx
  4

  0
STYLE
  5
6B
330
3
100
AcDbSymbolTableRecord
100
AcDbTextStyleTableRecord
  2
ASAMI
 70
     0
 40
0.0
 41
1.0
 50
0.0
 71
     0
 42
2.5
  3
simplex.shx
  4
EXTFONT.SHX
  0
STYLE
  5
262
330
3
100
AcDbSymbolTableRecord
100
AcDbTextStyleTableRecord
  2
ACJISTS
 70
     0
 40
1.0
 41
1.0
 50
0.0
 71
     0
 42
2.5
  3
simplex.shx
  4
bigfont.shx
  0
STYLE
  5
269
330
3
100
AcDbSymbolTableRecord
100
AcDbTextStyleTableRecord
  2
ACJISGDT
 70
     0
 40
0.0
 41
1.0
 50
0.0
 71
     0
 42
2.5
  3
amgdtans.shx
  4

  0
ENDTAB
  0
TABLE
  2
VIEW
  5
6
330
0
100
AcDbSymbolTable
 70
     0
  0
ENDTAB
  0
TABLE
  2
UCS
  5
7
330
0
100
AcDbSymbolTable
 70
     0
  0
ENDTAB
  0
TABLE
  2
APPID
  5
9
330
0
100
AcDbSymbolTable
 70
    16
  0
APPID
  5
12
330
9
100
AcDbSymbolTableRecord
100
AcDbRegAppTableRecord
  2
ACAD
 70
     0
  0
APPID
  5
30
330
9
100
AcDbSymbolTableRecord
100
AcDbRegAppTableRecord
  2
MCAD_NO_VIS
 70
     0
  0
APPID
  5
31
330
9
100
AcDbSymbolTableRecord
100
AcDbRegAppTableRecord
  2
ACAD_TEMP_GRAPHIC
 70
     0
  0
APPID
  5
2C2
330
9
100
AcDbSymbolTableRecord
100
AcDbRegAppTableRecord
  2
GENIUS_GENDTOL_13
 70
     0
  0
APPID
  5
339
330
9
100
AcDbSymbolTableRecord
100
AcDbRegAppTableRecord
  2
GENIUS_GENODEF_13
 70
     0
  0
APPID
  5
33A
330
9
100
AcDbSymbolTableRecord
100
AcDbRegAppTableRecord
  2
GENIUS_GENOBJ-N-RSBK_13
 70
     0
  0
APPID
  5
33B
330
9
100
AcDbSymbolTableRecord
100
AcDbRegAppTableRecord
  2
GENIUS_GENOBJ-N-LIB_13
 70
     0
  0
APPID
  5
33C
330
9
100
AcDbSymbolTableRecord
100
AcDbRegAppTableRecord
  2
GENIUS_GENSCALE_13
 70
     0
  0
APPID
  5
378
330
9
100
AcDbSymbolTableRecord
100
AcDbRegAppTableRecord
  2
GENIUS_GENDIMSH_14
 70
     0
  0
APPID
  5
C82
330
9
100
AcDbSymbolTableRecord
100
AcDbRegAppTableRecord
  2
GENIUS_GENOBJ-N-CRS_13
 70
     0
  0
APPID
  5
C83
330
9
100
AcDbSymbolTableRecord
100
AcDbRegAppTableRecord
  2
GENIUS_GENOENT_13
 70
     0
  0
APPID
  5
C84
330
9
100
AcDbSymbolTableRecord
100
AcDbRegAppTableRecord
  2
GENIUS_GENOREF_13
 70
     0
  0
APPID
  5
C85
330
9
100
AcDbSymbolTableRecord
100
AcDbRegAppTableRecord
  2
GENIUS_GENOLIS_13
 70
     0
  0
APPID
  5
CA0
330
9
100
AcDbSymbolTableRecord
100
AcDbRegAppTableRecord
  2
GENIUS_GENOBJ-N-CEN_13
 70
     0
  0
APPID
  5
2796
330
9
100
AcDbSymbolTableRecord
100
AcDbRegAppTableRecord
  2
GENIUS_GENFIL_13
 70
     0
  0
APPID
  5
2797
330
9
100
AcDbSymbolTableRecord
100
AcDbRegAppTableRecord
  2
GENIUS_GENOBJ-N-CHA_13
 70
     0
  0
ENDTAB
  0
TABLE
  2
DIMSTYLE
  5
A
330
0
100
AcDbSymbolTable
 70
     9
  0
DIMSTYLE
105
58
330
A
100
AcDbSymbolTableRecord
100
AcDbDimStyleTableRecord
  2
AM_JIS
 70
     0
  3

  4
"
  5
OPEN30
  6

  7

 40
1.0
 41
2.5
 42
1.0
 43
12.0
 44
1.0
 45
0.0
 46
0.0
 47
0.1
 48
0.1
140
3.2
141
0.0
142
0.0
143
0.0393701
144
1.0
145
0.0
146
0.71
147
1.5
 71
     0
 72
     0
 73
     0
 74
     0
 75
     0
 76
     0
 77
     3
 78
     8
170
     0
171
     2
172
     1
173
     0
174
     0
175
     0
176
   256
177
   256
178
     2
270
     2
271
     3
272
     3
273
     2
274
     2
340
6B
275
     0
280
     0
281
     0
282
     0
283
     0
284
     0
285
     0
286
     0
287
     3
288
     0
  0
DIMSTYLE
105
5F
330
A
100
AcDbSymbolTableRecord
100
AcDbDimStyleTableRecord
  2
AM_JIS$3
 70
     0
  3

  4
"
  5
OPEN30
  6

  7

 40
1.0
 41
2.5
 42
1.0
 43
10.0
 44
1.0
 45
0.0
 46
0.0
 47
0.1
 48
0.1
140
3.2
141
0.0
142
0.0
143
0.0393701
144
1.0
145
0.0
146
0.71
147
1.5
 71
     0
 72
     0
 73
     0
 74
     1
 75
     0
 76
     0
 77
     3
 78
     8
170
     0
171
     2
172
     0
173
     0
174
     0
175
     0
176
   256
177
   256
178
     2
270
     2
271
     2
272
     3
273
     2
274
     2
340
6B
275
     0
280
     0
281
     0
282
     0
283
     0
284
     0
285
     0
286
     0
287
     0
288
     1
  0
DIMSTYLE
105
60
330
A
100
AcDbSymbolTableRecord
100
AcDbDimStyleTableRecord
  2
AM_JIS$4
 70
     0
  3

  4
"
  5
OPEN30
  6

  7

 40
1.0
 41
2.5
 42
1.0
 43
10.0
 44
1.0
 45
0.0
 46
0.0
 47
0.1
 48
0.1
140
3.2
141
0.0
142
0.0
143
0.0393701
144
1.0
145
0.0
146
0.71
147
1.5
 71
     0
 72
     0
 73
     0
 74
     1
 75
     0
 76
     0
 77
     3
 78
     8
170
     0
171
     2
172
     0
173
     0
174
     0
175
     0
176
   256
177
   256
178
     2
270
     2
271
     2
272
     3
273
     2
274
     2
340
6B
275
     0
280
     0
281
     0
282
     0
283
     0
284
     0
285
     0
286
     0
287
     0
288
     1
  0
DIMSTYLE
105
61
330
A
100
AcDbSymbolTableRecord
100
AcDbDimStyleTableRecord
  2
AM_JIS$6
 70
     0
  3

  4
"
  5
OPEN30
  6

  7

 40
1.0
 41
2.5
 42
1.0
 43
10.0
 44
1.0
 45
0.0
 46
0.0
 47
0.1
 48
0.1
140
3.2
141
0.0
142
0.0
143
0.0393701
144
1.0
145
0.0
146
0.71
147
1.5
 71
     0
 72
     0
 73
     0
 74
     0
 75
     0
 76
     0
 77
     0
 78
     8
170
     0
171
     2
172
     1
173
     0
174
     0
175
     0
176
   256
177
   256
178
     2
270
     2
271
     2
272
     2
273
     2
274
     2
340
6B
275
     0
280
     0
281
     0
282
     0
283
     0
284
     0
285
     0
286
     0
287
     3
288
     0
  0
DIMSTYLE
105
62
330
A
100
AcDbSymbolTableRecord
100
AcDbDimStyleTableRecord
  2
AM_JIS$7
 70
     0
  3

  4
"
  5
OPEN30
  6

  7

 40
1.0
 41
2.5
 42
1.0
 43
10.0
 44
1.0
 45
0.0
 46
0.0
 47
0.1
 48
0.1
140
3.2
141
0.0
142
0.0
143
0.0393701
144
1.0
145
0.0
146
0.71
147
1.5
 71
     0
 72
     0
 73
     0
 74
     0
 75
     0
 76
     0
 77
     3
 78
     8
170
     0
171
     2
172
     1
173
     0
174
     0
175
     0
176
   256
177
   256
178
     2
270
     2
271
     2
272
     3
273
     2
274
     2
340
6B
275
     0
280
     0
281
     0
282
     0
283
     0
284
     0
285
     0
286
     0
287
     3
288
     0
  0
DIMSTYLE
105
63
330
A
100
AcDbSymbolTableRecord
100
AcDbDimStyleTableRecord
  2
AM_JIS$SF
 70
     0
  3

  4
"
  5
OPEN30
  6

  7

 40
1.0
 41
2.5
 42
1.0
 43
10.0
 44
1.0
 45
0.0
 46
0.0
 47
0.1
 48
0.1
140
3.2
141
0.0
142
0.0
143
0.0393701
144
1.0
145
0.0
146
0.71
147
1.5
 71
     0
 72
     0
 73
     0
 74
     0
 75
     1
 76
     1
 77
     3
 78
     8
170
     0
171
     2
172
     1
173
     0
174
     0
175
     0
176
   256
177
   256
178
     2
270
     2
271
     2
272
     2
273
     2
274
     2
340
6B
275
     0
280
     0
281
     0
282
     0
283
     0
284
     0
285
     0
286
     0
287
     3
288
     0
  0
DIMSTYLE
105
68
330
A
100
AcDbSymbolTableRecord
100
AcDbDimStyleTableRecord
  2
AM_JIS$SH
 70
     0
  3

  4
"
  5

  6
GENAXEH
  7
OPEN30
 40
1.0
 41
2.5
 42
1.0
 43
10.0
 44
1.0
 45
0.0
 46
0.0
 47
0.1
 48
0.1
140
3.2
141
0.0
142
0.0
143
0.0393701
144
2.0
145
0.0
146
0.71
147
1.5
 71
     0
 72
     0
 73
     0
 74
     0
 75
     1
 76
     1
 77
     3
 78
     8
170
     0
171
     2
172
     1
173
     1
174
     0
175
     0
176
   256
177
   256
178
     2
270
     2
271
     2
272
     2
273
     2
274
     2
340
6B
275
     0
280
     0
281
     0
282
     0
283
     0
284
     0
285
     0
286
     0
287
     3
288
     0
  0
DIMSTYLE
105
B34
102
{ACAD_REACTORS
330
3D2F
102
}
330
A
100
AcDbSymbolTableRecord
100
AcDbDimStyleTableRecord
  2
AM_JIS$2
 70
     0
  3

  4
"
  5
OPEN30
  6

  7

 40
1.0
 41
2.5
 42
1.0
 43
12.0
 44
1.0
 45
0.0
 46
0.0
 47
0.1
 48
0.1
140
3.2
141
0.0
142
0.0
143
0.0393701
144
1.0
145
0.0
146
0.71
147
1.5
 71
     0
 72
     0
 73
     0
 74
     0
 75
     0
 76
     0
 77
     3
 78
     8
170
     0
171
     2
172
     1
173
     0
174
     0
175
     0
176
   256
177
   256
178
     2
270
     2
271
     3
272
     3
273
     2
274
     2
340
6B
275
     0
280
     0
281
     0
282
     0
283
     0
284
     0
285
     0
286
     0
287
     3
288
     0
  0
DIMSTYLE
105
BA5
102
{ACAD_REACTORS
330
CC6
330
2069
330
2D60
330
3C5B
102
}
330
A
100
AcDbSymbolTableRecord
100
AcDbDimStyleTableRecord
  2
AM_JIS$0
 70
     0
  3

  4
"
  5
OPEN30
  6

  7

 40
1.0
 41
2.5
 42
0.0
 43
10.0
 44
1.0
 45
0.0
 46
0.0
 47
0.1
 48
0.1000000001
140
3.799999999999999
141
0.0
142
0.0
143
0.0393701
144
1.0
145
0.0
146
0.71
147
1.5
 71
     0
 72
     0
 73
     0
 74
     0
 75
     0
 76
     0
 77
     3
 78
     1
170
     0
171
     2
172
     1
173
     0
174
     0
175
     0
176
     3
177
     3
178
     2
270
     2
271
     2
272
     2
273
     2
274
     2
340
11
275
     1
280
     0
281
     0
282
     0
283
     0
284
     8
285
     0
286
     0
287
     0
288
     0
  0
ENDTAB
  0
TABLE
  2
BLOCK_RECORD
  5
1
330
0
100
AcDbSymbolTable
 70
    10
  0
BLOCK_RECORD
  5
1F
102
{ACAD_XDICTIONARY
360
74
102
}
330
1
100
AcDbSymbolTableRecord
100
AcDbBlockTableRecord
  2
*MODEL_SPACE
  0
BLOCK_RECORD
  5
101
102
{ACAD_XDICTIONARY
360
4111
102
}
330
1
100
AcDbSymbolTableRecord
100
AcDbBlockTableRecord
  2
*PAPER_SPACE
  0
BLOCK_RECORD
  5
59
330
1
100
AcDbSymbolTableRecord
100
AcDbBlockTableRecord
  2
_OPEN30
  0
BLOCK_RECORD
  5
64
330
1
100
AcDbSymbolTableRecord
100
AcDbBlockTableRecord
  2
GENAXEH
  0
BLOCK_RECORD
  5
CC8
330
1
100
AcDbSymbolTableRecord
100
AcDbBlockTableRecord
  2
*D5
  0
BLOCK_RECORD
  5
206A
330
1
100
AcDbSymbolTableRecord
100
AcDbBlockTableRecord
  2
*D6
  0
BLOCK_RECORD
  5
2D61
330
1
100
AcDbSymbolTableRecord
100
AcDbBlockTableRecord
  2
*D7
  0
BLOCK_RECORD
  5
3C5C
330
1
100
AcDbSymbolTableRecord
100
AcDbBlockTableRecord
  2
*D8
  0
BLOCK_RECORD
  5
3D30
330
1
100
AcDbSymbolTableRecord
100
AcDbBlockTableRecord
  2
*D9
  0
ENDTAB
  0
ENDSEC
  0
SECTION
  2
BLOCKS
  0
BLOCK
  5
20
330
1F
100
AcDbEntity
  8
0
100
AcDbBlockBegin
  2
*MODEL_SPACE
 70
     0
 10
0.0
 20
0.0
 30
0.0
  3
*MODEL_SPACE
  1

  0
ENDBLK
  5
21
330
1F
100
AcDbEntity
  8
0
100
AcDbBlockEnd
  0
BLOCK
  5
103
330
101
100
AcDbEntity
 67
     1
  8
0
100
AcDbBlockBegin
  2
*PAPER_SPACE
 70
     0
 10
0.0
 20
0.0
 30
0.0
  3
*PAPER_SPACE
  1

  0
ENDBLK
  5
104
330
101
100
AcDbEntity
 67
     1
  8
0
100
AcDbBlockEnd
  0
BLOCK
  5
5D
330
59
100
AcDbEntity
  8
0
100
AcDbBlockBegin
  2
_OPEN30
 70
     0
 10
0.0
 20
0.0
 30
0.0
  3
_OPEN30
  1

  0
LINE
  5
5A
330
59
100
AcDbEntity
  8
0
 62
     0
100
AcDbLine
 10
-1.0
 20
0.26794919
 30
0.0
 11
0.0
 21
0.0
 31
0.0
  0
LINE
  5
5B
330
59
100
AcDbEntity
  8
0
 62
     0
100
AcDbLine
 10
0.0
 20
0.0
 30
0.0
 11
-1.0
 21
-0.26794919
 31
0.0
  0
LINE
  5
5C
330
59
100
AcDbEntity
  8
0
 62
     0
100
AcDbLine
 10
0.0
 20
0.0
 30
0.0
 11
-1.0
 21
0.0
 31
0.0
  0
ENDBLK
  5
5E
330
59
100
AcDbEntity
  8
0
100
AcDbBlockEnd
  0
BLOCK
  5
66
330
64
100
AcDbEntity
  8
0
100
AcDbBlockBegin
  2
GENAXEH
 70
     0
 10
0.0
 20
0.0
 30
0.0
  3
GENAXEH
  1

  0
LINE
  5
65
330
64
100
AcDbEntity
  8
0
100
AcDbLine
 10
-1.0
 20
0.0
 30
0.0
 11
1.0
 21
0.0
 31
0.0
  0
ENDBLK
  5
67
330
64
100
AcDbEntity
  8
0
100
AcDbBlockEnd
  0
BLOCK
  5
CD2
330
CC8
100
AcDbEntity
  8
0
100
AcDbBlockBegin
  2
*D5
 70
     1
 10
0.0
 20
0.0
 30
0.0
  3
*D5
  1

  0
LINE
  5
409D
330
CC8
100
AcDbEntity
  8
AM_5
 62
     3
100
AcDbLine
 10
-142.9999999999997
 20
-6.749999999999399
 30
0.0
 11
-142.9999999999997
 21
-32.50000099999953
 31
0.0
  0
LINE
  5
409E
330
CC8
100
AcDbEntity
  8
AM_5
 62
     3
100
AcDbLine
 10
-2.999999999999672
 20
-7.100000079152653
 30
0.0
 11
-2.999999999999674
 21
-32.50000099999953
 31
0.0
  0
LINE
  5
409F
330
CC8
100
AcDbEntity
  8
AM_5
 62
     3
100
AcDbLine
 10
-140.4999999999997
 20
-31.50000099999953
 30
0.0
 11
-5.499999999999673
 21
-31.50000099999953
 31
0.0
  0
INSERT
  5
40A0
330
CC8
100
AcDbEntity
  8
AM_5
 62
     3
100
AcDbBlockReference
  2
_OPEN30
 10
-142.9999999999997
 20
-31.50000099999953
 30
0.0
 41
2.5
 42
2.5
 43
2.5
 50
180.0
  0
INSERT
  5
40A1
330
CC8
100
AcDbEntity
  8
AM_5
 62
     3
100
AcDbBlockReference
  2
_OPEN30
 10
-2.999999999999673
 20
-31.50000099999953
 30
0.0
 41
2.5
 42
2.5
 43
2.5
  0
MTEXT
  5
40A2
330
CC8
100
AcDbEntity
  8
AM_5
 62
     2
100
AcDbMText
 10
-72.99999999999972
 20
-28.10000099999953
 30
0.0
 40
3.799999999999999
 41
0.0
 71
     5
 72
     1
  1
140
1001
ACAD
1000
MTEXTBEGIN
1070
    73
1070
     1
1070
    44
1040
1.0
1070
    74
1070
     0
1000
MTEXTEND
  0
POINT
  5
40A3
330
CC8
100
AcDbEntity
  8
DEFPOINTS
 62
     0
100
AcDbPoint
 10
-142.9999999999997
 20
-6.749999999999399
 30
0.0
  0
POINT
  5
40A4
330
CC8
100
AcDbEntity
  8
DEFPOINTS
 62
     0
100
AcDbPoint
 10
-2.999999999999672
 20
-7.100000079152653
 30
0.0
  0
POINT
  5
40A5
330
CC8
100
AcDbEntity
  8
DEFPOINTS
 62
     0
100
AcDbPoint
 10
-2.999999999999673
 20
-31.50000099999953
 30
0.0
  0
ENDBLK
  5
CD3
330
CC8
100
AcDbEntity
  8
0
100
AcDbBlockEnd
  0
BLOCK
  5
2074
330
206A
100
AcDbEntity
  8
0
100
AcDbBlockBegin
  2
*D6
 70
     1
 10
0.0
 20
0.0
 30
0.0
  3
*D6
  1

  0
LINE
  5
4094
330
206A
100
AcDbEntity
  8
AM_5
 62
     3
100
AcDbLine
 10
-77.99999999999932
 20
-7.499999999999662
 30
0.0
 11
-77.99999999999927
 21
-22.50000099999966
 31
0.0
  0
LINE
  5
4095
330
206A
100
AcDbEntity
  8
AM_5
 62
     3
100
AcDbLine
 10
-2.999999999999651
 20
-7.100000079152662
 30
0.0
 11
-2.999999999999607
 21
-22.50000099999944
 31
0.0
  0
LINE
  5
4096
330
206A
100
AcDbEntity
  8
AM_5
 62
     3
100
AcDbLine
 10
-75.49999999999929
 20
-21.50000099999965
 30
0.0
 11
-5.49999999999961
 21
-21.50000099999946
 31
0.0
  0
INSERT
  5
4097
330
206A
100
AcDbEntity
  8
AM_5
 62
     3
100
AcDbBlockReference
  2
_OPEN30
 10
-77.99999999999929
 20
-21.50000099999966
 30
0.0
 41
2.5
 42
2.5
 43
2.5
 50
180.0000000000001
  0
INSERT
  5
4098
330
206A
100
AcDbEntity
  8
AM_5
 62
     3
100
AcDbBlockReference
  2
_OPEN30
 10
-2.99999999999961
 20
-21.50000099999944
 30
0.0
 41
2.5
 42
2.5
 43
2.5
 50
0.0000000000001527
  0
MTEXT
  5
4099
330
206A
100
AcDbEntity
  8
AM_5
 62
     2
100
AcDbMText
 10
-40.49999999999946
 20
-18.10000099999955
 30
0.0
 40
3.799999999999999
 41
0.0
 71
     5
 72
     1
  1
75
1001
ACAD
1000
MTEXTBEGIN
1070
    73
1070
     1
1070
    44
1040
1.0
1070
    74
1070
     0
1000
MTEXTEND
  0
POINT
  5
409A
330
206A
100
AcDbEntity
  8
DEFPOINTS
 62
     0
100
AcDbPoint
 10
-77.99999999999934
 20
-7.499999999999435
 30
0.0
  0
POINT
  5
409B
330
206A
100
AcDbEntity
  8
DEFPOINTS
 62
     0
100
AcDbPoint
 10
-2.999999999999672
 20
-7.100000079152653
 30
0.0
  0
POINT
  5
409C
330
206A
100
AcDbEntity
  8
DEFPOINTS
 62
     0
100
AcDbPoint
 10
-2.999999999999673
 20
-21.50000099999944
 30
0.0
  0
ENDBLK
  5
2075
330
206A
100
AcDbEntity
  8
0
100
AcDbBlockEnd
  0
BLOCK
  5
2D6B
330
2D61
100
AcDbEntity
  8
0
100
AcDbBlockBegin
  2
*D7
 70
     1
 10
0.0
 20
0.0
 30
0.0
  3
*D7
  1

  0
LINE
  5
40BA
330
2D61
100
AcDbEntity
  8
AM_5
 62
     3
100
AcDbLine
 10
-2.999999999999717
 20
7.099999999999965
 30
0.0
 11
16.31992595303311
 21
7.099932184050537
 31
0.0
  0
LINE
  5
40BB
330
2D61
100
AcDbEntity
  8
AM_5
 62
     3
100
AcDbLine
 10
-2.999999999999672
 20
-7.100000079152657
 30
0.0
 11
16.319876108821
 21
-7.100067894927125
 31
0.0
  0
LINE
  5
40BC
330
2D61
100
AcDbEntity
  8
AM_5
 62
     3
100
AcDbLine
 10
15.31986733343775
 20
-9.60006438475596
 30
0.0
 11
15.31985855804834
 21
-12.10006438474056
 31
0.0
  0
LINE
  5
40BD
330
2D61
100
AcDbEntity
  8
AM_5
 62
     3
100
AcDbLine
 10
15.31993472842868
 20
9.599935694190898
 30
0.0
 11
15.32000421279776
 21
29.39517378930704
 31
0.0
  0
LINE
  5
40BE
330
2D61
100
AcDbEntity
  8
AM_5
 62
     3
100
AcDbLine
 10
15.31987610882715
 20
-7.100064384771362
 30
0.0
 11
15.31992595303927
 21
7.099935694206299
 31
0.0
  0
INSERT
  5
40BF
330
2D61
100
AcDbEntity
  8
AM_5
 62
     3
100
AcDbBlockReference
  2
_OPEN30
 10
15.31987610882715
 20
-7.100064384771362
 30
0.0
 41
2.5
 42
2.5
 43
2.5
 50
89.99979888288931
  0
INSERT
  5
40C0
330
2D61
100
AcDbEntity
  8
AM_5
 62
     3
100
AcDbBlockReference
  2
_OPEN30
 10
15.31992595303927
 20
7.099935694206299
 30
0.0
 41
2.5
 42
2.5
 43
2.5
 50
269.9997988828893
  0
MTEXT
  5
40C1
330
2D61
100
AcDbEntity
  8
AM_5
 62
     2
100
AcDbMText
 10
11.91997385832887
 20
20.74756667627086
 30
0.0
 40
3.799999999999999
 41
0.0
 71
     5
 72
     1
  1
%%c14.2
 11
0.0000035101557632
 21
0.9999999999938395
 31
0.0
1001
ACAD
1000
MTEXTBEGIN
1070
    73
1070
     1
1070
    44
1040
1.0
1070
    74
1070
     0
1000
MTEXTEND
  0
POINT
  5
40C2
330
2D61
100
AcDbEntity
  8
DEFPOINTS
 62
     0
100
AcDbPoint
 10
-2.999999999999697
 20
7.099999999999975
 30
0.0
  0
POINT
  5
40C3
330
2D61
100
AcDbEntity
  8
DEFPOINTS
 62
     0
100
AcDbPoint
 10
-2.999999999999693
 20
-7.100000079152648
 30
0.0
  0
POINT
  5
40C4
330
2D61
100
AcDbEntity
  8
DEFPOINTS
 62
     0
100
AcDbPoint
 10
15.31987610882714
 20
-7.100064384771406
 30
0.0
  0
ENDBLK
  5
2D6C
330
2D61
100
AcDbEntity
  8
0
100
AcDbBlockEnd
  0
BLOCK
  5
3C66
330
3C5C
100
AcDbEntity
  8
0
100
AcDbBlockBegin
  2
*D8
 70
     1
 10
0.0
 20
0.0
 30
0.0
  3
*D8
  1

  0
LINE
  5
40A6
330
3C5C
100
AcDbEntity
  8
AM_5
 62
     3
100
AcDbLine
 10
-142.2499999999997
 20
7.500000000000142
 30
0.0
 11
-160.5000009999997
 21
7.500000000000089
 31
0.0
  0
LINE
  5
40A7
330
3C5C
100
AcDbEntity
  8
AM_5
 62
     3
100
AcDbLine
 10
-142.2499999999996
 20
-7.499999999999856
 30
0.0
 11
-160.5000009999996
 21
-7.499999999999908
 31
0.0
  0
LINE
  5
40A8
330
3C5C
100
AcDbEntity
  8
AM_5
 62
     3
100
AcDbLine
 10
-159.5000009999997
 20
5.000000000000093
 30
0.0
 11
-159.5000009999996
 21
-4.999999999999904
 31
0.0
  0
INSERT
  5
40A9
330
3C5C
100
AcDbEntity
  8
AM_5
 62
     3
100
AcDbBlockReference
  2
_OPEN30
 10
-159.5000009999997
 20
7.500000000000093
 30
0.0
 41
2.5
 42
2.5
 43
2.5
 50
90.00000000000017
  0
INSERT
  5
40AA
330
3C5C
100
AcDbEntity
  8
AM_5
 62
     3
100
AcDbBlockReference
  2
_OPEN30
 10
-159.5000009999996
 20
-7.499999999999904
 30
0.0
 41
2.5
 42
2.5
 43
2.5
 50
270.0000000000001
  0
MTEXT
  5
40AB
330
3C5C
100
AcDbEntity
  8
AM_5
 62
     2
100
AcDbMText
 10
-162.9000009999996
 20
0.0000000000000905
 30
0.0
 40
3.799999999999999
 41
0.0
 71
     5
 72
     1
  1
%%c15
 11
-0.0000000000000028
 21
1.0
 31
0.0
1001
ACAD
1000
MTEXTBEGIN
1070
    73
1070
     1
1070
    44
1040
1.0
1070
    74
1070
     0
1000
MTEXTEND
  0
POINT
  5
40AC
330
3C5C
100
AcDbEntity
  8
DEFPOINTS
 62
     0
100
AcDbPoint
 10
-142.2499999999996
 20
7.500000000000584
 30
0.0
  0
POINT
  5
40AD
330
3C5C
100
AcDbEntity
  8
DEFPOINTS
 62
     0
100
AcDbPoint
 10
-142.2499999999997
 20
-7.499999999999413
 30
0.0
  0
POINT
  5
40AE
330
3C5C
100
AcDbEntity
  8
DEFPOINTS
 62
     0
100
AcDbPoint
 10
-159.5000009999996
 20
-7.499999999999409
 30
0.0
  0
ENDBLK
  5
3C67
330
3C5C
100
AcDbEntity
  8
0
100
AcDbBlockEnd
  0
BLOCK
  5
3D3E
330
3D30
100
AcDbEntity
  8
0
100
AcDbBlockBegin
  2
*D9
 70
     1
 10
0.0
 20
0.0
 30
0.0
  3
*D9
  1

  0
LINE
  5
4113
330
3D30
100
AcDbEntity
  8
AM_5
100
AcDbLine
 10
0.342020140816403
 20
-0.9396926216993202
 30
0.0
 11
12.37014012389954
 21
-33.9866809483116
 31
0.0
  0
LINE
  5
4114
330
3D30
100
AcDbEntity
  8
AM_5
100
AcDbLine
 10
0.3420222223662306
 20
0.9396918640745196
 30
0.0
 11
12.37021540912391
 21
33.98665354663664
 31
0.0
  0
ARC
  5
4115
330
3D30
100
AcDbEntity
  8
AM_5
100
AcDbCircle
 10
0.0000000000002628
 20
-0.0000000000000088
 30
0.0
 40
35.16787039026805
100
AcDbArc
 50
294.0738782167519
 51
65.92599486507785
  0
INSERT
  5
4116
330
3D30
100
AcDbEntity
  8
AM_5
100
AcDbBlockReference
  2
_OPEN30
 10
12.0281199830834
 20
-33.0469883266123
 30
0.0
 41
2.5
 42
2.5
 43
2.5
 50
202.0369390318692
  0
INSERT
  5
4117
330
3D30
100
AcDbEntity
  8
AM_5
100
AcDbBlockReference
  2
_OPEN30
 10
12.02819318675795
 20
33.04696168256211
 30
0.0
 41
2.5
 42
2.5
 43
2.5
 50
157.9629340499606
  0
MTEXT
  5
4118
330
3D30
100
AcDbEntity
  8
AM_5
 62
     2
100
AcDbMText
 10
32.06787039024865
 20
-0.0000355174104392
 30
0.0
 40
3.2
 41
0.0
 71
     5
 72
     1
  1
140°
  7
ASAMI
 11
0.0000011075699751
 21
0.9999999999993868
 31
0.0
  0
POINT
  5
4119
330
3D30
100
AcDbEntity
  8
DEFPOINTS
 62
     0
100
AcDbPoint
 10
32.29169473951068
 20
-13.92930574856364
 30
0.0
  0
POINT
  5
411A
330
3D30
100
AcDbEntity
  8
DEFPOINTS
 62
     0
100
AcDbPoint
 10
0.0000000000002658
 20
-0.0000000000000005
 30
0.0
  0
POINT
  5
411B
330
3D30
100
AcDbEntity
  8
DEFPOINTS
 62
     0
100
AcDbPoint
 10
0.0000000000002658
 20
-0.0000000000000171
 30
0.0
  0
POINT
  5
411C
330
3D30
100
AcDbEntity
  8
DEFPOINTS
 62
     0
100
AcDbPoint
 10
-0.8779186122627548
 20
2.412061583354363
 30
0.0
  0
POINT
  5
411D
330
3D30
100
AcDbEntity
  8
DEFPOINTS
 62
     0
100
AcDbPoint
 10
-0.877936160965558
 20
-2.41209317315544
 30
0.0
  0
ENDBLK
  5
3D3F
330
3D30
100
AcDbEntity
  8
0
100
AcDbBlockEnd
  0
ENDSEC
  0
SECTION
  2
ENTITIES
  0
LINE
  5
C1D
330
1F
100
AcDbEntity
  8
AM_0
 48
0.5
100
AcDbLine
 10
0.0000000000002658
 20
-0.0000000000000171
 30
0.0
 11
-0.8779186122627546
 21
2.412061583354362
 31
0.0
  0
LINE
  5
C20
330
1F
100
AcDbEntity
  8
AM_0
 48
0.5
100
AcDbLine
 10
0.0000000000002658
 20
-0.0000000000000005
 30
0.0
 11
-0.877936160965558
 21
-2.41209317315544
 31
0.0
  0
DIMENSION
  5
CC6
330
1F
100
AcDbEntity
  8
AM_5
100
AcDbDimension
  2
*D5
 10
-2.999999999999673
 20
-31.50000099999953
 30
0.0
 11
-72.99999999999972
 21
-28.10000099999953
 31
0.0
 70
    32
  1
<>
  3
AM_JIS$0
100
AcDbAlignedDimension
 13
-142.9999999999997
 23
-6.749999999999399
 33
0.0
 14
-2.999999999999672
 24
-7.100000079152653
 34
0.0
 50
0.0000000000001132
100
AcDbRotatedDimension
1001
GENIUS_GENDTOL_13
1000

1000
h7
1000

1040
0.0
1001
ACAD
1000
DSTYLE
1002
{
1070
   271
1070
     0
1002
}
  0
TEXT
  5
19BD
330
1F
100
AcDbEntity
  8
AM_6
100
AcDbText
 10
-95.02380953825522
 20
-54.00000099999958
 30
0.0
 40
5.0
  1
MDW142MHK
 50
0.0000000000001527
 72
     4
 11
-73.0000000144457
 21
-51.50000099999953
 31
0.0
100
AcDbText
  0
DIMENSION
  5
2069
330
1F
100
AcDbEntity
  8
AM_5
100
AcDbDimension
  2
*D6
 10
-2.999999999999673
 20
-21.50000099999944
 30
0.0
 11
-40.4999999999995
 21
-18.10000099999944
 31
0.0
 70
    32
  1
<>
 51
359.9999999999998
  3
AM_JIS$0
100
AcDbAlignedDimension
 13
-77.99999999999934
 23
-7.499999999999435
 33
0.0
 14
-2.999999999999672
 24
-7.100000079152653
 34
0.0
 50
0.0000000000001527
100
AcDbRotatedDimension
1001
ACAD
1000
DSTYLE
1002
{
1070
   271
1070
     0
1070
   174
1070
     1
1002
}
1001
GENIUS_GENDTOL_13
1000

1000
h7
1000

1040
0.0
  0
LINE
  5
23EF
330
1F
100
AcDbEntity
  8
AM_7
100
AcDbLine
 10
-148.0717321856932
 20
0.0000000000005771
 30
0.0
 11
1.319900031072815
 21
-0.0000000000000051
 31
0.0
1001
GENIUS_GENODEF_13
1002
{
1000
HIER
1070
     0
1002
}
1002
{
1000
MANEDIT
1070
     0
1002
}
1002
{
1000
NOSEL
1070
     0
1002
}
1002
{
1000
BEHIND
1070
     0
1002
}
1002
{
1000
REACTOR
1002
}
1001
GENIUS_GENOBJ-N-CEN_13
1002
{
1000
OWNER
1000
GEN
1002
}
  0
LINE
  5
24A7
330
1F
100
AcDbEntity
  8
AM_0
 48
0.5
100
AcDbLine
 10
-2.190873760329618
 20
5.637994789760915
 30
0.0
 11
-2.999999999999697
 21
7.099999999999973
 31
0.0
  0
ELLIPSE
  5
24B7
330
1F
100
AcDbEntity
  8
AM_11
 48
0.5
100
AcDbEllipse
 10
-21.92810796254705
 20
27.40527019869879
 30
0.0
 11
-31.63261651992755
 21
0.0000000000002407
 31
0.0
210
0.0
220
0.0
230
1.0
 40
0.9578947368421056
 41
1.130070686340284
 42
2.011520147323574
  0
ELLIPSE
  5
24B8
330
1F
100
AcDbEntity
  8
AM_11
 48
0.5
100
AcDbEllipse
 10
-21.92810796254855
 20
-27.40526393174421
 30
0.0
 11
-31.6326165199275
 21
0.0000000000001424
 31
0.0
210
0.0
220
0.0
230
1.0
 40
0.9578947368421054
 41
4.271664206181664
 42
5.153113667164971
  0
ELLIPSE
  5
24B9
330
1F
100
AcDbEntity
  8
AM_11
 48
0.5
100
AcDbEllipse
 10
5.06052840108934
 20
27.40527019869808
 30
0.0
 11
-31.63261651992747
 21
0.0000000000024743
 31
0.0
210
0.0
220
0.0
230
1.0
 40
0.9578947368421141
 41
1.130070686340349
 42
1.291800737381041
  0
ELLIPSE
  5
24BE
330
1F
100
AcDbEntity
  8
AM_0
 48
0.5
100
AcDbEllipse
 10
6.918623594257436
 20
7.342926428848114
 30
0.0
 11
-4.440095187034224
 21
8.904787688231298
 31
0.0
210
0.0
220
0.0
230
1.0
 40
0.9264225005910461
 41
1.312765717361252
 42
1.664773036319176
  0
ELLIPSE
  5
24C7
330
1F
100
AcDbEntity
  8
AM_11
 48
0.5
100
AcDbEllipse
 10
-102.8940170534485
 20
27.40527019870086
 30
0.0
 11
-31.63261651992755
 21
0.0000000000007043
 31
0.0
210
0.0
220
0.0
230
1.0
 40
0.9578947368421056
 41
1.130070686340301
 42
2.011520147323591
  0
ELLIPSE
  5
24C8
330
1F
100
AcDbEntity
  8
AM_11
 48
0.5
100
AcDbEllipse
 10
-102.89401705345
 20
-27.40526393174214
 30
0.0
 11
31.6326165199275
 21
0.0000000000005287
 31
0.0
210
0.0
220
0.0
230
1.0
 40
0.957894736842107
 41
1.13007155259185
 42
2.011521013575156
  0
ELLIPSE
  5
24D4
330
1F
100
AcDbEntity
  8
AM_11
 48
0.5
100
AcDbEllipse
 10
-75.90538068981219
 20
27.4052701987002
 30
0.0
 11
-31.63261651992759
 21
0.0000000000001846
 31
0.0
210
0.0
220
0.0
230
1.0
 40
0.9578947368421051
 41
1.130070686340283
 42
2.011520147323574
  0
ELLIPSE
  5
24D5
330
1F
100
AcDbEntity
  8
AM_11
 48
0.5
100
AcDbEllipse
 10
-75.90538068981371
 20
-27.4052639317428
 30
0.0
 11
-31.63261651992745
 21
0.0000000000005709
 31
0.0
210
0.0
220
0.0
230
1.0
 40
0.9578947368421081
 41
4.271664206181676
 42
5.153113667164986
  0
ELLIPSE
  5
24E6
330
1F
100
AcDbEntity
  8
AM_11
 48
0.5
100
AcDbEllipse
 10
-48.91674432618491
 20
-27.40526393174352
 30
0.0
 11
-31.63261651992749
 21
0.0000000000008588
 31
0.0
210
0.0
220
0.0
230
1.0
 40
0.9578947368421058
 41
4.271664206181685
 42
5.153113667164993
  0
ELLIPSE
  5
24E7
330
1F
100
AcDbEntity
  8
AM_11
 48
0.5
100
AcDbEllipse
 10
-48.9167443261834
 20
27.40527019869948
 30
0.0
 11
31.63261651992755
 21
0.0000000000000511
 31
0.0
210
0.0
220
0.0
230
1.0
 40
0.9578947368421051
 41
4.271663339930067
 42
5.153112800913361
  0
ELLIPSE
  5
2BF3
330
1F
100
AcDbEntity
  8
AM_11
 48
0.5
100
AcDbEllipse
 10
-129.8826534170737
 20
27.40527019870001
 30
0.0
 11
-31.63261651992759
 21
0.0000000000001846
 31
0.0
210
0.0
220
0.0
230
1.0
 40
0.9578947368421051
 41
1.143207534912555
 42
2.011520147323574
  0
ELLIPSE
  5
2BF5
330
1F
100
AcDbEntity
  8
AM_11
 48
0.5
100
AcDbEllipse
 10
-129.8826534170752
 20
-27.40526393174298
 30
0.0
 11
-31.63261651992745
 21
0.0000000000005709
 31
0.0
210
0.0
220
0.0
230
1.0
 40
0.9578947368421081
 41
4.271664206181676
 42
5.139977772267003
  0
LINE
  5
2C0E
330
1F
100
AcDbEntity
  8
AM_0
 48
0.5
100
AcDbLine
 10
-77.99999999999972
 20
-7.499999999999436
 30
0.0
 11
-77.99999999999972
 21
7.500000000000561
 31
0.0
  0
DIMENSION
  5
2D60
330
1F
100
AcDbEntity
  8
AM_5
100
AcDbDimension
  2
*D7
 10
15.31987610882714
 20
-7.100064384771406
 30
0.0
 11
15.31997385830798
 21
20.74755474174122
 31
0.0
 70
   160
  1
%%c<>
 51
359.9999999999998
  3
AM_JIS$0
100
AcDbAlignedDimension
 13
-2.999999999999697
 23
7.099999999999973
 33
0.0
 14
-2.999999999999692
 24
-7.100000079152647
 34
0.0
 50
89.99979888288933
100
AcDbRotatedDimension
1001
ACAD
1000
DSTYLE
1002
{
1070
   271
1070
     1
1002
}
1001
GENIUS_GENDTOL_13
1000

1000
h7
1000

1040
0.0
  0
LINE
  5
2FB7
330
1F
100
AcDbEntity
  8
AM_0
100
AcDbLine
 10
-77.99999999999972
 20
7.500000000000539
 30
0.0
 11
-77.30713170630912
 21
7.099972304125324
 31
0.0
  0
LINE
  5
2FB9
330
1F
100
AcDbEntity
  8
AM_0
100
AcDbLine
 10
-77.99999999999968
 20
-7.499999999999638
 30
0.0
 11
-77.30717920998593
 21
-7.099999730385021
 31
0.0
  0
LINE
  5
324C
330
1F
100
AcDbEntity
  8
AM_0
100
AcDbLine
 10
-142.2499999999997
 20
-7.499999999999413
 30
0.0
 11
-77.9999999999997
 21
-7.499999999999435
 31
0.0
  0
LINE
  5
325C
330
1F
100
AcDbEntity
  8
AM_0
 48
0.5
100
AcDbLine
 10
-142.2499999999997
 20
-7.499999999999445
 30
0.0
 11
-142.2499999999996
 21
7.500000000000591
 31
0.0
  0
LINE
  5
325D
330
1F
100
AcDbEntity
  8
AM_0
 48
0.5
100
AcDbLine
 10
-142.9999999999997
 20
-6.749999999999399
 30
0.0
 11
-142.9999999999996
 21
6.750000000000579
 31
0.0
  0
LINE
  5
325E
330
1F
100
AcDbEntity
  8
AM_0
100
AcDbLine
 10
-77.99999999999972
 20
7.500000000000561
 30
0.0
 11
-142.2499999999996
 21
7.500000000000584
 31
0.0
  0
LINE
  5
3921
330
1F
100
AcDbEntity
  8
AM_0
 48
0.5
100
AcDbLine
 10
-142.2499999999996
 20
7.500000000000584
 30
0.0
 11
-142.9999999999996
 21
6.750000000000585
 31
0.0
1001
GENIUS_GENFIL_13
1070
     0
1040
0.75
1040
0.75
1040
20.0
1040
0.0
1002
{
1002
}
1001
GENIUS_GENODEF_13
1002
{
1000
HIER
1070
     0
1002
}
1002
{
1000
MANEDIT
1070
     0
1002
}
1002
{
1000
NOSEL
1070
     0
1002
}
1002
{
1000
BEHIND
1070
     0
1002
}
1002
{
1000
REACTOR
1002
}
1001
GENIUS_GENOBJ-N-CHA_13
1002
{
1000
OWNER
1000
GEN
1002
}
  0
LINE
  5
3924
330
1F
100
AcDbEntity
  8
AM_0
100
AcDbLine
 10
-142.9999999999997
 20
-6.749999999999412
 30
0.0
 11
-142.2499999999997
 21
-7.499999999999413
 31
0.0
1001
GENIUS_GENFIL_13
1070
     0
1040
0.75
1040
0.75
1040
20.0
1040
0.0
1002
{
1002
}
1001
GENIUS_GENODEF_13
1002
{
1000
HIER
1070
     0
1002
}
1002
{
1000
MANEDIT
1070
     0
1002
}
1002
{
1000
NOSEL
1070
     0
1002
}
1002
{
1000
BEHIND
1070
     0
1002
}
1002
{
1000
REACTOR
1002
}
1001
GENIUS_GENOBJ-N-CHA_13
1002
{
1000
OWNER
1000
GEN
1002
}
  0
ELLIPSE
  5
3976
330
1F
100
AcDbEntity
  8
AM_0
 48
0.5
100
AcDbEllipse
 10
6.918623594258136
 20
-7.3429264288476
 30
0.0
 11
-4.440095187033376
 21
-8.904787688231721
 31
0.0
210
0.0
220
0.0
230
-1.0
 40
0.9264225005910461
 41
1.312765717361252
 42
1.664773036319176
  0
LINE
  5
3977
330
1F
100
AcDbEntity
  8
AM_0
 48
0.5
100
AcDbLine
 10
-2.190873760329081
 20
-5.637994789761268
 30
0.0
 11
-3.000000073929113
 21
-7.099999951482419
 31
0.0
  0
DIMENSION
  5
3C5B
330
1F
100
AcDbEntity
  8
AM_5
100
AcDbDimension
  2
*D8
 10
-159.5000009999996
 20
-7.499999999999409
 30
0.0
 11
-162.9000009999996
 21
0.0000000000005644
 31
0.0
 70
    32
  1
%%c<>
 51
359.9999999999998
  3
AM_JIS$0
100
AcDbAlignedDimension
 13
-142.2499999999996
 23
7.500000000000584
 33
0.0
 14
-142.2499999999997
 24
-7.499999999999413
 34
0.0
 50
270.0
100
AcDbRotatedDimension
1001
ACAD
1000
DSTYLE
1002
{
1070
   271
1070
     0
1002
}
1001
GENIUS_GENDTOL_13
1000

1000
h7
1000

1040
0.0
  0
DIMENSION
  5
3D2F
330
1F
100
AcDbEntity
  8
AM_5
100
AcDbDimension
  2
*D9
 10
-0.877936160965558
 20
-2.41209317315544
 30
0.0
 11
32.06787039024865
 21
-0.0000355174105341
 31
0.0
 70
    34
  1
<>
 51
359.9999999999998
  3
AM_JIS$2
100
AcDb2LineAngularDimension
 13
0.0000000000002658
 23
-0.0000000000000171
 33
0.0
 14
-0.8779186122627546
 24
2.412061583354362
 34
0.0
 15
0.0000000000002658
 25
-0.0000000000000005
 35
0.0
 16
32.29169473951068
 26
-13.92930574856364
 36
0.0
1001
GENIUS_GENDTOL_13
1000

1000
h7
1000

1040
0.0
1001
ACAD
1000
DSTYLE
1002
{
1070
   271
1070
     0
1002
}
  0
LINE
  5
401F
330
1F
100
AcDbEntity
  8
AM_0
100
AcDbLine
 10
-77.30713170611584
 20
7.100030080289784
 30
0.0
 11
-77.3071792099859
 21
-7.100002938390928
 31
0.0
  0
LINE
  5
4020
330
1F
100
AcDbEntity
  8
AM_0
 48
0.5
100
AcDbLine
 10
-77.30717920998592
 20
-7.099999730385021
 30
0.0
 11
-72.95804597473521
 21
-7.099999951459182
 31
0.0
  0
ELLIPSE
  5
4021
330
1F
100
AcDbEntity
  8
AM_0
 48
0.5
100
AcDbEllipse
 10
-73.04685845381968
 20
-4.733694458006407
 30
0.0
 11
-2.252392790648019
 21
1.039884193104913
 31
0.0
210
0.0
220
0.0
230
1.0
 40
0.9437303308355522
 41
0.4662243769774413
 42
2.017854607489976
  0
ELLIPSE
  5
4022
330
1F
100
AcDbEntity
  8
AM_0
 48
0.5
100
AcDbEllipse
 10
-73.66063184168608
 20
-4.805802027382919
 30
0.0
 11
1.830588895675884
 21
0.1953700529995743
 31
0.0
210
0.0
220
0.0
230
1.0
 40
0.9680364026011648
 41
1.178021683435192
 42
3.006267865697005
  0
SPLINE
  5
4023
330
1F
100
AcDbEntity
  8
AM_0
 48
0.5
100
AcDbSpline
210
0.0
220
0.0
230
1.0
 70
     8
 71
     3
 72
    26
 73
    22
 74
     0
 42
0.0000000001
 43
0.0000000001
 40
0.0
 40
0.0
 40
0.0
 40
0.0
 40
0.8422864037471089
 40
1.685694647057321
 40
2.531315797913884
 40
3.380177287502886
 40
4.233214169721234
 40
5.09125020057522
 40
5.954967768899448
 40
6.824900391836836
 40
7.701419186604396
 40
8.584724417931369
 40
9.47485577056355
 40
10.37165251267315
 40
11.27486274211709
 40
12.18400675634887
 40
13.09851504074504
 40
14.01768673654235
 40
14.94071745659532
 40
15.8667176994736
 40
16.76607142455336
 40
16.76607142455336
 40
16.76607142455336
 40
16.76607142455336
 10
-51.98549025399366
 20
-7.100361124673646
 30
0.0
 10
-52.39878881850247
 20
-7.09613679686574
 30
0.0
 10
-53.22593641904489
 20
-7.087682514876216
 30
0.0
 10
-54.4663568041831
 20
-7.019531505180227
 30
0.0
 10
-55.70672424405269
 20
-6.911189217756732
 30
0.0
 10
-56.9470149037782
 20
-6.759343326857617
 30
0.0
 10
-58.18721647184036
 20
-6.566051874167274
 30
0.0
 10
-59.42730423861297
 20
-6.332173496167015
 30
0.0
 10
-60.66727737912085
 20
-6.059288365923999
 30
0.0
 10
-61.90712743677446
 20
-5.749053850283384
 30
0.0
 10
-63.14685148044825
 20
-5.403394902580291
 30
0.0
 10
-64.38645971311736
 20
-5.024462932856079
 30
0.0
 10
-65.62594699825017
 20
-4.614597723881075
 30
0.0
 10
-66.86532737958664
 20
-4.176313490482948
 30
0.0
 10
-68.10461742849651
 20
-3.712356471168402
 30
0.0
 10
-69.34381982262022
 20
-3.225541148779906
 30
0.0
 10
-70.58294379956042
 20
-2.718891995481518
 30
0.0
 10
-71.82201211437082
 20
-2.195534927162803
 30
0.0
 10
-73.06100429007222
 20
-1.658621815450814
 30
0.0
 10
-74.28726932426936
 20
-1.117358791744919
 30
0.0
 10
-75.09971604631414
 20
-0.7537344956824188
 30
0.0
 10
-75.4999999999997
 20
-0.5745719273871997
 30
0.0
  0
LINE
  5
4024
330
1F
100
AcDbEntity
  8
AM_0
 48
0.5
100
AcDbLine
 10
-60.75120832695938
 20
3.237805509099803
 30
0.0
 11
-75.49999999999972
 21
-0.574571927387201
 31
0.0
  0
LINE
  5
4025
330
1F
100
AcDbEntity
  8
AM_0
 48
0.5
100
AcDbLine
 10
-72.59149582387887
 20
7.10011144063444
 30
0.0
 11
-77.30713170612093
 21
7.100028558253871
 31
0.0
  0
LINE
  5
4026
330
1F
100
AcDbEntity
  8
AM_0
 48
0.5
100
AcDbLine
 10
-8.095019503639836
 20
7.100000000000131
 30
0.0
 11
-2.999999999999697
 21
7.099999999999973
 31
0.0
  0
LINE
  5
4027
330
1F
100
AcDbEntity
  8
AM_0
 48
0.5
100
AcDbLine
 10
-8.095019501994325
 20
-7.099999265862311
 30
0.0
 11
-2.999999999999734
 21
-7.100000079152647
 31
0.0
  0
LINE
  5
4028
330
1F
100
AcDbEntity
  8
AM_0
 48
0.5
100
AcDbLine
 10
0.0000000000002478
 20
0.0000000000000304
 30
0.0
 11
-4.782354253524042
 21
2.726185070481497
 31
0.0
  0
LINE
  5
4029
330
1F
100
AcDbEntity
  8
AM_0
 48
0.5
100
AcDbLine
 10
-57.67983091174425
 20
7.100000734139118
 30
0.0
 11
-31.46134542701406
 21
7.100000000000802
 31
0.0
  0
LINE
  5
402A
330
1F
100
AcDbEntity
  8
AM_0
 48
0.5
100
AcDbLine
 10
-56.50912392460448
 20
-7.099999265861192
 30
0.0
 11
-31.46135037968976
 21
-7.099999999999999
 31
0.0
  0
LINE
  5
402B
330
1F
100
AcDbEntity
  8
AM_11
 48
0.5
100
AcDbLine
 10
-31.46135037968976
 20
-7.099999999999999
 30
0.0
 11
-8.095019501994325
 21
-7.099999265862311
 31
0.0
  0
LINE
  5
402C
330
1F
100
AcDbEntity
  8
AM_11
 48
0.5
100
AcDbLine
 10
-31.46134542701406
 20
7.100000000000802
 30
0.0
 11
-8.095019503639836
 21
7.100000000000132
 31
0.0
  0
SPLINE
  5
402D
330
1F
100
AcDbEntity
  8
AM_0
100
AcDbSpline
210
0.0
220
0.0
230
1.0
 70
     8
 71
     3
 72
    22
 73
    18
 74
     0
 42
0.0000000001
 43
0.0000000001
 40
17.17441611292
 40
17.17441611292
 40
17.17441611292
 40
17.17441611292
 40
17.38177636558528
 40
18.41823744757437
 40
19.46215659509824
 40
20.51397914882054
 40
21.57394542641293
 40
22.64209583141747
 40
23.71826625065247
 40
24.80210429862395
 40
25.8930771157021
 40
26.99048705697709
 40
28.09349309193389
 40
29.20112995599786
 40
30.31233024745139
 40
31.42594771747373
 40
32.5407895042663
 40
32.54078950426994
 40
32.54078950426994
 40
32.54078950426994
 10
-36.19575524975385
 20
-6.375850653169823
 30
0.0
 10
-36.27881556536729
 20
-6.35941484955039
 30
0.0
 10
-36.77671679558943
 20
-6.259302573226785
 30
0.0
 10
-37.68884379273377
 20
-6.058564429295095
 30
0.0
 10
-38.92869394870695
 20
-5.748331238787934
 30
0.0
 10
-40.16841776655182
 20
-5.402671388926501
 30
0.0
 10
-41.40802399864902
 20
-5.023742574201064
 30
0.0
 10
-42.64751100756495
 20
-4.613868188499179
 30
0.0
 10
-43.88689404994742
 20
-4.175599069523811
 30
0.0
 10
-45.12617886448829
 20
-3.711628678266776
 30
0.0
 10
-46.36537691751903
 20
-3.224818294708327
 30
0.0
 10
-47.60450198813628
 20
-2.71817123056418
 30
0.0
 10
-48.84356483119816
 20
-2.194802873953139
 30
0.0
 10
-50.0825779198753
 20
-1.657933075443701
 30
0.0
 10
-51.3215522369404
 20
-1.110862976595039
 30
0.0
 10
-52.56050613672051
 20
-0.556968295612808
 30
0.0
 10
-53.38631327536496
 20
-0.1854828823621897
 30
0.0
 10
-53.79944369985359
 20
0.0003618588143909
 30
0.0
  0
SPLINE
  5
402E
330
1F
100
AcDbEntity
  8
AM_0
100
AcDbSpline
210
0.0
220
0.0
230
1.0
 70
     8
 71
     3
 72
    17
 73
    13
 74
     0
 42
0.0000000001
 43
0.0000000001
 40
1.580019955310467
 40
1.580019955310467
 40
1.580019955310467
 40
1.580019955310467
 40
2.030549285115227
 40
3.082371838836284
 40
4.126290986361125
 40
5.162752068350215
 40
6.192395305374981
 40
7.216039564037012
 40
8.234688489606833
 40
9.249433870634691
 40
10.26152376260694
 40
11.27226744710342
 40
11.27226744710342
 40
11.27226744710342
 40
11.27226744710352
 10
-19.77727095030794
 20
-5.240008336653533
 30
0.0
 10
-19.95276973041247
 20
-5.293976077008571
 30
0.0
 10
-20.53899461691708
 20
-5.470862554444315
 30
0.0
 10
-21.53982587586845
 20
-5.748315323410267
 30
0.0
 10
-22.77950344753667
 20
-6.059025618024619
 30
0.0
 10
-24.01952230127974
 20
-6.331788003178997
 30
0.0
 10
-25.25959797225379
 20
-6.565686481479857
 30
0.0
 10
-26.49980874724971
 20
-6.759019664100408
 30
0.0
 10
-27.74010520484928
 20
-6.910684283815572
 30
0.0
 10
-28.98047889323476
 20
-7.019697503142004
 30
0.0
 10
-30.22089925281065
 20
-7.085357591326959
 30
0.0
 10
-31.04804686636203
 20
-7.099999306488236
 30
0.0
 10
-31.46135037968978
 20
-7.100000000000002
 30
0.0
  0
SPLINE
  5
402F
330
1F
100
AcDbEntity
  8
AM_0
100
AcDbSpline
210
0.0
220
0.0
230
1.0
 70
     8
 71
     3
 72
    11
 73
     7
 74
     0
 42
0.0000000001
 43
0.0000000001
 40
11.27226913003534
 40
11.27226913003534
 40
11.27226913003534
 40
11.2722691300354
 40
12.28301561507924
 40
13.29510212255852
 40
14.30984805882082
 40
15.18258238371378
 40
15.18258238371378
 40
15.18258238371378
 40
15.18258238371378
 10
-31.46135037968984
 20
-7.100000000000002
 30
0.0
 10
-31.87307241978224
 20
-7.065249802615102
 30
0.0
 10
-32.69574981320555
 20
-6.981122864453629
 30
0.0
 10
-33.92551775065001
 20
-6.811418021433136
 30
0.0
 10
-35.09258920747018
 20
-6.608724193855489
 30
0.0
 10
-35.84738252002134
 20
-6.45290741604127
 30
0.0
 10
-36.19521277116485
 20
-6.375938231615533
 30
0.0
  0
SPLINE
  5
4030
330
1F
100
AcDbEntity
  8
AM_0
 48
0.5
100
AcDbSpline
210
0.0
220
0.0
230
1.0
 70
     8
 71
     3
 72
    25
 73
    21
 74
     0
 42
0.0000000001
 43
0.0000000001
 40
6.846175049578289
 40
6.846175049578289
 40
6.846175049578289
 40
6.846175049578289
 40
7.604337694224321
 40
8.711974558287883
 40
9.814980593243754
 40
10.91239053451967
 40
12.0033633515982
 40
13.08720139956839
 40
14.16337181880432
 40
15.23152222380919
 40
16.29148850140128
 40
17.34331105512262
 40
18.38723020264746
 40
19.42369128463655
 40
20.45333379090873
 40
21.47697865721768
 40
22.49561244472435
 40
23.5103574802404
 40
24.52244778960836
 40
25.53320666051913
 40
25.53320666051913
 40
25.53320666051913
 40
25.53320666051913
 10
-9.541661878681242
 20
1.285147216778681
 30
0.0
 10
-9.823442929385908
 20
1.409810589475177
 30
0.0
 10
-10.51748471073897
 20
1.715353301739248
 30
0.0
 10
-11.62481864263414
 20
2.195165350098288
 30
0.0
 10
-12.86388141798007
 20
2.718533854598601
 30
0.0
 10
-14.10300650659771
 20
3.225180879362258
 30
0.0
 10
-15.34220455488088
 20
3.711991273560706
 30
0.0
 10
-16.58148937055396
 20
4.175961661337765
 30
0.0
 10
-17.82087241310881
 20
4.61423078365649
 30
0.0
 10
-19.0603594202362
 20
5.024105159536652
 30
0.0
 10
-20.29996565923628
 20
5.403034009838258
 30
0.0
 10
-21.53968945153425
 20
5.748693728614348
 30
0.0
 10
-22.77953970180599
 20
6.058927402838898
 30
0.0
 10
-24.01951203456291
 20
6.331815044671248
 30
0.0
 10
-25.25960160584643
 20
6.565684048108925
 30
0.0
 10
-26.49980151514094
 20
6.75898422091997
 30
0.0
 10
-27.7400924654338
 20
6.910830879891226
 30
0.0
 10
-28.98046078746001
 20
7.019161570654799
 30
0.0
 10
-30.22088634630405
 20
7.087331621961182
 30
0.0
 10
-31.04804054319189
 20
7.095779550220222
 30
0.0
 10
-31.46134542701406
 20
7.100000000000801
 30
0.0
  0
SPLINE
  5
4031
330
1F
100
AcDbEntity
  8
AM_0
 48
0.5
100
AcDbSpline
210
0.0
220
0.0
230
1.0
 70
     8
 71
     3
 72
    17
 73
    13
 74
     0
 42
0.0000000001
 43
0.0000000001
 40
0.0
 40
0.0
 40
0.0
 40
0.0
 40
1.010743614677189
 40
2.022833924044153
 40
3.037578959561199
 40
4.056212747067873
 40
5.079857613375832
 40
6.109500119648989
 40
7.14596120163808
 40
8.18989512056258
 40
9.241717674284874
 40
9.693948937866434
 40
9.693948937866434
 40
9.693948937866434
 40
9.693948937866434
 10
-8.095019503639836
 20
7.100000000000131
 30
0.0
 10
-8.508318143314323
 20
7.095778716264317
 30
0.0
 10
-9.335466093550859
 20
7.08733052443826
 30
0.0
 10
-10.57588543443956
 20
7.019160868639287
 30
0.0
 10
-11.81625370798401
 20
6.91083003784564
 30
0.0
 10
-13.05654484117773
 20
6.758983888644956
 30
0.0
 10
-14.29674406251269
 20
6.565681803361867
 30
0.0
 10
-15.53683622418136
 20
6.331819999643712
 30
0.0
 10
-16.77680468206274
 20
6.058903923261861
 30
0.0
 10
-18.01669755191036
 20
5.748770915529354
 30
0.0
 10
-19.01757140824184
 20
5.469387955746515
 30
0.0
 10
-19.60534321899455
 20
5.294733428854653
 30
0.0
 10
-19.78176078223503
 20
5.241272847361779
 30
0.0
  0
SPLINE
  5
4032
330
1F
100
AcDbEntity
  8
AM_0
 48
0.5
100
AcDbSpline
210
0.0
220
0.0
230
1.0
 70
     8
 71
     3
 72
    10
 73
     6
 74
     0
 42
0.0000000001
 43
0.0000000001
 40
0.0
 40
0.0
 40
0.0
 40
0.0
 40
2.69986029516136
 40
4.147722969032201
 40
6.285750005020438
 40
6.285750005020438
 40
6.285750005020438
 40
6.285750005020438
 10
-9.541463562770399
 20
1.285062888271709
 30
0.0
 10
-8.658631330682904
 20
0.6254238250604156
 30
0.0
 10
-7.302359847527387
 20
-0.3879619781442131
 30
0.0
 10
-4.094959981092003
 20
0.1026358422086161
 30
0.0
 10
-4.699006668918748
 20
1.755034216911252
 30
0.0
 10
-4.782354253524042
 20
2.726185070481497
 30
0.0
  0
ELLIPSE
  5
4033
330
1F
100
AcDbEntity
  8
AM_0
 48
0.5
100
AcDbEllipse
 10
-18.23013210725922
 20
31.63251654432838
 30
0.0
 11
0.0000000001325242
 21
36.57437007097573
 31
0.0
210
0.0
220
0.0
230
1.0
 40
0.9929577464789202
 41
3.579847691620715
 42
3.667473607417793
  0
ELLIPSE
  5
4034
330
1F
100
AcDbEntity
  8
AM_0
 48
0.5
100
AcDbEllipse
 10
-9.529289541212111
 20
7.243342314254148
 30
0.0
 11
-0.0000000000141664
 21
11.030905488032
 31
0.0
210
0.0
220
0.0
230
1.0
 40
0.9929577464788568
 41
3.517054509081395
 42
3.681821570854902
  0
ELLIPSE
  5
4035
330
1F
100
AcDbEntity
  8
AM_0
 48
0.5
100
AcDbEllipse
 10
-3.357998318189151
 20
-1.847843285385099
 30
0.0
 11
-0.2162551388485244
 21
1.164362427461995
 31
0.0
210
0.0
220
0.0
230
1.0
 40
0.5162987047052842
 41
1.795980689993646
 42
4.931322579705622
  0
ELLIPSE
  5
4036
330
1F
100
AcDbEntity
  8
AM_0
 48
0.5
100
AcDbEllipse
 10
-3.358104075239552
 20
-1.850361471368283
 30
0.0
 11
-1.068269934621207
 21
0.581231418174812
 31
0.0
210
0.0
220
0.0
230
0.9999999999999998
 40
0.4907065809470146
 41
4.463703735802889
 42
7.607144077132401
  0
ELLIPSE
  5
4037
330
1F
100
AcDbEntity
  8
AM_0
 48
0.5
100
AcDbEllipse
 10
3.253967134158354
 20
8.523987550543575
 30
0.0
 11
-14.83345192343301
 21
0.0000000000007683
 31
0.0
210
0.0
220
0.0
230
1.0
 40
0.9646883165360208
 41
0.5303675532341173
 42
0.9384884834290092
  0
ELLIPSE
  5
4038
330
1F
100
AcDbEntity
  8
AM_0
 48
0.5
100
AcDbEllipse
 10
6.20249430390352
 20
-1.896159550335978
 30
0.0
 11
-11.70259079214476
 21
4.568567052980725
 31
0.0
210
0.0
220
0.0
230
1.0
 40
0.7701561852869144
 41
0.5805144664345501
 42
1.010154302109932
  0
SPLINE
  5
4039
330
1F
100
AcDbEntity
  8
AM_0
100
AcDbSpline
210
0.0
220
0.0
230
1.0
 70
     8
 71
     3
 72
    55
 73
    51
 74
     0
 42
0.0000000001
 43
0.0000000001
 40
0.0
 40
0.0
 40
0.0
 40
0.0
 40
1.010743684496582
 40
2.022833576467832
 40
3.037578957496688
 40
4.056212745003489
 40
5.079857003664532
 40
6.109500240690281
 40
7.145961322679372
 40
8.189895241603872
 40
9.241717795325891
 40
10.30168407291828
 40
11.36983447792315
 40
12.44600489715814
 40
13.52984294512926
 40
14.62081576220742
 40
15.7182257034828
 40
16.82123173843959
 40
17.92886860250316
 40
19.0400688939571
 40
20.15368796660465
 40
21.26852814259644
 40
22.38336992938901
 40
23.49698739941135
 40
24.6081876908653
 40
25.71582455492886
 40
26.81883757994213
 40
27.91624752121713
 40
29.00722033829659
 40
30.09105838626677
 40
31.16722880550176
 40
32.23537921050758
 40
33.29534548809967
 40
34.347168041821
 40
35.39108718934584
 40
36.42754827133493
 40
37.45720575381954
 40
38.48085062012849
 40
39.49948440763516
 40
40.51422944315121
 40
41.52631975251916
 40
42.53706336719636
 40
43.54780698187354
 40
44.55989729124051
 40
45.57464232675757
 40
46.59327611426424
 40
47.6169209805722
 40
48.64656348684535
 40
49.68302456883444
 40
50.58557219878025
 40
50.58557219878025
 40
50.58557219878025
 40
50.58557219878025
 10
-8.095019501994322
 20
-7.099999265862312
 30
0.0
 10
-8.508318066453409
 20
-7.095774937870319
 30
0.0
 10
-9.335465666895956
 20
-7.087320655512417
 30
0.0
 10
-10.57588605278183
 20
-7.019169648584582
 30
0.0
 10
-11.8162534897984
 20
-6.910827350598563
 30
0.0
 10
-13.05654416024817
 20
-6.758981499403324
 30
0.0
 10
-14.2967456879827
 20
-6.565689897410362
 30
0.0
 10
-15.53683360659872
 20
-6.33181208157063
 30
0.0
 10
-16.77681206413535
 20
-6.058923536212742
 30
0.0
 10
-18.01667006448965
 20
-5.748695300221316
 30
0.0
 10
-19.25639916196893
 20
-5.403032156145667
 30
0.0
 10
-20.49600553593743
 20
-5.024103795809508
 30
0.0
 10
-21.73549250630819
 20
-4.614229286755707
 30
0.0
 10
-22.97487555947808
 20
-4.175960201918359
 30
0.0
 10
-24.21416036980442
 20
-3.711989798725706
 30
0.0
 10
-25.45335842885037
 20
-3.225179428541803
 30
0.0
 10
-26.6924834794901
 20
-2.718532322591121
 30
0.0
 10
-27.93154639694669
 20
-2.195164120862899
 30
0.0
 10
-29.17055920646688
 20
-1.658293741393019
 30
0.0
 10
-30.40953516601426
 20
-1.111225557583731
 30
0.0
 10
-31.64848514258734
 20
-0.557322719803774
 30
0.0
 10
-32.88742663207898
 20
-0.0000007145195103
 30
0.0
 10
-34.12636255975996
 20
0.5573313229081755
 30
0.0
 10
-35.36531668902331
 20
1.111225534955843
 30
0.0
 10
-36.60429111903826
 20
1.658295374709377
 30
0.0
 10
-37.84330613770459
 20
2.19516779941611
 30
0.0
 10
-39.08237419538851
 20
2.718531534628195
 30
0.0
 10
-40.32150120169493
 20
3.225181209984643
 30
0.0
 10
-41.56069943963988
 20
3.711991185415527
 30
0.0
 10
-42.79998420487261
 20
4.175961686179411
 30
0.0
 10
-44.03936726121608
 20
4.614230771657862
 30
0.0
 10
-45.27885426315753
 20
5.024105182704484
 30
0.0
 10
-46.51846050918511
 20
5.403033929961361
 30
0.0
 10
-47.75818427876416
 20
5.748694021835874
 30
0.0
 10
-48.99803461202875
 20
6.058926321043183
 30
0.0
 10
-50.23801260959775
 20
6.331820353846414
 30
0.0
 10
-51.47810938285712
 20
6.565671457593011
 30
0.0
 10
-52.71831500786702
 20
6.75902288742291
 30
0.0
 10
-53.95860604599444
 20
6.910688744960705
 30
0.0
 10
-55.19897434485599
 20
7.01968896625511
 30
0.0
 10
-56.43939367901322
 20
7.085369656976322
 30
0.0
 10
-57.67984027063305
 20
7.107311402434566
 30
0.0
 10
-58.92028686042772
 20
7.085369656941987
 30
0.0
 10
-60.16070620007099
 20
7.019688966393247
 30
0.0
 10
-61.40107447873443
 20
6.910688744440756
 30
0.0
 10
-62.64136559258949
 20
6.759022889377636
 30
0.0
 10
-63.88156488667175
 20
6.565672392863282
 30
0.0
 10
-65.12165677442187
 20
6.33182274484793
 30
0.0
 10
-66.30525566340726
 20
6.071313982430203
 30
0.0
 10
-67.07318810178833
 20
5.880801461709327
 30
0.0
 10
-67.42946399485747
 20
5.7879554166016
 30
0.0
  0
SPLINE
  5
403A
330
1F
100
AcDbEntity
  8
AM_0
100
AcDbSpline
210
0.0
220
0.0
230
1.0
 70
     8
 71
     3
 72
    46
 73
    42
 74
     0
 42
0.0000000001
 43
0.0000000001
 40
0.0
 40
0.0
 40
0.0
 40
0.0
 40
1.685415058684571
 40
2.531036209541119
 40
3.379897699130121
 40
4.232934581347655
 40
5.090970612202441
 40
5.954688180526682
 40
6.824620803463246
 40
7.701151815239689
 40
8.584457046566678
 40
9.474582384070741
 40
10.37139106676737
 40
11.27458944007583
 40
12.18373345430765
 40
13.09824173870457
 40
14.01741343450111
 40
14.9404441545541
 40
15.86644439743314
 40
16.79446029130534
 40
17.7234937712985
 40
18.65252725129241
 40
19.58054314516461
 40
20.50654338804289
 40
21.42957410809586
 40
22.34874580389317
 40
23.26325408828901
 40
24.17239810252111
 40
25.07560240389441
 40
25.97241108659103
 40
26.8625364240951
 40
27.74584165542183
 40
28.62236045019041
 40
29.49229307312697
 40
30.35601064145121
 40
31.21404606334468
 40
32.06708345193547
 40
32.91595755657689
 40
33.76157841950693
 40
34.60498701064689
 40
35.44727335621125
 40
35.44727335621125
 40
35.44727335621125
 40
35.44727335621125
 10
-4.622685279514828
 20
-7.09999926586242
 30
0.0
 10
-5.449873293070941
 20
-7.083824917025896
 30
0.0
 10
-6.692085295165512
 20
-7.059535432747215
 30
0.0
 10
-8.343908765026
 20
-6.909989540259203
 30
0.0
 10
-9.584212761112169
 20
-6.75920749966044
 30
0.0
 10
-10.82441074073264
 20
-6.56562897225616
 30
0.0
 10
-12.0644994367813
 20
-6.331828041841128
 30
0.0
 10
-13.3044724786793
 20
-6.058922476042575
 30
0.0
 10
-14.54432778965812
 20
-5.748690081382241
 30
0.0
 10
-15.78405985192367
 20
-5.403035730687587
 30
0.0
 10
-17.02367114340304
 20
-5.024103300425291
 30
0.0
 10
-18.26315832991878
 20
-4.614229421014608
 30
0.0
 10
-19.50254132449565
 20
-4.175960165512583
 30
0.0
 10
-20.74182615078283
 20
-3.711989808731435
 30
0.0
 10
-21.98102420516001
 20
-3.225179425263387
 30
0.0
 10
-23.22014925837793
 20
-2.718532325632314
 30
0.0
 10
-24.45921217019122
 20
-2.195164111941501
 30
0.0
 10
-25.69822499980833
 20
-1.658293774206353
 30
0.0
 10
-26.93720088429729
 20
-1.111225434771381
 30
0.0
 10
-28.17615114178369
 20
-0.5573231793687816
 30
0.0
 10
-29.41509098443553
 20
0.0000007340255341
 30
0.0
 10
-30.65403082681516
 20
0.5573246480971111
 30
0.0
 10
-31.89298108511796
 20
1.111226901468918
 30
0.0
 10
-33.13195696662286
 20
1.658295248325534
 30
0.0
 10
-34.37096980730505
 20
2.195165558536505
 30
0.0
 10
-35.61003267809002
 20
2.718533874284177
 30
0.0
 10
-36.84915788324983
 20
3.225180595962808
 30
0.0
 10
-38.08835806955981
 20
3.711993435785455
 30
0.0
 10
-39.32764771110994
 20
4.17595957716071
 30
0.0
 10
-40.56703291655615
 20
4.614231079957391
 30
0.0
 10
-41.80652007421309
 20
5.024105081327366
 30
0.0
 10
-43.04612627351011
 20
5.403034029524453
 30
0.0
 10
-44.28585007569585
 20
5.748693727199106
 30
0.0
 10
-45.52570032566847
 20
6.058927389192722
 30
0.0
 10
-46.76567264993521
 20
6.331815100076432
 30
0.0
 10
-48.00576225514101
 20
6.565683841974469
 30
0.0
 10
-49.24596814980067
 20
6.758985936759418
 30
0.0
 10
-50.48626575491478
 20
6.910829454834573
 30
0.0
 10
-51.72664009663812
 20
7.01916180949069
 30
0.0
 10
-52.96705946302743
 20
7.087331207035421
 30
0.0
 10
-53.79420740987074
 20
7.095779433230277
 30
0.0
 10
-54.20750604784958
 20
7.100000734139017
 30
0.0
  0
SPLINE
  5
403B
330
1F
100
AcDbEntity
  8
AM_0
100
AcDbSpline
210
0.0
220
0.0
230
1.0
 70
     8
 71
     3
 72
    23
 73
    19
 74
     0
 42
0.0000000001
 43
0.0000000001
 40
16.03460024169435
 40
16.03460024169435
 40
16.03460024169435
 40
16.03460024169435
 40
16.35212704903564
 40
17.38177054169784
 40
18.41822485651776
 40
19.46214173629503
 40
20.51396345435107
 40
21.57393551351153
 40
22.64208202342361
 40
23.7182574881101
 40
24.80209208578934
 40
25.89306333925047
 40
26.99048218457928
 40
28.09348763352352
 40
29.20111863782268
 40
30.31232390128032
 40
31.42594612798585
 40
32.5407912310448
 40
32.5407912310486
 40
32.5407912310486
 40
32.5407912310486
 10
-72.59130416233222
 20
7.099999999999994
 30
0.0
 10
-72.46386621184936
 20
7.076031650307264
 30
0.0
 10
-71.92372817945157
 20
6.971656233435133
 30
0.0
 10
-70.9722692184948
 20
6.767148533770986
 30
0.0
 10
-69.74012737328141
 20
6.463047820844817
 30
0.0
 10
-68.50912999936979
 20
6.12159340868579
 30
0.0
 10
-67.27920435614354
 20
5.744761461271566
 30
0.0
 10
-66.05030679136191
 20
5.334652825145141
 30
0.0
 10
-64.82236627769085
 20
4.893611854218811
 30
0.0
 10
-63.59529730602024
 20
4.42420529631452
 30
0.0
 10
-62.36903014988394
 20
3.929091373401537
 30
0.0
 10
-61.14346649499749
 20
3.411151038033161
 30
0.0
 10
-59.91850702313166
 20
2.873394783213819
 30
0.0
 10
-58.69407011873066
 20
2.318914481966854
 30
0.0
 10
-57.47005333464591
 20
1.750934361311031
 30
0.0
 10
-56.24634330100007
 20
1.172771008448333
 30
0.0
 10
-55.02284037325285
 20
0.5877747234474859
 30
0.0
 10
-54.20739084306111
 20
0.1955667016206761
 30
0.0
 10
-53.79944369984814
 20
-0.0006475591793473
 30
0.0
  0
LINE
  5
403C
330
1F
100
AcDbEntity
  8
AM_11
 48
0.5
100
AcDbLine
 10
-72.59130416233223
 20
7.099999999999996
 30
0.0
 11
-57.67981078646516
 21
7.099999999999996
 31
0.0
  0
SPLINE
  5
403D
330
1F
100
AcDbEntity
  8
AM_0
 48
0.5
100
AcDbSpline
210
0.0
220
0.0
230
1.0
 70
     8
 71
     3
 72
    22
 73
    18
 74
     0
 42
0.0000000001
 43
0.0000000001
 40
0.0
 40
0.0
 40
0.0
 40
0.0
 40
1.010743684496582
 40
2.022833993863546
 40
3.037578683882831
 40
4.056212471389632
 40
5.079857945358201
 40
6.109499720892564
 40
7.145961650132166
 40
8.189873411961459
 40
9.241710626092514
 40
10.30166235592959
 40
11.36982472628033
 40
12.44598212828784
 40
13.52983440361964
 40
14.62080578343036
 40
14.90544694398022
 40
14.90544694398022
 40
14.90544694398022
 40
14.90544694398022
 10
-55.45761744932331
 20
-7.1
 30
0.0
 10
-55.87112311990651
 20
-7.096138058708111
 30
0.0
 10
-56.69827104907824
 20
-7.087686300340277
 30
0.0
 10
-57.93869013523652
 20
-7.019516309165021
 30
0.0
 10
-59.17905891446181
 20
-6.911192250990604
 30
0.0
 10
-60.41935024441756
 20
-6.759346259815444
 30
0.0
 10
-61.65954839425576
 20
-6.566036624556972
 30
0.0
 10
-62.89964042585808
 20
-6.332178468145108
 30
0.0
 10
-64.13960816747499
 20
-6.059283421536982
 30
0.0
 10
-65.37946014555732
 20
-5.749044414336589
 30
0.0
 10
-66.61918519341316
 20
-5.40339852703997
 30
0.0
 10
-67.85878978972395
 20
-5.024449399451954
 30
0.0
 10
-69.09828192538459
 20
-4.614608458129036
 30
0.0
 10
-70.3376606693911
 20
-4.176312190117501
 30
0.0
 10
-71.576949240044
 20
-3.712352741084684
 30
0.0
 10
-72.50836120786177
 20
-3.346470516966558
 30
0.0
 10
-73.02737645922736
 20
-3.137343998628352
 30
0.0
 10
-73.13469155463876
 20
-3.09388936956191
 30
0.0
  0
SPLINE
  5
403E
330
1F
100
AcDbEntity
  8
AM_0
100
AcDbSpline
210
0.0
220
0.0
230
1.0
 70
     8
 71
     3
 72
    13
 73
     9
 74
     0
 42
0.0000000001
 43
0.0000000001
 40
16.03460056234195
 40
16.03460056234195
 40
16.03460056234195
 40
16.03460056234195
 40
16.35212717791071
 40
17.38177067057215
 40
18.41822498539278
 40
19.46214186516937
 40
20.5139635832251
 40
21.34083983469381
 40
21.34083983469381
 40
21.34083983469381
 40
21.34083983469381
 10
-72.95803961488665
 20
-7.099999999999999
 30
0.0
 10
-72.69614854011933
 20
-7.077039194578697
 30
0.0
 10
-72.15601006076842
 20
-6.9726666414315
 30
0.0
 10
-71.20455161846662
 20
-6.768156554091991
 30
0.0
 10
-69.97240961819371
 20
-6.46405668436432
 30
0.0
 10
-68.74141228627535
 20
-6.122602043852925
 30
0.0
 10
-67.6023347939455
 20
-5.773604754790579
 30
0.0
 10
-66.87562341288497
 20
-5.533295284423155
 30
0.0
 10
-66.55681948550058
 20
-5.424673214116785
 30
0.0
  0
LINE
  5
403F
330
1F
100
AcDbEntity
  8
AM_11
 48
0.5
100
AcDbLine
 10
-72.95804597473521
 20
-7.099999951459182
 30
0.0
 11
-56.28414233553634
 21
-7.099999265861193
 31
0.0
  0
VIEWPORT
  5
110
330
101
100
AcDbEntity
 67
     1
  8
0
100
AcDbViewport
 10
420.5
 20
297.0
 30
0.0
 40
948.9782706766916
 41
628.452
 68
     1
 69
     1
1001
ACAD
1000
MVIEW
1002
{
1070
    16
1010
0.0
1020
0.0
1030
0.0
1010
0.0
1020
0.0
1030
1.0
1040
0.0
1040
628.452
1040
420.5
1040
297.0
1040
50.0
1040
0.0
1040
0.0
1070
     0
1070
   100
1070
     1
1070
     1
1070
     0
1070
     0
1070
     0
1070
     0
1040
0.0
1040
0.0
1040
0.0
1040
10.0
1040
10.0
1040
10.0
1040
10.0
1070
     0
1002
{
1002
}
1002
}
  0
ENDSEC
  0
SECTION
  2
OBJECTS
  0
DICTIONARY
  5
C
330
0
100
AcDbDictionary
  3
ACAD_GROUP
350
D
  3
ACAD_LAYOUT
350
1A
  3
ACAD_MLINESTYLE
350
17
  3
ACAD_PLOTSETTINGS
350
19
  3
ACAD_PLOTSTYLENAME
350
E
  3
ACDBVARIABLEDICTIONARY
350
34
  3
ACMDICTIONARY
350
43
  3
AMG
350
2B
  3
AMGSNAPSETTINGS
350
6E
  3
DWGPROPS
350
40DD
  3
ACDBHEADERROUNDTRIPXREC
350
40E9
  0
DICTIONARY
  5
74
330
1F
100
AcDbDictionary
280
     1
  3
ACAD_INDEX
360
40DF
  3
ACAD_LAYOUTSELFREF
360
410C
  0
DICTIONARY
  5
4111
330
101
100
AcDbDictionary
280
     1
  3
ACAD_LAYOUTSELFREF
360
4112
  0
DICTIONARY
  5
D
102
{ACAD_REACTORS
330
C
102
}
330
C
100
AcDbDictionary
  0
DICTIONARY
  5
1A
102
{ACAD_REACTORS
330
C
102
}
330
C
100
AcDbDictionary
  0
DICTIONARY
  5
17
102
{ACAD_REACTORS
330
C
102
}
330
C
100
AcDbDictionary
  3
STANDARD
350
18
  0
DICTIONARY
  5
19
102
{ACAD_REACTORS
330
C
102
}
330
C
100
AcDbDictionary
  0
ACDBDICTIONARYWDFLT
  5
E
102
{ACAD_REACTORS
330
C
102
}
330
C
100
AcDbDictionary
281
     1
  3
Normal
350
F
100
AcDbDictionaryWithDefault
340
F
  0
DICTIONARY
  5
34
102
{ACAD_REACTORS
330
C
102
}
330
C
100
AcDbDictionary
  3
INDEXCTL
350
35
  3
SORTENTS
350
B5E
  0
DICTIONARY
  5
43
102
{ACAD_REACTORS
330
C
102
}
330
C
100
AcDbDictionary
  3
ACMSTDDICTIONARY
350
260
  0
DICTIONARY
  5
2B
102
{ACAD_REACTORS
330
C
102
}
330
C
100
AcDbDictionary
  3
ACMGSETTINGS
350
2C
  0
DICTIONARY
  5
6E
102
{ACAD_REACTORS
330
C
102
}
330
C
100
AcDbDictionary
  0
XRECORD
  5
40DD
102
{ACAD_REACTORS
330
C
102
}
330
C
100
AcDbXrecord
  1
DWGPROPS COOKIE
  2

  3

  4

  6

  7

  8

  9

300
AmdtFileType=82
301
=
302
=
303
=
304
=
305
=
306
=
307
=
308
=
309
=
 40
0.0888601041666667
 41
2452800.443498622
 42
2452946.637570891
  1

 90
        1
  0
DICTIONARY
  5
40E9
102
{ACAD_REACTORS
330
C
102
}
330
C
100
AcDbDictionary
  3
TSTACKALIGN
350
40EA
  3
TSTACKSIZE
350
40EB
  3
HYPERLINKBASE
350
40EC
  3
STYLESHEET
350
40ED
  3
LAYOUTDICT
350
40EE
  3
PLOTSETDICT
350
40EF
  3
PLOTSTYLNAMDICT
350
40F0
  3
LWETCUNION
350
40F1
  3
INSUNITS
350
40F2
  3
CEPSNTYPE
350
40F3
  3
FINGERPRINTGUID
350
40F4
  3
VERSIONGUID
350
40F5
  3
PSVPSCALE
350
40F6
  3
DIMSTYLEDATA
350
40F7
  3
PUCSORTHOREF
350
40F8
  3
PUCSORTHOVIEW
350
40F9
  3
PUCSBASE
350
40FA
  3
PUCSORGTOP
350
40FB
  3
PUCSORGBOTTOM
350
40FC
  3
PUCSORGLEFT
350
40FD
  3
PUCSORGRIGHT
350
40FE
  3
PUCSORGFRONT
350
40FF
  3
PUCSORGBACK
350
4100
  3
UCSORTHOREF
350
4101
  3
UCSORTHOVIEW
350
4102
  3
UCSBASE
350
4103
  3
UCSORGTOP
350
4104
  3
UCSORGBOTTOM
350
4105
  3
UCSORGLEFT
350
4106
  3
UCSORGRIGHT
350
4107
  3
UCSORGFRONT
350
4108
  3
UCSORGBACK
350
4109
  0
DICTIONARY
  5
40DF
102
{ACAD_REACTORS
330
74
102
}
330
74
100
AcDbDictionary
  3
*A1
350
40E0
  0
XRECORD
  5
410C
102
{ACAD_REACTORS
330
74
102
}
330
74
100
AcDbXrecord
340
1F
  0
XRECORD
  5
4112
102
{ACAD_REACTORS
330
4111
102
}
330
4111
100
AcDbXrecord
340
101
  0
MLINESTYLE
  5
18
102
{ACAD_REACTORS
330
17
102
}
330
17
100
AcDbMlineStyle
  2
STANDARD
 70
     0
  3

 62
   256
 51
90.0
 52
90.0
 71
     2
 49
0.5
 62
   256
  6
BYLAYER
 49
-0.5
 62
   256
  6
BYLAYER
  0
ACDBPLACEHOLDER
  5
F
102
{ACAD_REACTORS
330
E
102
}
330
E
100
AcDbPlaceHolder
280
     0
  0
DICTIONARYVAR
  5
35
102
{ACAD_REACTORS
330
34
102
}
330
34
100
DictionaryVariables
280
     0
  1
1
  0
DICTIONARYVAR
  5
B5E
102
{ACAD_REACTORS
330
34
102
}
330
34
100
DictionaryVariables
280
     0
  1
96
  0
DICTIONARY
  5
260
102
{ACAD_REACTORS
330
43
102
}
330
43
100
AcDbDictionary
  0
DICTIONARY
  5
2C
102
{ACAD_REACTORS
330
2B
102
}
330
2B
100
AcDbDictionary
  3
DWGSETTINGS
350
2D
  0
XRECORD
  5
40EA
102
{ACAD_REACTORS
330
40E9
102
}
330
40E9
100
AcDbXrecord
 90
        1
  0
XRECORD
  5
40EB
102
{ACAD_REACTORS
330
40E9
102
}
330
40E9
100
AcDbXrecord
 90
       70
  0
XRECORD
  5
40EC
102
{ACAD_REACTORS
330
40E9
102
}
330
40E9
100
AcDbXrecord
  1

  0
XRECORD
  5
40ED
102
{ACAD_REACTORS
330
40E9
102
}
330
40E9
100
AcDbXrecord
  1
ASAMI.ctb
  0
XRECORD
  5
40EE
102
{ACAD_REACTORS
330
40E9
102
}
330
40E9
100
AcDbXrecord
340
1A
  0
XRECORD
  5
40EF
102
{ACAD_REACTORS
330
40E9
102
}
330
40E9
100
AcDbXrecord
340
19
  0
XRECORD
  5
40F0
102
{ACAD_REACTORS
330
40E9
102
}
330
40E9
100
AcDbXrecord
340
E
  0
XRECORD
  5
40F1
102
{ACAD_REACTORS
330
40E9
102
}
330
40E9
100
AcDbXrecord
 90
    10781
  0
XRECORD
  5
40F2
102
{ACAD_REACTORS
330
40E9
102
}
330
40E9
100
AcDbXrecord
 90
        4
  0
XRECORD
  5
40F3
102
{ACAD_REACTORS
330
40E9
102
}
330
40E9
100
AcDbXrecord
 90
        0
  0
XRECORD
  5
40F4
102
{ACAD_REACTORS
330
40E9
102
}
330
40E9
100
AcDbXrecord
  1
{AFB28963-8C59-40AE-9337-C84526B81ACE}
  0
XRECORD
  5
40F5
102
{ACAD_REACTORS
330
40E9
102
}
330
40E9
100
AcDbXrecord
  1
{1A8A949B-1C6B-44D0-A7AA-4B8B2E2325E3}
  0
XRECORD
  5
40F6
102
{ACAD_REACTORS
330
40E9
102
}
330
40E9
100
AcDbXrecord
 40
0.0
  0
XRECORD
  5
40F7
102
{ACAD_REACTORS
330
40E9
102
}
330
40E9
100
AcDbXrecord
1000
DSTYLE
1002
{
1070
    79
 70
     2
1070
   341
340
59
1070
   342
340
59
1070
   371
 70
    -1
1070
   372
 70
    -1
1002
}
  0
XRECORD
  5
40F8
102
{ACAD_REACTORS
330
40E9
102
}
330
40E9
100
AcDbXrecord
340
0
  0
XRECORD
  5
40F9
102
{ACAD_REACTORS
330
40E9
102
}
330
40E9
100
AcDbXrecord
 70
     0
  0
XRECORD
  5
40FA
102
{ACAD_REACTORS
330
40E9
102
}
330
40E9
100
AcDbXrecord
340
0
  0
XRECORD
  5
40FB
102
{ACAD_REACTORS
330
40E9
102
}
330
40E9
100
AcDbXrecord
 10
0.0
 20
0.0
 30
0.0
  0
XRECORD
  5
40FC
102
{ACAD_REACTORS
330
40E9
102
}
330
40E9
100
AcDbXrecord
 10
0.0
 20
0.0
 30
0.0
  0
XRECORD
  5
40FD
102
{ACAD_REACTORS
330
40E9
102
}
330
40E9
100
AcDbXrecord
 10
0.0
 20
0.0
 30
0.0
  0
XRECORD
  5
40FE
102
{ACAD_REACTORS
330
40E9
102
}
330
40E9
100
AcDbXrecord
 10
0.0
 20
0.0
 30
0.0
  0
XRECORD
  5
40FF
102
{ACAD_REACTORS
330
40E9
102
}
330
40E9
100
AcDbXrecord
 10
0.0
 20
0.0
 30
0.0
  0
XRECORD
  5
4100
102
{ACAD_REACTORS
330
40E9
102
}
330
40E9
100
AcDbXrecord
 10
0.0
 20
0.0
 30
0.0
  0
XRECORD
  5
4101
102
{ACAD_REACTORS
330
40E9
102
}
330
40E9
100
AcDbXrecord
340
0
  0
XRECORD
  5
4102
102
{ACAD_REACTORS
330
40E9
102
}
330
40E9
100
AcDbXrecord
 70
     0
  0
XRECORD
  5
4103
102
{ACAD_REACTORS
330
40E9
102
}
330
40E9
100
AcDbXrecord
340
0
  0
XRECORD
  5
4104
102
{ACAD_REACTORS
330
40E9
102
}
330
40E9
100
AcDbXrecord
 10
0.0
 20
0.0
 30
0.0
  0
XRECORD
  5
4105
102
{ACAD_REACTORS
330
40E9
102
}
330
40E9
100
AcDbXrecord
 10
0.0
 20
0.0
 30
0.0
  0
XRECORD
  5
4106
102
{ACAD_REACTORS
330
40E9
102
}
330
40E9
100
AcDbXrecord
 10
0.0
 20
0.0
 30
0.0
  0
XRECORD
  5
4107
102
{ACAD_REACTORS
330
40E9
102
}
330
40E9
100
AcDbXrecord
 10
0.0
 20
0.0
 30
0.0
  0
XRECORD
  5
4108
102
{ACAD_REACTORS
330
40E9
102
}
330
40E9
100
AcDbXrecord
 10
0.0
 20
0.0
 30
0.0
  0
XRECORD
  5
4109
102
{ACAD_REACTORS
330
40E9
102
}
330
40E9
100
AcDbXrecord
 10
0.0
 20
0.0
 30
0.0
  0
LAYER_INDEX
  5
40E0
102
{ACAD_REACTORS
330
40DF
102
}
330
40DF
100
AcDbIndex
 40
2453151.56485802
100
AcDbLayerIndex
  8
0
360
40E1
 90
        0
  8
AM_0
360
40E2
 90
       44
  8
AM_7
360
40E3
 90
        1
  8
AM_11
360
40E4
 90
       15
  8
AM_5
360
40E5
 90
        5
  8
Defpoints
360
40E6
 90
        0
  8
AM_6
360
40E7
 90
        1
  0
XRECORD
  5
2D
102
{ACAD_REACTORS
330
2C
102
}
330
2C
100
AcDbXrecord
  1
VERSION
140
15.0
  1
PRODUCT
  2
AutoCAD Mechanical 2000
  0
IDBUFFER
  5
40E1
330
0
100
AcDbIdBuffer
  0
IDBUFFER
  5
40E2
330
0
100
AcDbIdBuffer
330
4020
330
4021
330
4022
330
4023
330
4024
330
4025
330
4026
330
4027
330
4028
330
4029
330
402A
330
402D
330
402E
330
402F
330
4030
330
4031
330
4032
330
4033
330
4034
330
4035
330
4036
330
4037
330
4038
330
4039
330
403A
330
403B
330
403D
330
403E
330
C1D
330
C20
330
24A7
330
24BE
330
2C0E
330
2FB7
330
2FB9
330
324C
330
325C
330
325D
330
325E
330
3921
330
3924
330
3976
330
3977
330
401F
  0
IDBUFFER
  5
40E3
330
0
100
AcDbIdBuffer
330
23EF
  0
IDBUFFER
  5
40E4
330
0
100
AcDbIdBuffer
330
24B7
330
24B8
330
24B9
330
24C7
330
24C8
330
24D4
330
24D5
330
24E6
330
24E7
330
2BF3
330
2BF5
330
402B
330
402C
330
403C
330
403F
  0
IDBUFFER
  5
40E5
330
0
100
AcDbIdBuffer
330
CC6
330
2069
330
2D60
330
3C5B
330
3D2F
  0
IDBUFFER
  5
40E6
330
0
100
AcDbIdBuffer
  0
IDBUFFER
  5
40E7
330
0
100
AcDbIdBuffer
330
19BD
  0
ENDSEC
  0
EOF
