  0
SECTION
  2
HEADER
  9
$ACADVER
  1
AC1014
  9
$ACADMAINTVER
 70
     9
  9
$DWGCODEPAGE
  3
ANSI_932
  9
$INSBASE
 10
0.0
 20
0.0
 30
0.0
  9
$EXTMIN
 10
-209.3000009999999
 20
-54.00000305448108
 30
-0.00000001
  9
$EXTMAX
 10
26.0065689429715
 20
25.37785115758552
 30
0.00000001
  9
$LIMMIN
 10
-212.4283160478946
 20
-92.01098889734623
  9
$LIMMAX
 10
49.45840178964954
 20
64.30738472477009
  9
$ORTHOMODE
 70
     0
  9
$REGENMODE
 70
     1
  9
$FILLMODE
 70
     1
  9
$QTEXTMODE
 70
     0
  9
$MIRRTEXT
 70
     0
  9
$DRAGMODE
 70
     2
  9
$LTSCALE
 40
1.0
  9
$OSMODE
 70
    55
  9
$ATTMODE
 70
     1
  9
$TEXTSIZE
 40
2.5
  9
$TRACEWID
 40
1.0
  9
$TEXTSTYLE
  7
STANDARD
  9
$CLAYER
  8
AM_0
  9
$CELTYPE
  6
BYLAYER
  9
$CECOLOR
 62
   256
  9
$CELTSCALE
 40
1.0
  9
$DELOBJ
 70
     1
  9
$DISPSILH
 70
     0
  9
$DIMSCALE
 40
1.0
  9
$DIMASZ
 40
2.5
  9
$DIMEXO
 40
1.0
  9
$DIMDLI
 40
12.0
  9
$DIMRND
 40
0.0
  9
$DIMDLE
 40
0.0
  9
$DIMEXE
 40
1.0
  9
$DIMTP
 40
0.1
  9
$DIMTM
 40
0.1
  9
$DIMTXT
 40
3.2
  9
$DIMCEN
 40
0.0
  9
$DIMTSZ
 40
0.0
  9
$DIMTOL
 70
     0
  9
$DIMLIM
 70
     0
  9
$DIMTIH
 70
     0
  9
$DIMTOH
 70
     0
  9
$DIMSE1
 70
     0
  9
$DIMSE2
 70
     0
  9
$DIMTAD
 70
     3
  9
$DIMZIN
 70
     8
  9
$DIMBLK
  1
OPEN30
  9
$DIMASO
 70
     1
  9
$DIMSHO
 70
     1
  9
$DIMPOST
  1

  9
$DIMAPOST
  1
"
  9
$DIMALT
 70
     0
  9
$DIMALTD
 70
     2
  9
$DIMALTF
 40
0.0393701
  9
$DIMLFAC
 40
1.0
  9
$DIMTOFL
 70
     1
  9
$DIMTVP
 40
0.0
  9
$DIMTIX
 70
     0
  9
$DIMSOXD
 70
     0
  9
$DIMSAH
 70
     0
  9
$DIMBLK1
  1

  9
$DIMBLK2
  1

  9
$DIMSTYLE
  2
AM_JIS
  9
$DIMCLRD
 70
   256
  9
$DIMCLRE
 70
   256
  9
$DIMCLRT
 70
     2
  9
$DIMTFAC
 40
0.71
  9
$DIMGAP
 40
1.5
  9
$DIMJUST
 70
     0
  9
$DIMSD1
 70
     0
  9
$DIMSD2
 70
     0
  9
$DIMTOLJ
 70
     0
  9
$DIMTZIN
 70
     0
  9
$DIMALTZ
 70
     0
  9
$DIMALTTZ
 70
     0
  9
$DIMFIT
 70
     3
  9
$DIMUPT
 70
     0
  9
$DIMUNIT
 70
     2
  9
$DIMDEC
 70
     3
  9
$DIMTDEC
 70
     3
  9
$DIMALTU
 70
     2
  9
$DIMALTTD
 70
     2
  9
$DIMTXSTY
  7
ASAMI
  9
$DIMAUNIT
 70
     0
  9
$LUNITS
 70
     2
  9
$LUPREC
 70
     2
  9
$SKETCHINC
 40
1.0
  9
$FILLETRAD
 40
2.5
  9
$AUNITS
 70
     0
  9
$AUPREC
 70
     0
  9
$MENU
  1
.
  9
$ELEVATION
 40
0.0
  9
$PELEVATION
 40
0.0
  9
$THICKNESS
 40
0.0
  9
$LIMCHECK
 70
     0
  9
$BLIPMODE
 70
     0
  9
$CHAMFERA
 40
0.5
  9
$CHAMFERB
 40
0.5
  9
$CHAMFERC
 40
20.0
  9
$CHAMFERD
 40
0.0
  9
$SKPOLY
 70
     0
  9
$TDCREATE
 40
2452800.443498622
  9
$TDUPDATE
 40
2453151.669576990
  9
$TDINDWG
 40
0.2403589815
  9
$TDUSRTIMER
 40
0.2403589815
  9
$USRTIMER
 70
     1
  9
$ANGBASE
 50
0.0
  9
$ANGDIR
 70
     0
  9
$PDMODE
 70
     3
  9
$PDSIZE
 40
0.0
  9
$PLINEWID
 40
0.0
  9
$COORDS
 70
     1
  9
$SPLFRAME
 70
     0
  9
$SPLINETYPE
 70
     6
  9
$SPLINESEGS
 70
     8
  9
$ATTDIA
 70
     1
  9
$ATTREQ
 70
     1
  9
$HANDLING
 70
 12289
  9
$HANDSEED
  5
46FB
  9
$SURFTAB1
 70
     6
  9
$SURFTAB2
 70
     6
  9
$SURFTYPE
 70
     6
  9
$SURFU
 70
     6
  9
$SURFV
 70
     6
  9
$UCSNAME
  2

  9
$UCSORG
 10
0.0
 20
0.0
 30
0.0
  9
$UCSXDIR
 10
1.0
 20
0.0000000000000027
 30
0.0
  9
$UCSYDIR
 10
-0.0000000000000027
 20
1.0
 30
0.0
  9
$PUCSNAME
  2

  9
$PUCSORG
 10
0.0
 20
0.0
 30
0.0
  9
$PUCSXDIR
 10
1.0
 20
0.0
 30
0.0
  9
$PUCSYDIR
 10
0.0
 20
1.0
 30
0.0
  9
$USERI1
 70
     0
  9
$USERI2
 70
     0
  9
$USERI3
 70
     0
  9
$USERI4
 70
     0
  9
$USERI5
 70
     0
  9
$USERR1
 40
0.0
  9
$USERR2
 40
0.0
  9
$USERR3
 40
0.0
  9
$USERR4
 40
0.0
  9
$USERR5
 40
0.0
  9
$WORLDVIEW
 70
     1
  9
$SHADEDGE
 70
     3
  9
$SHADEDIF
 70
    70
  9
$TILEMODE
 70
     1
  9
$MAXACTVP
 70
    64
  9
$PINSBASE
 10
0.0
 20
0.0
 30
0.0
  9
$PLIMCHECK
 70
     0
  9
$PEXTMIN
 10
1.000000000000000E+20
 20
1.000000000000000E+20
 30
1.000000000000000E+20
  9
$PEXTMAX
 10
-1.000000000000000E+20
 20
-1.000000000000000E+20
 30
-1.000000000000000E+20
  9
$PLIMMIN
 10
0.0
 20
0.0
  9
$PLIMMAX
 10
841.0
 20
594.0
  9
$UNITMODE
 70
     0
  9
$VISRETAIN
 70
     1
  9
$PLINEGEN
 70
     0
  9
$PSLTSCALE
 70
     0
  9
$TREEDEPTH
 70
  3020
  9
$PICKSTYLE
 70
     0
  9
$CMLSTYLE
  2
STANDARD
  9
$CMLJUST
 70
     0
  9
$CMLSCALE
 40
20.0
  9
$PROXYGRAPHICS
 70
     1
  9
$MEASUREMENT
 70
     1
  0
ENDSEC
  0
SECTION
  2
CLASSES
  0
CLASS
  1
ACDBDICTIONARYWDFLT
  2
AcDbDictionaryWithDefault
  3
AutoCAD 2000
 90
        0
280
     0
281
     0
  0
CLASS
  1
ACDBPLACEHOLDER
  2
AcDbPlaceHolder
  3
AutoCAD 2000
 90
        0
280
     0
281
     0
  0
CLASS
  1
LAYOUT
  2
AcDbLayout
  3
AutoCAD 2000
 90
        0
280
     0
281
     0
  0
CLASS
  1
AMGSETTINGSOBJ
  2
AmgSettingsObj
  3
"AcadM|Product Description: AutoCAD Mechanical 2000|Company: Autodesk"
 90
        0
280
     0
281
     0
  0
CLASS
  1
ACME_DOCUMENT
  2
AcMeDbDoc
  3
AcMeServices
 90
        0
280
     0
281
     0
  0
CLASS
  1
ACMESCOPE
  2
AcMeScope
  3
AcMeServices
 90
        0
280
     0
281
     0
  0
CLASS
  1
ACMECOMMANDHISTORY
  2
AcMeCommandHistory
  3
AcMeServices
 90
        0
280
     0
281
     0
  0
CLASS
  1
DICTIONARYVAR
  2
AcDbDictionaryVar
  3
AutoCAD 2000
 90
        0
280
     0
281
     0
  0
CLASS
  1
ACIMSYSVARMAN
  2
AcImSysVarManager
  3
AcMeServices
 90
        0
280
     0
281
     0
  0
CLASS
  1
ACIMREALSYSVAR
  2
AcImRealSysVar
  3
AcMeServices
 90
        0
280
     0
281
     0
  0
CLASS
  1
ACIMINTSYSVAR
  2
AcImIntSysVar
  3
AcMeServices
 90
        0
280
     0
281
     0
  0
CLASS
  1
ACMEDRAWINGMAN
  2
AcMeDrawingMan
  3
AcMeServices
 90
        0
280
     0
281
     0
  0
CLASS
  1
ACMEVIEW
  2
AcMeView
  3
AcMeServices
 90
        0
280
     0
281
     0
  0
CLASS
  1
ACDBENTITYCACHE
  2
AcMeEntityCache
  3
AcMeServices
 90
        0
280
     0
281
     0
  0
CLASS
  1
GSMANAGER
  2
AcMeGSManager
  3
AcMeServices
 90
        0
280
     0
281
     0
  0
CLASS
  1
AmdtInternalReactor
  2
AmdtInternalReactor
  3
AcMeServices
 90
        0
280
     0
281
     0
  0
CLASS
  1
ACMESTATEMGR
  2
AcMeStateMgr
  3
AcMeServices
 90
        0
280
     0
281
     0
  0
CLASS
  1
ACME_DATABASE
  2
AcMeDbDatabase
  3
AcMeServices
 90
        0
280
     0
281
     0
  0
CLASS
  1
ACRFINSADJUSTERMGR
  2
AcRfInsAdjusterMgr
  3
AcMeServices
 90
        0
280
     0
281
     0
  0
CLASS
  1
ACMDATADICTIONARY
  2
AcmDataDictionary
  3
"AcmSymBB|Product Description: AutoCAD Mechanical 2000|Company: Autodesk"
 90
        0
280
     0
281
     0
  0
CLASS
  1
ACMDATAENTRYBLOCK
  2
AcmDataEntryBlock
  3
"AcmSymBB|Product Description: AutoCAD Mechanical 2000|Company: Autodesk"
 90
        0
280
     0
281
     0
  0
CLASS
  1
AMGOBJPROPCFG
  2
AmgObjPropCfg
  3
"AmgLay|Product Description: AutoCAD Mechanical 2000|Company: Autodesk"
 90
        1
280
     0
281
     0
  0
CLASS
  1
ACAMGFILTERDAT
  2
AcAmgFilterDat
  3
"AcadM|Product Description: AutoCAD Mechanical 2000|Company: Autodesk"
 90
        0
280
     0
281
     0
  0
CLASS
  1
LAYER_INDEX
  2
AcDbLayerIndex
  3
AutoCAD 2000
 90
        0
280
     0
281
     0
  0
CLASS
  1
IDBUFFER
  2
AcDbIdBuffer
  3
AutoCAD 2000
 90
        0
280
     0
281
     0
  0
CLASS
  1
ACIMSTRSYSVAR
  2
AcImStrSysVar
  3
AcMeServices
 90
        0
280
     0
281
     0
  0
CLASS
  1
ACMSTANDARDJIS
  2
AcmStandardJIS
  3
"AcmSymBB|Product Description: AutoCAD Mechanical 2000|Company: Autodesk"
 90
        0
280
     0
281
     0
  0
CLASS
  1
ACMSURFSTANDARDJIS
  2
AcmSurfTextStdJIS
  3
"AcmSymBB|Product Description: AutoCAD Mechanical 2000|Company: Autodesk"
 90
        0
280
     0
281
     0
  0
CLASS
  1
ACMFCFSTANDARDJIS
  2
AcmFCFStdJIS
  3
"AcmSymBB|Product Description: AutoCAD Mechanical 2000|Company: Autodesk"
 90
        0
280
     0
281
     0
  0
CLASS
  1
ACMWELDSTANDARDJIS
  2
AcmWeldingStdJIS
  3
"AcmSymBB|Product Description: AutoCAD Mechanical 2000|Company: Autodesk"
 90
        0
280
     0
281
     0
  0
CLASS
  1
ACMIDSTANDARDJIS
  2
AcmIdStdJIS
  3
"AcmSymBB|Product Description: AutoCAD Mechanical 2000|Company: Autodesk"
 90
        0
280
     0
281
     0
  0
CLASS
  1
ACMDATUMSTANDARDJIS
  2
AcmDatumStdJIS
  3
"AcmSymBB|Product Description: AutoCAD Mechanical 2000|Company: Autodesk"
 90
        0
280
     0
281
     0
  0
CLASS
  1
ACMBOMSTANDARDJIS
  2
AcmBOMStdJIS
  3
"AcmSymBB|Product Description: AutoCAD Mechanical 2000|Company: Autodesk"
 90
        0
280
     0
281
     0
  0
CLASS
  1
ACMSTANDARDANSI
  2
AcmStandardANSI
  3
"AcmSymBB|Product Description: AutoCAD Mechanical 2000|Company: Autodesk"
 90
        0
280
     0
281
     0
  0
CLASS
  1
ACMSURFSTANDARDANSI
  2
AcmSurfTextStdANSI
  3
"AcmSymBB|Product Description: AutoCAD Mechanical 2000|Company: Autodesk"
 90
        0
280
     0
281
     0
  0
CLASS
  1
ACMFCFSTANDARDANSI
  2
AcmFCFStdANSI
  3
"AcmSymBB|Product Description: AutoCAD Mechanical 2000|Company: Autodesk"
 90
        0
280
     0
281
     0
  0
CLASS
  1
ACMWELDSTANDARDANSI
  2
AcmWeldingStdANSI
  3
"AcmSymBB|Product Description: AutoCAD Mechanical 2000|Company: Autodesk"
 90
        0
280
     0
281
     0
  0
CLASS
  1
ACMIDSTANDARDANSI
  2
AcmIdStdANSI
  3
"AcmSymBB|Product Description: AutoCAD Mechanical 2000|Company: Autodesk"
 90
        0
280
     0
281
     0
  0
CLASS
  1
ACMDATUMSTANDARDANSI
  2
AcmDatumStdANSI
  3
"AcmSymBB|Product Description: AutoCAD Mechanical 2000|Company: Autodesk"
 90
        0
280
     0
281
     0
  0
CLASS
  1
ACMBOMSTANDARDANSI
  2
AcmBOMStdANSI
  3
"AcmSymBB|Product Description: AutoCAD Mechanical 2000|Company: Autodesk"
 90
        0
280
     0
281
     0
  0
CLASS
  1
ACMSTANDARDBSI
  2
AcmStandardBSI
  3
"AcmSymBB|Product Description: AutoCAD Mechanical 2000|Company: Autodesk"
 90
        0
280
     0
281
     0
  0
CLASS
  1
ACMSURFSTANDARDBSI
  2
AcmSurfTextStdBSI
  3
"AcmSymBB|Product Description: AutoCAD Mechanical 2000|Company: Autodesk"
 90
        0
280
     0
281
     0
  0
CLASS
  1
ACMFCFSTANDARDBSI
  2
AcmFCFStdBSI
  3
"AcmSymBB|Product Description: AutoCAD Mechanical 2000|Company: Autodesk"
 90
        0
280
     0
281
     0
  0
CLASS
  1
ACMWELDSTANDARDBSI
  2
AcmWeldingStdBSI
  3
"AcmSymBB|Product Description: AutoCAD Mechanical 2000|Company: Autodesk"
 90
        0
280
     0
281
     0
  0
CLASS
  1
ACMIDSTANDARDBSI
  2
AcmIdStdBSI
  3
"AcmSymBB|Product Description: AutoCAD Mechanical 2000|Company: Autodesk"
 90
        0
280
     0
281
     0
  0
CLASS
  1
ACMDATUMSTANDARDBSI
  2
AcmDatumStdBSI
  3
"AcmSymBB|Product Description: AutoCAD Mechanical 2000|Company: Autodesk"
 90
        0
280
     0
281
     0
  0
CLASS
  1
ACMBOMSTANDARDBSI
  2
AcmBOMStdBSI
  3
"AcmSymBB|Product Description: AutoCAD Mechanical 2000|Company: Autodesk"
 90
        0
280
     0
281
     0
  0
CLASS
  1
LONG_TRANSACTION
  2
AcDbLongTransaction
  3
AutoCAD 2000
 90
        0
280
     0
281
     0
  0
CLASS
  1
LWPOLYLINE
  2
AcDbPolyline
  3
AutoCAD 2000
 90
        0
280
     0
281
     1
  0
CLASS
  1
HATCH
  2
AcDbHatch
  3
AutoCAD 2000
 90
        0
280
     0
281
     1
  0
CLASS
  1
XRECORD
  2
AcDbXrecord
  3
AutoCAD 2000
 90
        0
280
     0
281
     0
  0
ENDSEC
  0
SECTION
  2
TABLES
  0
TABLE
  2
VPORT
  5
8
330
0
100
AcDbSymbolTable
 70
     3
  0
VPORT
  5
46C5
330
8
100
AcDbSymbolTableRecord
100
AcDbViewportTableRecord
  2
*ACTIVE
 70
     0
 10
0.0
 20
0.0
 11
1.0
 21
1.0
 12
-87.29442053926566
 22
-14.31095832263142
 13
0.0
 23
0.0
 14
2.5
 24
2.5
 15
10.0
 25
10.0
 16
0.0
 26
0.0
 36
1.0
 17
0.0
 27
0.0
 37
0.0
 40
156.6193236025755
 41
1.56570841889117
 42
50.0
 43
0.0
 44
0.0
 50
0.0
 51
0.0
 71
     0
 72
   100
 73
     1
 74
     1
 75
     0
 76
     0
 77
     0
 78
     0
  0
ENDTAB
  0
TABLE
  2
LTYPE
  5
5
330
0
100
AcDbSymbolTable
 70
    10
  0
LTYPE
  5
14
330
5
100
AcDbSymbolTableRecord
100
AcDbLinetypeTableRecord
  2
BYBLOCK
 70
     0
  3

 72
    65
 73
     0
 40
0.0
  0
LTYPE
  5
15
330
5
100
AcDbSymbolTableRecord
100
AcDbLinetypeTableRecord
  2
BYLAYER
 70
     0
  3

 72
    65
 73
     0
 40
0.0
  0
LTYPE
  5
16
330
5
100
AcDbSymbolTableRecord
100
AcDbLinetypeTableRecord
  2
CONTINUOUS
 70
     0
  3
Solid line
 72
    65
 73
     0
 40
0.0
  0
LTYPE
  5
4B
330
5
100
AcDbSymbolTableRecord
100
AcDbLinetypeTableRecord
  2
AM_ISO02W050
 70
     0
  3
__ __ __ __ __ __ __ __ __ __ __ __ __ __ __
 72
    65
 73
     2
 40
7.5
 49
6.0
 74
     0
 49
-1.5
 74
     0
  0
LTYPE
  5
4C
330
5
100
AcDbSymbolTableRecord
100
AcDbLinetypeTableRecord
  2
AM_ISO08W050
 70
     0
  3
____ . ____ . ____ . ____ . ____ . ____ . ____
 72
    65
 73
     4
 40
18.0
 49
12.0
 74
     0
 49
-1.5
 74
     0
 49
3.0
 74
     0
 49
-1.5
 74
     0
  0
LTYPE
  5
4D
330
5
100
AcDbSymbolTableRecord
100
AcDbLinetypeTableRecord
  2
AM_ISO09W050
 70
     0
  3
_____ . . _____ . . _____ . . ____ .. ____
 72
    65
 73
     6
 40
22.5
 49
12.0
 74
     0
 49
-1.5
 74
     0
 49
3.0
 74
     0
 49
-1.5
 74
     0
 49
3.0
 74
     0
 49
-1.5
 74
     0
  0
LTYPE
  5
4E
330
5
100
AcDbSymbolTableRecord
100
AcDbLinetypeTableRecord
  2
AMCONSTR
 70
     0
  3
_______________________
 72
    65
 73
     2
 40
9999.0
 49
9999.0
 74
     0
 49
0.0
 74
     0
  0
LTYPE
  5
4F
330
5
100
AcDbSymbolTableRecord
100
AcDbLinetypeTableRecord
  2
AM_ISO02W050X2
 70
     0
  3
 _ _ _ _ _ _ _ _ _ _ _ _
 72
    65
 73
     2
 40
3.75
 49
3.0
 74
     0
 49
-0.75
 74
     0
  0
LTYPE
  5
50
330
5
100
AcDbSymbolTableRecord
100
AcDbLinetypeTableRecord
  2
AM_ISO08W050X2
 70
     0
  3
__ . __ . __ . __ . __ . __
 72
    65
 73
     4
 40
9.0
 49
6.0
 74
     0
 49
-0.75
 74
     0
 49
1.5
 74
     0
 49
-0.75
 74
     0
  0
LTYPE
  5
53
330
5
100
AcDbSymbolTableRecord
100
AcDbLinetypeTableRecord
  2
AMZIGZAG
 70
     0
  3
/\/-/\/-/\/-/\/-/\/-/\/
 72
    65
 73
     2
 40
11.00009999999999
 49
0.0001
 74
     4
 75
   135
340
52
 46
0.04
 50
0.0
 44
0.0
 45
0.0
 49
-11.0
 74
     0
  0
LTYPE
  5
166
330
5
100
AcDbSymbolTableRecord
100
AcDbLinetypeTableRecord
  2
ACJISTGL
 70
     0
  3
_ _ _ _ _
 72
    65
 73
     2
 40
3.0
 49
2.0
 74
     0
 49
-1.0
 74
     0
  0
LTYPE
  5
26A
330
5
100
AcDbSymbolTableRecord
100
AcDbLinetypeTableRecord
  2
ACJISTGB
 70
     0
  3
__ . . __ . .
 72
    65
 73
     6
 40
9.0
 49
4.0
 74
     0
 49
-1.0
 74
     0
 49
1.0
 74
     0
 49
-1.0
 74
     0
 49
1.0
 74
     0
 49
-1.0
 74
     0
  0
ENDTAB
  0
TABLE
  2
LAYER
  5
2
330
0
100
AcDbSymbolTable
 70
     8
  0
LAYER
  5
10
330
2
100
AcDbSymbolTableRecord
100
AcDbLayerTableRecord
  2
0
 70
     0
 62
     7
  6
CONTINUOUS
  0
LAYER
  5
3F9
330
2
100
AcDbSymbolTableRecord
100
AcDbLayerTableRecord
  2
AM_0
 70
     0
 62
     7
  6
CONTINUOUS
  0
LAYER
  5
C7C
330
2
100
AcDbSymbolTableRecord
100
AcDbLayerTableRecord
  2
AM_7
 70
     0
 62
     4
  6
AM_ISO08W050
  0
LAYER
  5
C97
330
2
100
AcDbSymbolTableRecord
100
AcDbLayerTableRecord
  2
AM_11
 70
     0
 62
     3
  6
AM_ISO09W050
  0
LAYER
  5
CC5
330
2
100
AcDbSymbolTableRecord
100
AcDbLayerTableRecord
  2
AM_5
 70
     0
 62
     3
  6
CONTINUOUS
  0
LAYER
  5
CC7
330
2
100
AcDbSymbolTableRecord
100
AcDbLayerTableRecord
  2
DEFPOINTS
 70
     0
 62
     7
  6
CONTINUOUS
  0
LAYER
  5
19BC
330
2
100
AcDbSymbolTableRecord
100
AcDbLayerTableRecord
  2
AM_6
 70
     0
 62
     2
  6
CONTINUOUS
  0
LAYER
  5
453A
330
2
100
AcDbSymbolTableRecord
100
AcDbLayerTableRecord
  2
AM_CL
 70
     0
 62
     1
  6
AMCONSTR
  0
ENDTAB
  0
TABLE
  2
STYLE
  5
3
330
0
100
AcDbSymbolTable
 70
     5
  0
STYLE
  5
11
330
3
100
AcDbSymbolTableRecord
100
AcDbTextStyleTableRecord
  2
STANDARD
 70
     0
 40
0.0
 41
1.0
 50
0.0
 71
     0
 42
2.5
  3
simplex.shx
  4
EXTFONT.SHX
  0
STYLE
  5
52
330
3
100
AcDbSymbolTableRecord
100
AcDbTextStyleTableRecord
  2

 70
     1
 40
0.0
 41
1.0
 50
0.0
 71
     0
 42
2.5
  3
ltypeshp.shx
  4

  0
STYLE
  5
6B
330
3
100
AcDbSymbolTableRecord
100
AcDbTextStyleTableRecord
  2
ASAMI
 70
     0
 40
0.0
 41
1.0
 50
0.0
 71
     0
 42
2.5
  3
simplex.shx
  4
EXTFONT.SHX
  0
STYLE
  5
262
330
3
100
AcDbSymbolTableRecord
100
AcDbTextStyleTableRecord
  2
ACJISTS
 70
     0
 40
1.0
 41
1.0
 50
0.0
 71
     0
 42
2.5
  3
simplex.shx
  4
bigfont.shx
  0
STYLE
  5
269
330
3
100
AcDbSymbolTableRecord
100
AcDbTextStyleTableRecord
  2
ACJISGDT
 70
     0
 40
0.0
 41
1.0
 50
0.0
 71
     0
 42
2.5
  3
amgdtans.shx
  4

  0
ENDTAB
  0
TABLE
  2
VIEW
  5
6
330
0
100
AcDbSymbolTable
 70
     0
  0
ENDTAB
  0
TABLE
  2
UCS
  5
7
330
0
100
AcDbSymbolTable
 70
     0
  0
ENDTAB
  0
TABLE
  2
APPID
  5
9
330
0
100
AcDbSymbolTable
 70
    16
  0
APPID
  5
12
330
9
100
AcDbSymbolTableRecord
100
AcDbRegAppTableRecord
  2
ACAD
 70
     0
  0
APPID
  5
30
330
9
100
AcDbSymbolTableRecord
100
AcDbRegAppTableRecord
  2
MCAD_NO_VIS
 70
     0
  0
APPID
  5
31
330
9
100
AcDbSymbolTableRecord
100
AcDbRegAppTableRecord
  2
ACAD_TEMP_GRAPHIC
 70
     0
  0
APPID
  5
2C2
330
9
100
AcDbSymbolTableRecord
100
AcDbRegAppTableRecord
  2
GENIUS_GENDTOL_13
 70
     0
  0
APPID
  5
339
330
9
100
AcDbSymbolTableRecord
100
AcDbRegAppTableRecord
  2
GENIUS_GENODEF_13
 70
     0
  0
APPID
  5
33A
330
9
100
AcDbSymbolTableRecord
100
AcDbRegAppTableRecord
  2
GENIUS_GENOBJ-N-RSBK_13
 70
     0
  0
APPID
  5
33B
330
9
100
AcDbSymbolTableRecord
100
AcDbRegAppTableRecord
  2
GENIUS_GENOBJ-N-LIB_13
 70
     0
  0
APPID
  5
33C
330
9
100
AcDbSymbolTableRecord
100
AcDbRegAppTableRecord
  2
GENIUS_GENSCALE_13
 70
     0
  0
APPID
  5
378
330
9
100
AcDbSymbolTableRecord
100
AcDbRegAppTableRecord
  2
GENIUS_GENDIMSH_14
 70
     0
  0
APPID
  5
C82
330
9
100
AcDbSymbolTableRecord
100
AcDbRegAppTableRecord
  2
GENIUS_GENOBJ-N-CRS_13
 70
     0
  0
APPID
  5
C83
330
9
100
AcDbSymbolTableRecord
100
AcDbRegAppTableRecord
  2
GENIUS_GENOENT_13
 70
     0
  0
APPID
  5
C84
330
9
100
AcDbSymbolTableRecord
100
AcDbRegAppTableRecord
  2
GENIUS_GENOREF_13
 70
     0
  0
APPID
  5
C85
330
9
100
AcDbSymbolTableRecord
100
AcDbRegAppTableRecord
  2
GENIUS_GENOLIS_13
 70
     0
  0
APPID
  5
CA0
330
9
100
AcDbSymbolTableRecord
100
AcDbRegAppTableRecord
  2
GENIUS_GENOBJ-N-CEN_13
 70
     0
  0
APPID
  5
1E1E
330
9
100
AcDbSymbolTableRecord
100
AcDbRegAppTableRecord
  2
GENIUS_GENFIL_13
 70
     0
  0
APPID
  5
1E1F
330
9
100
AcDbSymbolTableRecord
100
AcDbRegAppTableRecord
  2
GENIUS_GENOBJ-N-CHA_13
 70
     0
  0
ENDTAB
  0
TABLE
  2
DIMSTYLE
  5
A
330
0
100
AcDbSymbolTable
 70
     9
  0
DIMSTYLE
105
58
330
A
100
AcDbSymbolTableRecord
100
AcDbDimStyleTableRecord
  2
AM_JIS
 70
     0
  3

  4
"
  5
OPEN30
  6

  7

 40
1.0
 41
2.5
 42
1.0
 43
12.0
 44
1.0
 45
0.0
 46
0.0
 47
0.1
 48
0.1
140
3.2
141
0.0
142
0.0
143
0.0393701
144
1.0
145
0.0
146
0.71
147
1.5
 71
     0
 72
     0
 73
     0
 74
     0
 75
     0
 76
     0
 77
     3
 78
     8
170
     0
171
     2
172
     1
173
     0
174
     0
175
     0
176
   256
177
   256
178
     2
270
     2
271
     3
272
     3
273
     2
274
     2
340
6B
275
     0
280
     0
281
     0
282
     0
283
     0
284
     0
285
     0
286
     0
287
     3
288
     0
  0
DIMSTYLE
105
5F
330
A
100
AcDbSymbolTableRecord
100
AcDbDimStyleTableRecord
  2
AM_JIS$3
 70
     0
  3

  4
"
  5
OPEN30
  6

  7

 40
1.0
 41
2.5
 42
1.0
 43
10.0
 44
1.0
 45
0.0
 46
0.0
 47
0.1
 48
0.1
140
3.2
141
0.0
142
0.0
143
0.0393701
144
1.0
145
0.0
146
0.71
147
1.5
 71
     0
 72
     0
 73
     0
 74
     1
 75
     0
 76
     0
 77
     3
 78
     8
170
     0
171
     2
172
     0
173
     0
174
     0
175
     0
176
   256
177
   256
178
     2
270
     2
271
     2
272
     3
273
     2
274
     2
340
6B
275
     0
280
     0
281
     0
282
     0
283
     0
284
     0
285
     0
286
     0
287
     0
288
     1
  0
DIMSTYLE
105
60
330
A
100
AcDbSymbolTableRecord
100
AcDbDimStyleTableRecord
  2
AM_JIS$4
 70
     0
  3

  4
"
  5
OPEN30
  6

  7

 40
1.0
 41
2.5
 42
1.0
 43
10.0
 44
1.0
 45
0.0
 46
0.0
 47
0.1
 48
0.1
140
3.2
141
0.0
142
0.0
143
0.0393701
144
1.0
145
0.0
146
0.71
147
1.5
 71
     0
 72
     0
 73
     0
 74
     1
 75
     0
 76
     0
 77
     3
 78
     8
170
     0
171
     2
172
     0
173
     0
174
     0
175
     0
176
   256
177
   256
178
     2
270
     2
271
     2
272
     3
273
     2
274
     2
340
6B
275
     0
280
     0
281
     0
282
     0
283
     0
284
     0
285
     0
286
     0
287
     0
288
     1
  0
DIMSTYLE
105
61
330
A
100
AcDbSymbolTableRecord
100
AcDbDimStyleTableRecord
  2
AM_JIS$6
 70
     0
  3

  4
"
  5
OPEN30
  6

  7

 40
1.0
 41
2.5
 42
1.0
 43
10.0
 44
1.0
 45
0.0
 46
0.0
 47
0.1
 48
0.1
140
3.2
141
0.0
142
0.0
143
0.0393701
144
1.0
145
0.0
146
0.71
147
1.5
 71
     0
 72
     0
 73
     0
 74
     0
 75
     0
 76
     0
 77
     0
 78
     8
170
     0
171
     2
172
     1
173
     0
174
     0
175
     0
176
   256
177
   256
178
     2
270
     2
271
     2
272
     2
273
     2
274
     2
340
6B
275
     0
280
     0
281
     0
282
     0
283
     0
284
     0
285
     0
286
     0
287
     3
288
     0
  0
DIMSTYLE
105
62
330
A
100
AcDbSymbolTableRecord
100
AcDbDimStyleTableRecord
  2
AM_JIS$7
 70
     0
  3

  4
"
  5
OPEN30
  6

  7

 40
1.0
 41
2.5
 42
1.0
 43
10.0
 44
1.0
 45
0.0
 46
0.0
 47
0.1
 48
0.1
140
3.2
141
0.0
142
0.0
143
0.0393701
144
1.0
145
0.0
146
0.71
147
1.5
 71
     0
 72
     0
 73
     0
 74
     0
 75
     0
 76
     0
 77
     3
 78
     8
170
     0
171
     2
172
     1
173
     0
174
     0
175
     0
176
   256
177
   256
178
     2
270
     2
271
     2
272
     3
273
     2
274
     2
340
6B
275
     0
280
     0
281
     0
282
     0
283
     0
284
     0
285
     0
286
     0
287
     3
288
     0
  0
DIMSTYLE
105
63
330
A
100
AcDbSymbolTableRecord
100
AcDbDimStyleTableRecord
  2
AM_JIS$SF
 70
     0
  3

  4
"
  5
OPEN30
  6

  7

 40
1.0
 41
2.5
 42
1.0
 43
10.0
 44
1.0
 45
0.0
 46
0.0
 47
0.1
 48
0.1
140
3.2
141
0.0
142
0.0
143
0.0393701
144
1.0
145
0.0
146
0.71
147
1.5
 71
     0
 72
     0
 73
     0
 74
     0
 75
     1
 76
     1
 77
     3
 78
     8
170
     0
171
     2
172
     1
173
     0
174
     0
175
     0
176
   256
177
   256
178
     2
270
     2
271
     2
272
     2
273
     2
274
     2
340
6B
275
     0
280
     0
281
     0
282
     0
283
     0
284
     0
285
     0
286
     0
287
     3
288
     0
  0
DIMSTYLE
105
68
330
A
100
AcDbSymbolTableRecord
100
AcDbDimStyleTableRecord
  2
AM_JIS$SH
 70
     0
  3

  4
"
  5

  6
GENAXEH
  7
OPEN30
 40
1.0
 41
2.5
 42
1.0
 43
10.0
 44
1.0
 45
0.0
 46
0.0
 47
0.1
 48
0.1
140
3.2
141
0.0
142
0.0
143
0.0393701
144
2.0
145
0.0
146
0.71
147
1.5
 71
     0
 72
     0
 73
     0
 74
     0
 75
     1
 76
     1
 77
     3
 78
     8
170
     0
171
     2
172
     1
173
     1
174
     0
175
     0
176
   256
177
   256
178
     2
270
     2
271
     2
272
     2
273
     2
274
     2
340
6B
275
     0
280
     0
281
     0
282
     0
283
     0
284
     0
285
     0
286
     0
287
     3
288
     0
  0
DIMSTYLE
105
B34
102
{ACAD_REACTORS
330
458F
102
}
330
A
100
AcDbSymbolTableRecord
100
AcDbDimStyleTableRecord
  2
AM_JIS$2
 70
     0
  3

  4
"
  5
OPEN30
  6

  7

 40
1.0
 41
2.5
 42
1.0
 43
12.0
 44
1.0
 45
0.0
 46
0.0
 47
0.1
 48
0.1
140
3.2
141
0.0
142
0.0
143
0.0393701
144
1.0
145
0.0
146
0.71
147
1.5
 71
     0
 72
     0
 73
     0
 74
     0
 75
     0
 76
     0
 77
     3
 78
     8
170
     0
171
     2
172
     1
173
     0
174
     0
175
     0
176
   256
177
   256
178
     2
270
     2
271
     3
272
     3
273
     2
274
     2
340
6B
275
     0
280
     0
281
     0
282
     0
283
     0
284
     0
285
     0
286
     0
287
     3
288
     0
  0
DIMSTYLE
105
BA5
102
{ACAD_REACTORS
330
CC6
330
DF5
330
1FB6
330
2216
102
}
330
A
100
AcDbSymbolTableRecord
100
AcDbDimStyleTableRecord
  2
AM_JIS$0
 70
     0
  3

  4
"
  5
OPEN30
  6

  7

 40
1.0
 41
2.5
 42
0.0
 43
10.0
 44
1.0
 45
0.0
 46
0.0
 47
0.1
 48
0.1000000001
140
3.799999999999999
141
0.0
142
0.0
143
0.0393701
144
1.0
145
0.0
146
0.71
147
1.5
 71
     0
 72
     0
 73
     0
 74
     0
 75
     0
 76
     0
 77
     3
 78
     1
170
     0
171
     2
172
     1
173
     0
174
     0
175
     0
176
     3
177
     3
178
     2
270
     2
271
     2
272
     2
273
     2
274
     2
340
11
275
     1
280
     0
281
     0
282
     0
283
     0
284
     8
285
     0
286
     0
287
     0
288
     0
  0
ENDTAB
  0
TABLE
  2
BLOCK_RECORD
  5
1
330
0
100
AcDbSymbolTable
 70
    10
  0
BLOCK_RECORD
  5
1F
102
{ACAD_XDICTIONARY
360
74
102
}
330
1
100
AcDbSymbolTableRecord
100
AcDbBlockTableRecord
  2
*MODEL_SPACE
  0
BLOCK_RECORD
  5
101
102
{ACAD_XDICTIONARY
360
46EE
102
}
330
1
100
AcDbSymbolTableRecord
100
AcDbBlockTableRecord
  2
*PAPER_SPACE
  0
BLOCK_RECORD
  5
59
330
1
100
AcDbSymbolTableRecord
100
AcDbBlockTableRecord
  2
_OPEN30
  0
BLOCK_RECORD
  5
64
330
1
100
AcDbSymbolTableRecord
100
AcDbBlockTableRecord
  2
GENAXEH
  0
BLOCK_RECORD
  5
CC8
330
1
100
AcDbSymbolTableRecord
100
AcDbBlockTableRecord
  2
*D5
  0
BLOCK_RECORD
  5
DF6
330
1
100
AcDbSymbolTableRecord
100
AcDbBlockTableRecord
  2
*D6
  0
BLOCK_RECORD
  5
1FB7
330
1
100
AcDbSymbolTableRecord
100
AcDbBlockTableRecord
  2
*D7
  0
BLOCK_RECORD
  5
2217
330
1
100
AcDbSymbolTableRecord
100
AcDbBlockTableRecord
  2
*D8
  0
BLOCK_RECORD
  5
4590
330
1
100
AcDbSymbolTableRecord
100
AcDbBlockTableRecord
  2
*D9
  0
ENDTAB
  0
ENDSEC
  0
SECTION
  2
BLOCKS
  0
BLOCK
  5
20
330
1F
100
AcDbEntity
  8
0
100
AcDbBlockBegin
  2
*MODEL_SPACE
 70
     0
 10
0.0
 20
0.0
 30
0.0
  3
*MODEL_SPACE
  1

  0
ENDBLK
  5
21
330
1F
100
AcDbEntity
  8
0
100
AcDbBlockEnd
  0
BLOCK
  5
103
330
101
100
AcDbEntity
 67
     1
  8
0
100
AcDbBlockBegin
  2
*PAPER_SPACE
 70
     0
 10
0.0
 20
0.0
 30
0.0
  3
*PAPER_SPACE
  1

  0
ENDBLK
  5
104
330
101
100
AcDbEntity
 67
     1
  8
0
100
AcDbBlockEnd
  0
BLOCK
  5
5D
330
59
100
AcDbEntity
  8
0
100
AcDbBlockBegin
  2
_OPEN30
 70
     0
 10
0.0
 20
0.0
 30
0.0
  3
_OPEN30
  1

  0
LINE
  5
5A
330
59
100
AcDbEntity
  8
0
 62
     0
100
AcDbLine
 10
-1.0
 20
0.26794919
 30
0.0
 11
0.0
 21
0.0
 31
0.0
  0
LINE
  5
5B
330
59
100
AcDbEntity
  8
0
 62
     0
100
AcDbLine
 10
0.0
 20
0.0
 30
0.0
 11
-1.0
 21
-0.26794919
 31
0.0
  0
LINE
  5
5C
330
59
100
AcDbEntity
  8
0
 62
     0
100
AcDbLine
 10
0.0
 20
0.0
 30
0.0
 11
-1.0
 21
0.0
 31
0.0
  0
ENDBLK
  5
5E
330
59
100
AcDbEntity
  8
0
100
AcDbBlockEnd
  0
BLOCK
  5
66
330
64
100
AcDbEntity
  8
0
100
AcDbBlockBegin
  2
GENAXEH
 70
     0
 10
0.0
 20
0.0
 30
0.0
  3
GENAXEH
  1

  0
LINE
  5
65
330
64
100
AcDbEntity
  8
0
100
AcDbLine
 10
-1.0
 20
0.0
 30
0.0
 11
1.0
 21
0.0
 31
0.0
  0
ENDBLK
  5
67
330
64
100
AcDbEntity
  8
0
100
AcDbBlockEnd
  0
BLOCK
  5
CD2
330
CC8
100
AcDbEntity
  8
0
100
AcDbBlockBegin
  2
*D5
 70
     1
 10
0.0
 20
0.0
 30
0.0
  3
*D5
  1

  0
LINE
  5
455C
330
CC8
100
AcDbEntity
  8
AM_5
 62
     3
100
AcDbLine
 10
-188.0
 20
-7.000002054481202
 30
0.0
 11
-188.0
 21
-32.50000305448102
 31
0.0
  0
LINE
  5
455D
330
CC8
100
AcDbEntity
  8
AM_5
 62
     3
100
AcDbLine
 10
-2.999999999999408
 20
-7.200000628205238
 30
0.0
 11
-2.99999999999941
 21
-32.50000305448102
 31
0.0
  0
LINE
  5
455E
330
CC8
100
AcDbEntity
  8
AM_5
 62
     3
100
AcDbLine
 10
-185.5
 20
-31.50000305448102
 30
0.0
 11
-5.49999999999941
 21
-31.50000305448102
 31
0.0
  0
INSERT
  5
455F
330
CC8
100
AcDbEntity
  8
AM_5
 62
     3
100
AcDbBlockReference
  2
_OPEN30
 10
-188.0
 20
-31.50000305448102
 30
0.0
 41
2.5
 42
2.5
 43
2.5
 50
180.0
  0
INSERT
  5
4560
330
CC8
100
AcDbEntity
  8
AM_5
 62
     3
100
AcDbBlockReference
  2
_OPEN30
 10
-2.99999999999941
 20
-31.50000305448102
 30
0.0
 41
2.5
 42
2.5
 43
2.5
  0
MTEXT
  5
4561
330
CC8
100
AcDbEntity
  8
AM_5
 62
     2
100
AcDbMText
 10
-95.4999999999997
 20
-28.10000305448102
 30
0.0
 40
3.799999999999999
 41
0.0
 71
     5
 72
     1
  1
185
1001
ACAD
1000
MTEXTBEGIN
1070
    73
1070
     1
1070
    44
1040
1.0
1070
    74
1070
     0
1000
MTEXTEND
  0
POINT
  5
4562
330
CC8
100
AcDbEntity
  8
DEFPOINTS
 62
     0
100
AcDbPoint
 10
-188.0
 20
-7.000002054481202
 30
0.0
  0
POINT
  5
4563
330
CC8
100
AcDbEntity
  8
DEFPOINTS
 62
     0
100
AcDbPoint
 10
-2.999999999999408
 20
-7.200000628205238
 30
0.0
  0
POINT
  5
4564
330
CC8
100
AcDbEntity
  8
DEFPOINTS
 62
     0
100
AcDbPoint
 10
-2.99999999999941
 20
-31.50000305448102
 30
0.0
  0
ENDBLK
  5
CD3
330
CC8
100
AcDbEntity
  8
0
100
AcDbBlockEnd
  0
BLOCK
  5
E00
330
DF6
100
AcDbEntity
  8
0
100
AcDbBlockBegin
  2
*D6
 70
     1
 10
0.0
 20
0.0
 30
0.0
  3
*D6
  1

  0
LINE
  5
4553
330
DF6
100
AcDbEntity
  8
AM_5
 62
     3
100
AcDbLine
 10
-122.999980759553
 20
-7.500002054481212
 30
0.0
 11
-122.999980759553
 21
-22.50000305448089
 31
0.0
  0
LINE
  5
4554
330
DF6
100
AcDbEntity
  8
AM_5
 62
     3
100
AcDbLine
 10
-2.999999999999397
 20
-7.200000628205222
 30
0.0
 11
-2.999999999999398
 21
-22.50000305448089
 31
0.0
  0
LINE
  5
4555
330
DF6
100
AcDbEntity
  8
AM_5
 62
     3
100
AcDbLine
 10
-120.499980759553
 20
-21.50000305448089
 30
0.0
 11
-5.499999999999398
 21
-21.50000305448089
 31
0.0
  0
INSERT
  5
4556
330
DF6
100
AcDbEntity
  8
AM_5
 62
     3
100
AcDbBlockReference
  2
_OPEN30
 10
-122.999980759553
 20
-21.50000305448089
 30
0.0
 41
2.5
 42
2.5
 43
2.5
 50
180.0
  0
INSERT
  5
4557
330
DF6
100
AcDbEntity
  8
AM_5
 62
     3
100
AcDbBlockReference
  2
_OPEN30
 10
-2.999999999999398
 20
-21.50000305448089
 30
0.0
 41
2.5
 42
2.5
 43
2.5
  0
MTEXT
  5
4558
330
DF6
100
AcDbEntity
  8
AM_5
 62
     2
100
AcDbMText
 10
-62.9999903797762
 20
-18.10000305448089
 30
0.0
 40
3.799999999999999
 41
0.0
 71
     5
 72
     1
  1
120
1001
ACAD
1000
MTEXTBEGIN
1070
    73
1070
     1
1070
    44
1040
1.0
1070
    74
1070
     0
1000
MTEXTEND
  0
POINT
  5
4559
330
DF6
100
AcDbEntity
  8
DEFPOINTS
 62
     0
100
AcDbPoint
 10
-122.999980759553
 20
-7.500002054481212
 30
0.0
  0
POINT
  5
455A
330
DF6
100
AcDbEntity
  8
DEFPOINTS
 62
     0
100
AcDbPoint
 10
-2.999999999999397
 20
-7.200000628205222
 30
0.0
  0
POINT
  5
455B
330
DF6
100
AcDbEntity
  8
DEFPOINTS
 62
     0
100
AcDbPoint
 10
-2.999999999999398
 20
-21.50000305448089
 30
0.0
  0
ENDBLK
  5
E01
330
DF6
100
AcDbEntity
  8
0
100
AcDbBlockEnd
  0
BLOCK
  5
1FC3
330
1FB7
100
AcDbEntity
  8
0
100
AcDbBlockBegin
  2
*D7
 70
     1
 10
0.0
 20
0.0
 30
0.0
  3
*D7
  1

  0
LINE
  5
4579
330
1FB7
100
AcDbEntity
  8
AM_5
 62
     3
100
AcDbLine
 10
-3.000000000000069
 20
-7.200000628206436
 30
0.0
 11
15.555921024858
 21
-7.200000628206441
 31
0.0
  0
LINE
  5
457A
330
1FB7
100
AcDbEntity
  8
AM_5
 62
     3
100
AcDbLine
 10
-2.999999999999989
 20
7.199999371793222
 30
0.0
 11
15.555921024858
 21
7.199999371793217
 31
0.0
  0
LINE
  5
457B
330
1FB7
100
AcDbEntity
  8
AM_5
 62
     3
100
AcDbLine
 10
14.555921024858
 20
-4.700000628206441
 30
0.0
 11
14.555921024858
 21
4.699999371793217
 31
0.0
  0
INSERT
  5
457C
330
1FB7
100
AcDbEntity
  8
AM_5
 62
     3
100
AcDbBlockReference
  2
_OPEN30
 10
14.555921024858
 20
-7.200000628206441
 30
0.0
 41
2.5
 42
2.5
 43
2.5
 50
270.0
  0
INSERT
  5
457D
330
1FB7
100
AcDbEntity
  8
AM_5
 62
     3
100
AcDbBlockReference
  2
_OPEN30
 10
14.555921024858
 20
7.199999371793217
 30
0.0
 41
2.5
 42
2.5
 43
2.5
 50
90.0
  0
MTEXT
  5
457E
330
1FB7
100
AcDbEntity
  8
AM_5
 62
     2
100
AcDbMText
 10
11.155921024858
 20
-0.000000628206609
 30
0.0
 40
3.799999999999999
 41
0.0
 71
     5
 72
     1
  1
%%c14.4
 11
0.0000000000000001
 21
1.0
 31
0.0
1001
ACAD
1000
MTEXTBEGIN
1070
    73
1070
     1
1070
    44
1040
1.0
1070
    74
1070
     0
1000
MTEXTEND
  0
POINT
  5
457F
330
1FB7
100
AcDbEntity
  8
DEFPOINTS
 62
     0
100
AcDbPoint
 10
-3.000000000000069
 20
-7.200000628206436
 30
0.0
  0
POINT
  5
4580
330
1FB7
100
AcDbEntity
  8
DEFPOINTS
 62
     0
100
AcDbPoint
 10
-2.999999999999989
 20
7.199999371793222
 30
0.0
  0
POINT
  5
4581
330
1FB7
100
AcDbEntity
  8
DEFPOINTS
 62
     0
100
AcDbPoint
 10
14.555921024858
 20
7.199999371793217
 30
0.0
  0
ENDBLK
  5
1FC4
330
1FB7
100
AcDbEntity
  8
0
100
AcDbBlockEnd
  0
BLOCK
  5
2221
330
2217
100
AcDbEntity
  8
0
100
AcDbBlockBegin
  2
*D8
 70
     1
 10
0.0
 20
0.0
 30
0.0
  3
*D8
  1

  0
LINE
  5
4565
330
2217
100
AcDbEntity
  8
AM_5
 62
     3
100
AcDbLine
 10
-187.5000000000005
 20
7.49999999999851
 30
0.0
 11
-205.000001
 21
7.49999999999846
 31
0.0
  0
LINE
  5
4566
330
2217
100
AcDbEntity
  8
AM_5
 62
     3
100
AcDbLine
 10
-187.5000000000004
 20
-7.500002054481297
 30
0.0
 11
-205.0000009999999
 21
-7.500002054481346
 31
0.0
  0
LINE
  5
4567
330
2217
100
AcDbEntity
  8
AM_5
 62
     3
100
AcDbLine
 10
-204.000001
 20
4.999999999998463
 30
0.0
 11
-204.0000009999999
 21
-5.000002054481344
 31
0.0
  0
INSERT
  5
4568
330
2217
100
AcDbEntity
  8
AM_5
 62
     3
100
AcDbBlockReference
  2
_OPEN30
 10
-204.000001
 20
7.499999999998463
 30
0.0
 41
2.5
 42
2.5
 43
2.5
 50
90.00000000000017
  0
INSERT
  5
4569
330
2217
100
AcDbEntity
  8
AM_5
 62
     3
100
AcDbBlockReference
  2
_OPEN30
 10
-204.0000009999999
 20
-7.500002054481344
 30
0.0
 41
2.5
 42
2.5
 43
2.5
 50
270.0000000000001
  0
MTEXT
  5
456A
330
2217
100
AcDbEntity
  8
AM_5
 62
     2
100
AcDbMText
 10
-207.400001
 20
-0.000001027241442
 30
0.0
 40
3.799999999999999
 41
0.0
 71
     5
 72
     1
  1
%%c15
 11
-0.0000000000000028
 21
1.0
 31
0.0
1001
ACAD
1000
MTEXTBEGIN
1070
    73
1070
     1
1070
    44
1040
1.0
1070
    74
1070
     0
1000
MTEXTEND
  0
POINT
  5
456B
330
2217
100
AcDbEntity
  8
DEFPOINTS
 62
     0
100
AcDbPoint
 10
-187.5000000000005
 20
7.499999999999093
 30
0.0
  0
POINT
  5
456C
330
2217
100
AcDbEntity
  8
DEFPOINTS
 62
     0
100
AcDbPoint
 10
-187.5000000000005
 20
-7.500002054480714
 30
0.0
  0
POINT
  5
456D
330
2217
100
AcDbEntity
  8
DEFPOINTS
 62
     0
100
AcDbPoint
 10
-204.0000009999999
 20
-7.50000205448071
 30
0.0
  0
ENDBLK
  5
2222
330
2217
100
AcDbEntity
  8
0
100
AcDbBlockEnd
  0
BLOCK
  5
459E
330
4590
100
AcDbEntity
  8
0
100
AcDbBlockBegin
  2
*D9
 70
     1
 10
0.0
 20
0.0
 30
0.0
  3
*D9
  1

  0
LINE
  5
46F0
330
4590
100
AcDbEntity
  8
AM_5
100
AcDbLine
 10
0.3420201408161119
 20
-0.9396926216993803
 30
0.0
 11
9.236790512842425
 21
-25.37787357314189
 31
0.0
  0
LINE
  5
46F1
330
4590
100
AcDbEntity
  8
AM_5
100
AcDbLine
 10
0.3420224212243586
 20
0.9396917916953736
 30
0.0
 11
9.236852098844959
 21
25.37785115758552
 31
0.0
  0
ARC
  5
46F2
330
4590
100
AcDbEntity
  8
AM_5
100
AcDbCircle
 10
-0.0000000000000284
 20
-0.0000000000000782
 30
0.0
 40
26.00656894299062
100
AcDbArc
 50
295.5099407786182
 51
64.48992017822785
  0
INSERT
  5
46F3
330
4590
100
AcDbEntity
  8
AM_5
100
AcDbBlockReference
  2
_OPEN30
 10
8.894770372026286
 20
-24.43818095144258
 30
0.0
 41
2.5
 42
2.5
 43
2.5
 50
202.7549703128025
  0
INSERT
  5
46F4
330
4590
100
AcDbEntity
  8
AM_5
100
AcDbBlockReference
  2
_OPEN30
 10
8.894829677620572
 20
24.43815936589007
 30
0.0
 41
2.5
 42
2.5
 43
2.5
 50
157.2448906440435
  0
MTEXT
  5
46F5
330
4590
100
AcDbEntity
  8
AM_5
 62
     2
100
AcDbMText
 10
22.90656894297373
 20
-0.0000277943822988
 30
0.0
 40
3.2
 41
0.0
 71
     5
 72
     1
  1
140°
  7
ASAMI
 11
0.0000012133804182
 21
0.999999999999264
 31
0.0
  0
POINT
  5
46F6
330
4590
100
AcDbEntity
  8
DEFPOINTS
 62
     0
100
AcDbPoint
 10
23.8796421465433
 20
-10.30069508040877
 30
0.0
  0
POINT
  5
46F7
330
4590
100
AcDbEntity
  8
DEFPOINTS
 62
     0
100
AcDbPoint
 10
-0.0000000000000284
 20
-0.0000000000000782
 30
0.0
  0
POINT
  5
46F8
330
4590
100
AcDbEntity
  8
DEFPOINTS
 62
     0
100
AcDbPoint
 10
-0.0000000000000284
 20
-0.0000000000000782
 30
0.0
  0
POINT
  5
46F9
330
4590
100
AcDbEntity
  8
DEFPOINTS
 62
     0
100
AcDbPoint
 10
-0.6133936239360773
 20
1.685285145005348
 30
0.0
  0
POINT
  5
46FA
330
4590
100
AcDbEntity
  8
DEFPOINTS
 62
     0
100
AcDbPoint
 10
-0.613406119982032
 20
-1.685306752286588
 30
0.0
  0
ENDBLK
  5
459F
330
4590
100
AcDbEntity
  8
0
100
AcDbBlockEnd
  0
ENDSEC
  0
SECTION
  2
ENTITIES
  0
LINE
  5
C9F
330
1F
100
AcDbEntity
  8
AM_7
100
AcDbLine
 10
-190.0
 20
-0.0000000000003952
 30
0.0
 11
0.5559200248580254
 21
-0.0000000000000666
 31
0.0
1001
GENIUS_GENODEF_13
1002
{
1000
HIER
1070
     0
1002
}
1002
{
1000
MANEDIT
1070
     0
1002
}
1002
{
1000
NOSEL
1070
     0
1002
}
1002
{
1000
BEHIND
1070
     0
1002
}
1002
{
1000
REACTOR
1002
}
1001
GENIUS_GENOBJ-N-CEN_13
1002
{
1000
OWNER
1000
GEN
1002
}
  0
DIMENSION
  5
CC6
330
1F
100
AcDbEntity
  8
AM_5
100
AcDbDimension
  2
*D5
 10
-2.99999999999941
 20
-31.50000305448102
 30
0.0
 11
-95.4999999999997
 21
-28.10000305448102
 31
0.0
 70
    32
  1
<>
  3
AM_JIS$0
100
AcDbAlignedDimension
 13
-188.0
 23
-7.000002054481202
 33
0.0
 14
-2.999999999999408
 24
-7.200000628205238
 34
0.0
 50
0.0000000000001132
100
AcDbRotatedDimension
1001
GENIUS_GENDTOL_13
1000

1000
h7
1000

1040
0.0
1001
ACAD
1000
DSTYLE
1002
{
1070
   271
1070
     0
1002
}
  0
DIMENSION
  5
DF5
330
1F
100
AcDbEntity
  8
AM_5
100
AcDbDimension
  2
*D6
 10
-2.999999999999398
 20
-21.50000305448089
 30
0.0
 11
-62.9999903797762
 21
-18.10000305448089
 31
0.0
 70
    32
  1
<>
  3
AM_JIS$0
100
AcDbAlignedDimension
 13
-122.999980759553
 23
-7.500002054481212
 33
0.0
 14
-2.999999999999397
 24
-7.200000628205222
 34
0.0
 50
0.0000000000001527
100
AcDbRotatedDimension
1001
GENIUS_GENDTOL_13
1000

1000
h7
1000

1040
0.0
1001
ACAD
1000
DSTYLE
1002
{
1070
   271
1070
     0
1002
}
  0
TEXT
  5
19BD
330
1F
100
AcDbEntity
  8
AM_6
100
AcDbText
 10
-116.6904761904758
 20
-54.00000305448108
 30
0.0
 40
5.0
  1
MDW144LHK
 50
0.0000000000001527
 72
     4
 11
-95.49999999999965
 21
-51.50000305448102
 31
0.0
100
AcDbText
  0
LINE
  5
1E25
330
1F
100
AcDbEntity
  8
AM_0
100
AcDbLine
 10
-122.9999999999999
 20
-7.500002054481211
 30
0.0
 11
-122.4803822873416
 21
-7.200000628202244
 31
0.0
  0
LINE
  5
1E26
330
1F
100
AcDbEntity
  8
AM_0
100
AcDbLine
 10
-122.4803836696515
 20
7.199999371797643
 30
0.0
 11
-122.9999999999999
 21
7.499999999999618
 31
0.0
  0
DIMENSION
  5
1FB6
330
1F
100
AcDbEntity
  8
AM_5
100
AcDbDimension
  2
*D7
 10
14.555921024858
 20
7.199999371793217
 30
0.0
 11
14.555921024858
 21
-0.0000006282066094
 31
0.0
 70
   160
  1
%%c<>
  3
AM_JIS$0
100
AcDbAlignedDimension
 13
-3.000000000000069
 23
-7.200000628206436
 33
0.0
 14
-2.999999999999989
 24
7.199999371793222
 34
0.0
 50
89.99999999999969
100
AcDbRotatedDimension
1001
ACAD
1000
DSTYLE
1002
{
1070
   271
1070
     1
1002
}
1001
GENIUS_GENDTOL_13
1000

1000
h7
1000

1040
0.0
  0
LINE
  5
1FD9
330
1F
100
AcDbEntity
  8
AM_0
100
AcDbLine
 10
-122.4803784980708
 20
-7.200000628202245
 30
0.0
 11
-122.4803836696515
 21
7.199999371797646
 31
0.0
  0
LINE
  5
21D7
330
1F
100
AcDbEntity
  8
AM_0
 48
0.5
100
AcDbLine
 10
-122.999980759553
 20
-7.500002054481212
 30
0.0
 11
-122.9999807595529
 21
7.499999999999618
 31
0.0
  0
LINE
  5
21D8
330
1F
100
AcDbEntity
  8
AM_0
 48
0.5
100
AcDbLine
 10
-187.5
 20
7.499999999999604
 30
0.0
 11
-122.9999807595529
 21
7.499999999999618
 31
0.0
1001
GENIUS_GENODEF_13
1002
{
1000
HIER
1070
     0
1002
}
1002
{
1000
MANEDIT
1070
     0
1002
}
1002
{
1000
NOSEL
1070
     0
1002
}
1002
{
1000
BEHIND
1070
     0
1002
}
1002
{
1000
REACTOR
1002
}
1001
GENIUS_GENOBJ-N-CEN_13
1002
{
1000
OWNER
1000
GEN
1002
}
  0
LINE
  5
21D9
330
1F
100
AcDbEntity
  8
AM_0
 48
0.5
100
AcDbLine
 10
-187.5
 20
-7.500002054481226
 30
0.0
 11
-122.999980759553
 21
-7.500002054481212
 31
0.0
1001
GENIUS_GENODEF_13
1002
{
1000
HIER
1070
     0
1002
}
1002
{
1000
MANEDIT
1070
     0
1002
}
1002
{
1000
NOSEL
1070
     0
1002
}
1002
{
1000
BEHIND
1070
     0
1002
}
1002
{
1000
REACTOR
1002
}
1001
GENIUS_GENOBJ-N-CEN_13
1002
{
1000
OWNER
1000
GEN
1002
}
  0
LINE
  5
21DC
330
1F
100
AcDbEntity
  8
AM_0
100
AcDbLine
 10
-187.5000000000005
 20
-7.500002054480719
 30
0.0
 11
-187.5000000000005
 21
7.499999999999117
 31
0.0
  0
LINE
  5
21DD
330
1F
100
AcDbEntity
  8
AM_0
 48
0.5
100
AcDbLine
 10
-188.0
 20
-7.000002054481202
 30
0.0
 11
-188.0
 21
6.999999999999629
 31
0.0
  0
DIMENSION
  5
2216
330
1F
100
AcDbEntity
  8
AM_5
100
AcDbDimension
  2
*D8
 10
-204.0000009999999
 20
-7.50000205448071
 30
0.0
 11
-207.400001
 21
-0.0000010272408386
 31
0.0
 70
    32
  1
%%c<>
 51
359.9999999999998
  3
AM_JIS$0
100
AcDbAlignedDimension
 13
-187.5000000000005
 23
7.499999999999093
 33
0.0
 14
-187.5000000000005
 24
-7.500002054480714
 34
0.0
 50
269.9999999999999
100
AcDbRotatedDimension
1001
ACAD
1000
DSTYLE
1002
{
1070
   271
1070
     0
1002
}
1001
GENIUS_GENDTOL_13
1000

1000
h7
1000

1040
0.0
  0
ELLIPSE
  5
2694
330
1F
100
AcDbEntity
  8
AM_0
 48
0.5
100
AcDbEllipse
 10
8.606834868095866
 20
6.911481912454802
 30
0.0
 11
10.62451473362349
 21
0.0000000000010481
 31
0.0
210
0.0
220
0.0
230
1.0
 40
0.9899999999999973
 41
3.323896559076802
 42
3.661579236128986
  0
LINE
  5
2695
330
1F
100
AcDbEntity
  8
AM_0
 48
0.5
100
AcDbLine
 10
-1.8416169395903
 20
5.004564032390627
 30
0.0
 11
-2.999999999999989
 21
7.199999371793222
 31
0.0
  0
LINE
  5
2696
330
1F
100
AcDbEntity
  8
AM_0
 48
0.5
100
AcDbLine
 10
-0.0000000000000284
 20
-0.0000000000000782
 30
0.0
 11
-0.6133936239360772
 21
1.685285145005348
 31
0.0
  0
LINE
  5
2699
330
1F
100
AcDbEntity
  8
AM_0
 48
0.5
100
AcDbLine
 10
-0.0000000000000284
 20
-0.0000000000000782
 30
0.0
 11
-0.6134061199820319
 21
-1.685306752286588
 31
0.0
  0
LINE
  5
2CB4
330
1F
100
AcDbEntity
  8
AM_0
 48
0.5
100
AcDbLine
 10
-188.0
 20
6.999999999999604
 30
0.0
 11
-187.5
 21
7.499999999999604
 31
0.0
1001
GENIUS_GENFIL_13
1070
     0
1040
0.5
1040
0.5
1040
20.0
1040
0.0
1002
{
1002
}
1001
GENIUS_GENODEF_13
1002
{
1000
HIER
1070
     0
1002
}
1002
{
1000
MANEDIT
1070
     0
1002
}
1002
{
1000
NOSEL
1070
     0
1002
}
1002
{
1000
BEHIND
1070
     0
1002
}
1002
{
1000
REACTOR
1002
}
1001
GENIUS_GENOBJ-N-CHA_13
1002
{
1000
OWNER
1000
GEN
1002
}
  0
LINE
  5
2CB7
330
1F
100
AcDbEntity
  8
AM_0
 48
0.5
100
AcDbLine
 10
-187.5
 20
-7.500002054481226
 30
0.0
 11
-188.0
 21
-7.000002054481226
 31
0.0
1001
GENIUS_GENFIL_13
1070
     0
1040
0.5
1040
0.5
1040
20.0
1040
0.0
1002
{
1002
}
1001
GENIUS_GENODEF_13
1002
{
1000
HIER
1070
     0
1002
}
1002
{
1000
MANEDIT
1070
     0
1002
}
1002
{
1000
NOSEL
1070
     0
1002
}
1002
{
1000
BEHIND
1070
     0
1002
}
1002
{
1000
REACTOR
1002
}
1001
GENIUS_GENOBJ-N-CHA_13
1002
{
1000
OWNER
1000
GEN
1002
}
  0
ELLIPSE
  5
3366
330
1F
100
AcDbEntity
  8
AM_0
 48
0.5
100
AcDbEllipse
 10
8.606834868095889
 20
-6.911481912454915
 30
0.0
 11
10.62451473362349
 21
-0.0000000000010127
 31
0.0
210
0.0
220
0.0
230
-1.0
 40
0.9899999999999973
 41
3.323896559076802
 42
3.661579236128986
  0
LINE
  5
3367
330
1F
100
AcDbEntity
  8
AM_0
 48
0.5
100
AcDbLine
 10
-1.841616939590286
 20
-5.004564032390783
 30
0.0
 11
-3.000000000000069
 21
-7.200000628206436
 31
0.0
  0
LINE
  5
44B9
330
1F
100
AcDbEntity
  8
AM_0
 48
0.5
100
AcDbLine
 10
-122.4803822873416
 20
-7.200000628202245
 30
0.0
 11
-69.72055346520271
 21
-7.200000628204159
 31
0.0
  0
LINE
  5
44BA
330
1F
100
AcDbEntity
  8
AM_0
100
AcDbLine
 10
-119.011501885092
 20
7.19999937179724
 30
0.0
 11
-122.4803836696515
 21
7.199999371797641
 31
0.0
  0
LINE
  5
44BB
330
1F
100
AcDbEntity
  8
AM_0
 48
0.5
100
AcDbLine
 10
-8.142623058692961
 20
7.199999371793416
 30
0.0
 11
-2.999999999999989
 21
7.199999371793222
 31
0.0
  0
LINE
  5
44BC
330
1F
100
AcDbEntity
  8
AM_0
 48
0.5
100
AcDbLine
 10
-8.14262305869347
 20
-7.200000628206592
 30
0.0
 11
-3.000000000000067
 21
-7.200000628206447
 31
0.0
  0
LINE
  5
44BD
330
1F
100
AcDbEntity
  8
AM_11
 48
0.5
100
AcDbLine
 10
-29.45101346883227
 20
7.199999371794245
 30
0.0
 11
-8.142623058692961
 21
7.199999371793416
 31
0.0
  0
LINE
  5
44BE
330
1F
100
AcDbEntity
  8
AM_11
 48
0.5
100
AcDbLine
 10
-29.4510134688328
 20
-7.200000628205746
 30
0.0
 11
-8.14262305869347
 21
-7.200000628206592
 31
0.0
  0
LINE
  5
44BF
330
1F
100
AcDbEntity
  8
AM_11
 48
0.5
100
AcDbLine
 10
-66.95854551277432
 20
7.201022262462164
 30
0.0
 11
-53.36034768342131
 21
7.199999371795176
 31
0.0
  0
LINE
  5
44C0
330
1F
100
AcDbEntity
  8
AM_11
 48
0.5
100
AcDbLine
 10
-69.72055660462695
 20
-7.200000628204331
 30
0.0
 11
-48.41216619449036
 21
-7.201023518871592
 31
0.0
  0
LINE
  5
44C1
330
1F
100
AcDbEntity
  8
AM_0
 48
0.5
100
AcDbLine
 10
-53.36036603621264
 20
7.199999371795176
 30
0.0
 11
-29.45101346883227
 21
7.199999371794245
 31
0.0
  0
LINE
  5
44C2
330
1F
100
AcDbEntity
  8
AM_0
 48
0.5
100
AcDbLine
 10
-48.41216619449035
 20
-7.200000628205161
 30
0.0
 11
-29.4510134688328
 21
-7.200000628205746
 31
0.0
  0
LINE
  5
44C3
330
1F
100
AcDbEntity
  8
AM_0
 48
0.5
100
AcDbLine
 10
-0.0000000000000284
 20
-0.0000000000000782
 30
0.0
 11
-5.376201221753595
 21
2.764580670620916
 31
0.0
  0
SPLINE
  5
44C4
330
1F
100
AcDbEntity
  8
AM_0
 48
0.5
100
AcDbSpline
210
0.0
220
0.0
230
1.0
 70
     8
 71
     3
 72
    25
 73
    21
 74
     0
 42
0.0000000001
 43
0.0000000001
 40
6.846175049578289
 40
6.846175049578289
 40
6.846175049578289
 40
6.846175049578289
 40
7.604337694224321
 40
8.711974558287883
 40
9.814980593243754
 40
10.91239053451967
 40
12.0033633515982
 40
13.08720139956839
 40
14.16337181880432
 40
15.23152222380919
 40
16.29148850140128
 40
17.34331105512262
 40
18.38723020264746
 40
19.42369128463655
 40
20.45333379090873
 40
21.47697865721768
 40
22.49561244472435
 40
23.5103574802404
 40
24.52244778960836
 40
25.53320666051913
 40
25.53320666051913
 40
25.53320666051913
 40
25.53320666051913
 10
-9.461855729134782
 20
1.303246509119504
 30
0.0
 10
-9.718819560688116
 20
1.429665703966655
 30
0.0
 10
-10.35173520547186
 20
1.739511834713325
 30
0.0
 10
-11.36154324344044
 20
2.226081799246446
 30
0.0
 10
-12.49147840938496
 20
2.756821691134093
 30
0.0
 10
-13.62147040050285
 20
3.270604589485976
 30
0.0
 10
-14.7515289255312
 20
3.764271468109761
 30
0.0
 10
-15.88166657611081
 20
4.234776650080872
 30
0.0
 10
-17.01189380246509
 20
4.67921857693931
 30
0.0
 10
-18.14221583695082
 20
5.094865831353001
 30
0.0
 10
-19.27264660223579
 20
5.479131707715195
 30
0.0
 10
-20.40318456758183
 20
5.829659873234625
 30
0.0
 10
-21.53383785340588
 20
6.144263035828548
 30
0.0
 10
-22.66460246958052
 20
6.420994165574038
 30
0.0
 10
-23.79547399876765
 20
6.658157098637589
 30
0.0
 10
-24.92644614819878
 20
6.854179809093872
 30
0.0
 10
-26.05750132040134
 20
7.008165153402763
 30
0.0
 10
-27.18862704999945
 20
7.1180216285433
 30
0.0
 10
-28.31980497541405
 20
7.187151821417382
 30
0.0
 10
-29.07410946532276
 20
7.195718734581484
 30
0.0
 10
-29.45101346883227
 20
7.199999371794246
 30
0.0
  0
SPLINE
  5
44C5
330
1F
100
AcDbEntity
  8
AM_0
100
AcDbSpline
210
0.0
220
0.0
230
1.0
 70
     8
 71
     3
 72
    23
 73
    19
 74
     0
 42
0.0000000001
 43
0.0000000001
 40
16.03460024169435
 40
16.03460024169435
 40
16.03460024169435
 40
16.03460024169435
 40
16.35212704903564
 40
17.38177054169784
 40
18.41822485651776
 40
19.46214173629503
 40
20.51396345435107
 40
21.57393551351153
 40
22.64208202342361
 40
23.7182574881101
 40
24.80209208578934
 40
25.89306333925047
 40
26.99048218457928
 40
28.09348763352352
 40
29.20111863782268
 40
30.31232390128032
 40
31.42594612798585
 40
32.5407912310448
 40
32.5407912310486
 40
32.5407912310486
 40
32.5407912310486
 10
-66.95854551277432
 20
7.201022262462161
 30
0.0
 10
-66.84233136721885
 20
7.176716330379387
 30
0.0
 10
-66.34976475202053
 20
7.070870837213281
 30
0.0
 10
-65.48210335476976
 20
6.86348274741301
 30
0.0
 10
-64.35847957392479
 20
6.555098925854076
 30
0.0
 10
-63.23589946769913
 20
6.208835296622372
 30
0.0
 10
-62.11429670193905
 20
5.826695856991047
 30
0.0
 10
-60.99363146897478
 20
5.410811042891002
 30
0.0
 10
-59.87383899704168
 20
4.963558227303726
 30
0.0
 10
-58.75484130804816
 20
4.487540309428945
 30
0.0
 10
-57.63657481652654
 20
3.985452950981971
 30
0.0
 10
-56.51894986699717
 20
3.460217681312623
 30
0.0
 10
-55.40187588845594
 20
2.914887394735257
 30
0.0
 10
-54.28527845344973
 20
2.35259751178058
 30
0.0
 10
-53.16906413762727
 20
1.776617671115511
 30
0.0
 10
-52.05312955590326
 20
1.190311172437836
 30
0.0
 10
-50.93738383970118
 20
0.597075503141197
 30
0.0
 10
-50.19375315483992
 20
0.1993434246689336
 30
0.0
 10
-49.82173501973431
 20
0.000365582730879
 30
0.0
  0
SPLINE
  5
44C6
330
1F
100
AcDbEntity
  8
AM_0
100
AcDbSpline
210
0.0
220
0.0
230
1.0
 70
     8
 71
     3
 72
    11
 73
     7
 74
     0
 42
0.0000000001
 43
0.0000000001
 40
11.27226913003534
 40
11.27226913003534
 40
11.27226913003534
 40
11.2722691300354
 40
12.28301561507924
 40
13.29510212255852
 40
14.30984805882082
 40
15.18258238371378
 40
15.18258238371378
 40
15.18258238371378
 40
15.18258238371378
 10
-69.72055660462962
 20
-7.20000062820433
 30
0.0
 10
-70.09602168921889
 20
-7.164761735897978
 30
0.0
 10
-70.84624365985071
 20
-7.079449911283522
 30
0.0
 10
-71.96770260940365
 20
-6.90735485920639
 30
0.0
 10
-73.03198692692991
 20
-6.7018061889868
 30
0.0
 10
-73.7203035512698
 20
-6.54379480866815
 30
0.0
 10
-74.03749945156357
 20
-6.465741551222328
 30
0.0
  0
SPLINE
  5
44C7
330
1F
100
AcDbEntity
  8
AM_0
100
AcDbSpline
210
0.0
220
0.0
230
1.0
 70
     8
 71
     3
 72
    17
 73
    13
 74
     0
 42
0.0000000001
 43
0.0000000001
 40
1.580019955310467
 40
1.580019955310467
 40
1.580019955310467
 40
1.580019955310467
 40
2.030549285115227
 40
3.082371838836284
 40
4.126290986361125
 40
5.162752068350215
 40
6.192395305374981
 40
7.216039564037012
 40
8.234688489606833
 40
9.249433870634691
 40
10.26152376260694
 40
11.27226744710342
 40
11.27226744710342
 40
11.27226744710342
 40
11.27226744710352
 10
-59.06553016563432
 20
-5.313812643655339
 30
0.0
 10
-59.22557229357662
 20
-5.368540493029458
 30
0.0
 10
-59.76016676900863
 20
-5.547918329302324
 30
0.0
 10
-60.67285211245295
 20
-5.829278883746657
 30
0.0
 10
-61.80334792794509
 20
-6.144365379693598
 30
0.0
 10
-62.9341549678768
 20
-6.420969488582542
 30
0.0
 10
-64.06501382099233
 20
-6.658162311648198
 30
0.0
 10
-65.19599587915315
 20
-6.85421849684086
 30
0.0
 10
-66.32705607361899
 20
-7.00801923796045
 30
0.0
 10
-67.4581866969466
 20
-7.118567854742173
 30
0.0
 10
-68.58935988100667
 20
-7.185152732901564
 30
0.0
 10
-69.34365836739117
 20
-7.200000669403121
 30
0.0
 10
-69.72055660462955
 20
-7.20000062820433
 30
0.0
  0
SPLINE
  5
44C8
330
1F
100
AcDbEntity
  8
AM_0
 48
0.5
100
AcDbSpline
210
0.0
220
0.0
230
1.0
 70
     8
 71
     3
 72
    17
 73
    13
 74
     0
 42
0.0000000001
 43
0.0000000001
 40
0.0
 40
0.0
 40
0.0
 40
0.0
 40
1.010743614677189
 40
2.022833924044153
 40
3.037578959561199
 40
4.056212747067873
 40
5.079857613375832
 40
6.109500119648989
 40
7.14596120163808
 40
8.18989512056258
 40
9.241717674284874
 40
9.693948937866434
 40
9.693948937866434
 40
9.693948937866434
 40
9.693948937866434
 10
-8.142623058692961
 20
7.199999371793413
 30
0.0
 10
-8.519521369494734
 20
7.195718633357095
 30
0.0
 10
-9.273820162911606
 20
7.187151452913777
 30
0.0
 10
-10.40499241800302
 20
7.118021661117647
 30
0.0
 10
-11.53611810338928
 20
7.008165043974802
 30
0.0
 10
-12.66717344238413
 20
6.854180216616374
 30
0.0
 10
-13.79814496444617
 20
6.658155566751836
 30
0.0
 10
-14.92901885587623
 20
6.420999934812312
 30
0.0
 10
-16.05977993844609
 20
6.144239970030727
 30
0.0
 10
-17.19047209022475
 20
5.829738891766774
 30
0.0
 10
-18.10319627938273
 20
5.546420960719393
 30
0.0
 10
-18.639201437261
 20
5.36930651091357
 30
0.0
 10
-18.80008142862383
 20
5.315092963484177
 30
0.0
  0
SPLINE
  5
44CA
330
1F
100
AcDbEntity
  8
AM_0
 48
0.5
100
AcDbSpline
210
0.0
220
0.0
230
1.0
 70
     8
 71
     3
 72
    10
 73
     6
 74
     0
 42
0.0000000001
 43
0.0000000001
 40
0.0
 40
0.0
 40
0.0
 40
0.0
 40
2.69986029516136
 40
4.147722969032201
 40
6.285750005020438
 40
6.285750005020438
 40
6.285750005020438
 40
6.285750005020438
 10
-9.461674879442512
 20
1.303160992887081
 30
0.0
 10
-8.656596069463358
 20
0.634231238644639
 30
0.0
 10
-7.419775083571586
 20
-0.3934276040417539
 30
0.0
 10
-4.494859597090838
 20
0.1040800447667281
 30
0.0
 10
-5.045706259607338
 20
1.779751636014475
 30
0.0
 10
-5.409670539162696
 20
2.801125080175896
 30
0.0
  0
SPLINE
  5
44CB
330
1F
100
AcDbEntity
  8
AM_0
100
AcDbSpline
210
0.0
220
0.0
230
1.0
 70
     8
 71
     3
 72
    55
 73
    51
 74
     0
 42
0.0000000001
 43
0.0000000001
 40
0.0
 40
0.0
 40
0.0
 40
0.0
 40
1.010743684496582
 40
2.022833576467832
 40
3.037578957496688
 40
4.056212745003489
 40
5.079857003664532
 40
6.109500240690281
 40
7.145961322679372
 40
8.189895241603872
 40
9.241717795325891
 40
10.30168407291828
 40
11.36983447792315
 40
12.44600489715814
 40
13.52984294512926
 40
14.62081576220742
 40
15.7182257034828
 40
16.82123173843959
 40
17.92886860250316
 40
19.0400688939571
 40
20.15368796660465
 40
21.26852814259644
 40
22.38336992938901
 40
23.49698739941135
 40
24.6081876908653
 40
25.71582455492886
 40
26.81883757994213
 40
27.91624752121713
 40
29.00722033829659
 40
30.09105838626677
 40
31.16722880550176
 40
32.23537921050758
 40
33.29534548809967
 40
34.347168041821
 40
35.39108718934584
 40
36.42754827133493
 40
37.45720575381954
 40
38.48085062012849
 40
39.49948440763516
 40
40.51422944315121
 40
41.52631975251916
 40
42.53706336719636
 40
43.54780698187354
 40
44.55989729124051
 40
45.57464232675757
 40
46.59327611426424
 40
47.6169209805722
 40
48.64656348684535
 40
49.68302456883444
 40
50.58557219878025
 40
50.58557219878025
 40
50.58557219878025
 40
50.58557219878025
 10
-8.14262305869347
 20
-7.200000628206586
 30
0.0
 10
-8.519521300904273
 20
-7.195716802637235
 30
0.0
 10
-9.273819775334459
 20
-7.187143445879918
 30
0.0
 10
-10.40499298338732
 20
-7.118032565615064
 30
0.0
 10
-11.53611790592097
 20
-7.008164319770084
 30
0.0
 10
-12.66717282292697
 20
-6.854179794614331
 30
0.0
 10
-13.79814644825772
 20
-6.658165775691884
 30
0.0
 10
-14.92901647033227
 20
-6.420993906107927
 30
0.0
 10
-16.05978667186071
 20
-6.144261860111182
 30
0.0
 10
-17.19044702519659
 20
-5.829664212345231
 30
0.0
 10
-18.32098982848227
 20
-5.479132573282591
 30
0.0
 10
-19.45142071684862
 20
-5.094867193786757
 30
0.0
 10
-20.58174271781499
 20
-4.679219804323746
 30
0.0
 10
-21.71196995384942
 20
-4.234777915474587
 30
0.0
 10
-22.84210759955316
 20
-3.764272717870763
 30
0.0
 10
-23.9721661343964
 20
-3.270605863599756
 30
0.0
 10
-25.10215809088122
 20
-2.756822882917365
 30
0.0
 10
-26.23209338642032
 20
-2.226083298066204
 30
0.0
 10
-27.36198298716447
 20
-1.681651363955898
 30
0.0
 10
-28.4918389834126
 20
-1.126877994459147
 30
0.0
 10
-29.62167128507725
 20
-0.5651737082597441
 30
0.0
 10
-30.75149584714065
 20
-0.0000020972672439
 30
0.0
 10
-31.88131533723714
 20
0.5651796871664741
 30
0.0
 10
-33.0111514258534
 20
1.126875226144397
 30
0.0
 10
-34.14100602727911
 20
1.681650274908552
 30
0.0
 10
-35.27089764260395
 20
2.226084283061867
 30
0.0
 10
-36.40083762565668
 20
2.756819338488216
 30
0.0
 10
-37.53083136556735
 20
3.270604924765186
 30
0.0
 10
-38.66089006355346
 20
3.764271378723271
 30
0.0
 10
-39.79102766813511
 20
4.234776675272567
 30
0.0
 10
-40.92125490706357
 20
4.679218564771849
 30
0.0
 10
-42.05157693682013
 20
5.094865854847303
 30
0.0
 10
-43.18200770851368
 20
5.47913162671344
 30
0.0
 10
-44.31254565314169
 20
5.829660170586197
 30
0.0
 10
-45.44319901464923
 20
6.144261938796433
 30
0.0
 10
-46.57396879672059
 20
6.420999549526481
 30
0.0
 10
-47.70484689358614
 20
6.658144330790646
 30
0.0
 10
-48.83582425533415
 20
6.854219020195616
 30
0.0
 10
-49.96687950763542
 20
7.00802101657198
 30
0.0
 10
-51.09800521610906
 20
7.11855645225082
 30
0.0
 10
-52.22917746506183
 20
7.185162223123049
 30
0.0
 10
-53.36037457083881
 20
7.207413007249726
 30
0.0
 10
-54.49157167495134
 20
7.185162223088246
 30
0.0
 10
-55.62274392890703
 20
7.118556452390929
 30
0.0
 10
-56.75386961896144
 20
7.008021016044758
 30
0.0
 10
-57.88492494032081
 20
6.854219022177935
 30
0.0
 10
-59.01589652872314
 20
6.658145279233818
 30
0.0
 10
-60.14677017035942
 20
6.421001974204169
 30
0.0
 10
-61.22612630440524
 20
6.156824074287611
 30
0.0
 10
-61.92642485623123
 20
5.963628278627007
 30
0.0
 10
-62.2513225679268
 20
5.869474542743111
 30
0.0
  0
SPLINE
  5
44CC
330
1F
100
AcDbEntity
  8
AM_0
100
AcDbSpline
210
0.0
220
0.0
230
1.0
 70
     8
 71
     3
 72
    11
 73
     7
 74
     0
 42
0.0000000001
 43
0.0000000001
 40
11.27226913003534
 40
11.27226913003534
 40
11.27226913003534
 40
11.2722691300354
 40
12.28301561507924
 40
13.29510212255852
 40
14.30984805882082
 40
15.18258238371378
 40
15.18258238371378
 40
15.18258238371378
 40
15.18258238371378
 10
-29.45101346883276
 20
-7.200000628205751
 30
0.0
 10
-29.82647855342205
 20
-7.164761735899401
 30
0.0
 10
-30.57670052405388
 20
-7.079449911284948
 30
0.0
 10
-31.69815947360681
 20
-6.907354859207813
 30
0.0
 10
-32.76244379113306
 20
-6.70180618898822
 30
0.0
 10
-33.45076041547293
 20
-6.543794808669574
 30
0.0
 10
-33.7679563157667
 20
-6.465741551223751
 30
0.0
  0
SPLINE
  5
44CD
330
1F
100
AcDbEntity
  8
AM_0
100
AcDbSpline
210
0.0
220
0.0
230
1.0
 70
     8
 71
     3
 72
    22
 73
    18
 74
     0
 42
0.0000000001
 43
0.0000000001
 40
17.17441611292
 40
17.17441611292
 40
17.17441611292
 40
17.17441611292
 40
17.38177636558528
 40
18.41823744757437
 40
19.46215659509824
 40
20.51397914882054
 40
21.57394542641293
 40
22.64209583141747
 40
23.71826625065247
 40
24.80210429862395
 40
25.8930771157021
 40
26.99048705697709
 40
28.09349309193389
 40
29.20112995599786
 40
30.31233024745139
 40
31.42594771747373
 40
32.5407895042663
 40
32.54078950426994
 40
32.54078950426994
 40
32.54078950426994
 10
-33.76845101679938
 20
-6.465652739278808
 30
0.0
 10
-33.84419598579812
 20
-6.448985445467546
 30
0.0
 10
-34.29824570820863
 20
-6.347463137083046
 30
0.0
 10
-35.13003921406472
 20
-6.143897695349492
 30
0.0
 10
-36.26069241389535
 20
-5.829295023285888
 30
0.0
 10
-37.39123040253829
 20
-5.478766724834853
 30
0.0
 10
-38.52166116152838
 20
-5.0945008845499
 30
0.0
 10
-39.65198319764515
 20
-4.678853620176142
 30
0.0
 10
-40.78221042384219
 20
-4.234411696708153
 30
0.0
 10
-41.91234807338928
 20
-3.763906511208055
 30
0.0
 10
-43.04240660274706
 20
-3.270239643374124
 30
0.0
 10
-44.17239857744997
 20
-2.756456705087094
 30
0.0
 10
-45.30233380514649
 20
-2.225716963171665
 30
0.0
 10
-46.43222366046155
 20
-1.681285618204343
 30
0.0
 10
-47.5620781588852
 20
-1.126510306695832
 30
0.0
 10
-48.69191403822942
 20
-0.5648142921786309
 30
0.0
 10
-49.44499010895705
 20
-0.1880966900089846
 30
0.0
 10
-49.82173501973932
 20
0.0003655827334659
 30
0.0
  0
SPLINE
  5
44CE
330
1F
100
AcDbEntity
  8
AM_0
100
AcDbSpline
210
0.0
220
0.0
230
1.0
 70
     8
 71
     3
 72
    17
 73
    13
 74
     0
 42
0.0000000001
 43
0.0000000001
 40
1.580019955310467
 40
1.580019955310467
 40
1.580019955310467
 40
1.580019955310467
 40
2.030549285115227
 40
3.082371838836284
 40
4.126290986361125
 40
5.162752068350215
 40
6.192395305374981
 40
7.216039564037012
 40
8.234688489606833
 40
9.249433870634691
 40
10.26152376260694
 40
11.27226744710342
 40
11.27226744710342
 40
11.27226744710342
 40
11.27226744710352
 10
-18.79598702983742
 20
-5.313812643656762
 30
0.0
 10
-18.95602915777972
 20
-5.368540493030882
 30
0.0
 10
-19.49062363321175
 20
-5.547918329303747
 30
0.0
 10
-20.40330897665608
 20
-5.829278883748083
 30
0.0
 10
-21.53380479214824
 20
-6.144365379695018
 30
0.0
 10
-22.66461183207994
 20
-6.420969488583961
 30
0.0
 10
-23.79547068519548
 20
-6.658162311649619
 30
0.0
 10
-24.92645274335631
 20
-6.854218496842285
 30
0.0
 10
-26.05751293782216
 20
-7.008019237961876
 30
0.0
 10
-27.18864356114977
 20
-7.118567854743599
 30
0.0
 10
-28.31981674520983
 20
-7.185152732902988
 30
0.0
 10
-29.07411523159431
 20
-7.200000669404551
 30
0.0
 10
-29.4510134688327
 20
-7.200000628205751
 30
0.0
  0
SPLINE
  5
44CF
330
1F
100
AcDbEntity
  8
AM_0
100
AcDbSpline
210
0.0
220
0.0
230
1.0
 70
     8
 71
     3
 72
    46
 73
    42
 74
     0
 42
0.0000000001
 43
0.0000000001
 40
0.0
 40
0.0
 40
0.0
 40
0.0
 40
1.348332046947657
 40
2.024828967632895
 40
2.703918159304097
 40
3.386347665078124
 40
4.072776489761952
 40
4.763750544421347
 40
5.459696642770596
 40
6.160921452191754
 40
6.867565637253344
 40
7.579665907256596
 40
8.297112853413899
 40
9.019671552060676
 40
9.746986763446127
 40
10.47859339096366
 40
11.21393074760089
 40
11.95235532364328
 40
12.69315551794651
 40
13.43556823304427
 40
14.1787950170388
 40
14.92202180103393
 40
15.66443451613169
 40
16.40523471043432
 40
17.14365928647669
 40
17.87899664311455
 40
18.61060327063121
 40
19.3379184820169
 40
20.06048192311554
 40
20.77792886927283
 40
21.49002913927608
 40
22.19667332433747
 40
22.89788836015233
 40
23.59383445850158
 40
24.28480851316097
 40
24.97123685067576
 40
25.65366676154838
 40
26.33276604526152
 40
27.00926273560555
 40
27.68398960851751
 40
28.357818684969
 40
28.357818684969
 40
28.357818684969
 40
28.357818684969
 10
-4.976106701362955
 20
-7.200000628206709
 30
0.0
 10
-5.730442029614508
 20
-7.183598471640094
 30
0.0
 10
-6.863249061391525
 20
-7.158966881949034
 30
0.0
 10
-8.369591971262892
 20
-7.007314709285111
 30
0.0
 10
-9.500659040280448
 20
-6.854408977973688
 30
0.0
 10
-10.63162942998915
 20
-6.658103992436945
 30
0.0
 10
-11.76250016102573
 20
-6.421010091170994
 30
0.0
 10
-12.89326542388547
 20
-6.144260785009066
 30
0.0
 10
-14.02392332470646
 20
-5.829658920001395
 30
0.0
 10
-15.15446883166166
 20
-5.479136198170196
 30
0.0
 10
-16.2849042044404
 20
-5.094866691425326
 30
0.0
 10
-17.41522640251528
 20
-4.679219940473633
 30
0.0
 10
-18.54545358511713
 20
-4.234777878556079
 30
0.0
 10
-19.675591245376
 20
-3.764272728017445
 30
0.0
 10
-20.80564977596168
 20
-3.270605860275189
 30
0.0
 10
-21.93564173479758
 20
-2.756822886001419
 30
0.0
 10
-23.06557702519044
 20
-2.226083289019172
 30
0.0
 10
-24.19546664426151
 20
-1.681651397231416
 30
0.0
 10
-25.32532257206182
 20
-1.126877869917066
 30
0.0
 10
-26.45515512989899
 20
-0.5651741742975202
 30
0.0
 10
-27.58497819016422
 20
-0.000000628320179
 30
0.0
 10
-28.71480125018125
 20
0.5651729183439627
 30
0.0
 10
-29.84463380876293
 20
1.126876611904116
 30
0.0
 10
-30.97448973384197
 20
1.681650146744632
 30
0.0
 10
-32.10437936300362
 20
2.226082010620559
 30
0.0
 10
-33.23431461598159
 20
2.756821711097074
 30
0.0
 10
-34.3643067133775
 20
3.270604302095135
 30
0.0
 10
-35.49436718813089
 20
3.764273660788528
 30
0.0
 10
-36.62450923955948
 20
4.234774536549362
 30
0.0
 10
-37.75473843831338
 20
4.679218877413608
 30
0.0
 10
-38.88506061007112
 20
5.094865752042313
 30
0.0
 10
-40.01549133914982
 20
5.479131727678808
 30
0.0
 10
-41.14602931351279
 20
5.829659871799598
 30
0.0
 10
-42.27668259906407
 20
6.144263021990313
 30
0.0
 10
-43.40744720749625
 20
6.420994221759719
 30
0.0
 10
-44.53831876761806
 20
6.658156889599987
 30
0.0
 10
-45.66929637526704
 20
6.854181549100226
 30
0.0
 10
-46.80035761618274
 20
7.008163708275032
 30
0.0
 10
-47.93148883530702
 20
7.118021870743219
 30
0.0
 10
-49.06266111365312
 20
7.18715140064774
 30
0.0
 10
-49.81695990397561
 20
7.195718615943937
 30
0.0
 10
-50.19385821323107
 20
7.199999371795056
 30
0.0
  0
ELLIPSE
  5
44D0
330
1F
100
AcDbEntity
  8
AM_0
 48
0.5
100
AcDbEllipse
 10
-20.78707180991615
 20
49.42249434243876
 30
0.0
 11
0.0037220698007298
 21
53.98141429006396
 31
0.0
210
0.0
220
0.0
230
1.0
 40
0.9574140232566264
 41
3.480524238141953
 42
3.555590464372722
  0
ELLIPSE
  5
44D1
330
1F
100
AcDbEntity
  8
AM_0
 48
0.5
100
AcDbEllipse
 10
-13.69595770309001
 20
12.08420957687121
 30
0.0
 11
-0.0000000000080091
 21
17.35996284484777
 31
0.0
210
0.0
220
0.0
230
1.0
 40
0.9321784284283813
 41
3.652175978817696
 42
3.7406707564972
  0
ELLIPSE
  5
44D2
330
1F
100
AcDbEntity
  8
AM_0
 48
0.5
100
AcDbEllipse
 10
2.206827633539137
 20
8.64404234054297
 30
0.0
 11
0.000000000000574
 21
14.51120223998993
 31
0.0
210
0.0
220
0.0
230
1.0
 40
0.9321784284284303
 41
2.101163880028988
 42
2.509284810223887
  0
ELLIPSE
  5
44D3
330
1F
100
AcDbEntity
  8
AM_0
 48
0.5
100
AcDbEllipse
 10
-4.07738860824654
 20
-1.876424273226749
 30
0.0
 11
-0.9558701143450115
 21
0.6217267290583201
 31
0.0
210
0.0
220
0.0
230
1.0
 40
0.5161936111969313
 41
4.526724462554718
 42
7.670164803884228
  0
ELLIPSE
  5
44D4
330
1F
100
AcDbEntity
  8
AM_0
 48
0.5
100
AcDbEllipse
 10
-4.07738860824654
 20
-1.876424273226749
 30
0.0
 11
-0.1862896099444927
 21
1.18314510382068
 31
0.0
210
0.0
220
0.0
230
1.0
 40
0.4678606288634314
 41
1.820263481124997
 42
4.955605370836974
  0
ELLIPSE
  5
44D5
330
1F
100
AcDbEntity
  8
AM_0
 48
0.5
100
AcDbEllipse
 10
4.864201833734861
 20
-1.600461443636334
 30
0.0
 11
10.59424265143364
 21
1.904713468590376
 31
0.0
210
0.0
220
0.0
230
1.0
 40
0.6543461100798155
 41
3.078124832300641
 42
3.766330044701516
  0
POLYLINE
  5
44D6
330
1F
100
AcDbEntity
  8
AM_0
100
AcDb2dPolyline
 66
     1
 10
0.0
 20
0.0
 30
0.0
 70
     2
  0
VERTEX
  5
44D7
330
44D6
100
AcDbEntity
  8
AM_0
100
AcDbVertex
100
AcDb2dVertex
 10
-118.0066135855046
 20
6.26531384297852
 30
0.0
 42
0.0276737331564208
  0
VERTEX
  5
44D8
330
44D6
100
AcDbEntity
  8
AM_0
100
AcDbVertex
100
AcDb2dVertex
 10
-118.5354927450927
 20
6.151238416423322
 30
0.0
 42
0.0414024687830266
 70
     1
  0
VERTEX
  5
44D9
330
44D6
100
AcDbEntity
  8
AM_0
100
AcDbVertex
100
AcDb2dVertex
 10
-118.8754772688448
 20
6.026858733245088
 30
0.0
 42
0.0280074108471844
  0
VERTEX
  5
44DA
330
44D6
100
AcDbEntity
  8
AM_0
100
AcDbVertex
100
AcDb2dVertex
 10
-119.6506545158874
 20
5.613766099499375
 30
0.0
 42
0.0512701366748525
 70
     1
  0
VERTEX
  5
44DB
330
44D6
100
AcDbEntity
  8
AM_0
100
AcDbVertex
100
AcDb2dVertex
 10
-120.0339621799652
 20
5.32347487298379
 30
0.0
 42
0.0658714570033076
  0
VERTEX
  5
44DC
330
44D6
100
AcDbEntity
  8
AM_0
100
AcDbVertex
100
AcDb2dVertex
 10
-120.2745304445628
 20
5.031163350709048
 30
0.0
 42
0.1411961588081283
 70
     1
  0
VERTEX
  5
44DD
330
44D6
100
AcDbEntity
  8
AM_0
100
AcDbVertex
100
AcDb2dVertex
 10
-120.3235834077452
 20
4.858546122455933
 30
0.0
 42
0.1226739033459629
  0
VERTEX
  5
44DE
330
44D6
100
AcDbEntity
  8
AM_0
100
AcDbVertex
100
AcDb2dVertex
 10
-120.2757290759747
 20
4.668755306948786
 30
0.0
 42
0.0555312784770531
 70
     1
  0
VERTEX
  5
44DF
330
44D6
100
AcDbEntity
  8
AM_0
100
AcDbVertex
100
AcDb2dVertex
 10
-120.0339621799652
 20
4.316654879973173
 30
0.0
 42
0.0351528005485752
  0
VERTEX
  5
44E0
330
44D6
100
AcDbEntity
  8
AM_0
100
AcDbVertex
100
AcDb2dVertex
 10
-119.6432327950758
 20
3.923950038921411
 30
0.0
 42
0.0197318127063559
 70
     1
  0
VERTEX
  5
44E1
330
44D6
100
AcDbEntity
  8
AM_0
100
AcDbVertex
100
AcDb2dVertex
 10
-118.8754772688449
 20
3.305421051892387
 30
0.0
 42
0.0358460074876439
  0
VERTEX
  5
44E2
330
44D6
100
AcDbEntity
  8
AM_0
100
AcDbVertex
100
AcDb2dVertex
 10
-118.560582578771
 20
3.104918346284768
 30
0.0
 42
0.021710998496176
 70
     1
  0
VERTEX
  5
44E3
330
44D6
100
AcDbEntity
  8
AM_0
100
AcDbVertex
100
AcDb2dVertex
 10
-118.0066135855047
 20
2.836078466294322
 30
0.0
  0
SEQEND
  5
44E4
330
44D6
100
AcDbEntity
  8
AM_0
  0
LINE
  5
44E5
330
1F
100
AcDbEntity
  8
AM_11
 48
0.5
100
AcDbLine
 10
-119.011501885092
 20
7.19999937179724
 30
0.0
 11
-93.63006449559795
 21
7.199999371796605
 31
0.0
  0
ELLIPSE
  5
44E6
330
1F
100
AcDbEntity
  8
AM_0
100
AcDbEllipse
 10
-119.7152925783321
 20
-6.683380047734956
 30
0.0
 11
0.0000000000050606
 21
1.911156401951848
 31
0.0
210
0.0
220
0.0
230
1.0
 40
0.9791666666663656
 41
-0.2679377313973941
 42
-0.1275323195035221
  0
ELLIPSE
  5
44E7
330
1F
100
AcDbEntity
  8
AM_0
100
AcDbEllipse
 10
-119.6273407821824
 20
-5.955321821103641
 30
0.0
 11
-0.0000000000000326
 21
1.177591799911082
 31
0.0
210
0.0
220
0.0
230
1.0
 40
0.9791666666666948
 41
-0.1305094391969921
 42
0.0485168534968654
  0
ELLIPSE
  5
44E8
330
1F
100
AcDbEntity
  8
AM_0
100
AcDbEllipse
 10
-119.3510852541108
 20
-8.328956377927479
 30
0.0
 11
-0.0000000000007165
 21
3.566013914717864
 31
0.0
210
0.0
220
0.0
230
1.0
 40
0.9791666666666641
 41
0.0952766170358313
 42
0.2313492321874782
  0
ELLIPSE
  5
44E9
330
1F
100
AcDbEntity
  8
AM_0
100
AcDbEllipse
 10
-120.0252038904371
 20
-5.520302306944642
 30
0.0
 11
-0.0000000000002435
 21
0.6748358895122002
 31
0.0
210
0.0
220
0.0
230
1.0
 40
0.979166666666646
 41
0.1926332863328304
 42
0.5061117441974581
  0
ELLIPSE
  5
44EA
330
1F
100
AcDbEntity
  8
AM_0
100
AcDbEllipse
 10
-120.1318351614834
 20
-5.326859205145876
 30
0.0
 11
-0.0000000000018517
 21
0.4528533994492962
 31
0.0
210
0.0
220
0.0
230
1.0
 40
0.9791666666666236
 41
0.5028645116622053
 42
0.8675868530646244
  0
ELLIPSE
  5
44EB
330
1F
100
AcDbEntity
  8
AM_0
100
AcDbEllipse
 10
-120.3726465477283
 20
-5.117806172270301
 30
0.0
 11
0.0000000000000214
 21
0.1300739174032493
 31
0.0
210
0.0
220
0.0
230
1.0
 40
0.9791666666666383
 41
0.8708229448523789
 42
1.557899568956918
  0
ELLIPSE
  5
44EC
330
1F
100
AcDbEntity
  8
AM_0
100
AcDbEllipse
 10
-120.3691392663962
 20
-5.116201625520528
 30
0.0
 11
-0.0000000000000817
 21
0.1336450244351818
 31
0.0
210
0.0
220
0.0
230
1.0
 40
0.9791666666666548
 41
1.570250563378202
 42
2.246594350020208
  0
ELLIPSE
  5
44ED
330
1F
100
AcDbEntity
  8
AM_0
100
AcDbEllipse
 10
-120.0996550233485
 20
-4.893291170303647
 30
0.0
 11
-0.0000000000048322
 21
0.4878104384858733
 31
0.0
210
0.0
220
0.0
230
1.0
 40
0.9791666666667971
 41
2.250206732566463
 42
2.600849383072287
  0
ELLIPSE
  5
44EE
330
1F
100
AcDbEntity
  8
AM_0
100
AcDbEllipse
 10
-119.9668265143617
 20
-4.671249234689892
 30
0.0
 11
-0.0000000000013632
 21
0.7480068998473408
 31
0.0
210
0.0
220
0.0
230
1.0
 40
0.979166666666731
 41
2.598176912236205
 42
2.892513815367099
  0
ELLIPSE
  5
44EF
330
1F
100
AcDbEntity
  8
AM_0
100
AcDbEllipse
 10
-119.0432088806623
 20
-1.927355614657411
 30
0.0
 11
-0.0000000000121443
 21
3.647507503461381
 31
0.0
210
0.0
220
0.0
230
1.0
 40
0.9791666666669375
 41
2.827283645642292
 42
2.96036369336783
  0
ELLIPSE
  5
44F0
330
1F
100
AcDbEntity
  8
AM_0
100
AcDbEllipse
 10
-119.5658584926763
 20
-4.369475010725458
 30
0.0
 11
-0.0000000000004261
 21
1.152306230932808
 31
0.0
210
0.0
220
0.0
230
1.0
 40
0.9791666666667659
 41
3.034077686511841
 42
3.213695009857478
  0
ELLIPSE
  5
44F1
330
1F
100
AcDbEntity
  8
AM_0
100
AcDbEllipse
 10
-119.4746200685332
 20
-3.160984714892323
 30
0.0
 11
-0.0000000000002704
 21
2.357824471357543
 31
0.0
210
0.0
220
0.0
230
1.0
 40
0.9791666666665662
 41
3.137280341727647
 42
3.227451753245777
  0
SPLINE
  5
44F2
330
1F
100
AcDbEntity
  8
AM_0
100
AcDbSpline
210
0.0
220
0.0
230
1.0
 70
     8
 71
     3
 72
     9
 73
     5
 74
     0
 42
0.0000000001
 43
0.0000000001
 40
1.580019955310467
 40
1.580019955310467
 40
1.580019955310467
 40
1.580019955310467
 40
2.030549285115227
 40
2.43907978603305
 40
2.43907978603305
 40
2.43907978603305
 40
2.43907978603305
 10
-118.0304455634798
 20
-5.161778867127865
 30
0.0
 10
-118.2146083572493
 20
-5.212345809794138
 30
0.0
 10
-118.5663662007422
 20
-5.307117547049985
 30
0.0
 10
-118.9195946016505
 20
-5.397850295796238
 30
0.0
 10
-119.0878661692171
 20
-5.440157061549178
 30
0.0
  0
SPLINE
  5
44F3
330
1F
100
AcDbEntity
  8
AM_0
100
AcDbSpline
210
0.0
220
0.0
230
1.0
 70
     8
 71
     3
 72
    13
 73
     9
 74
     0
 42
0.0000000001
 43
0.0000000001
 40
26.13201924531566
 40
26.13201924531566
 40
26.13201924531566
 40
26.13201924531566
 40
26.99048218457928
 40
28.09348763352352
 40
29.20111863782268
 40
30.31232390128032
 40
31.42594612798585
 40
32.5407912310448
 40
32.5407912310486
 40
32.5407912310486
 40
32.5407912310486
 10
-118.0066135869527
 20
2.836078466855802
 30
0.0
 10
-117.6707359508908
 20
2.705837073790445
 30
0.0
 10
-116.9051514388012
 20
2.404717292859785
 30
0.0
 10
-115.7130796895481
 20
1.922706484912711
 30
0.0
 10
-114.4286357153872
 20
1.390517847629926
 30
0.0
 10
-113.1445136353032
 20
0.8487876783916806
 30
0.0
 10
-111.86060888551
 20
0.3006551568333199
 30
0.0
 10
-111.0049022898931
 20
-0.0668377272950268
 30
0.0
 10
-110.5768156356174
 20
-0.2506874718072959
 30
0.0
  0
SPLINE
  5
44F4
330
1F
100
AcDbEntity
  8
AM_0
100
AcDbSpline
210
0.0
220
0.0
230
1.0
 70
     8
 71
     3
 72
    15
 73
    11
 74
     0
 42
0.0000000001
 43
0.0000000001
 40
5.241236682593577
 40
5.241236682593577
 40
5.241236682593577
 40
5.241236682593577
 40
5.954688180526682
 40
6.824620803463244
 40
7.701151815239697
 40
8.58445704656667
 40
9.47458238407075
 40
10.37139106676736
 40
11.27458944007584
 40
12.17321262433756
 40
12.17321262433756
 40
12.17321262433756
 40
12.17321262433756
 10
-110.1589896100683
 20
-0.4184971640234557
 30
0.0
 10
-110.5179639746288
 20
-0.4864731448992713
 30
0.0
 10
-111.3124267285095
 20
-0.6462355738122692
 30
0.0
 10
-112.5385898941416
 20
-0.9232972185782951
 30
0.0
 10
-113.8395249774311
 20
-1.250850401714929
 30
0.0
 10
-115.1403333277291
 20
-1.609938963674827
 30
0.0
 10
-116.4410114462569
 20
-1.998348638298401
 30
0.0
 10
-117.7415802291041
 20
-2.413666684844386
 30
0.0
 10
-119.0369957144302
 20
-2.851632476480846
 30
0.0
 10
-119.8962774622645
 20
-3.156385100302266
 30
0.0
 10
-120.5
 20
-3.310978422594043
 30
0.0
  0
SPLINE
  5
44F5
330
1F
100
AcDbEntity
  8
AM_0
100
AcDbSpline
210
0.0
220
0.0
230
1.0
 70
     8
 71
     3
 72
    14
 73
    10
 74
     0
 42
0.0000000001
 43
0.0000000001
 40
4.563347739497467
 40
4.563347739497467
 40
4.563347739497467
 40
4.563347739497467
 40
5.079857003664532
 40
6.109500240690281
 40
7.145961322679372
 40
8.189895241603872
 40
9.241717795325891
 40
10.30168407291828
 40
10.55450228288433
 40
10.55450228288433
 40
10.55450228288433
 40
10.55450228288433
 10
-107.2246878826009
 20
-7.200235693300054
 30
0.0
 10
-107.7479210519463
 20
-7.114883810940049
 30
0.0
 10
-109.6281008375836
 20
-6.815016736518006
 30
0.0
 10
-113.5800936810708
 20
-6.183837062461981
 30
0.0
 10
-114.8812873236589
 20
-5.928144692601565
 30
0.0
 10
-116.1823545623413
 20
-5.637465606917587
 30
0.0
 10
-117.4832865344791
 20
-5.313584557362379
 30
0.0
 10
-118.450565514942
 20
-5.049568871733721
 30
0.0
 10
-118.9850314137018
 20
-4.896351250974274
 30
0.0
 10
-119.2198676501573
 20
-4.840415773296877
 30
0.0
  0
SPLINE
  5
44F6
330
1F
100
AcDbEntity
  8
AM_0
100
AcDbSpline
210
0.0
220
0.0
230
1.0
 70
     8
 71
     3
 72
    17
 73
    13
 74
     0
 42
0.0000000001
 43
0.0000000001
 40
3.731426397987522
 40
3.731426397987522
 40
3.731426397987522
 40
3.731426397987522
 40
4.232934581347659
 40
5.09097061220244
 40
5.954688180526682
 40
6.824620803463244
 40
7.701151815239697
 40
8.58445704656667
 40
9.47458238407075
 40
10.37139106676736
 40
11.27458944007584
 40
12.17321262433756
 40
12.17321262433756
 40
12.17321262433756
 40
12.17321262433756
 10
-103.9108442723157
 20
-7.200178393517098
 30
0.0
 10
-104.6956388895073
 20
-7.079992284832775
 30
0.0
 10
-105.3859746631853
 20
-6.97855000053096
 30
0.0
 10
-106.5096199876366
 20
-6.787241292246323
 30
0.0
 10
-107.8108079472271
 20
-6.528627198156674
 30
0.0
 10
-109.1118723637652
 20
-6.234641000156008
 30
0.0
 10
-113.8395249774311
 20
-5.371106443450872
 30
0.0
 10
-115.1403333277292
 20
-5.012017881490923
 30
0.0
 10
-116.4410114462569
 20
-4.623608206867313
 30
0.0
 10
-117.7415802291042
 20
-4.208290160321278
 30
0.0
 10
-119.0369957144302
 20
-3.770324368684765
 30
0.0
 10
-119.8962774622645
 20
-3.465571744863316
 30
0.0
 10
-120.5
 20
-3.310978422571518
 30
0.0
  0
SPLINE
  5
44F7
330
1F
100
AcDbEntity
  8
AM_0
100
AcDbSpline
210
0.0
220
0.0
230
1.0
 70
     8
 71
     3
 72
    21
 73
    17
 74
     0
 42
0.0000000001
 43
0.0000000001
 40
17.46072332543636
 40
17.46072332543636
 40
17.46072332543636
 40
17.46072332543636
 40
18.41823744757437
 40
19.46215659509824
 40
20.51397914882054
 40
21.57394542641293
 40
22.64209583141747
 40
23.71826625065247
 40
24.80210429862395
 40
25.8930771157021
 40
26.99048705697709
 40
28.09349309193389
 40
29.20112995599786
 40
30.31233024745139
 40
31.42594771747373
 40
32.5407895042663
 40
32.54078950426994
 40
32.54078950426994
 40
32.54078950426994
 10
-88.8320995954079
 20
-7.200000628203254
 30
0.0
 10
-91.94929222614986
 20
-6.447747925202488
 30
0.0
 10
-93.7036616649881
 20
-5.920481551189731
 30
0.0
 10
-94.97192756752632
 20
-5.637124486954958
 30
0.0
 10
-96.27285399938505
 20
-5.313246524027802
 30
0.0
 10
-97.57365704052972
 20
-4.958196052713662
 30
0.0
 10
-98.87433497268993
 20
-4.574150057350429
 30
0.0
 10
-100.1749038057028
 20
-4.163498633632779
 30
0.0
 10
-101.4753695615677
 20
-3.728765513083547
 30
0.0
 10
-102.7757442726852
 20
-3.272631671036516
 30
0.0
 10
-104.0760423983976
 20
-2.797911164377115
 30
0.0
 10
-105.3762752245082
 20
-2.307523063856705
 30
0.0
 10
-106.6764558399627
 20
-1.804484319935328
 30
0.0
 10
-107.9765957697304
 20
-1.291888051480979
 30
0.0
 10
-109.2767142742536
 20
-0.7728972545324128
 30
0.0
 10
-110.1432898121406
 20
-0.4248211359175567
 30
0.0
 10
-110.5768156356232
 20
-0.2506874718049157
 30
0.0
  0
SPLINE
  5
44F8
330
1F
100
AcDbEntity
  8
AM_0
100
AcDbSpline
210
0.0
220
0.0
230
1.0
 70
     8
 71
     3
 72
    22
 73
    18
 74
     0
 42
0.0000000001
 43
0.0000000001
 40
30.51371389116273
 40
30.51371389116273
 40
30.51371389116273
 40
30.51371389116273
 40
31.16722880550176
 40
32.23537921050758
 40
33.29534548809967
 40
34.347168041821
 40
35.39108718934584
 40
36.42754827133493
 40
37.45720575381954
 40
38.48085062012849
 40
39.49948440763516
 40
40.51422944315121
 40
41.52631975251916
 40
42.53706336719636
 40
43.54780698187354
 40
44.55989729124051
 40
45.14939243453665
 40
45.14939243453665
 40
45.14939243453665
 40
45.14939243453665
 10
-90.09054733852602
 20
0.0000000000005043
 30
0.0
 10
-99.81180881047523
 20
3.906578028395849
 30
0.0
 10
-100.5064677978273
 20
4.123093609089705
 30
0.0
 10
-101.6355822305221
 20
4.456482755407351
 30
0.0
 10
-102.9363852862849
 20
4.81153316350447
 30
0.0
 10
-104.237311667495
 20
5.135411353194157
 30
0.0
 10
-105.5383708605794
 20
5.426094246048927
 30
0.0
 10
-106.8395640204922
 20
5.68179175756126
 30
0.0
 10
-108.1408818198068
 20
5.900906645044067
 30
0.0
 10
-109.442313844659
 20
6.082073960968854
 30
0.0
 10
-110.7438354992985
 20
6.224182536797478
 30
0.0
 10
-112.0454382288755
 20
6.326314067681346
 30
0.0
 10
-113.3470945132558
 20
6.387855864690646
 30
0.0
 10
-114.6487794007435
 20
6.408414942711804
 30
0.0
 10
-115.950464286316
 20
6.387855864658476
 30
0.0
 10
-117.0698934789988
 20
6.334929693223317
 30
0.0
 10
-117.754773875186
 20
6.285680534850117
 30
0.0
 10
-118.0066135855046
 20
6.26531384297852
 30
0.0
  0
ELLIPSE
  5
44F9
330
1F
100
AcDbEntity
  8
AM_0
100
AcDbEllipse
 10
-118.6181612066163
 20
-7.093141100297827
 30
0.0
 11
1.65558232437894
 21
1.034978466117455
 31
0.0
210
0.0
220
0.0
230
1.0
 40
0.8719293730421574
 41
1.323494433379954
 42
2.579713156585244
  0
ELLIPSE
  5
44FA
330
1F
100
AcDbEntity
  8
AM_0
100
AcDbEllipse
 10
-116.0509046847643
 20
23.95731124756164
 30
0.0
 11
-7.860780791398256
 21
16.49650297181473
 31
0.0
210
0.0
220
0.0
230
1.0
 40
0.8292345111605609
 41
2.431258828434412
 42
2.629628952801927
  0
LINE
  5
44FB
330
1F
100
AcDbEntity
  8
AM_0
100
AcDbLine
 10
-93.63006449559795
 20
7.199999371796605
 30
0.0
 11
-66.95854551277432
 21
7.201022262462164
 31
0.0
  0
SPLINE
  5
44FC
330
1F
100
AcDbEntity
  8
AM_0
100
AcDbSpline
210
0.0
220
0.0
230
1.0
 70
     8
 71
     3
 72
    22
 73
    18
 74
     0
 42
0.0000000001
 43
0.0000000001
 40
17.17441611292
 40
17.17441611292
 40
17.17441611292
 40
17.17441611292
 40
17.38177636558528
 40
18.41823744757437
 40
19.46215659509824
 40
20.51397914882054
 40
21.57394542641293
 40
22.64209583141747
 40
23.71826625065247
 40
24.80210429862395
 40
25.8930771157021
 40
26.99048705697709
 40
28.09349309193389
 40
29.20112995599786
 40
30.31233024745139
 40
31.42594771747373
 40
32.5407895042663
 40
32.54078950426994
 40
32.54078950426994
 40
32.54078950426994
 10
-74.03799415259626
 20
-6.465652739277381
 30
0.0
 10
-74.11373912159499
 20
-6.448985445466123
 30
0.0
 10
-74.56778884400552
 20
-6.347463137081621
 30
0.0
 10
-75.39958234986163
 20
-6.143897695348072
 30
0.0
 10
-76.53023554969227
 20
-5.829295023284465
 30
0.0
 10
-77.66077353833519
 20
-5.478766724833425
 30
0.0
 10
-78.79120429732525
 20
-5.094500884548472
 30
0.0
 10
-79.92152633344208
 20
-4.678853620174719
 30
0.0
 10
-81.05175355963915
 20
-4.234411696706729
 30
0.0
 10
-82.18189120918625
 20
-3.763906511206632
 30
0.0
 10
-83.31194973854406
 20
-3.270239643372703
 30
0.0
 10
-84.44194171324683
 20
-2.756456705085671
 30
0.0
 10
-85.57187694094327
 20
-2.225716963170242
 30
0.0
 10
-86.70176679625832
 20
-1.681285618202919
 30
0.0
 10
-87.83162129468209
 20
-1.126510306694407
 30
0.0
 10
-88.96145717402632
 20
-0.5648142921772067
 30
0.0
 10
-89.71453324475396
 20
-0.1880966900075608
 30
0.0
 10
-90.09127815553622
 20
0.0003655827348897
 30
0.0
  0
SPLINE
  5
44FD
330
1F
100
AcDbEntity
  8
AM_0
100
AcDbSpline
210
0.0
220
0.0
230
1.0
 70
     8
 71
     3
 72
    46
 73
    42
 74
     0
 42
0.0000000001
 43
0.0000000001
 40
0.0
 40
0.0
 40
0.0
 40
0.0
 40
1.348332046947654
 40
2.024828967632893
 40
2.703918159304094
 40
3.386347665078122
 40
4.072776489761951
 40
4.763750544421345
 40
5.459696642770595
 40
6.160921452191748
 40
6.867565637253344
 40
7.579665907256597
 40
8.297112853413899
 40
9.019671552060666
 40
9.746986763446125
 40
10.47859339096365
 40
11.21393074760088
 40
11.95235532364327
 40
12.69315551794651
 40
13.43556823304427
 40
14.1787950170388
 40
14.92202180103393
 40
15.66443451613169
 40
16.40523471043432
 40
17.14365928647669
 40
17.87899664311455
 40
18.61060327063121
 40
19.33791848201689
 40
20.06048192311554
 40
20.77792886927282
 40
21.49002913927608
 40
22.19667332433747
 40
22.89788836015233
 40
23.59383445850157
 40
24.28480851316097
 40
24.97123685067575
 40
25.65366676154837
 40
26.33276604526151
 40
27.00926273560554
 40
27.68398960851752
 40
28.35781868496899
 40
28.35781868496899
 40
28.35781868496899
 40
28.35781868496899
 10
-45.24564983715983
 20
-7.200000628205285
 30
0.0
 10
-45.99998516541137
 20
-7.183598471638672
 30
0.0
 10
-47.13279219718839
 20
-7.158966881947609
 30
0.0
 10
-48.63913510705975
 20
-7.00731470928369
 30
0.0
 10
-49.77020217607733
 20
-6.854408977972266
 30
0.0
 10
-50.90117256578601
 20
-6.65810399243552
 30
0.0
 10
-52.03204329682261
 20
-6.42101009116957
 30
0.0
 10
-53.16280855968235
 20
-6.144260785007643
 30
0.0
 10
-54.29346646050331
 20
-5.829658919999969
 30
0.0
 10
-55.42401196745855
 20
-5.479136198168763
 30
0.0
 10
-56.55444734023732
 20
-5.094866691423904
 30
0.0
 10
-57.68476953831218
 20
-4.679219940472211
 30
0.0
 10
-58.81499672091402
 20
-4.23477787855466
 30
0.0
 10
-59.94513438117285
 20
-3.764272728016009
 30
0.0
 10
-61.07519291175858
 20
-3.270605860273778
 30
0.0
 10
-62.20518487059449
 20
-2.756822885999982
 30
0.0
 10
-63.33512016098731
 20
-2.226083289017758
 30
0.0
 10
-64.46500978005838
 20
-1.681651397229985
 30
0.0
 10
-65.59486570785864
 20
-1.126877869915647
 30
0.0
 10
-66.72469826569588
 20
-0.5651741742960953
 30
0.0
 10
-67.85452132596113
 20
-0.0000006283187535
 30
0.0
 10
-68.98434438597814
 20
0.5651729183453858
 30
0.0
 10
-70.11417694455987
 20
1.126876611905539
 30
0.0
 10
-71.24403286963893
 20
1.681650146746056
 30
0.0
 10
-72.37392249880059
 20
2.226082010621981
 30
0.0
 10
-73.50385775177851
 20
2.756821711098499
 30
0.0
 10
-74.63384984917429
 20
3.270604302096558
 30
0.0
 10
-75.7639103239277
 20
3.764273660789953
 30
0.0
 10
-76.89405237535632
 20
4.234774536550784
 30
0.0
 10
-78.02428157411026
 20
4.679218877415029
 30
0.0
 10
-79.15460374586803
 20
5.094865752043742
 30
0.0
 10
-80.28503447494669
 20
5.479131727680233
 30
0.0
 10
-81.4155724493097
 20
5.829659871801021
 30
0.0
 10
-82.54622573486098
 20
6.144263021991736
 30
0.0
 10
-83.67699034329318
 20
6.42099422176114
 30
0.0
 10
-84.80786190341499
 20
6.65815688960141
 30
0.0
 10
-85.93883951106395
 20
6.854181549101645
 30
0.0
 10
-87.06990075197968
 20
7.008163708276458
 30
0.0
 10
-88.20103197110396
 20
7.118021870744649
 30
0.0
 10
-89.33220424945007
 20
7.187151400649163
 30
0.0
 10
-90.08650303977255
 20
7.195718615945362
 30
0.0
 10
-90.463401349028
 20
7.199999371796482
 30
0.0
  0
SPLINE
  5
44FE
330
1F
100
AcDbEntity
  8
AM_0
100
AcDbSpline
210
0.0
220
0.0
230
1.0
 70
     8
 71
     3
 72
    55
 73
    51
 74
     0
 42
0.0000000001
 43
0.0000000001
 40
0.0
 40
0.0
 40
0.0
 40
0.0
 40
1.010743684496582
 40
2.022833576467832
 40
3.037578957496688
 40
4.056212745003489
 40
5.079857003664532
 40
6.109500240690281
 40
7.145961322679372
 40
8.189895241603872
 40
9.241717795325891
 40
10.30168407291828
 40
11.36983447792315
 40
12.44600489715814
 40
13.52984294512926
 40
14.62081576220742
 40
15.7182257034828
 40
16.82123173843959
 40
17.92886860250316
 40
19.0400688939571
 40
20.15368796660465
 40
21.26852814259644
 40
22.38336992938901
 40
23.49698739941135
 40
24.6081876908653
 40
25.71582455492886
 40
26.81883757994213
 40
27.91624752121713
 40
29.00722033829659
 40
30.09105838626677
 40
31.16722880550176
 40
32.23537921050758
 40
33.29534548809967
 40
34.347168041821
 40
35.39108718934584
 40
36.42754827133493
 40
37.45720575381954
 40
38.48085062012849
 40
39.49948440763516
 40
40.51422944315121
 40
41.52631975251916
 40
42.53706336719636
 40
43.54780698187354
 40
44.55989729124051
 40
45.57464232675757
 40
46.59327611426424
 40
47.6169209805722
 40
48.64656348684535
 40
49.68302456883444
 40
50.58557219878025
 40
50.58557219878025
 40
50.58557219878025
 40
50.58557219878025
 10
-48.41216619449035
 20
-7.200000628205164
 30
0.0
 10
-48.78906443670114
 20
-7.195716802635806
 30
0.0
 10
-49.54336291113133
 20
-7.187143445878488
 30
0.0
 10
-50.6745361191842
 20
-7.118032565613638
 30
0.0
 10
-51.80566104171784
 20
-7.008164319768659
 30
0.0
 10
-52.93671595872385
 20
-6.854179794612909
 30
0.0
 10
-54.06768958405458
 20
-6.658165775690462
 30
0.0
 10
-55.19855960612915
 20
-6.420993906106503
 30
0.0
 10
-56.32932980765756
 20
-6.144261860109764
 30
0.0
 10
-57.45999016099345
 20
-5.829664212343803
 30
0.0
 10
-58.59053296427916
 20
-5.479132573281169
 30
0.0
 10
-59.72096385264553
 20
-5.094867193785337
 30
0.0
 10
-60.85128585361189
 20
-4.679219804322323
 30
0.0
 10
-61.98151308964628
 20
-4.234777915473165
 30
0.0
 10
-63.11165073535003
 20
-3.76427271786934
 30
0.0
 10
-64.24170927019329
 20
-3.270605863598332
 30
0.0
 10
-65.37170122667816
 20
-2.756822882915942
 30
0.0
 10
-66.50163652221718
 20
-2.226083298064783
 30
0.0
 10
-67.63152612296135
 20
-1.681651363954474
 30
0.0
 10
-68.76138211920945
 20
-1.126877994457723
 30
0.0
 10
-69.89121442087413
 20
-0.5651737082583205
 30
0.0
 10
-71.02103898293757
 20
-0.0000020972658201
 30
0.0
 10
-72.150858473034
 20
0.5651796871678978
 30
0.0
 10
-73.28069456165033
 20
1.126875226145822
 30
0.0
 10
-74.41054916307608
 20
1.681650274909977
 30
0.0
 10
-75.54044077840092
 20
2.22608428306329
 30
0.0
 10
-76.67038076145359
 20
2.75681933848964
 30
0.0
 10
-77.80037450136415
 20
3.270604924766608
 30
0.0
 10
-78.93043319935024
 20
3.764271378724695
 30
0.0
 10
-80.06057080393196
 20
4.234776675273992
 30
0.0
 10
-81.19079804286043
 20
4.679218564773275
 30
0.0
 10
-82.32112007261704
 20
5.094865854848729
 30
0.0
 10
-83.45155084431056
 20
5.479131626714865
 30
0.0
 10
-84.58208878893859
 20
5.829660170587623
 30
0.0
 10
-85.71274215044615
 20
6.144261938797862
 30
0.0
 10
-86.84351193251751
 20
6.42099954952791
 30
0.0
 10
-87.97439002938306
 20
6.658144330792065
 30
0.0
 10
-89.10536739113108
 20
6.85421902019704
 30
0.0
 10
-90.23642264343237
 20
7.0080210165734
 30
0.0
 10
-91.36754835190599
 20
7.118556452252243
 30
0.0
 10
-92.49872060085875
 20
7.18516222312447
 30
0.0
 10
-93.62991770663571
 20
7.207413007251147
 30
0.0
 10
-94.76111481074829
 20
7.18516222308967
 30
0.0
 10
-95.89228706470397
 20
7.118556452392357
 30
0.0
 10
-97.02341275475838
 20
7.008021016046182
 30
0.0
 10
-98.15446807611776
 20
6.854219022179365
 30
0.0
 10
-99.28543966452005
 20
6.65814527923524
 30
0.0
 10
-100.4163133061562
 20
6.421001974205591
 30
0.0
 10
-101.4956694402021
 20
6.156824074289031
 30
0.0
 10
-102.1959679920281
 20
5.963628278628427
 30
0.0
 10
-104.2000949753883
 20
5.12107031221402
 30
0.0
  0
DIMENSION
  5
458F
330
1F
100
AcDbEntity
  8
AM_5
100
AcDbDimension
  2
*D9
 10
-0.6134061199820319
 20
-1.685306752286588
 30
0.0
 11
22.90656894297373
 21
-0.000027794382364
 31
0.0
 70
    34
  1
<>
 51
359.9999999999998
  3
AM_JIS$2
100
AcDb2LineAngularDimension
 13
-0.0000000000000284
 23
-0.0000000000000782
 33
0.0
 14
-0.6133936239360772
 24
1.685285145005348
 34
0.0
 15
-0.0000000000000284
 25
-0.0000000000000782
 35
0.0
 16
23.8796421465433
 26
-10.30069508040877
 36
0.0
1001
GENIUS_GENDTOL_13
1000

1000
h7
1000

1040
0.0
1001
ACAD
1000
DSTYLE
1002
{
1070
   271
1070
     0
1002
}
  0
ELLIPSE
  5
4691
330
1F
100
AcDbEntity
  8
AM_11
 48
0.5
100
AcDbEllipse
 10
-195.3165719824547
 20
29.81452229293917
 30
0.0
 11
-33.29749107360793
 21
0.000000000000904
 31
0.0
210
0.0
220
0.0
230
1.0
 40
0.9899999999999995
 41
1.792337542479572
 42
2.011520147323624
  0
ELLIPSE
  5
4692
330
1F
100
AcDbEntity
  8
AM_11
 48
0.5
100
AcDbEllipse
 10
-195.3165719824546
 20
-29.8145203324878
 30
0.0
 11
-33.29749107360789
 21
0.0000000000016878
 31
0.0
210
0.0
220
0.0
230
1.0
 40
0.9900000000000011
 41
4.271664206181739
 42
4.490847764700085
  0
ELLIPSE
  5
4693
330
1F
100
AcDbEntity
  8
AM_11
 48
0.5
100
AcDbEllipse
 10
-166.9075763918498
 20
-29.81448459473969
 30
0.0
 11
-33.29749107360783
 21
0.0000000000013772
 31
0.0
210
0.0
220
0.0
230
1.0
 40
0.9900000000000032
 41
4.271664206181728
 42
5.153113667165039
  0
ELLIPSE
  5
4694
330
1F
100
AcDbEntity
  8
AM_11
 48
0.5
100
AcDbEllipse
 10
-138.498485482759
 20
-29.81448459473959
 30
0.0
 11
-33.29749107360789
 21
0.0000000000016878
 31
0.0
210
0.0
220
0.0
230
1.0
 40
0.9900000000000011
 41
4.271664206181739
 42
5.153113667165048
  0
ELLIPSE
  5
4695
330
1F
100
AcDbEntity
  8
AM_11
 48
0.5
100
AcDbEllipse
 10
-166.9075763918501
 20
29.81455803068729
 30
0.0
 11
-33.29749107360793
 21
-0.0000000000000349
 31
0.0
210
0.0
220
0.0
230
1.0
 40
0.99
 41
1.130070686340306
 42
2.011520147323597
  0
ELLIPSE
  5
4696
330
1F
100
AcDbEntity
  8
AM_11
 48
0.5
100
AcDbEllipse
 10
-138.4984854827591
 20
29.81455803068738
 30
0.0
 11
-33.29749107360793
 21
0.000000000000904
 31
0.0
210
0.0
220
0.0
230
1.0
 40
0.9899999999999995
 41
1.130070686340335
 42
2.011520147323624
  0
ELLIPSE
  5
4697
330
1F
100
AcDbEntity
  8
AM_11
 48
0.5
100
AcDbEllipse
 10
-81.68028609531658
 20
29.81454105568769
 30
0.0
 11
-33.29749107360793
 21
0.000000000000904
 31
0.0
210
0.0
220
0.0
230
1.0
 40
0.9899999999999995
 41
1.130070686340335
 42
2.011520147323624
  0
ELLIPSE
  5
4698
330
1F
100
AcDbEntity
  8
AM_11
 48
0.5
100
AcDbEllipse
 10
-81.68028609531646
 20
-29.81450156973929
 30
0.0
 11
-33.29749107360789
 21
0.0000000000016878
 31
0.0
210
0.0
220
0.0
230
1.0
 40
0.9900000000000011
 41
4.271664206181739
 42
5.153113667165048
  0
ELLIPSE
  5
4699
330
1F
100
AcDbEntity
  8
AM_11
 48
0.5
100
AcDbEllipse
 10
-110.0893770044073
 20
-29.81450156973939
 30
0.0
 11
-33.29749107360783
 21
0.0000000000013772
 31
0.0
210
0.0
220
0.0
230
1.0
 40
0.9900000000000032
 41
4.271664206181728
 42
5.153113667165039
  0
ELLIPSE
  5
469A
330
1F
100
AcDbEntity
  8
AM_11
 48
0.5
100
AcDbEllipse
 10
-110.0893770044075
 20
29.81454105568759
 30
0.0
 11
-33.29749107360793
 21
-0.0000000000000349
 31
0.0
210
0.0
220
0.0
230
1.0
 40
0.99
 41
1.130070686340306
 42
2.011520147323597
  0
ELLIPSE
  5
469B
330
1F
100
AcDbEntity
  8
AM_11
 48
0.5
100
AcDbEllipse
 10
-24.86214030075641
 20
29.81453300552675
 30
0.0
 11
-33.29749107360793
 21
0.000000000000904
 31
0.0
210
0.0
220
0.0
230
1.0
 40
0.9899999999999995
 41
1.130070686340335
 42
2.011520147323624
  0
ELLIPSE
  5
469C
330
1F
100
AcDbEntity
  8
AM_11
 48
0.5
100
AcDbEllipse
 10
-53.27123120984717
 20
-29.81450961990032
 30
0.0
 11
-33.29749107360783
 21
0.0000000000013772
 31
0.0
210
0.0
220
0.0
230
1.0
 40
0.9900000000000032
 41
4.271664206181728
 42
5.153113667165039
  0
ELLIPSE
  5
469D
330
1F
100
AcDbEntity
  8
AM_11
 48
0.5
100
AcDbEllipse
 10
-24.86214030075629
 20
-29.81450961990022
 30
0.0
 11
-33.29749107360789
 21
0.0000000000016878
 31
0.0
210
0.0
220
0.0
230
1.0
 40
0.9900000000000011
 41
4.271664206181739
 42
5.153113667165048
  0
ELLIPSE
  5
469E
330
1F
100
AcDbEntity
  8
AM_11
 48
0.5
100
AcDbEllipse
 10
-53.27123120984737
 20
29.81453300552666
 30
0.0
 11
-33.29749107360793
 21
-0.0000000000000349
 31
0.0
210
0.0
220
0.0
230
1.0
 40
0.99
 41
1.130070686340306
 42
2.011520147323597
  0
ELLIPSE
  5
469F
330
1F
100
AcDbEntity
  8
AM_11
 48
0.5
100
AcDbEllipse
 10
3.546950608334469
 20
29.8145330055268
 30
0.0
 11
-33.29749107360851
 21
0.0000000000307517
 31
0.0
210
0.0
220
0.0
230
1.0
 40
0.9899999999999861
 41
1.130070686341231
 42
1.291800737381917
  0
VIEWPORT
  5
110
330
101
100
AcDbEntity
 67
     1
  8
0
100
AcDbViewport
 10
420.5
 20
297.0
 30
0.0
 40
948.9782706766916
 41
628.452
 68
     1
 69
     1
1001
ACAD
1000
MVIEW
1002
{
1070
    16
1010
0.0
1020
0.0
1030
0.0
1010
0.0
1020
0.0
1030
1.0
1040
0.0
1040
628.452
1040
420.5
1040
297.0
1040
50.0
1040
0.0
1040
0.0
1070
     0
1070
   100
1070
     1
1070
     1
1070
     0
1070
     0
1070
     0
1070
     0
1040
0.0
1040
0.0
1040
0.0
1040
10.0
1040
10.0
1040
10.0
1040
10.0
1070
     0
1002
{
1002
}
1002
}
  0
ENDSEC
  0
SECTION
  2
OBJECTS
  0
DICTIONARY
  5
C
330
0
100
AcDbDictionary
  3
ACAD_GROUP
350
D
  3
ACAD_LAYOUT
350
1A
  3
ACAD_MLINESTYLE
350
17
  3
ACAD_PLOTSETTINGS
350
19
  3
ACAD_PLOTSTYLENAME
350
E
  3
ACDBVARIABLEDICTIONARY
350
34
  3
ACMDICTIONARY
350
43
  3
AMG
350
2B
  3
AMGSNAPSETTINGS
350
6E
  3
DWGPROPS
350
46B9
  3
ACDBHEADERROUNDTRIPXREC
350
46C6
  0
DICTIONARY
  5
74
330
1F
100
AcDbDictionary
280
     1
  3
ACAD_INDEX
360
46BB
  3
ACAD_LAYOUTSELFREF
360
46E9
  0
DICTIONARY
  5
46EE
330
101
100
AcDbDictionary
280
     1
  3
ACAD_LAYOUTSELFREF
360
46EF
  0
DICTIONARY
  5
D
102
{ACAD_REACTORS
330
C
102
}
330
C
100
AcDbDictionary
  0
DICTIONARY
  5
1A
102
{ACAD_REACTORS
330
C
102
}
330
C
100
AcDbDictionary
  0
DICTIONARY
  5
17
102
{ACAD_REACTORS
330
C
102
}
330
C
100
AcDbDictionary
  3
STANDARD
350
18
  0
DICTIONARY
  5
19
102
{ACAD_REACTORS
330
C
102
}
330
C
100
AcDbDictionary
  0
ACDBDICTIONARYWDFLT
  5
E
102
{ACAD_REACTORS
330
C
102
}
330
C
100
AcDbDictionary
281
     1
  3
Normal
350
F
100
AcDbDictionaryWithDefault
340
F
  0
DICTIONARY
  5
34
102
{ACAD_REACTORS
330
C
102
}
330
C
100
AcDbDictionary
  3
INDEXCTL
350
35
  3
SORTENTS
350
B5E
  0
DICTIONARY
  5
43
102
{ACAD_REACTORS
330
C
102
}
330
C
100
AcDbDictionary
  3
ACMSTDDICTIONARY
350
260
  0
DICTIONARY
  5
2B
102
{ACAD_REACTORS
330
C
102
}
330
C
100
AcDbDictionary
  3
ACMGSETTINGS
350
2C
  0
DICTIONARY
  5
6E
102
{ACAD_REACTORS
330
C
102
}
330
C
100
AcDbDictionary
  0
XRECORD
  5
46B9
102
{ACAD_REACTORS
330
C
102
}
330
C
100
AcDbXrecord
  1
DWGPROPS COOKIE
  2

  3

  4

  6

  7

  8

  9

300
AmdtFileType=82
301
=
302
=
303
=
304
=
305
=
306
=
307
=
308
=
309
=
 40
0.2402121296296296
 41
2452800.443498622
 42
2452948.665673101
  1

 90
        1
  0
DICTIONARY
  5
46C6
102
{ACAD_REACTORS
330
C
102
}
330
C
100
AcDbDictionary
  3
TSTACKALIGN
350
46C7
  3
TSTACKSIZE
350
46C8
  3
HYPERLINKBASE
350
46C9
  3
STYLESHEET
350
46CA
  3
LAYOUTDICT
350
46CB
  3
PLOTSETDICT
350
46CC
  3
PLOTSTYLNAMDICT
350
46CD
  3
LWETCUNION
350
46CE
  3
INSUNITS
350
46CF
  3
CEPSNTYPE
350
46D0
  3
FINGERPRINTGUID
350
46D1
  3
VERSIONGUID
350
46D2
  3
PSVPSCALE
350
46D3
  3
DIMSTYLEDATA
350
46D4
  3
PUCSORTHOREF
350
46D5
  3
PUCSORTHOVIEW
350
46D6
  3
PUCSBASE
350
46D7
  3
PUCSORGTOP
350
46D8
  3
PUCSORGBOTTOM
350
46D9
  3
PUCSORGLEFT
350
46DA
  3
PUCSORGRIGHT
350
46DB
  3
PUCSORGFRONT
350
46DC
  3
PUCSORGBACK
350
46DD
  3
UCSORTHOREF
350
46DE
  3
UCSORTHOVIEW
350
46DF
  3
UCSBASE
350
46E0
  3
UCSORGTOP
350
46E1
  3
UCSORGBOTTOM
350
46E2
  3
UCSORGLEFT
350
46E3
  3
UCSORGRIGHT
350
46E4
  3
UCSORGFRONT
350
46E5
  3
UCSORGBACK
350
46E6
  0
DICTIONARY
  5
46BB
102
{ACAD_REACTORS
330
74
102
}
330
74
100
AcDbDictionary
  3
*A1
350
46BC
  0
XRECORD
  5
46E9
102
{ACAD_REACTORS
330
74
102
}
330
74
100
AcDbXrecord
340
1F
  0
XRECORD
  5
46EF
102
{ACAD_REACTORS
330
46EE
102
}
330
46EE
100
AcDbXrecord
340
101
  0
MLINESTYLE
  5
18
102
{ACAD_REACTORS
330
17
102
}
330
17
100
AcDbMlineStyle
  2
STANDARD
 70
     0
  3

 62
   256
 51
90.0
 52
90.0
 71
     2
 49
0.5
 62
   256
  6
BYLAYER
 49
-0.5
 62
   256
  6
BYLAYER
  0
ACDBPLACEHOLDER
  5
F
102
{ACAD_REACTORS
330
E
102
}
330
E
100
AcDbPlaceHolder
280
     0
  0
DICTIONARYVAR
  5
35
102
{ACAD_REACTORS
330
34
102
}
330
34
100
DictionaryVariables
280
     0
  1
1
  0
DICTIONARYVAR
  5
B5E
102
{ACAD_REACTORS
330
34
102
}
330
34
100
DictionaryVariables
280
     0
  1
96
  0
DICTIONARY
  5
260
102
{ACAD_REACTORS
330
43
102
}
330
43
100
AcDbDictionary
  0
DICTIONARY
  5
2C
102
{ACAD_REACTORS
330
2B
102
}
330
2B
100
AcDbDictionary
  3
DWGSETTINGS
350
2D
  0
XRECORD
  5
46C7
102
{ACAD_REACTORS
330
46C6
102
}
330
46C6
100
AcDbXrecord
 90
        1
  0
XRECORD
  5
46C8
102
{ACAD_REACTORS
330
46C6
102
}
330
46C6
100
AcDbXrecord
 90
       70
  0
XRECORD
  5
46C9
102
{ACAD_REACTORS
330
46C6
102
}
330
46C6
100
AcDbXrecord
  1

  0
XRECORD
  5
46CA
102
{ACAD_REACTORS
330
46C6
102
}
330
46C6
100
AcDbXrecord
  1
ASAMI.ctb
  0
XRECORD
  5
46CB
102
{ACAD_REACTORS
330
46C6
102
}
330
46C6
100
AcDbXrecord
340
1A
  0
XRECORD
  5
46CC
102
{ACAD_REACTORS
330
46C6
102
}
330
46C6
100
AcDbXrecord
340
19
  0
XRECORD
  5
46CD
102
{ACAD_REACTORS
330
46C6
102
}
330
46C6
100
AcDbXrecord
340
E
  0
XRECORD
  5
46CE
102
{ACAD_REACTORS
330
46C6
102
}
330
46C6
100
AcDbXrecord
 90
    10781
  0
XRECORD
  5
46CF
102
{ACAD_REACTORS
330
46C6
102
}
330
46C6
100
AcDbXrecord
 90
        4
  0
XRECORD
  5
46D0
102
{ACAD_REACTORS
330
46C6
102
}
330
46C6
100
AcDbXrecord
 90
        0
  0
XRECORD
  5
46D1
102
{ACAD_REACTORS
330
46C6
102
}
330
46C6
100
AcDbXrecord
  1
{AFB28963-8C59-40AE-9337-C84526B81ACE}
  0
XRECORD
  5
46D2
102
{ACAD_REACTORS
330
46C6
102
}
330
46C6
100
AcDbXrecord
  1
{70FA403C-75E1-4015-8997-00C6D6F9A45D}
  0
XRECORD
  5
46D3
102
{ACAD_REACTORS
330
46C6
102
}
330
46C6
100
AcDbXrecord
 40
0.0
  0
XRECORD
  5
46D4
102
{ACAD_REACTORS
330
46C6
102
}
330
46C6
100
AcDbXrecord
1000
DSTYLE
1002
{
1070
    79
 70
     2
1070
   341
340
59
1070
   342
340
59
1070
   371
 70
    -1
1070
   372
 70
    -1
1002
}
  0
XRECORD
  5
46D5
102
{ACAD_REACTORS
330
46C6
102
}
330
46C6
100
AcDbXrecord
340
0
  0
XRECORD
  5
46D6
102
{ACAD_REACTORS
330
46C6
102
}
330
46C6
100
AcDbXrecord
 70
     0
  0
XRECORD
  5
46D7
102
{ACAD_REACTORS
330
46C6
102
}
330
46C6
100
AcDbXrecord
340
0
  0
XRECORD
  5
46D8
102
{ACAD_REACTORS
330
46C6
102
}
330
46C6
100
AcDbXrecord
 10
0.0
 20
0.0
 30
0.0
  0
XRECORD
  5
46D9
102
{ACAD_REACTORS
330
46C6
102
}
330
46C6
100
AcDbXrecord
 10
0.0
 20
0.0
 30
0.0
  0
XRECORD
  5
46DA
102
{ACAD_REACTORS
330
46C6
102
}
330
46C6
100
AcDbXrecord
 10
0.0
 20
0.0
 30
0.0
  0
XRECORD
  5
46DB
102
{ACAD_REACTORS
330
46C6
102
}
330
46C6
100
AcDbXrecord
 10
0.0
 20
0.0
 30
0.0
  0
XRECORD
  5
46DC
102
{ACAD_REACTORS
330
46C6
102
}
330
46C6
100
AcDbXrecord
 10
0.0
 20
0.0
 30
0.0
  0
XRECORD
  5
46DD
102
{ACAD_REACTORS
330
46C6
102
}
330
46C6
100
AcDbXrecord
 10
0.0
 20
0.0
 30
0.0
  0
XRECORD
  5
46DE
102
{ACAD_REACTORS
330
46C6
102
}
330
46C6
100
AcDbXrecord
340
0
  0
XRECORD
  5
46DF
102
{ACAD_REACTORS
330
46C6
102
}
330
46C6
100
AcDbXrecord
 70
     0
  0
XRECORD
  5
46E0
102
{ACAD_REACTORS
330
46C6
102
}
330
46C6
100
AcDbXrecord
340
0
  0
XRECORD
  5
46E1
102
{ACAD_REACTORS
330
46C6
102
}
330
46C6
100
AcDbXrecord
 10
0.0
 20
0.0
 30
0.0
  0
XRECORD
  5
46E2
102
{ACAD_REACTORS
330
46C6
102
}
330
46C6
100
AcDbXrecord
 10
0.0
 20
0.0
 30
0.0
  0
XRECORD
  5
46E3
102
{ACAD_REACTORS
330
46C6
102
}
330
46C6
100
AcDbXrecord
 10
0.0
 20
0.0
 30
0.0
  0
XRECORD
  5
46E4
102
{ACAD_REACTORS
330
46C6
102
}
330
46C6
100
AcDbXrecord
 10
0.0
 20
0.0
 30
0.0
  0
XRECORD
  5
46E5
102
{ACAD_REACTORS
330
46C6
102
}
330
46C6
100
AcDbXrecord
 10
0.0
 20
0.0
 30
0.0
  0
XRECORD
  5
46E6
102
{ACAD_REACTORS
330
46C6
102
}
330
46C6
100
AcDbXrecord
 10
0.0
 20
0.0
 30
0.0
  0
LAYER_INDEX
  5
46BC
102
{ACAD_REACTORS
330
46BB
102
}
330
46BB
100
AcDbIndex
 40
2453151.66957699
100
AcDbLayerIndex
  8
0
360
46BD
 90
        0
  8
AM_0
360
46BE
 90
       66
  8
AM_7
360
46BF
 90
        1
  8
AM_11
360
46C0
 90
       20
  8
AM_5
360
46C1
 90
        5
  8
Defpoints
360
46C2
 90
        0
  8
AM_6
360
46C3
 90
        1
  8
AM_CL
360
46C4
 90
        0
  0
XRECORD
  5
2D
102
{ACAD_REACTORS
330
2C
102
}
330
2C
100
AcDbXrecord
  1
VERSION
140
15.0
  1
PRODUCT
  2
AutoCAD Mechanical 2000
  0
IDBUFFER
  5
46BD
330
0
100
AcDbIdBuffer
  0
IDBUFFER
  5
46BE
330
0
100
AcDbIdBuffer
330
44ED
330
44EE
330
44EF
330
44F0
330
44F1
330
44F2
330
44F3
330
44F4
330
44F5
330
44F6
330
44F7
330
44F8
330
44F9
330
44FA
330
44FB
330
44FC
330
44FD
330
44FE
330
1E25
330
1E26
330
1FD9
330
21D7
330
21D8
330
21D9
330
21DC
330
21DD
330
2694
330
2695
330
2696
330
2699
330
2CB4
330
2CB7
330
3366
330
3367
330
44B9
330
44BA
330
44BB
330
44BC
330
44C1
330
44C2
330
44C3
330
44C4
330
44C5
330
44C6
330
44C7
330
44C8
330
44CA
330
44CB
330
44CC
330
44CD
330
44CE
330
44CF
330
44D0
330
44D1
330
44D2
330
44D3
330
44D4
330
44D5
330
44D6
330
44E6
330
44E7
330
44E8
330
44E9
330
44EA
330
44EB
330
44EC
  0
IDBUFFER
  5
46BF
330
0
100
AcDbIdBuffer
330
C9F
  0
IDBUFFER
  5
46C0
330
0
100
AcDbIdBuffer
330
469C
330
469D
330
469E
330
469F
330
44BD
330
44BE
330
44BF
330
44C0
330
44E5
330
4691
330
4692
330
4693
330
4694
330
4695
330
4696
330
4697
330
4698
330
4699
330
469A
330
469B
  0
IDBUFFER
  5
46C1
330
0
100
AcDbIdBuffer
330
CC6
330
DF5
330
1FB6
330
2216
330
458F
  0
IDBUFFER
  5
46C2
330
0
100
AcDbIdBuffer
  0
IDBUFFER
  5
46C3
330
0
100
AcDbIdBuffer
330
19BD
  0
IDBUFFER
  5
46C4
330
0
100
AcDbIdBuffer
  0
ENDSEC
  0
EOF
