  0
SECTION
  2
HEADER
  9
$ACADVER
  1
AC1014
  9
$ACADMAINTVER
 70
     9
  9
$DWGCODEPAGE
  3
ANSI_932
  9
$INSBASE
 10
0.0
 20
0.0
 30
0.0
  9
$EXTMIN
 10
-209.3000009999999
 20
-54.00000305448097
 30
-0.00000001
  9
$EXTMAX
 10
26.1219852580731
 20
25.48630692151409
 30
0.00000001
  9
$LIMMIN
 10
-212.4283160478946
 20
-92.01098889734623
  9
$LIMMAX
 10
49.45840178964954
 20
64.30738472477009
  9
$ORTHOMODE
 70
     0
  9
$REGENMODE
 70
     1
  9
$FILLMODE
 70
     1
  9
$QTEXTMODE
 70
     0
  9
$MIRRTEXT
 70
     0
  9
$DRAGMODE
 70
     2
  9
$LTSCALE
 40
1.0
  9
$OSMODE
 70
    55
  9
$ATTMODE
 70
     1
  9
$TEXTSIZE
 40
2.5
  9
$TRACEWID
 40
1.0
  9
$TEXTSTYLE
  7
STANDARD
  9
$CLAYER
  8
AM_0
  9
$CELTYPE
  6
BYLAYER
  9
$CECOLOR
 62
   256
  9
$CELTSCALE
 40
1.0
  9
$DELOBJ
 70
     1
  9
$DISPSILH
 70
     0
  9
$DIMSCALE
 40
1.0
  9
$DIMASZ
 40
2.5
  9
$DIMEXO
 40
1.0
  9
$DIMDLI
 40
12.0
  9
$DIMRND
 40
0.0
  9
$DIMDLE
 40
0.0
  9
$DIMEXE
 40
1.0
  9
$DIMTP
 40
0.1
  9
$DIMTM
 40
0.1
  9
$DIMTXT
 40
3.2
  9
$DIMCEN
 40
0.0
  9
$DIMTSZ
 40
0.0
  9
$DIMTOL
 70
     0
  9
$DIMLIM
 70
     0
  9
$DIMTIH
 70
     0
  9
$DIMTOH
 70
     0
  9
$DIMSE1
 70
     0
  9
$DIMSE2
 70
     0
  9
$DIMTAD
 70
     3
  9
$DIMZIN
 70
     8
  9
$DIMBLK
  1
OPEN30
  9
$DIMASO
 70
     1
  9
$DIMSHO
 70
     1
  9
$DIMPOST
  1

  9
$DIMAPOST
  1
"
  9
$DIMALT
 70
     0
  9
$DIMALTD
 70
     2
  9
$DIMALTF
 40
0.0393701
  9
$DIMLFAC
 40
1.0
  9
$DIMTOFL
 70
     1
  9
$DIMTVP
 40
0.0
  9
$DIMTIX
 70
     0
  9
$DIMSOXD
 70
     0
  9
$DIMSAH
 70
     0
  9
$DIMBLK1
  1

  9
$DIMBLK2
  1

  9
$DIMSTYLE
  2
AM_JIS
  9
$DIMCLRD
 70
   256
  9
$DIMCLRE
 70
   256
  9
$DIMCLRT
 70
     2
  9
$DIMTFAC
 40
0.71
  9
$DIMGAP
 40
1.5
  9
$DIMJUST
 70
     0
  9
$DIMSD1
 70
     0
  9
$DIMSD2
 70
     0
  9
$DIMTOLJ
 70
     0
  9
$DIMTZIN
 70
     0
  9
$DIMALTZ
 70
     0
  9
$DIMALTTZ
 70
     0
  9
$DIMFIT
 70
     3
  9
$DIMUPT
 70
     0
  9
$DIMUNIT
 70
     2
  9
$DIMDEC
 70
     3
  9
$DIMTDEC
 70
     3
  9
$DIMALTU
 70
     2
  9
$DIMALTTD
 70
     2
  9
$DIMTXSTY
  7
ASAMI
  9
$DIMAUNIT
 70
     0
  9
$LUNITS
 70
     2
  9
$LUPREC
 70
     2
  9
$SKETCHINC
 40
1.0
  9
$FILLETRAD
 40
2.5
  9
$AUNITS
 70
     0
  9
$AUPREC
 70
     0
  9
$MENU
  1
.
  9
$ELEVATION
 40
0.0
  9
$PELEVATION
 40
0.0
  9
$THICKNESS
 40
0.0
  9
$LIMCHECK
 70
     0
  9
$BLIPMODE
 70
     0
  9
$CHAMFERA
 40
0.5
  9
$CHAMFERB
 40
0.5
  9
$CHAMFERC
 40
20.0
  9
$CHAMFERD
 40
0.0
  9
$SKPOLY
 70
     0
  9
$TDCREATE
 40
2452800.443498622
  9
$TDUPDATE
 40
2453151.669947720
  9
$TDINDWG
 40
0.2437188889
  9
$TDUSRTIMER
 40
0.2437188889
  9
$USRTIMER
 70
     1
  9
$ANGBASE
 50
0.0
  9
$ANGDIR
 70
     0
  9
$PDMODE
 70
     3
  9
$PDSIZE
 40
0.0
  9
$PLINEWID
 40
0.0
  9
$COORDS
 70
     1
  9
$SPLFRAME
 70
     0
  9
$SPLINETYPE
 70
     6
  9
$SPLINESEGS
 70
     8
  9
$ATTDIA
 70
     1
  9
$ATTREQ
 70
     1
  9
$HANDLING
 70
 12289
  9
$HANDSEED
  5
4888
  9
$SURFTAB1
 70
     6
  9
$SURFTAB2
 70
     6
  9
$SURFTYPE
 70
     6
  9
$SURFU
 70
     6
  9
$SURFV
 70
     6
  9
$UCSNAME
  2

  9
$UCSORG
 10
0.0
 20
0.0
 30
0.0
  9
$UCSXDIR
 10
1.0
 20
0.0000000000000027
 30
0.0
  9
$UCSYDIR
 10
-0.0000000000000027
 20
1.0
 30
0.0
  9
$PUCSNAME
  2

  9
$PUCSORG
 10
0.0
 20
0.0
 30
0.0
  9
$PUCSXDIR
 10
1.0
 20
0.0
 30
0.0
  9
$PUCSYDIR
 10
0.0
 20
1.0
 30
0.0
  9
$USERI1
 70
     0
  9
$USERI2
 70
     0
  9
$USERI3
 70
     0
  9
$USERI4
 70
     0
  9
$USERI5
 70
     0
  9
$USERR1
 40
0.0
  9
$USERR2
 40
0.0
  9
$USERR3
 40
0.0
  9
$USERR4
 40
0.0
  9
$USERR5
 40
0.0
  9
$WORLDVIEW
 70
     1
  9
$SHADEDGE
 70
     3
  9
$SHADEDIF
 70
    70
  9
$TILEMODE
 70
     1
  9
$MAXACTVP
 70
    64
  9
$PINSBASE
 10
0.0
 20
0.0
 30
0.0
  9
$PLIMCHECK
 70
     0
  9
$PEXTMIN
 10
1.000000000000000E+20
 20
1.000000000000000E+20
 30
1.000000000000000E+20
  9
$PEXTMAX
 10
-1.000000000000000E+20
 20
-1.000000000000000E+20
 30
-1.000000000000000E+20
  9
$PLIMMIN
 10
0.0
 20
0.0
  9
$PLIMMAX
 10
841.0
 20
594.0
  9
$UNITMODE
 70
     0
  9
$VISRETAIN
 70
     1
  9
$PLINEGEN
 70
     0
  9
$PSLTSCALE
 70
     0
  9
$TREEDEPTH
 70
  3020
  9
$PICKSTYLE
 70
     0
  9
$CMLSTYLE
  2
STANDARD
  9
$CMLJUST
 70
     0
  9
$CMLSCALE
 40
20.0
  9
$PROXYGRAPHICS
 70
     1
  9
$MEASUREMENT
 70
     1
  0
ENDSEC
  0
SECTION
  2
CLASSES
  0
CLASS
  1
ACDBDICTIONARYWDFLT
  2
AcDbDictionaryWithDefault
  3
AutoCAD 2000
 90
        0
280
     0
281
     0
  0
CLASS
  1
ACDBPLACEHOLDER
  2
AcDbPlaceHolder
  3
AutoCAD 2000
 90
        0
280
     0
281
     0
  0
CLASS
  1
LAYOUT
  2
AcDbLayout
  3
AutoCAD 2000
 90
        0
280
     0
281
     0
  0
CLASS
  1
AMGSETTINGSOBJ
  2
AmgSettingsObj
  3
"AcadM|Product Description: AutoCAD Mechanical 2000|Company: Autodesk"
 90
        0
280
     0
281
     0
  0
CLASS
  1
ACME_DOCUMENT
  2
AcMeDbDoc
  3
AcMeServices
 90
        0
280
     0
281
     0
  0
CLASS
  1
ACMESCOPE
  2
AcMeScope
  3
AcMeServices
 90
        0
280
     0
281
     0
  0
CLASS
  1
ACMECOMMANDHISTORY
  2
AcMeCommandHistory
  3
AcMeServices
 90
        0
280
     0
281
     0
  0
CLASS
  1
DICTIONARYVAR
  2
AcDbDictionaryVar
  3
AutoCAD 2000
 90
        0
280
     0
281
     0
  0
CLASS
  1
ACIMSYSVARMAN
  2
AcImSysVarManager
  3
AcMeServices
 90
        0
280
     0
281
     0
  0
CLASS
  1
ACIMREALSYSVAR
  2
AcImRealSysVar
  3
AcMeServices
 90
        0
280
     0
281
     0
  0
CLASS
  1
ACIMINTSYSVAR
  2
AcImIntSysVar
  3
AcMeServices
 90
        0
280
     0
281
     0
  0
CLASS
  1
ACMEDRAWINGMAN
  2
AcMeDrawingMan
  3
AcMeServices
 90
        0
280
     0
281
     0
  0
CLASS
  1
ACMEVIEW
  2
AcMeView
  3
AcMeServices
 90
        0
280
     0
281
     0
  0
CLASS
  1
ACDBENTITYCACHE
  2
AcMeEntityCache
  3
AcMeServices
 90
        0
280
     0
281
     0
  0
CLASS
  1
GSMANAGER
  2
AcMeGSManager
  3
AcMeServices
 90
        0
280
     0
281
     0
  0
CLASS
  1
AmdtInternalReactor
  2
AmdtInternalReactor
  3
AcMeServices
 90
        0
280
     0
281
     0
  0
CLASS
  1
ACMESTATEMGR
  2
AcMeStateMgr
  3
AcMeServices
 90
        0
280
     0
281
     0
  0
CLASS
  1
ACME_DATABASE
  2
AcMeDbDatabase
  3
AcMeServices
 90
        0
280
     0
281
     0
  0
CLASS
  1
ACRFINSADJUSTERMGR
  2
AcRfInsAdjusterMgr
  3
AcMeServices
 90
        0
280
     0
281
     0
  0
CLASS
  1
ACMDATADICTIONARY
  2
AcmDataDictionary
  3
"AcmSymBB|Product Description: AutoCAD Mechanical 2000|Company: Autodesk"
 90
        0
280
     0
281
     0
  0
CLASS
  1
ACMDATAENTRYBLOCK
  2
AcmDataEntryBlock
  3
"AcmSymBB|Product Description: AutoCAD Mechanical 2000|Company: Autodesk"
 90
        0
280
     0
281
     0
  0
CLASS
  1
AMGOBJPROPCFG
  2
AmgObjPropCfg
  3
"AmgLay|Product Description: AutoCAD Mechanical 2000|Company: Autodesk"
 90
        1
280
     0
281
     0
  0
CLASS
  1
ACAMGFILTERDAT
  2
AcAmgFilterDat
  3
"AcadM|Product Description: AutoCAD Mechanical 2000|Company: Autodesk"
 90
        0
280
     0
281
     0
  0
CLASS
  1
LAYER_INDEX
  2
AcDbLayerIndex
  3
AutoCAD 2000
 90
        0
280
     0
281
     0
  0
CLASS
  1
IDBUFFER
  2
AcDbIdBuffer
  3
AutoCAD 2000
 90
        0
280
     0
281
     0
  0
CLASS
  1
ACIMSTRSYSVAR
  2
AcImStrSysVar
  3
AcMeServices
 90
        0
280
     0
281
     0
  0
CLASS
  1
ACMSTANDARDJIS
  2
AcmStandardJIS
  3
"AcmSymBB|Product Description: AutoCAD Mechanical 2000|Company: Autodesk"
 90
        0
280
     0
281
     0
  0
CLASS
  1
ACMSURFSTANDARDJIS
  2
AcmSurfTextStdJIS
  3
"AcmSymBB|Product Description: AutoCAD Mechanical 2000|Company: Autodesk"
 90
        0
280
     0
281
     0
  0
CLASS
  1
ACMFCFSTANDARDJIS
  2
AcmFCFStdJIS
  3
"AcmSymBB|Product Description: AutoCAD Mechanical 2000|Company: Autodesk"
 90
        0
280
     0
281
     0
  0
CLASS
  1
ACMWELDSTANDARDJIS
  2
AcmWeldingStdJIS
  3
"AcmSymBB|Product Description: AutoCAD Mechanical 2000|Company: Autodesk"
 90
        0
280
     0
281
     0
  0
CLASS
  1
ACMIDSTANDARDJIS
  2
AcmIdStdJIS
  3
"AcmSymBB|Product Description: AutoCAD Mechanical 2000|Company: Autodesk"
 90
        0
280
     0
281
     0
  0
CLASS
  1
ACMDATUMSTANDARDJIS
  2
AcmDatumStdJIS
  3
"AcmSymBB|Product Description: AutoCAD Mechanical 2000|Company: Autodesk"
 90
        0
280
     0
281
     0
  0
CLASS
  1
ACMBOMSTANDARDJIS
  2
AcmBOMStdJIS
  3
"AcmSymBB|Product Description: AutoCAD Mechanical 2000|Company: Autodesk"
 90
        0
280
     0
281
     0
  0
CLASS
  1
ACMSTANDARDANSI
  2
AcmStandardANSI
  3
"AcmSymBB|Product Description: AutoCAD Mechanical 2000|Company: Autodesk"
 90
        0
280
     0
281
     0
  0
CLASS
  1
ACMSURFSTANDARDANSI
  2
AcmSurfTextStdANSI
  3
"AcmSymBB|Product Description: AutoCAD Mechanical 2000|Company: Autodesk"
 90
        0
280
     0
281
     0
  0
CLASS
  1
ACMFCFSTANDARDANSI
  2
AcmFCFStdANSI
  3
"AcmSymBB|Product Description: AutoCAD Mechanical 2000|Company: Autodesk"
 90
        0
280
     0
281
     0
  0
CLASS
  1
ACMWELDSTANDARDANSI
  2
AcmWeldingStdANSI
  3
"AcmSymBB|Product Description: AutoCAD Mechanical 2000|Company: Autodesk"
 90
        0
280
     0
281
     0
  0
CLASS
  1
ACMIDSTANDARDANSI
  2
AcmIdStdANSI
  3
"AcmSymBB|Product Description: AutoCAD Mechanical 2000|Company: Autodesk"
 90
        0
280
     0
281
     0
  0
CLASS
  1
ACMDATUMSTANDARDANSI
  2
AcmDatumStdANSI
  3
"AcmSymBB|Product Description: AutoCAD Mechanical 2000|Company: Autodesk"
 90
        0
280
     0
281
     0
  0
CLASS
  1
ACMBOMSTANDARDANSI
  2
AcmBOMStdANSI
  3
"AcmSymBB|Product Description: AutoCAD Mechanical 2000|Company: Autodesk"
 90
        0
280
     0
281
     0
  0
CLASS
  1
ACMSTANDARDBSI
  2
AcmStandardBSI
  3
"AcmSymBB|Product Description: AutoCAD Mechanical 2000|Company: Autodesk"
 90
        0
280
     0
281
     0
  0
CLASS
  1
ACMSURFSTANDARDBSI
  2
AcmSurfTextStdBSI
  3
"AcmSymBB|Product Description: AutoCAD Mechanical 2000|Company: Autodesk"
 90
        0
280
     0
281
     0
  0
CLASS
  1
ACMFCFSTANDARDBSI
  2
AcmFCFStdBSI
  3
"AcmSymBB|Product Description: AutoCAD Mechanical 2000|Company: Autodesk"
 90
        0
280
     0
281
     0
  0
CLASS
  1
ACMWELDSTANDARDBSI
  2
AcmWeldingStdBSI
  3
"AcmSymBB|Product Description: AutoCAD Mechanical 2000|Company: Autodesk"
 90
        0
280
     0
281
     0
  0
CLASS
  1
ACMIDSTANDARDBSI
  2
AcmIdStdBSI
  3
"AcmSymBB|Product Description: AutoCAD Mechanical 2000|Company: Autodesk"
 90
        0
280
     0
281
     0
  0
CLASS
  1
ACMDATUMSTANDARDBSI
  2
AcmDatumStdBSI
  3
"AcmSymBB|Product Description: AutoCAD Mechanical 2000|Company: Autodesk"
 90
        0
280
     0
281
     0
  0
CLASS
  1
ACMBOMSTANDARDBSI
  2
AcmBOMStdBSI
  3
"AcmSymBB|Product Description: AutoCAD Mechanical 2000|Company: Autodesk"
 90
        0
280
     0
281
     0
  0
CLASS
  1
LONG_TRANSACTION
  2
AcDbLongTransaction
  3
AutoCAD 2000
 90
        0
280
     0
281
     0
  0
CLASS
  1
LWPOLYLINE
  2
AcDbPolyline
  3
AutoCAD 2000
 90
        0
280
     0
281
     1
  0
CLASS
  1
HATCH
  2
AcDbHatch
  3
AutoCAD 2000
 90
        0
280
     0
281
     1
  0
CLASS
  1
XRECORD
  2
AcDbXrecord
  3
AutoCAD 2000
 90
        0
280
     0
281
     0
  0
ENDSEC
  0
SECTION
  2
TABLES
  0
TABLE
  2
VPORT
  5
8
330
0
100
AcDbSymbolTable
 70
     3
  0
VPORT
  5
4852
330
8
100
AcDbSymbolTableRecord
100
AcDbViewportTableRecord
  2
*ACTIVE
 70
     0
 10
0.0
 20
0.0
 11
1.0
 21
1.0
 12
-87.23225805870688
 22
-14.25729066805087
 13
0.0
 23
0.0
 14
2.5
 24
2.5
 15
10.0
 25
10.0
 16
0.0
 26
0.0
 36
1.0
 17
0.0
 27
0.0
 37
0.0
 40
156.6991092998783
 41
1.56570841889117
 42
50.0
 43
0.0
 44
0.0
 50
0.0
 51
0.0
 71
     0
 72
   100
 73
     1
 74
     1
 75
     0
 76
     0
 77
     0
 78
     0
  0
ENDTAB
  0
TABLE
  2
LTYPE
  5
5
330
0
100
AcDbSymbolTable
 70
    10
  0
LTYPE
  5
14
330
5
100
AcDbSymbolTableRecord
100
AcDbLinetypeTableRecord
  2
BYBLOCK
 70
     0
  3

 72
    65
 73
     0
 40
0.0
  0
LTYPE
  5
15
330
5
100
AcDbSymbolTableRecord
100
AcDbLinetypeTableRecord
  2
BYLAYER
 70
     0
  3

 72
    65
 73
     0
 40
0.0
  0
LTYPE
  5
16
330
5
100
AcDbSymbolTableRecord
100
AcDbLinetypeTableRecord
  2
CONTINUOUS
 70
     0
  3
Solid line
 72
    65
 73
     0
 40
0.0
  0
LTYPE
  5
4B
330
5
100
AcDbSymbolTableRecord
100
AcDbLinetypeTableRecord
  2
AM_ISO02W050
 70
     0
  3
__ __ __ __ __ __ __ __ __ __ __ __ __ __ __
 72
    65
 73
     2
 40
7.5
 49
6.0
 74
     0
 49
-1.5
 74
     0
  0
LTYPE
  5
4C
330
5
100
AcDbSymbolTableRecord
100
AcDbLinetypeTableRecord
  2
AM_ISO08W050
 70
     0
  3
____ . ____ . ____ . ____ . ____ . ____ . ____
 72
    65
 73
     4
 40
18.0
 49
12.0
 74
     0
 49
-1.5
 74
     0
 49
3.0
 74
     0
 49
-1.5
 74
     0
  0
LTYPE
  5
4D
330
5
100
AcDbSymbolTableRecord
100
AcDbLinetypeTableRecord
  2
AM_ISO09W050
 70
     0
  3
_____ . . _____ . . _____ . . ____ .. ____
 72
    65
 73
     6
 40
22.5
 49
12.0
 74
     0
 49
-1.5
 74
     0
 49
3.0
 74
     0
 49
-1.5
 74
     0
 49
3.0
 74
     0
 49
-1.5
 74
     0
  0
LTYPE
  5
4E
330
5
100
AcDbSymbolTableRecord
100
AcDbLinetypeTableRecord
  2
AMCONSTR
 70
     0
  3
_______________________
 72
    65
 73
     2
 40
9999.0
 49
9999.0
 74
     0
 49
0.0
 74
     0
  0
LTYPE
  5
4F
330
5
100
AcDbSymbolTableRecord
100
AcDbLinetypeTableRecord
  2
AM_ISO02W050X2
 70
     0
  3
 _ _ _ _ _ _ _ _ _ _ _ _
 72
    65
 73
     2
 40
3.75
 49
3.0
 74
     0
 49
-0.75
 74
     0
  0
LTYPE
  5
50
330
5
100
AcDbSymbolTableRecord
100
AcDbLinetypeTableRecord
  2
AM_ISO08W050X2
 70
     0
  3
__ . __ . __ . __ . __ . __
 72
    65
 73
     4
 40
9.0
 49
6.0
 74
     0
 49
-0.75
 74
     0
 49
1.5
 74
     0
 49
-0.75
 74
     0
  0
LTYPE
  5
53
330
5
100
AcDbSymbolTableRecord
100
AcDbLinetypeTableRecord
  2
AMZIGZAG
 70
     0
  3
/\/-/\/-/\/-/\/-/\/-/\/
 72
    65
 73
     2
 40
11.00009999999999
 49
0.0001
 74
     4
 75
   135
340
52
 46
0.04
 50
0.0
 44
0.0
 45
0.0
 49
-11.0
 74
     0
  0
LTYPE
  5
166
330
5
100
AcDbSymbolTableRecord
100
AcDbLinetypeTableRecord
  2
ACJISTGL
 70
     0
  3
_ _ _ _ _
 72
    65
 73
     2
 40
3.0
 49
2.0
 74
     0
 49
-1.0
 74
     0
  0
LTYPE
  5
26A
330
5
100
AcDbSymbolTableRecord
100
AcDbLinetypeTableRecord
  2
ACJISTGB
 70
     0
  3
__ . . __ . .
 72
    65
 73
     6
 40
9.0
 49
4.0
 74
     0
 49
-1.0
 74
     0
 49
1.0
 74
     0
 49
-1.0
 74
     0
 49
1.0
 74
     0
 49
-1.0
 74
     0
  0
ENDTAB
  0
TABLE
  2
LAYER
  5
2
330
0
100
AcDbSymbolTable
 70
     8
  0
LAYER
  5
10
330
2
100
AcDbSymbolTableRecord
100
AcDbLayerTableRecord
  2
0
 70
     0
 62
     7
  6
CONTINUOUS
  0
LAYER
  5
3F9
330
2
100
AcDbSymbolTableRecord
100
AcDbLayerTableRecord
  2
AM_0
 70
     0
 62
     7
  6
CONTINUOUS
  0
LAYER
  5
C7C
330
2
100
AcDbSymbolTableRecord
100
AcDbLayerTableRecord
  2
AM_7
 70
     0
 62
     4
  6
AM_ISO08W050
  0
LAYER
  5
C97
330
2
100
AcDbSymbolTableRecord
100
AcDbLayerTableRecord
  2
AM_11
 70
     0
 62
     3
  6
AM_ISO09W050
  0
LAYER
  5
CC5
330
2
100
AcDbSymbolTableRecord
100
AcDbLayerTableRecord
  2
AM_5
 70
     0
 62
     3
  6
CONTINUOUS
  0
LAYER
  5
CC7
330
2
100
AcDbSymbolTableRecord
100
AcDbLayerTableRecord
  2
DEFPOINTS
 70
     0
 62
     7
  6
CONTINUOUS
  0
LAYER
  5
19BC
330
2
100
AcDbSymbolTableRecord
100
AcDbLayerTableRecord
  2
AM_6
 70
     0
 62
     2
  6
CONTINUOUS
  0
LAYER
  5
46AB
330
2
100
AcDbSymbolTableRecord
100
AcDbLayerTableRecord
  2
AM_CL
 70
     0
 62
     1
  6
AMCONSTR
  0
ENDTAB
  0
TABLE
  2
STYLE
  5
3
330
0
100
AcDbSymbolTable
 70
     5
  0
STYLE
  5
11
330
3
100
AcDbSymbolTableRecord
100
AcDbTextStyleTableRecord
  2
STANDARD
 70
     0
 40
0.0
 41
1.0
 50
0.0
 71
     0
 42
2.5
  3
simplex.shx
  4
EXTFONT.SHX
  0
STYLE
  5
52
330
3
100
AcDbSymbolTableRecord
100
AcDbTextStyleTableRecord
  2

 70
     1
 40
0.0
 41
1.0
 50
0.0
 71
     0
 42
2.5
  3
ltypeshp.shx
  4

  0
STYLE
  5
6B
330
3
100
AcDbSymbolTableRecord
100
AcDbTextStyleTableRecord
  2
ASAMI
 70
     0
 40
0.0
 41
1.0
 50
0.0
 71
     0
 42
2.5
  3
simplex.shx
  4
EXTFONT.SHX
  0
STYLE
  5
262
330
3
100
AcDbSymbolTableRecord
100
AcDbTextStyleTableRecord
  2
ACJISTS
 70
     0
 40
1.0
 41
1.0
 50
0.0
 71
     0
 42
2.5
  3
simplex.shx
  4
bigfont.shx
  0
STYLE
  5
269
330
3
100
AcDbSymbolTableRecord
100
AcDbTextStyleTableRecord
  2
ACJISGDT
 70
     0
 40
0.0
 41
1.0
 50
0.0
 71
     0
 42
2.5
  3
amgdtans.shx
  4

  0
ENDTAB
  0
TABLE
  2
VIEW
  5
6
330
0
100
AcDbSymbolTable
 70
     0
  0
ENDTAB
  0
TABLE
  2
UCS
  5
7
330
0
100
AcDbSymbolTable
 70
     0
  0
ENDTAB
  0
TABLE
  2
APPID
  5
9
330
0
100
AcDbSymbolTable
 70
    16
  0
APPID
  5
12
330
9
100
AcDbSymbolTableRecord
100
AcDbRegAppTableRecord
  2
ACAD
 70
     0
  0
APPID
  5
30
330
9
100
AcDbSymbolTableRecord
100
AcDbRegAppTableRecord
  2
MCAD_NO_VIS
 70
     0
  0
APPID
  5
31
330
9
100
AcDbSymbolTableRecord
100
AcDbRegAppTableRecord
  2
ACAD_TEMP_GRAPHIC
 70
     0
  0
APPID
  5
2C2
330
9
100
AcDbSymbolTableRecord
100
AcDbRegAppTableRecord
  2
GENIUS_GENDTOL_13
 70
     0
  0
APPID
  5
339
330
9
100
AcDbSymbolTableRecord
100
AcDbRegAppTableRecord
  2
GENIUS_GENODEF_13
 70
     0
  0
APPID
  5
33A
330
9
100
AcDbSymbolTableRecord
100
AcDbRegAppTableRecord
  2
GENIUS_GENOBJ-N-RSBK_13
 70
     0
  0
APPID
  5
33B
330
9
100
AcDbSymbolTableRecord
100
AcDbRegAppTableRecord
  2
GENIUS_GENOBJ-N-LIB_13
 70
     0
  0
APPID
  5
33C
330
9
100
AcDbSymbolTableRecord
100
AcDbRegAppTableRecord
  2
GENIUS_GENSCALE_13
 70
     0
  0
APPID
  5
378
330
9
100
AcDbSymbolTableRecord
100
AcDbRegAppTableRecord
  2
GENIUS_GENDIMSH_14
 70
     0
  0
APPID
  5
C82
330
9
100
AcDbSymbolTableRecord
100
AcDbRegAppTableRecord
  2
GENIUS_GENOBJ-N-CRS_13
 70
     0
  0
APPID
  5
C83
330
9
100
AcDbSymbolTableRecord
100
AcDbRegAppTableRecord
  2
GENIUS_GENOENT_13
 70
     0
  0
APPID
  5
C84
330
9
100
AcDbSymbolTableRecord
100
AcDbRegAppTableRecord
  2
GENIUS_GENOREF_13
 70
     0
  0
APPID
  5
C85
330
9
100
AcDbSymbolTableRecord
100
AcDbRegAppTableRecord
  2
GENIUS_GENOLIS_13
 70
     0
  0
APPID
  5
CA0
330
9
100
AcDbSymbolTableRecord
100
AcDbRegAppTableRecord
  2
GENIUS_GENOBJ-N-CEN_13
 70
     0
  0
APPID
  5
1E1E
330
9
100
AcDbSymbolTableRecord
100
AcDbRegAppTableRecord
  2
GENIUS_GENFIL_13
 70
     0
  0
APPID
  5
1E1F
330
9
100
AcDbSymbolTableRecord
100
AcDbRegAppTableRecord
  2
GENIUS_GENOBJ-N-CHA_13
 70
     0
  0
ENDTAB
  0
TABLE
  2
DIMSTYLE
  5
A
330
0
100
AcDbSymbolTable
 70
     9
  0
DIMSTYLE
105
58
330
A
100
AcDbSymbolTableRecord
100
AcDbDimStyleTableRecord
  2
AM_JIS
 70
     0
  3

  4
"
  5
OPEN30
  6

  7

 40
1.0
 41
2.5
 42
1.0
 43
12.0
 44
1.0
 45
0.0
 46
0.0
 47
0.1
 48
0.1
140
3.2
141
0.0
142
0.0
143
0.0393701
144
1.0
145
0.0
146
0.71
147
1.5
 71
     0
 72
     0
 73
     0
 74
     0
 75
     0
 76
     0
 77
     3
 78
     8
170
     0
171
     2
172
     1
173
     0
174
     0
175
     0
176
   256
177
   256
178
     2
270
     2
271
     3
272
     3
273
     2
274
     2
340
6B
275
     0
280
     0
281
     0
282
     0
283
     0
284
     0
285
     0
286
     0
287
     3
288
     0
  0
DIMSTYLE
105
5F
330
A
100
AcDbSymbolTableRecord
100
AcDbDimStyleTableRecord
  2
AM_JIS$3
 70
     0
  3

  4
"
  5
OPEN30
  6

  7

 40
1.0
 41
2.5
 42
1.0
 43
10.0
 44
1.0
 45
0.0
 46
0.0
 47
0.1
 48
0.1
140
3.2
141
0.0
142
0.0
143
0.0393701
144
1.0
145
0.0
146
0.71
147
1.5
 71
     0
 72
     0
 73
     0
 74
     1
 75
     0
 76
     0
 77
     3
 78
     8
170
     0
171
     2
172
     0
173
     0
174
     0
175
     0
176
   256
177
   256
178
     2
270
     2
271
     2
272
     3
273
     2
274
     2
340
6B
275
     0
280
     0
281
     0
282
     0
283
     0
284
     0
285
     0
286
     0
287
     0
288
     1
  0
DIMSTYLE
105
60
330
A
100
AcDbSymbolTableRecord
100
AcDbDimStyleTableRecord
  2
AM_JIS$4
 70
     0
  3

  4
"
  5
OPEN30
  6

  7

 40
1.0
 41
2.5
 42
1.0
 43
10.0
 44
1.0
 45
0.0
 46
0.0
 47
0.1
 48
0.1
140
3.2
141
0.0
142
0.0
143
0.0393701
144
1.0
145
0.0
146
0.71
147
1.5
 71
     0
 72
     0
 73
     0
 74
     1
 75
     0
 76
     0
 77
     3
 78
     8
170
     0
171
     2
172
     0
173
     0
174
     0
175
     0
176
   256
177
   256
178
     2
270
     2
271
     2
272
     3
273
     2
274
     2
340
6B
275
     0
280
     0
281
     0
282
     0
283
     0
284
     0
285
     0
286
     0
287
     0
288
     1
  0
DIMSTYLE
105
61
330
A
100
AcDbSymbolTableRecord
100
AcDbDimStyleTableRecord
  2
AM_JIS$6
 70
     0
  3

  4
"
  5
OPEN30
  6

  7

 40
1.0
 41
2.5
 42
1.0
 43
10.0
 44
1.0
 45
0.0
 46
0.0
 47
0.1
 48
0.1
140
3.2
141
0.0
142
0.0
143
0.0393701
144
1.0
145
0.0
146
0.71
147
1.5
 71
     0
 72
     0
 73
     0
 74
     0
 75
     0
 76
     0
 77
     0
 78
     8
170
     0
171
     2
172
     1
173
     0
174
     0
175
     0
176
   256
177
   256
178
     2
270
     2
271
     2
272
     2
273
     2
274
     2
340
6B
275
     0
280
     0
281
     0
282
     0
283
     0
284
     0
285
     0
286
     0
287
     3
288
     0
  0
DIMSTYLE
105
62
330
A
100
AcDbSymbolTableRecord
100
AcDbDimStyleTableRecord
  2
AM_JIS$7
 70
     0
  3

  4
"
  5
OPEN30
  6

  7

 40
1.0
 41
2.5
 42
1.0
 43
10.0
 44
1.0
 45
0.0
 46
0.0
 47
0.1
 48
0.1
140
3.2
141
0.0
142
0.0
143
0.0393701
144
1.0
145
0.0
146
0.71
147
1.5
 71
     0
 72
     0
 73
     0
 74
     0
 75
     0
 76
     0
 77
     3
 78
     8
170
     0
171
     2
172
     1
173
     0
174
     0
175
     0
176
   256
177
   256
178
     2
270
     2
271
     2
272
     3
273
     2
274
     2
340
6B
275
     0
280
     0
281
     0
282
     0
283
     0
284
     0
285
     0
286
     0
287
     3
288
     0
  0
DIMSTYLE
105
63
330
A
100
AcDbSymbolTableRecord
100
AcDbDimStyleTableRecord
  2
AM_JIS$SF
 70
     0
  3

  4
"
  5
OPEN30
  6

  7

 40
1.0
 41
2.5
 42
1.0
 43
10.0
 44
1.0
 45
0.0
 46
0.0
 47
0.1
 48
0.1
140
3.2
141
0.0
142
0.0
143
0.0393701
144
1.0
145
0.0
146
0.71
147
1.5
 71
     0
 72
     0
 73
     0
 74
     0
 75
     1
 76
     1
 77
     3
 78
     8
170
     0
171
     2
172
     1
173
     0
174
     0
175
     0
176
   256
177
   256
178
     2
270
     2
271
     2
272
     2
273
     2
274
     2
340
6B
275
     0
280
     0
281
     0
282
     0
283
     0
284
     0
285
     0
286
     0
287
     3
288
     0
  0
DIMSTYLE
105
68
330
A
100
AcDbSymbolTableRecord
100
AcDbDimStyleTableRecord
  2
AM_JIS$SH
 70
     0
  3

  4
"
  5

  6
GENAXEH
  7
OPEN30
 40
1.0
 41
2.5
 42
1.0
 43
10.0
 44
1.0
 45
0.0
 46
0.0
 47
0.1
 48
0.1
140
3.2
141
0.0
142
0.0
143
0.0393701
144
2.0
145
0.0
146
0.71
147
1.5
 71
     0
 72
     0
 73
     0
 74
     0
 75
     1
 76
     1
 77
     3
 78
     8
170
     0
171
     2
172
     1
173
     1
174
     0
175
     0
176
   256
177
   256
178
     2
270
     2
271
     2
272
     2
273
     2
274
     2
340
6B
275
     0
280
     0
281
     0
282
     0
283
     0
284
     0
285
     0
286
     0
287
     3
288
     0
  0
DIMSTYLE
105
B34
102
{ACAD_REACTORS
330
471E
102
}
330
A
100
AcDbSymbolTableRecord
100
AcDbDimStyleTableRecord
  2
AM_JIS$2
 70
     0
  3

  4
"
  5
OPEN30
  6

  7

 40
1.0
 41
2.5
 42
1.0
 43
12.0
 44
1.0
 45
0.0
 46
0.0
 47
0.1
 48
0.1
140
3.2
141
0.0
142
0.0
143
0.0393701
144
1.0
145
0.0
146
0.71
147
1.5
 71
     0
 72
     0
 73
     0
 74
     0
 75
     0
 76
     0
 77
     3
 78
     8
170
     0
171
     2
172
     1
173
     0
174
     0
175
     0
176
   256
177
   256
178
     2
270
     2
271
     3
272
     3
273
     2
274
     2
340
6B
275
     0
280
     0
281
     0
282
     0
283
     0
284
     0
285
     0
286
     0
287
     3
288
     0
  0
DIMSTYLE
105
BA5
102
{ACAD_REACTORS
330
CC6
330
DF5
330
1FB6
330
2216
102
}
330
A
100
AcDbSymbolTableRecord
100
AcDbDimStyleTableRecord
  2
AM_JIS$0
 70
     0
  3

  4
"
  5
OPEN30
  6

  7

 40
1.0
 41
2.5
 42
0.0
 43
10.0
 44
1.0
 45
0.0
 46
0.0
 47
0.1
 48
0.1000000001
140
3.799999999999999
141
0.0
142
0.0
143
0.0393701
144
1.0
145
0.0
146
0.71
147
1.5
 71
     0
 72
     0
 73
     0
 74
     0
 75
     0
 76
     0
 77
     3
 78
     1
170
     0
171
     2
172
     1
173
     0
174
     0
175
     0
176
     3
177
     3
178
     2
270
     2
271
     2
272
     2
273
     2
274
     2
340
11
275
     1
280
     0
281
     0
282
     0
283
     0
284
     8
285
     0
286
     0
287
     0
288
     0
  0
ENDTAB
  0
TABLE
  2
BLOCK_RECORD
  5
1
330
0
100
AcDbSymbolTable
 70
    10
  0
BLOCK_RECORD
  5
1F
102
{ACAD_XDICTIONARY
360
74
102
}
330
1
100
AcDbSymbolTableRecord
100
AcDbBlockTableRecord
  2
*MODEL_SPACE
  0
BLOCK_RECORD
  5
101
102
{ACAD_XDICTIONARY
360
487B
102
}
330
1
100
AcDbSymbolTableRecord
100
AcDbBlockTableRecord
  2
*PAPER_SPACE
  0
BLOCK_RECORD
  5
59
330
1
100
AcDbSymbolTableRecord
100
AcDbBlockTableRecord
  2
_OPEN30
  0
BLOCK_RECORD
  5
64
330
1
100
AcDbSymbolTableRecord
100
AcDbBlockTableRecord
  2
GENAXEH
  0
BLOCK_RECORD
  5
CC8
330
1
100
AcDbSymbolTableRecord
100
AcDbBlockTableRecord
  2
*D5
  0
BLOCK_RECORD
  5
DF6
330
1
100
AcDbSymbolTableRecord
100
AcDbBlockTableRecord
  2
*D6
  0
BLOCK_RECORD
  5
1FB7
330
1
100
AcDbSymbolTableRecord
100
AcDbBlockTableRecord
  2
*D7
  0
BLOCK_RECORD
  5
2217
330
1
100
AcDbSymbolTableRecord
100
AcDbBlockTableRecord
  2
*D8
  0
BLOCK_RECORD
  5
471F
330
1
100
AcDbSymbolTableRecord
100
AcDbBlockTableRecord
  2
*D9
  0
ENDTAB
  0
ENDSEC
  0
SECTION
  2
BLOCKS
  0
BLOCK
  5
20
330
1F
100
AcDbEntity
  8
0
100
AcDbBlockBegin
  2
*MODEL_SPACE
 70
     0
 10
0.0
 20
0.0
 30
0.0
  3
*MODEL_SPACE
  1

  0
ENDBLK
  5
21
330
1F
100
AcDbEntity
  8
0
100
AcDbBlockEnd
  0
BLOCK
  5
103
330
101
100
AcDbEntity
 67
     1
  8
0
100
AcDbBlockBegin
  2
*PAPER_SPACE
 70
     0
 10
0.0
 20
0.0
 30
0.0
  3
*PAPER_SPACE
  1

  0
ENDBLK
  5
104
330
101
100
AcDbEntity
 67
     1
  8
0
100
AcDbBlockEnd
  0
BLOCK
  5
5D
330
59
100
AcDbEntity
  8
0
100
AcDbBlockBegin
  2
_OPEN30
 70
     0
 10
0.0
 20
0.0
 30
0.0
  3
_OPEN30
  1

  0
LINE
  5
5A
330
59
100
AcDbEntity
  8
0
 62
     0
100
AcDbLine
 10
-1.0
 20
0.26794919
 30
0.0
 11
0.0
 21
0.0
 31
0.0
  0
LINE
  5
5B
330
59
100
AcDbEntity
  8
0
 62
     0
100
AcDbLine
 10
0.0
 20
0.0
 30
0.0
 11
-1.0
 21
-0.26794919
 31
0.0
  0
LINE
  5
5C
330
59
100
AcDbEntity
  8
0
 62
     0
100
AcDbLine
 10
0.0
 20
0.0
 30
0.0
 11
-1.0
 21
0.0
 31
0.0
  0
ENDBLK
  5
5E
330
59
100
AcDbEntity
  8
0
100
AcDbBlockEnd
  0
BLOCK
  5
66
330
64
100
AcDbEntity
  8
0
100
AcDbBlockBegin
  2
GENAXEH
 70
     0
 10
0.0
 20
0.0
 30
0.0
  3
GENAXEH
  1

  0
LINE
  5
65
330
64
100
AcDbEntity
  8
0
100
AcDbLine
 10
-1.0
 20
0.0
 30
0.0
 11
1.0
 21
0.0
 31
0.0
  0
ENDBLK
  5
67
330
64
100
AcDbEntity
  8
0
100
AcDbBlockEnd
  0
BLOCK
  5
CD2
330
CC8
100
AcDbEntity
  8
0
100
AcDbBlockBegin
  2
*D5
 70
     1
 10
0.0
 20
0.0
 30
0.0
  3
*D5
  1

  0
LINE
  5
46E6
330
CC8
100
AcDbEntity
  8
AM_5
 62
     3
100
AcDbLine
 10
-187.9999999999999
 20
-7.000002054481094
 30
0.0
 11
-187.9999999999999
 21
-32.50000305448091
 31
0.0
  0
LINE
  5
46E7
330
CC8
100
AcDbEntity
  8
AM_5
 62
     3
100
AcDbLine
 10
-2.999999999999396
 20
-7.300000636930191
 30
0.0
 11
-2.999999999999397
 21
-32.50000305448091
 31
0.0
  0
LINE
  5
46E8
330
CC8
100
AcDbEntity
  8
AM_5
 62
     3
100
AcDbLine
 10
-185.4999999999999
 20
-31.50000305448091
 30
0.0
 11
-5.499999999999397
 21
-31.50000305448091
 31
0.0
  0
INSERT
  5
46E9
330
CC8
100
AcDbEntity
  8
AM_5
 62
     3
100
AcDbBlockReference
  2
_OPEN30
 10
-187.9999999999999
 20
-31.50000305448091
 30
0.0
 41
2.5
 42
2.5
 43
2.5
 50
180.0
  0
INSERT
  5
46EA
330
CC8
100
AcDbEntity
  8
AM_5
 62
     3
100
AcDbBlockReference
  2
_OPEN30
 10
-2.999999999999397
 20
-31.50000305448091
 30
0.0
 41
2.5
 42
2.5
 43
2.5
  0
MTEXT
  5
46EB
330
CC8
100
AcDbEntity
  8
AM_5
 62
     2
100
AcDbMText
 10
-95.49999999999966
 20
-28.10000305448091
 30
0.0
 40
3.799999999999999
 41
0.0
 71
     5
 72
     1
  1
185
1001
ACAD
1000
MTEXTBEGIN
1070
    73
1070
     1
1070
    44
1040
1.0
1070
    74
1070
     0
1000
MTEXTEND
  0
POINT
  5
46EC
330
CC8
100
AcDbEntity
  8
DEFPOINTS
 62
     0
100
AcDbPoint
 10
-187.9999999999999
 20
-7.000002054481094
 30
0.0
  0
POINT
  5
46ED
330
CC8
100
AcDbEntity
  8
DEFPOINTS
 62
     0
100
AcDbPoint
 10
-2.999999999999396
 20
-7.300000636930191
 30
0.0
  0
POINT
  5
46EE
330
CC8
100
AcDbEntity
  8
DEFPOINTS
 62
     0
100
AcDbPoint
 10
-2.999999999999397
 20
-31.50000305448091
 30
0.0
  0
ENDBLK
  5
CD3
330
CC8
100
AcDbEntity
  8
0
100
AcDbBlockEnd
  0
BLOCK
  5
E00
330
DF6
100
AcDbEntity
  8
0
100
AcDbBlockBegin
  2
*D6
 70
     1
 10
0.0
 20
0.0
 30
0.0
  3
*D6
  1

  0
LINE
  5
46DD
330
DF6
100
AcDbEntity
  8
AM_5
 62
     3
100
AcDbLine
 10
-122.9999807595529
 20
-7.500002054481104
 30
0.0
 11
-122.9999807595529
 21
-22.50000305448078
 31
0.0
  0
LINE
  5
46DE
330
DF6
100
AcDbEntity
  8
AM_5
 62
     3
100
AcDbLine
 10
-2.999999999999385
 20
-7.300000636930175
 30
0.0
 11
-2.999999999999386
 21
-22.50000305448078
 31
0.0
  0
LINE
  5
46DF
330
DF6
100
AcDbEntity
  8
AM_5
 62
     3
100
AcDbLine
 10
-120.4999807595529
 20
-21.50000305448078
 30
0.0
 11
-5.499999999999386
 21
-21.50000305448078
 31
0.0
  0
INSERT
  5
46E0
330
DF6
100
AcDbEntity
  8
AM_5
 62
     3
100
AcDbBlockReference
  2
_OPEN30
 10
-122.9999807595529
 20
-21.50000305448078
 30
0.0
 41
2.5
 42
2.5
 43
2.5
 50
180.0
  0
INSERT
  5
46E1
330
DF6
100
AcDbEntity
  8
AM_5
 62
     3
100
AcDbBlockReference
  2
_OPEN30
 10
-2.999999999999386
 20
-21.50000305448078
 30
0.0
 41
2.5
 42
2.5
 43
2.5
  0
MTEXT
  5
46E2
330
DF6
100
AcDbEntity
  8
AM_5
 62
     2
100
AcDbMText
 10
-62.99999037977617
 20
-18.10000305448078
 30
0.0
 40
3.799999999999999
 41
0.0
 71
     5
 72
     1
  1
120
1001
ACAD
1000
MTEXTBEGIN
1070
    73
1070
     1
1070
    44
1040
1.0
1070
    74
1070
     0
1000
MTEXTEND
  0
POINT
  5
46E3
330
DF6
100
AcDbEntity
  8
DEFPOINTS
 62
     0
100
AcDbPoint
 10
-122.9999807595529
 20
-7.500002054481104
 30
0.0
  0
POINT
  5
46E4
330
DF6
100
AcDbEntity
  8
DEFPOINTS
 62
     0
100
AcDbPoint
 10
-2.999999999999385
 20
-7.300000636930175
 30
0.0
  0
POINT
  5
46E5
330
DF6
100
AcDbEntity
  8
DEFPOINTS
 62
     0
100
AcDbPoint
 10
-2.999999999999386
 20
-21.50000305448078
 30
0.0
  0
ENDBLK
  5
E01
330
DF6
100
AcDbEntity
  8
0
100
AcDbBlockEnd
  0
BLOCK
  5
1FC3
330
1FB7
100
AcDbEntity
  8
0
100
AcDbBlockBegin
  2
*D7
 70
     1
 10
0.0
 20
0.0
 30
0.0
  3
*D7
  1

  0
LINE
  5
4703
330
1FB7
100
AcDbEntity
  8
AM_5
 62
     3
100
AcDbLine
 10
-3.000000000000056
 20
-7.300000636931389
 30
0.0
 11
15.55592102485806
 21
-7.300000636931394
 31
0.0
  0
LINE
  5
4704
330
1FB7
100
AcDbEntity
  8
AM_5
 62
     3
100
AcDbLine
 10
-2.99999999999989
 20
7.299999363068259
 30
0.0
 11
15.55592102485806
 21
7.299999363068254
 31
0.0
  0
LINE
  5
4705
330
1FB7
100
AcDbEntity
  8
AM_5
 62
     3
100
AcDbLine
 10
14.55592102485806
 20
-4.800000636931394
 30
0.0
 11
14.55592102485806
 21
4.799999363068254
 31
0.0
  0
INSERT
  5
4706
330
1FB7
100
AcDbEntity
  8
AM_5
 62
     3
100
AcDbBlockReference
  2
_OPEN30
 10
14.55592102485806
 20
-7.300000636931394
 30
0.0
 41
2.5
 42
2.5
 43
2.5
 50
270.0
  0
INSERT
  5
4707
330
1FB7
100
AcDbEntity
  8
AM_5
 62
     3
100
AcDbBlockReference
  2
_OPEN30
 10
14.55592102485806
 20
7.299999363068254
 30
0.0
 41
2.5
 42
2.5
 43
2.5
 50
90.0
  0
MTEXT
  5
4708
330
1FB7
100
AcDbEntity
  8
AM_5
 62
     2
100
AcDbMText
 10
11.15592102485806
 20
-0.0000006369315671
 30
0.0
 40
3.799999999999999
 41
0.0
 71
     5
 72
     1
  1
%%c14.6
 11
0.0000000000000001
 21
1.0
 31
0.0
1001
ACAD
1000
MTEXTBEGIN
1070
    73
1070
     1
1070
    44
1040
1.0
1070
    74
1070
     0
1000
MTEXTEND
  0
POINT
  5
4709
330
1FB7
100
AcDbEntity
  8
DEFPOINTS
 62
     0
100
AcDbPoint
 10
-3.000000000000056
 20
-7.300000636931389
 30
0.0
  0
POINT
  5
470A
330
1FB7
100
AcDbEntity
  8
DEFPOINTS
 62
     0
100
AcDbPoint
 10
-2.99999999999989
 20
7.299999363068259
 30
0.0
  0
POINT
  5
470B
330
1FB7
100
AcDbEntity
  8
DEFPOINTS
 62
     0
100
AcDbPoint
 10
14.55592102485806
 20
7.299999363068254
 30
0.0
  0
ENDBLK
  5
1FC4
330
1FB7
100
AcDbEntity
  8
0
100
AcDbBlockEnd
  0
BLOCK
  5
2221
330
2217
100
AcDbEntity
  8
0
100
AcDbBlockBegin
  2
*D8
 70
     1
 10
0.0
 20
0.0
 30
0.0
  3
*D8
  1

  0
LINE
  5
46EF
330
2217
100
AcDbEntity
  8
AM_5
 62
     3
100
AcDbLine
 10
-187.5000000000004
 20
7.499999999998618
 30
0.0
 11
-205.0000009999999
 21
7.499999999998569
 31
0.0
  0
LINE
  5
46F0
330
2217
100
AcDbEntity
  8
AM_5
 62
     3
100
AcDbLine
 10
-187.5000000000004
 20
-7.500002054481188
 30
0.0
 11
-205.0000009999999
 21
-7.500002054481238
 31
0.0
  0
LINE
  5
46F1
330
2217
100
AcDbEntity
  8
AM_5
 62
     3
100
AcDbLine
 10
-204.0000009999999
 20
4.999999999998571
 30
0.0
 11
-204.0000009999999
 21
-5.000002054481235
 31
0.0
  0
INSERT
  5
46F2
330
2217
100
AcDbEntity
  8
AM_5
 62
     3
100
AcDbBlockReference
  2
_OPEN30
 10
-204.0000009999999
 20
7.499999999998571
 30
0.0
 41
2.5
 42
2.5
 43
2.5
 50
90.00000000000017
  0
INSERT
  5
46F3
330
2217
100
AcDbEntity
  8
AM_5
 62
     3
100
AcDbBlockReference
  2
_OPEN30
 10
-204.0000009999999
 20
-7.500002054481235
 30
0.0
 41
2.5
 42
2.5
 43
2.5
 50
270.0000000000001
  0
MTEXT
  5
46F4
330
2217
100
AcDbEntity
  8
AM_5
 62
     2
100
AcDbMText
 10
-207.4000009999999
 20
-0.0000010272413336
 30
0.0
 40
3.799999999999999
 41
0.0
 71
     5
 72
     1
  1
%%c15
 11
-0.0000000000000028
 21
1.0
 31
0.0
1001
ACAD
1000
MTEXTBEGIN
1070
    73
1070
     1
1070
    44
1040
1.0
1070
    74
1070
     0
1000
MTEXTEND
  0
POINT
  5
46F5
330
2217
100
AcDbEntity
  8
DEFPOINTS
 62
     0
100
AcDbPoint
 10
-187.5000000000004
 20
7.499999999999201
 30
0.0
  0
POINT
  5
46F6
330
2217
100
AcDbEntity
  8
DEFPOINTS
 62
     0
100
AcDbPoint
 10
-187.5000000000004
 20
-7.500002054480606
 30
0.0
  0
POINT
  5
46F7
330
2217
100
AcDbEntity
  8
DEFPOINTS
 62
     0
100
AcDbPoint
 10
-204.0000009999999
 20
-7.500002054480601
 30
0.0
  0
ENDBLK
  5
2222
330
2217
100
AcDbEntity
  8
0
100
AcDbBlockEnd
  0
BLOCK
  5
472D
330
471F
100
AcDbEntity
  8
0
100
AcDbBlockBegin
  2
*D9
 70
     1
 10
0.0
 20
0.0
 30
0.0
  3
*D9
  1

  0
LINE
  5
487D
330
471F
100
AcDbEntity
  8
AM_5
100
AcDbLine
 10
0.3420201408161999
 20
-0.9396926216993442
 30
0.0
 11
9.276265217186097
 21
-25.4863294328666
 31
0.0
  0
LINE
  5
487E
330
471F
100
AcDbEntity
  8
AM_5
100
AcDbLine
 10
0.3420224212245011
 20
0.9396917916954834
 30
0.0
 11
9.276327066385601
 21
25.48630692151409
 31
0.0
  0
ARC
  5
487F
330
471F
100
AcDbEntity
  8
AM_5
100
AcDbCircle
 10
0.0000000000000585
 20
-0.0000000000000424
 30
0.0
 40
26.1219852580923
100
AcDbArc
 50
295.4855772253998
 51
64.51428373144475
  0
INSERT
  5
4880
330
471F
100
AcDbEntity
  8
AM_5
100
AcDbBlockReference
  2
_OPEN30
 10
8.934245076369956
 20
-24.5466368111673
 30
0.0
 41
2.5
 42
2.5
 43
2.5
 50
202.7427885361933
  0
INSERT
  5
4881
330
471F
100
AcDbEntity
  8
AM_5
100
AcDbBlockReference
  2
_OPEN30
 10
8.934304645161189
 20
24.54661512981864
 30
0.0
 41
2.5
 42
2.5
 43
2.5
 50
157.2570724206512
  0
MTEXT
  5
4882
330
471F
100
AcDbEntity
  8
AM_5
 62
     2
100
AcDbMText
 10
23.0219852580754
 20
-0.0000279344264665
 30
0.0
 40
3.2
 41
0.0
 71
     5
 72
     1
  1
140°
  7
ASAMI
 11
0.0000012133804306
 21
0.999999999999264
 31
0.0
  0
POINT
  5
4883
330
471F
100
AcDbEntity
  8
DEFPOINTS
 62
     0
100
AcDbPoint
 10
23.98561922904665
 20
-10.34640923331289
 30
0.0
  0
POINT
  5
4884
330
471F
100
AcDbEntity
  8
DEFPOINTS
 62
     0
100
AcDbPoint
 10
0.0000000000000888
 20
0.000000000000041
 30
0.0
  0
POINT
  5
4885
330
471F
100
AcDbEntity
  8
DEFPOINTS
 62
     0
100
AcDbPoint
 10
0.000000000000032
 20
0.0000000000000304
 30
0.0
  0
POINT
  5
4886
330
471F
100
AcDbEntity
  8
DEFPOINTS
 62
     0
100
AcDbPoint
 10
-0.6133936239360169
 20
1.685285145005457
 30
0.0
  0
POINT
  5
4887
330
471F
100
AcDbEntity
  8
DEFPOINTS
 62
     0
100
AcDbPoint
 10
-0.6134061199819716
 20
-1.685306752286479
 30
0.0
  0
ENDBLK
  5
472E
330
471F
100
AcDbEntity
  8
0
100
AcDbBlockEnd
  0
ENDSEC
  0
SECTION
  2
ENTITIES
  0
LINE
  5
C9F
330
1F
100
AcDbEntity
  8
AM_7
100
AcDbLine
 10
-189.9999999999999
 20
-0.0000000000002867
 30
0.0
 11
0.5559200248580858
 21
0.0000000000000419
 31
0.0
1001
GENIUS_GENODEF_13
1002
{
1000
HIER
1070
     0
1002
}
1002
{
1000
MANEDIT
1070
     0
1002
}
1002
{
1000
NOSEL
1070
     0
1002
}
1002
{
1000
BEHIND
1070
     0
1002
}
1002
{
1000
REACTOR
1002
}
1001
GENIUS_GENOBJ-N-CEN_13
1002
{
1000
OWNER
1000
GEN
1002
}
  0
DIMENSION
  5
CC6
330
1F
100
AcDbEntity
  8
AM_5
100
AcDbDimension
  2
*D5
 10
-2.999999999999397
 20
-31.50000305448091
 30
0.0
 11
-95.49999999999966
 21
-28.10000305448091
 31
0.0
 70
    32
  1
<>
  3
AM_JIS$0
100
AcDbAlignedDimension
 13
-187.9999999999999
 23
-7.000002054481094
 33
0.0
 14
-2.999999999999396
 24
-7.300000636930191
 34
0.0
 50
0.0000000000001132
100
AcDbRotatedDimension
1001
GENIUS_GENDTOL_13
1000

1000
h7
1000

1040
0.0
1001
ACAD
1000
DSTYLE
1002
{
1070
   271
1070
     0
1002
}
  0
DIMENSION
  5
DF5
330
1F
100
AcDbEntity
  8
AM_5
100
AcDbDimension
  2
*D6
 10
-2.999999999999386
 20
-21.50000305448078
 30
0.0
 11
-62.99999037977617
 21
-18.10000305448078
 31
0.0
 70
    32
  1
<>
  3
AM_JIS$0
100
AcDbAlignedDimension
 13
-122.9999807595529
 23
-7.500002054481104
 33
0.0
 14
-2.999999999999385
 24
-7.300000636930175
 34
0.0
 50
0.0000000000001527
100
AcDbRotatedDimension
1001
GENIUS_GENDTOL_13
1000

1000
h7
1000

1040
0.0
1001
ACAD
1000
DSTYLE
1002
{
1070
   271
1070
     0
1002
}
  0
TEXT
  5
19BD
330
1F
100
AcDbEntity
  8
AM_6
100
AcDbText
 10
-116.6904761904757
 20
-54.00000305448097
 30
0.0
 40
5.0
  1
MDW146LHK
 50
0.0000000000001527
 72
     4
 11
-95.49999999999959
 21
-51.50000305448092
 31
0.0
100
AcDbText
  0
LINE
  5
1E25
330
1F
100
AcDbEntity
  8
AM_0
100
AcDbLine
 10
-122.9999999999998
 20
-7.500002054481103
 30
0.0
 11
-122.6535873832095
 21
-7.300000636926498
 31
0.0
  0
LINE
  5
1E26
330
1F
100
AcDbEntity
  8
AM_0
100
AcDbLine
 10
-122.6535887352973
 20
7.299999363073425
 30
0.0
 11
-122.9999999999998
 21
7.499999999999727
 31
0.0
  0
DIMENSION
  5
1FB6
330
1F
100
AcDbEntity
  8
AM_5
100
AcDbDimension
  2
*D7
 10
14.55592102485806
 20
7.299999363068254
 30
0.0
 11
14.55592102485806
 21
-0.0000006369315675
 31
0.0
 70
   160
  1
%%c<>
  3
AM_JIS$0
100
AcDbAlignedDimension
 13
-3.000000000000056
 23
-7.300000636931389
 33
0.0
 14
-2.99999999999989
 24
7.299999363068259
 34
0.0
 50
89.99999999999969
100
AcDbRotatedDimension
1001
ACAD
1000
DSTYLE
1002
{
1070
   271
1070
     1
1002
}
1001
GENIUS_GENDTOL_13
1000

1000
h7
1000

1040
0.0
  0
LINE
  5
1FD9
330
1F
100
AcDbEntity
  8
AM_0
100
AcDbLine
 10
-122.6535834918891
 20
-7.300000636926498
 30
0.0
 11
-122.6535840774501
 21
-5.669536262650245
 31
0.0
  0
LINE
  5
21D7
330
1F
100
AcDbEntity
  8
AM_0
 48
0.5
100
AcDbLine
 10
-122.9999807595529
 20
-7.500002054481104
 30
0.0
 11
-122.9999807595529
 21
7.499999999999727
 31
0.0
  0
LINE
  5
21D8
330
1F
100
AcDbEntity
  8
AM_0
 48
0.5
100
AcDbLine
 10
-187.4999999999999
 20
7.499999999999713
 30
0.0
 11
-122.9999807595528
 21
7.499999999999727
 31
0.0
1001
GENIUS_GENODEF_13
1002
{
1000
HIER
1070
     0
1002
}
1002
{
1000
MANEDIT
1070
     0
1002
}
1002
{
1000
NOSEL
1070
     0
1002
}
1002
{
1000
BEHIND
1070
     0
1002
}
1002
{
1000
REACTOR
1002
}
1001
GENIUS_GENOBJ-N-CEN_13
1002
{
1000
OWNER
1000
GEN
1002
}
  0
LINE
  5
21D9
330
1F
100
AcDbEntity
  8
AM_0
 48
0.5
100
AcDbLine
 10
-187.4999999999999
 20
-7.500002054481117
 30
0.0
 11
-122.9999807595529
 21
-7.500002054481104
 31
0.0
1001
GENIUS_GENODEF_13
1002
{
1000
HIER
1070
     0
1002
}
1002
{
1000
MANEDIT
1070
     0
1002
}
1002
{
1000
NOSEL
1070
     0
1002
}
1002
{
1000
BEHIND
1070
     0
1002
}
1002
{
1000
REACTOR
1002
}
1001
GENIUS_GENOBJ-N-CEN_13
1002
{
1000
OWNER
1000
GEN
1002
}
  0
LINE
  5
21DC
330
1F
100
AcDbEntity
  8
AM_0
100
AcDbLine
 10
-187.5000000000004
 20
-7.500002054480611
 30
0.0
 11
-187.5000000000004
 21
7.499999999999225
 31
0.0
  0
LINE
  5
21DD
330
1F
100
AcDbEntity
  8
AM_0
 48
0.5
100
AcDbLine
 10
-187.9999999999999
 20
-7.000002054481094
 30
0.0
 11
-187.9999999999999
 21
6.999999999999737
 31
0.0
  0
DIMENSION
  5
2216
330
1F
100
AcDbEntity
  8
AM_5
100
AcDbDimension
  2
*D8
 10
-204.0000009999999
 20
-7.500002054480601
 30
0.0
 11
-207.4000009999999
 21
-0.0000010272407302
 31
0.0
 70
    32
  1
%%c<>
 51
359.9999999999998
  3
AM_JIS$0
100
AcDbAlignedDimension
 13
-187.5000000000004
 23
7.499999999999201
 33
0.0
 14
-187.5000000000004
 24
-7.500002054480606
 34
0.0
 50
269.9999999999999
100
AcDbRotatedDimension
1001
ACAD
1000
DSTYLE
1002
{
1070
   271
1070
     0
1002
}
1001
GENIUS_GENDTOL_13
1000

1000
h7
1000

1040
0.0
  0
ELLIPSE
  5
2694
330
1F
100
AcDbEntity
  8
AM_0
 48
0.5
100
AcDbEllipse
 10
8.606834868095926
 20
6.91148191245491
 30
0.0
 11
10.62451473362349
 21
0.0000000000010481
 31
0.0
210
0.0
220
0.0
230
1.0
 40
0.9899999999999973
 41
3.323896559076802
 42
3.661579236128986
  0
LINE
  5
2695
330
1F
100
AcDbEntity
  8
AM_0
 48
0.5
100
AcDbLine
 10
-1.84161693959024
 20
5.004564032390735
 30
0.0
 11
-2.99999999999989
 21
7.299999363068259
 31
0.0
  0
LINE
  5
2696
330
1F
100
AcDbEntity
  8
AM_0
 48
0.5
100
AcDbLine
 10
0.000000000000032
 20
0.0000000000000304
 30
0.0
 11
-0.6133936239360168
 21
1.685285145005457
 31
0.0
  0
LINE
  5
2699
330
1F
100
AcDbEntity
  8
AM_0
 48
0.5
100
AcDbLine
 10
0.0000000000000888
 20
0.000000000000041
 30
0.0
 11
-0.6134061199819715
 21
-1.685306752286479
 31
0.0
  0
LINE
  5
2CB4
330
1F
100
AcDbEntity
  8
AM_0
 48
0.5
100
AcDbLine
 10
-187.9999999999999
 20
6.999999999999713
 30
0.0
 11
-187.4999999999999
 21
7.499999999999713
 31
0.0
1001
GENIUS_GENFIL_13
1070
     0
1040
0.5
1040
0.5
1040
20.0
1040
0.0
1002
{
1002
}
1001
GENIUS_GENODEF_13
1002
{
1000
HIER
1070
     0
1002
}
1002
{
1000
MANEDIT
1070
     0
1002
}
1002
{
1000
NOSEL
1070
     0
1002
}
1002
{
1000
BEHIND
1070
     0
1002
}
1002
{
1000
REACTOR
1002
}
1001
GENIUS_GENOBJ-N-CHA_13
1002
{
1000
OWNER
1000
GEN
1002
}
  0
LINE
  5
2CB7
330
1F
100
AcDbEntity
  8
AM_0
 48
0.5
100
AcDbLine
 10
-187.4999999999999
 20
-7.500002054481117
 30
0.0
 11
-187.9999999999999
 21
-7.000002054481117
 31
0.0
1001
GENIUS_GENFIL_13
1070
     0
1040
0.5
1040
0.5
1040
20.0
1040
0.0
1002
{
1002
}
1001
GENIUS_GENODEF_13
1002
{
1000
HIER
1070
     0
1002
}
1002
{
1000
MANEDIT
1070
     0
1002
}
1002
{
1000
NOSEL
1070
     0
1002
}
1002
{
1000
BEHIND
1070
     0
1002
}
1002
{
1000
REACTOR
1002
}
1001
GENIUS_GENOBJ-N-CHA_13
1002
{
1000
OWNER
1000
GEN
1002
}
  0
ELLIPSE
  5
3366
330
1F
100
AcDbEntity
  8
AM_0
 48
0.5
100
AcDbEllipse
 10
8.606834868095949
 20
-6.911481912454807
 30
0.0
 11
10.62451473362349
 21
-0.0000000000010127
 31
0.0
210
0.0
220
0.0
230
-1.0
 40
0.9899999999999973
 41
3.323896559076802
 42
3.661579236128986
  0
LINE
  5
3367
330
1F
100
AcDbEntity
  8
AM_0
 48
0.5
100
AcDbLine
 10
-1.841616939590225
 20
-5.004564032390675
 30
0.0
 11
-3.000000000000056
 21
-7.300000636931389
 31
0.0
  0
LINE
  5
463C
330
1F
100
AcDbEntity
  8
AM_0
 48
0.5
100
AcDbLine
 10
-122.6535873832095
 20
-7.300000636926498
 30
0.0
 11
-69.72055346520268
 21
-7.300000636928728
 31
0.0
  0
LINE
  5
463D
330
1F
100
AcDbEntity
  8
AM_0
100
AcDbLine
 10
-121.5114826446888
 20
7.299999363072949
 30
0.0
 11
-122.6535887352973
 21
7.299999363073427
 31
0.0
  0
LINE
  5
463E
330
1F
100
AcDbEntity
  8
AM_0
 48
0.5
100
AcDbLine
 10
-8.142623058692862
 20
7.299999363068482
 30
0.0
 11
-2.99999999999989
 21
7.299999363068259
 31
0.0
  0
LINE
  5
463F
330
1F
100
AcDbEntity
  8
AM_0
 48
0.5
100
AcDbLine
 10
-8.142623058693448
 20
-7.300000636931526
 30
0.0
 11
-3.000000000000045
 21
-7.300000636931406
 31
0.0
  0
LINE
  5
4640
330
1F
100
AcDbEntity
  8
AM_11
 48
0.5
100
AcDbLine
 10
-29.45101346883218
 20
7.299999363069437
 30
0.0
 11
-8.142623058692862
 21
7.299999363068482
 31
0.0
  0
LINE
  5
4641
330
1F
100
AcDbEntity
  8
AM_11
 48
0.5
100
AcDbLine
 10
-29.45101346883277
 20
-7.300000636930553
 30
0.0
 11
-8.142623058693448
 21
-7.300000636931526
 31
0.0
  0
LINE
  5
4642
330
1F
100
AcDbEntity
  8
AM_11
 48
0.5
100
AcDbLine
 10
-66.95854551277424
 20
7.30103646055239
 30
0.0
 11
-53.36034768342121
 21
7.299999363070511
 31
0.0
  0
LINE
  5
4643
330
1F
100
AcDbEntity
  8
AM_11
 48
0.5
100
AcDbLine
 10
-69.72055660462692
 20
-7.300000636928902
 30
0.0
 11
-48.41216619449034
 21
-7.3010377344111
 31
0.0
  0
LINE
  5
4644
330
1F
100
AcDbEntity
  8
AM_0
 48
0.5
100
AcDbLine
 10
-53.36036603621254
 20
7.299999363070511
 30
0.0
 11
-29.45101346883218
 21
7.299999363069437
 31
0.0
  0
LINE
  5
4645
330
1F
100
AcDbEntity
  8
AM_0
 48
0.5
100
AcDbLine
 10
-48.41216619449032
 20
-7.300000636929858
 30
0.0
 11
-29.45101346883277
 21
-7.300000636930553
 31
0.0
  0
LINE
  5
4646
330
1F
100
AcDbEntity
  8
AM_0
 48
0.5
100
AcDbLine
 10
0.000000000000032
 20
0.0000000000000304
 30
0.0
 11
-5.37620122175352
 21
2.802977624379684
 31
0.0
  0
SPLINE
  5
4647
330
1F
100
AcDbEntity
  8
AM_0
 48
0.5
100
AcDbSpline
210
0.0
220
0.0
230
1.0
 70
     8
 71
     3
 72
    25
 73
    21
 74
     0
 42
0.0000000001
 43
0.0000000001
 40
6.846175049578289
 40
6.846175049578289
 40
6.846175049578289
 40
6.846175049578289
 40
7.604337694224321
 40
8.711974558287883
 40
9.814980593243754
 40
10.91239053451967
 40
12.0033633515982
 40
13.08720139956839
 40
14.16337181880432
 40
15.23152222380919
 40
16.29148850140128
 40
17.34331105512262
 40
18.38723020264746
 40
19.42369128463655
 40
20.45333379090873
 40
21.47697865721768
 40
22.49561244472435
 40
23.5103574802404
 40
24.52244778960836
 40
25.53320666051913
 40
25.53320666051913
 40
25.53320666051913
 40
25.53320666051913
 10
-9.461855729134715
 20
1.321347155079662
 30
0.0
 10
-9.718819560688048
 20
1.44952217207747
 30
0.0
 10
-10.35173520547179
 20
1.763671721306736
 30
0.0
 10
-11.36154324344037
 20
2.256999602013934
 30
0.0
 10
-12.49147840938488
 20
2.795110881288914
 30
0.0
 10
-13.62147040050277
 20
3.316029653229024
 30
0.0
 10
-14.75152892553112
 20
3.816553016278146
 30
0.0
 10
-15.88166657611073
 20
4.293592992443305
 30
0.0
 10
-17.011893802465
 20
4.74420772384145
 30
0.0
 10
-18.14221583695073
 20
5.16562785678867
 30
0.0
 10
-19.2726466022357
 20
5.555230759211457
 30
0.0
 10
-20.40318456758174
 20
5.910627371474219
 30
0.0
 10
-21.53383785340579
 20
6.229600022437507
 30
0.0
 10
-22.66460246958043
 20
6.510174640096136
 30
0.0
 10
-23.79547399876755
 20
6.750631502785576
 30
0.0
 10
-24.92644614819869
 20
6.94937675088709
 30
0.0
 10
-26.05750132040125
 20
7.105500780533612
 30
0.0
 10
-27.18862704999935
 20
7.216883040051106
 30
0.0
 10
-28.31980497541396
 20
7.28697337449289
 30
0.0
 10
-29.07410946532266
 20
7.295659272562053
 30
0.0
 10
-29.45101346883217
 20
7.299999363069439
 30
0.0
  0
SPLINE
  5
4648
330
1F
100
AcDbEntity
  8
AM_0
100
AcDbSpline
210
0.0
220
0.0
230
1.0
 70
     8
 71
     3
 72
    23
 73
    19
 74
     0
 42
0.0000000001
 43
0.0000000001
 40
16.03460024169435
 40
16.03460024169435
 40
16.03460024169435
 40
16.03460024169435
 40
16.35212704903564
 40
17.38177054169784
 40
18.41822485651776
 40
19.46214173629503
 40
20.51396345435107
 40
21.57393551351153
 40
22.64208202342361
 40
23.7182574881101
 40
24.80209208578934
 40
25.89306333925047
 40
26.99048218457928
 40
28.09348763352352
 40
29.20111863782268
 40
30.31232390128032
 40
31.42594612798585
 40
32.5407912310448
 40
32.5407912310486
 40
32.5407912310486
 40
32.5407912310486
 10
-66.95854551277424
 20
7.301036460552388
 30
0.0
 10
-66.84233136721876
 20
7.276392946079574
 30
0.0
 10
-66.34976475202044
 20
7.169077376619492
 30
0.0
 10
-65.48210335476968
 20
6.958808896683102
 30
0.0
 10
-64.35847957392471
 20
6.646141966491399
 30
0.0
 10
-63.23589946769904
 20
6.295069120187025
 30
0.0
 10
-62.11429670193897
 20
5.907622188338594
 30
0.0
 10
-60.9936314689747
 20
5.485961196264931
 30
0.0
 10
-59.87383899704159
 20
5.032496536016713
 30
0.0
 10
-58.75484130804807
 20
4.549867258171444
 30
0.0
 10
-57.63657481652646
 20
4.040806464190478
 30
0.0
 10
-56.51894986699709
 20
3.508276260220161
 30
0.0
 10
-55.40187588845586
 20
2.95537194188477
 30
0.0
 10
-54.28527845344965
 20
2.385272477222384
 30
0.0
 10
-53.1690641376272
 20
1.801292916548071
 30
0.0
 10
-52.05312955590319
 20
1.206843272055423
 30
0.0
 10
-50.93738383970112
 20
0.6053682184629916
 30
0.0
 10
-50.19375315483987
 20
0.2021120833452759
 30
0.0
 10
-49.82173501973425
 20
0.0003706602691908
 30
0.0
  0
SPLINE
  5
4649
330
1F
100
AcDbEntity
  8
AM_0
100
AcDbSpline
210
0.0
220
0.0
230
1.0
 70
     8
 71
     3
 72
    11
 73
     7
 74
     0
 42
0.0000000001
 43
0.0000000001
 40
11.27226913003534
 40
11.27226913003534
 40
11.27226913003534
 40
11.2722691300354
 40
12.28301561507924
 40
13.29510212255852
 40
14.30984805882082
 40
15.18258238371378
 40
15.18258238371378
 40
15.18258238371378
 40
15.18258238371378
 10
-69.72055660462959
 20
-7.300000636928901
 30
0.0
 10
-70.09602168921886
 20
-7.264272315562736
 30
0.0
 10
-70.84624365985068
 20
-7.177775604495298
 30
0.0
 10
-71.96770260940361
 20
-7.003290343361531
 30
0.0
 10
-73.03198692692989
 20
-6.794886830499998
 30
0.0
 10
-73.72030355126978
 20
-6.634680847676919
 30
0.0
 10
-74.03749945156355
 20
-6.555543517211014
 30
0.0
  0
SPLINE
  5
464A
330
1F
100
AcDbEntity
  8
AM_0
100
AcDbSpline
210
0.0
220
0.0
230
1.0
 70
     8
 71
     3
 72
    17
 73
    13
 74
     0
 42
0.0000000001
 43
0.0000000001
 40
1.580019955310467
 40
1.580019955310467
 40
1.580019955310467
 40
1.580019955310467
 40
2.030549285115227
 40
3.082371838836284
 40
4.126290986361125
 40
5.162752068350215
 40
6.192395305374981
 40
7.216039564037012
 40
8.234688489606833
 40
9.249433870634691
 40
10.26152376260694
 40
11.27226744710342
 40
11.27226744710342
 40
11.27226744710342
 40
11.27226744710352
 10
-59.06553016563428
 20
-5.387615597039008
 30
0.0
 10
-59.22557229357659
 20
-5.443103555432212
 30
0.0
 10
-59.76016676900861
 20
-5.624972750542198
 30
0.0
 10
-60.67285211245293
 20
-5.91024109046492
 30
0.0
 10
-61.80334792794505
 20
-6.229703787744452
 30
0.0
 10
-62.93415496787678
 20
-6.510149620367959
 30
0.0
 10
-64.0650138209923
 20
-6.750636788198408
 30
0.0
 10
-65.19599587915313
 20
-6.949415975963185
 30
0.0
 10
-66.32705607361896
 20
-7.105352838487207
 30
0.0
 10
-67.45818669694656
 20
-7.217436852724226
 30
0.0
 10
-68.58935988100665
 20
-7.284946520858048
 30
0.0
 10
-69.34365836739114
 20
-7.300000678699899
 30
0.0
 10
-69.72055660462952
 20
-7.300000636928901
 30
0.0
  0
SPLINE
  5
464B
330
1F
100
AcDbEntity
  8
AM_0
 48
0.5
100
AcDbSpline
210
0.0
220
0.0
230
1.0
 70
     8
 71
     3
 72
    17
 73
    13
 74
     0
 42
0.0000000001
 43
0.0000000001
 40
0.0
 40
0.0
 40
0.0
 40
0.0
 40
1.010743614677189
 40
2.022833924044153
 40
3.037578959561199
 40
4.056212747067873
 40
5.079857613375832
 40
6.109500119648989
 40
7.14596120163808
 40
8.18989512056258
 40
9.241717674284874
 40
9.693948937866434
 40
9.693948937866434
 40
9.693948937866434
 40
9.693948937866434
 10
-8.142623058692862
 20
7.299999363068479
 30
0.0
 10
-8.519521369494635
 20
7.295659169931658
 30
0.0
 10
-9.273820162911507
 20
7.286973000871076
 30
0.0
 10
-10.40499241800292
 20
7.216883073077784
 30
0.0
 10
-11.53611810338919
 20
7.105500669585739
 30
0.0
 10
-12.66717344238404
 20
6.949377164069563
 30
0.0
 10
-13.79814496444607
 20
6.750629949623577
 30
0.0
 10
-14.92901885587614
 20
6.510180489462676
 30
0.0
 10
-16.059779938446
 20
6.229576636281354
 30
0.0
 10
-17.19047209022466
 20
5.910707487485963
 30
0.0
 10
-18.10319627938264
 20
5.62345458517404
 30
0.0
 10
-18.63920143726091
 20
5.443880212454252
 30
0.0
 10
-18.80008142862374
 20
5.388913699088338
 30
0.0
  0
SPLINE
  5
464D
330
1F
100
AcDbEntity
  8
AM_0
 48
0.5
100
AcDbSpline
210
0.0
220
0.0
230
1.0
 70
     8
 71
     3
 72
    10
 73
     6
 74
     0
 42
0.0000000001
 43
0.0000000001
 40
0.0
 40
0.0
 40
0.0
 40
0.0
 40
2.69986029516136
 40
4.147722969032201
 40
6.285750005020438
 40
6.285750005020438
 40
6.285750005020438
 40
6.285750005020438
 10
-9.461674879442444
 20
1.321260451121789
 30
0.0
 10
-8.656596069463294
 20
0.6430400058481981
 30
0.0
 10
-7.419775083571527
 20
-0.3988918763199569
 30
0.0
 10
-4.494859597090778
 20
0.1055256009441826
 30
0.0
 10
-5.045706259607269
 20
1.80447040873704
 30
0.0
 10
-5.409670539162621
 20
2.840029595178483
 30
0.0
  0
SPLINE
  5
464E
330
1F
100
AcDbEntity
  8
AM_0
100
AcDbSpline
210
0.0
220
0.0
230
1.0
 70
     8
 71
     3
 72
    55
 73
    51
 74
     0
 42
0.0000000001
 43
0.0000000001
 40
0.0
 40
0.0
 40
0.0
 40
0.0
 40
1.010743684496582
 40
2.022833576467832
 40
3.037578957496688
 40
4.056212745003489
 40
5.079857003664532
 40
6.109500240690281
 40
7.145961322679372
 40
8.189895241603872
 40
9.241717795325891
 40
10.30168407291828
 40
11.36983447792315
 40
12.44600489715814
 40
13.52984294512926
 40
14.62081576220742
 40
15.7182257034828
 40
16.82123173843959
 40
17.92886860250316
 40
19.0400688939571
 40
20.15368796660465
 40
21.26852814259644
 40
22.38336992938901
 40
23.49698739941135
 40
24.6081876908653
 40
25.71582455492886
 40
26.81883757994213
 40
27.91624752121713
 40
29.00722033829659
 40
30.09105838626677
 40
31.16722880550176
 40
32.23537921050758
 40
33.29534548809967
 40
34.347168041821
 40
35.39108718934584
 40
36.42754827133493
 40
37.45720575381954
 40
38.48085062012849
 40
39.49948440763516
 40
40.51422944315121
 40
41.52631975251916
 40
42.53706336719636
 40
43.54780698187354
 40
44.55989729124051
 40
45.57464232675757
 40
46.59327611426424
 40
47.6169209805722
 40
48.64656348684535
 40
49.68302456883444
 40
50.58557219878025
 40
50.58557219878025
 40
50.58557219878025
 40
50.58557219878025
 10
-8.142623058693448
 20
-7.300000636931519
 30
0.0
 10
-8.519521300904251
 20
-7.295657313784815
 30
0.0
 10
-9.273819775334438
 20
-7.286964882628087
 30
0.0
 10
-10.4049929833873
 20
-7.216894129026214
 30
0.0
 10
-11.53611790592095
 20
-7.105499935322271
 30
0.0
 10
-12.66717282292694
 20
-6.949376736206014
 30
0.0
 10
-13.79814644825769
 20
-6.750640300354083
 30
0.0
 10
-14.92901647033225
 20
-6.510174377025899
 30
0.0
 10
-16.05978667186068
 20
-6.229598830390303
 30
0.0
 10
-17.19044702519656
 20
-5.910631770849819
 30
0.0
 10
-18.32098982848224
 20
-5.555231636800192
 30
0.0
 10
-19.45142071684859
 20
-5.165629238144687
 30
0.0
 10
-20.58174271781496
 20
-4.744208968272464
 30
0.0
 10
-21.71196995384938
 20
-4.293594275411503
 30
0.0
 10
-22.84210759955312
 20
-3.816554283396509
 30
0.0
 10
-23.97216613439635
 20
-3.316030945038399
 30
0.0
 10
-25.10215809088117
 20
-2.795112089624302
 30
0.0
 10
-26.23209338642027
 20
-2.257001121650201
 30
0.0
 10
-27.36198298716442
 20
-1.705007632899468
 30
0.0
 10
-28.49183898341254
 20
-1.142529077715256
 30
0.0
 10
-29.62167128507719
 20
-0.5730233430964108
 30
0.0
 10
-30.75149584714059
 20
-0.0000021263956754
 30
0.0
 10
-31.88131533723708
 20
0.5730294050440725
 30
0.0
 10
-33.01115142585334
 20
1.142526270952251
 30
0.0
 10
-34.14100602727903
 20
1.705006528727025
 30
0.0
 10
-35.27089764260387
 20
2.257002120326919
 30
0.0
 10
-36.40083762565661
 20
2.79510849596753
 30
0.0
 10
-37.53083136556728
 20
3.316029993165019
 30
0.0
 10
-38.66089006355338
 20
3.816552925650305
 30
0.0
 10
-39.79102766813502
 20
4.293593017985014
 30
0.0
 10
-40.92125490706348
 20
4.744207711505125
 30
0.0
 10
-42.05157693682004
 20
5.165627880609412
 30
0.0
 10
-43.18200770851359
 20
5.555230677084806
 30
0.0
 10
-44.31254565314161
 20
5.910627672955802
 30
0.0
 10
-45.44319901464915
 20
6.229598910168964
 30
0.0
 10
-46.57396879672051
 20
6.510180098825824
 30
0.0
 10
-47.70484689358605
 20
6.750618557607554
 30
0.0
 10
-48.83582425533404
 20
6.949416506587597
 30
0.0
 10
-49.96687950763531
 20
7.10535464180253
 30
0.0
 10
-51.09800521610896
 20
7.217425291865803
 30
0.0
 10
-52.22917746506173
 20
7.284956142889042
 30
0.0
 10
-53.3603745708387
 20
7.307515965684151
 30
0.0
 10
-54.49157167495124
 20
7.284956142853768
 30
0.0
 10
-55.62274392890692
 20
7.217425292007884
 30
0.0
 10
-56.75386961896134
 20
7.105354641268022
 30
0.0
 10
-57.88492494032071
 20
6.949416508597498
 30
0.0
 10
-59.01589652872305
 20
6.750619519223609
 30
0.0
 10
-60.14677017035933
 20
6.510182557179665
 30
0.0
 10
-61.22612630440515
 20
6.242335519764272
 30
0.0
 10
-61.92642485623114
 20
6.04645644916394
 30
0.0
 10
-62.25132256792672
 20
5.95099502250388
 30
0.0
  0
SPLINE
  5
464F
330
1F
100
AcDbEntity
  8
AM_0
100
AcDbSpline
210
0.0
220
0.0
230
1.0
 70
     8
 71
     3
 72
    11
 73
     7
 74
     0
 42
0.0000000001
 43
0.0000000001
 40
11.27226913003534
 40
11.27226913003534
 40
11.27226913003534
 40
11.2722691300354
 40
12.28301561507924
 40
13.29510212255852
 40
14.30984805882082
 40
15.18258238371378
 40
15.18258238371378
 40
15.18258238371378
 40
15.18258238371378
 10
-29.45101346883273
 20
-7.300000636930558
 30
0.0
 10
-29.82647855342202
 20
-7.264272315564396
 30
0.0
 10
-30.57670052405386
 20
-7.177775604496961
 30
0.0
 10
-31.69815947360678
 20
-7.003290343363191
 30
0.0
 10
-32.76244379113304
 20
-6.794886830501654
 30
0.0
 10
-33.4507604154729
 20
-6.63468084767858
 30
0.0
 10
-33.76795631576666
 20
-6.555543517212674
 30
0.0
  0
SPLINE
  5
4650
330
1F
100
AcDbEntity
  8
AM_0
100
AcDbSpline
210
0.0
220
0.0
230
1.0
 70
     8
 71
     3
 72
    22
 73
    18
 74
     0
 42
0.0000000001
 43
0.0000000001
 40
17.17441611292
 40
17.17441611292
 40
17.17441611292
 40
17.17441611292
 40
17.38177636558528
 40
18.41823744757437
 40
19.46215659509824
 40
20.51397914882054
 40
21.57394542641293
 40
22.64209583141747
 40
23.71826625065247
 40
24.80210429862395
 40
25.8930771157021
 40
26.99048705697709
 40
28.09349309193389
 40
29.20112995599786
 40
30.31233024745139
 40
31.42594771747373
 40
32.5407895042663
 40
32.54078950426994
 40
32.54078950426994
 40
32.54078950426994
 10
-33.76845101679935
 20
-6.555453471768496
 30
0.0
 10
-33.84419598579809
 20
-6.538554687765411
 30
0.0
 10
-34.29824570820859
 20
-6.435622347320012
 30
0.0
 10
-35.13003921406469
 20
-6.229229607784598
 30
0.0
 10
-36.26069241389531
 20
-5.910257454164551
 30
0.0
 10
-37.39123040253827
 20
-5.554860707123912
 30
0.0
 10
-38.52166116152835
 20
-5.165257841279438
 30
0.0
 10
-39.65198319764512
 20
-4.743837698233816
 30
0.0
 10
-40.78221042384216
 20
-4.293222970273211
 30
0.0
 10
-41.91234807338924
 20
-3.81618299053005
 30
0.0
 10
-43.04240660274702
 20
-3.315659638420641
 30
0.0
 10
-44.17239857744992
 20
-2.79474082599073
 30
0.0
 10
-45.30233380514644
 20
-2.256629698770913
 30
0.0
 10
-46.43222366046152
 20
-1.704636807345706
 30
0.0
 10
-47.56207815888514
 20
-1.142156283177348
 30
0.0
 10
-48.69191403822937
 20
-0.5726589351251795
 30
0.0
 10
-49.44499010895698
 20
-0.1907091440365062
 30
0.0
 10
-49.82173501973926
 20
0.0003706602718136
 30
0.0
  0
SPLINE
  5
4651
330
1F
100
AcDbEntity
  8
AM_0
100
AcDbSpline
210
0.0
220
0.0
230
1.0
 70
     8
 71
     3
 72
    17
 73
    13
 74
     0
 42
0.0000000001
 43
0.0000000001
 40
1.580019955310467
 40
1.580019955310467
 40
1.580019955310467
 40
1.580019955310467
 40
2.030549285115227
 40
3.082371838836284
 40
4.126290986361125
 40
5.162752068350215
 40
6.192395305374981
 40
7.216039564037012
 40
8.234688489606833
 40
9.249433870634691
 40
10.26152376260694
 40
11.27226744710342
 40
11.27226744710342
 40
11.27226744710342
 40
11.27226744710352
 10
-18.79598702983739
 20
-5.387615597040669
 30
0.0
 10
-18.95602915777969
 20
-5.443103555433872
 30
0.0
 10
-19.49062363321172
 20
-5.624972750543857
 30
0.0
 10
-20.40330897665605
 20
-5.910241090466582
 30
0.0
 10
-21.53380479214821
 20
-6.229703787746109
 30
0.0
 10
-22.66461183207991
 20
-6.510149620369612
 30
0.0
 10
-23.79547068519546
 20
-6.750636788200067
 30
0.0
 10
-24.92645274335628
 20
-6.949415975964846
 30
0.0
 10
-26.05751293782213
 20
-7.10535283848887
 30
0.0
 10
-27.18864356114975
 20
-7.217436852725889
 30
0.0
 10
-28.3198167452098
 20
-7.284946520859707
 30
0.0
 10
-29.07411523159428
 20
-7.300000678701566
 30
0.0
 10
-29.45101346883268
 20
-7.300000636930558
 30
0.0
  0
SPLINE
  5
4652
330
1F
100
AcDbEntity
  8
AM_0
100
AcDbSpline
210
0.0
220
0.0
230
1.0
 70
     8
 71
     3
 72
    46
 73
    42
 74
     0
 42
0.0000000001
 43
0.0000000001
 40
0.0
 40
0.0
 40
0.0
 40
0.0
 40
1.348332046947657
 40
2.024828967632895
 40
2.703918159304097
 40
3.386347665078124
 40
4.072776489761952
 40
4.763750544421347
 40
5.459696642770596
 40
6.160921452191754
 40
6.867565637253344
 40
7.579665907256596
 40
8.297112853413899
 40
9.019671552060676
 40
9.746986763446127
 40
10.47859339096366
 40
11.21393074760089
 40
11.95235532364328
 40
12.69315551794651
 40
13.43556823304427
 40
14.1787950170388
 40
14.92202180103393
 40
15.66443451613169
 40
16.40523471043432
 40
17.14365928647669
 40
17.87899664311455
 40
18.61060327063121
 40
19.3379184820169
 40
20.06048192311554
 40
20.77792886927283
 40
21.49002913927608
 40
22.19667332433747
 40
22.89788836015233
 40
23.59383445850158
 40
24.28480851316097
 40
24.97123685067576
 40
25.65366676154838
 40
26.33276604526152
 40
27.00926273560555
 40
27.68398960851751
 40
28.357818684969
 40
28.357818684969
 40
28.357818684969
 40
28.357818684969
 10
-4.976106701362934
 20
-7.300000636931661
 30
0.0
 10
-5.730442029614486
 20
-7.28337067263495
 30
0.0
 10
-6.863249061391503
 20
-7.258396977531509
 30
0.0
 10
-8.369591971262869
 20
-7.104638524691689
 30
0.0
 10
-9.500659040280423
 20
-6.949609102667602
 30
0.0
 10
-10.63162942998912
 20
-6.750577658998397
 30
0.0
 10
-11.76250016102571
 20
-6.510190786881524
 30
0.0
 10
-12.89326542388544
 20
-6.229597740356232
 30
0.0
 10
-14.02392332470643
 20
-5.910626405001225
 30
0.0
 10
-15.15446883166163
 20
-5.555235312033476
 30
0.0
 10
-16.28490420444037
 20
-5.165628728806031
 30
0.0
 10
-17.41522640251525
 20
-4.744209106313337
 30
0.0
 10
-18.54545358511709
 20
-4.293594237980256
 30
0.0
 10
-19.67559124537596
 20
-3.816554293684134
 30
0.0
 10
-20.80564977596164
 20
-3.316030941667673
 30
0.0
 10
-21.93564173479753
 20
-2.795112092751206
 30
0.0
 10
-23.06557702519039
 20
-2.257001112477532
 30
0.0
 10
-24.19546664426146
 20
-1.705007666637164
 30
0.0
 10
-25.32532257206177
 20
-1.142528951443441
 30
0.0
 10
-26.45515512989892
 20
-0.5730238156069509
 30
0.0
 10
-27.58497819016416
 20
-0.000000637046585
 30
0.0
 10
-28.71480125018119
 20
0.5730225422101203
 30
0.0
 10
-29.84463380876286
 20
1.142527675958615
 30
0.0
 10
-30.9744897338419
 20
1.705006398783033
 30
0.0
 10
-32.10437936300354
 20
2.25699981632391
 30
0.0
 10
-33.23431461598151
 20
2.795110901529271
 30
0.0
 10
-34.36430671337743
 20
3.316029361846756
 30
0.0
 10
-35.49436718813082
 20
3.816555239410896
 30
0.0
 10
-36.6245092395594
 20
4.293590849557305
 30
0.0
 10
-37.7547384383133
 20
4.744208028489114
 30
0.0
 10
-38.88506061007103
 20
5.165627776376556
 30
0.0
 10
-40.01549133914973
 20
5.555230779452455
 30
0.0
 10
-41.1460293135127
 20
5.910627370019372
 30
0.0
 10
-42.27668259906397
 20
6.229600008407185
 30
0.0
 10
-43.40744720749616
 20
6.510174697062285
 30
0.0
 10
-44.53831876761796
 20
6.750631290844784
 30
0.0
 10
-45.66929637526693
 20
6.949378515060312
 30
0.0
 10
-46.80035761618263
 20
7.105499315334774
 30
0.0
 10
-47.93148883530692
 20
7.216883285615024
 30
0.0
 10
-49.06266111365302
 20
7.286972947879338
 30
0.0
 10
-49.8169599039755
 20
7.295659152276873
 30
0.0
 10
-50.19385821323097
 20
7.29999936307037
 30
0.0
  0
ELLIPSE
  5
4653
330
1F
100
AcDbEntity
  8
AM_0
 48
0.5
100
AcDbEllipse
 10
-20.78707180991582
 20
50.10891787497286
 30
0.0
 11
0.0028648769944971
 21
54.73115620760105
 31
0.0
210
0.0
220
0.0
230
1.0
 40
0.9442987627581123
 41
3.480507652416399
 42
3.555573878647166
  0
ELLIPSE
  5
4654
330
1F
100
AcDbEntity
  8
AM_0
 48
0.5
100
AcDbEllipse
 10
-13.69595770308989
 20
12.25204582099461
 30
0.0
 11
-0.0000000000085095
 21
17.601073439915
 31
0.0
210
0.0
220
0.0
230
1.0
 40
0.9194088609156553
 41
3.652175978817667
 42
3.740670756497173
  0
ELLIPSE
  5
4655
330
1F
100
AcDbEntity
  8
AM_0
 48
0.5
100
AcDbEllipse
 10
2.206827633539243
 20
8.764098484161728
 30
0.0
 11
0.0000000000007242
 21
14.71274671554533
 31
0.0
210
0.0
220
0.0
230
1.0
 40
0.9194088609157123
 41
2.101163880028992
 42
2.50928481022389
  0
ELLIPSE
  5
4656
330
1F
100
AcDbEntity
  8
AM_0
 48
0.5
100
AcDbEllipse
 10
-4.07738860824649
 20
-1.902485721465873
 30
0.0
 11
-0.9529569593567465
 21
0.6348177700921739
 31
0.0
210
0.0
220
0.0
230
1.0
 40
0.5190164733239801
 41
4.535682275166061
 42
7.67912261649557
  0
ELLIPSE
  5
4657
330
1F
100
AcDbEntity
  8
AM_0
 48
0.5
100
AcDbEllipse
 10
-4.07738860824649
 20
-1.902485721465873
 30
0.0
 11
-0.1849120201435693
 21
1.199793789110491
 31
0.0
210
0.0
220
0.0
230
1.0
 40
0.4617532795575274
 41
1.822751101484235
 42
4.958092991196211
  0
ELLIPSE
  5
4658
330
1F
100
AcDbEntity
  8
AM_0
 48
0.5
100
AcDbEllipse
 10
4.864201833734912
 20
-1.622690074797862
 30
0.0
 11
10.58699184158352
 21
1.971062724269876
 31
0.0
210
0.0
220
0.0
230
0.9999999999999998
 40
0.6628417292721293
 41
3.072444274454601
 42
3.760649486855474
  0
POLYLINE
  5
4659
330
1F
100
AcDbEntity
  8
AM_0
100
AcDb2dPolyline
 66
     1
 10
0.0
 20
0.0
 30
0.0
 70
     2
  0
VERTEX
  5
465A
330
4659
100
AcDbEntity
  8
AM_0
100
AcDbVertex
100
AcDb2dVertex
 10
-118.3994179232016
 20
6.47125328215884
 30
0.0
 42
0.0862297278188617
  0
VERTEX
  5
465B
330
4659
100
AcDbEntity
  8
AM_0
100
AcDbVertex
100
AcDb2dVertex
 10
-121.2118900969003
 20
6.236672283318836
 30
0.0
 42
0.0414024687830266
 70
     1
  0
VERTEX
  5
465C
330
4659
100
AcDbEntity
  8
AM_0
100
AcDbVertex
100
AcDb2dVertex
 10
-121.5518746206524
 20
6.110565104540907
 30
0.0
 42
0.0280074108471844
  0
VERTEX
  5
465D
330
4659
100
AcDbEntity
  8
AM_0
100
AcDbVertex
100
AcDb2dVertex
 10
-122.327051867695
 20
5.691735073104287
 30
0.0
 42
0.0512701366748525
 70
     1
  0
VERTEX
  5
465E
330
4659
100
AcDbEntity
  8
AM_0
100
AcDbVertex
100
AcDb2dVertex
 10
-122.7103595317728
 20
5.397412023998207
 30
0.0
 42
0.0658714570033076
  0
VERTEX
  5
465F
330
4659
100
AcDbEntity
  8
AM_0
100
AcDbVertex
100
AcDb2dVertex
 10
-122.9509277963704
 20
5.10104061946965
 30
0.0
 42
0.1411961588081283
 70
     1
  0
VERTEX
  5
4660
330
4659
100
AcDbEntity
  8
AM_0
100
AcDbVertex
100
AcDb2dVertex
 10
-122.9999807595529
 20
4.926025929713021
 30
0.0
 42
0.1226739033459629
  0
VERTEX
  5
4661
330
4659
100
AcDbEntity
  8
AM_0
100
AcDbVertex
100
AcDb2dVertex
 10
-122.9521264277823
 20
4.733599130657162
 30
0.0
 42
0.0555312784770531
 70
     1
  0
VERTEX
  5
4662
330
4659
100
AcDbEntity
  8
AM_0
100
AcDbVertex
100
AcDb2dVertex
 10
-122.7103595317728
 20
4.376608419973555
 30
0.0
 42
0.0351528005485752
  0
VERTEX
  5
4663
330
4659
100
AcDbEntity
  8
AM_0
100
AcDbVertex
100
AcDb2dVertex
 10
-122.3196301468834
 20
3.978449345018295
 30
0.0
 42
0.0198940146009696
 70
     1
  0
VERTEX
  5
4664
330
4659
100
AcDbEntity
  8
AM_0
100
AcDbVertex
100
AcDb2dVertex
 10
-121.5207204285323
 20
3.405290321234798
 30
0.0
 42
0.0358460074876439
  0
VERTEX
  5
4665
330
4659
100
AcDbEntity
  8
AM_0
100
AcDbVertex
100
AcDb2dVertex
 10
-121.2058257384584
 20
3.202002855827072
 30
0.0
 42
0.021710998496176
 70
     1
  0
VERTEX
  5
4666
330
4659
100
AcDbEntity
  8
AM_0
100
AcDbVertex
100
AcDb2dVertex
 10
-120.6518567451921
 20
2.929429088614534
 30
0.0
  0
SEQEND
  5
4667
330
4659
100
AcDbEntity
  8
AM_0
  0
LINE
  5
4668
330
1F
100
AcDbEntity
  8
AM_11
 48
0.5
100
AcDbLine
 10
-121.5114826446888
 20
7.299999363072949
 30
0.0
 11
-93.63006449559787
 21
7.299999363072177
 31
0.0
  0
ELLIPSE
  5
4669
330
1F
100
AcDbEntity
  8
AM_0
100
AcDbEllipse
 10
-122.215273337885
 20
-6.976291633232014
 30
0.0
 11
0.0000000000041935
 21
1.937700240867841
 31
0.0
210
0.0
220
0.0
230
1.0
 40
0.9657534246571389
 41
-0.2679377313978937
 42
-0.1275323195040139
  0
ELLIPSE
  5
466A
330
1F
100
AcDbEntity
  8
AM_0
100
AcDbEllipse
 10
-122.1273215417353
 20
-6.238121486786375
 30
0.0
 11
-0.0000000000002419
 21
1.193947241576514
 31
0.0
210
0.0
220
0.0
230
1.0
 40
0.9657534246576208
 41
-0.1305094391971653
 42
0.0485168534966811
  0
ELLIPSE
  5
466B
330
1F
100
AcDbEntity
  8
AM_0
100
AcDbEllipse
 10
-121.8510660136638
 20
-8.644723190232767
 30
0.0
 11
0.0000000000002849
 21
3.615541885755619
 31
0.0
210
0.0
220
0.0
230
1.0
 40
0.9657534246575483
 41
0.0952766170361124
 42
0.2313492321877522
  0
ELLIPSE
  5
466C
330
1F
100
AcDbEntity
  8
AM_0
100
AcDbEllipse
 10
-122.52518464999
 20
-5.797060034930721
 30
0.0
 11
-0.0000000000005761
 21
0.6842086101998654
 31
0.0
210
0.0
220
0.0
230
1.0
 40
0.9657534246574716
 41
0.1926332863323368
 42
0.5061117441969821
  0
ELLIPSE
  5
466D
330
1F
100
AcDbEntity
  8
AM_0
100
AcDbEllipse
 10
-122.6318159210363
 20
-5.60093022338475
 30
0.0
 11
-0.0000000000011567
 21
0.4591430299972032
 31
0.0
210
0.0
220
0.0
230
1.0
 40
0.9657534246574932
 41
0.5028645116637711
 42
0.8675868530661894
  0
ELLIPSE
  5
466E
330
1F
100
AcDbEntity
  8
AM_0
100
AcDbEllipse
 10
-122.8726273072812
 20
-5.38897367616368
 30
0.0
 11
0.0000000000011198
 21
0.1318804995894965
 31
0.0
210
0.0
220
0.0
230
1.0
 40
0.9657534246568467
 41
0.8708229448609937
 42
1.557899568964966
  0
ELLIPSE
  5
466F
330
1F
100
AcDbEntity
  8
AM_0
100
AcDbEllipse
 10
-122.8691200259491
 20
-5.387346844042381
 30
0.0
 11
-0.0000000000000381
 21
0.1355012053301118
 31
0.0
210
0.0
220
0.0
230
1.0
 40
0.9657534246575448
 41
1.570250563378525
 42
2.246594350020541
  0
ELLIPSE
  5
4670
330
1F
100
AcDbEntity
  8
AM_0
100
AcDbEllipse
 10
-122.5996357829014
 20
-5.161340410280823
 30
0.0
 11
0.000000000000113
 21
0.4945855834647708
 31
0.0
210
0.0
220
0.0
230
1.0
 40
0.9657534246575549
 41
2.250206732576496
 42
2.600849383082449
  0
ELLIPSE
  5
4671
330
1F
100
AcDbEntity
  8
AM_0
100
AcDbEllipse
 10
-122.4668072739146
 20
-4.936214558894655
 30
0.0
 11
0.0000000000042504
 21
0.758395884567379
 31
0.0
210
0.0
220
0.0
230
1.0
 40
0.9657534246571481
 41
2.598176912243538
 42
2.892513815374624
  0
ELLIPSE
  5
4672
330
1F
100
AcDbEntity
  8
AM_0
100
AcDbEllipse
 10
-121.5431896402152
 20
-2.154211305250618
 30
0.0
 11
-0.0000000000057667
 21
3.698167329898327
 31
0.0
210
0.0
220
0.0
230
1.0
 40
0.9657534246577576
 41
2.827283645644053
 42
2.960363693369603
  0
ELLIPSE
  5
4673
330
1F
100
AcDbEntity
  8
AM_0
100
AcDbEllipse
 10
-122.0658392522292
 20
-4.630249026264052
 30
0.0
 11
-0.0000000000002228
 21
1.168310484140208
 31
0.0
210
0.0
220
0.0
230
1.0
 40
0.9657534246577304
 41
3.034077686512019
 42
3.213695009857639
  0
ELLIPSE
  5
4674
330
1F
100
AcDbEntity
  8
AM_0
100
AcDbEllipse
 10
-121.9746008280861
 20
-3.40497414298879
 30
0.0
 11
0.0000000000002499
 21
2.390572033459731
 31
0.0
210
0.0
220
0.0
230
1.0
 40
0.9657534246576563
 41
3.137280341727874
 42
3.227451753245983
  0
SPLINE
  5
4675
330
1F
100
AcDbEntity
  8
AM_0
100
AcDbSpline
210
0.0
220
0.0
230
1.0
 70
     8
 71
     3
 72
     9
 73
     5
 74
     0
 42
0.0000000001
 43
0.0000000001
 40
1.580019955310467
 40
1.580019955310467
 40
1.580019955310467
 40
1.580019955310467
 40
2.030549285115227
 40
2.43907978603305
 40
2.43907978603305
 40
2.43907978603305
 40
2.43907978603305
 10
-120.5304263230327
 20
-5.433557102894277
 30
0.0
 10
-120.7145891168021
 20
-5.484826364208693
 30
0.0
 10
-121.0663469602951
 20
-5.580914375593092
 30
0.0
 10
-121.4195753612034
 20
-5.672907301405262
 30
0.0
 10
-121.58784692877
 20
-5.715801661126993
 30
0.0
  0
SPLINE
  5
4676
330
1F
100
AcDbEntity
  8
AM_0
100
AcDbSpline
210
0.0
220
0.0
230
1.0
 70
     8
 71
     3
 72
    13
 73
     9
 74
     0
 42
0.0000000001
 43
0.0000000001
 40
26.13201924531566
 40
26.13201924531566
 40
26.13201924531566
 40
26.13201924531566
 40
26.99048218457928
 40
28.09348763352352
 40
29.20111863782268
 40
30.31232390128032
 40
31.42594612798585
 40
32.5407912310448
 40
32.5407912310486
 40
32.5407912310486
 40
32.5407912310486
 10
-120.6518567451921
 20
2.929429088614534
 30
0.0
 10
-120.1707167104876
 20
2.743418144260498
 30
0.0
 10
-119.405132198398
 20
2.438116144150242
 30
0.0
 10
-118.213060449145
 20
1.949410741648341
 30
0.0
 10
-116.928616474984
 20
1.409830595514399
 30
0.0
 10
-115.6444943949001
 20
0.8605763961478384
 30
0.0
 10
-114.3605896451068
 20
0.3048309229011601
 30
0.0
 10
-113.50488304949
 20
-0.0677660290623071
 30
0.0
 10
-113.0767963952142
 20
-0.2541692422483601
 30
0.0
  0
SPLINE
  5
4677
330
1F
100
AcDbEntity
  8
AM_0
100
AcDbSpline
210
0.0
220
0.0
230
1.0
 70
     8
 71
     3
 72
    15
 73
    11
 74
     0
 42
0.0000000001
 43
0.0000000001
 40
5.241236682593577
 40
5.241236682593577
 40
5.241236682593577
 40
5.241236682593577
 40
5.954688180526682
 40
6.824620803463244
 40
7.701151815239697
 40
8.58445704656667
 40
9.47458238407075
 40
10.37139106676736
 40
11.27458944007584
 40
12.17321262433756
 40
12.17321262433756
 40
12.17321262433756
 40
12.17321262433756
 10
-112.6589703696651
 20
-0.424309624634191
 30
0.0
 10
-113.0179447342257
 20
-0.493229716355502
 30
0.0
 10
-113.8124074881064
 20
-0.6552110678922871
 30
0.0
 10
-115.0385706537384
 20
-0.9361207910578349
 30
0.0
 10
-116.3395057370279
 20
-1.268223323960248
 30
0.0
 10
-117.640314087326
 20
-1.632299227058472
 30
0.0
 10
-118.9409922058537
 20
-2.026103480496255
 30
0.0
 10
-120.241560988701
 20
-2.44718983324426
 30
0.0
 10
-121.536976474027
 20
-2.891238483097886
 30
0.0
 10
-122.3962582218613
 20
-3.200223782250155
 30
0.0
 10
-122.9999807595969
 20
-3.356964234018203
 30
0.0
  0
SPLINE
  5
4678
330
1F
100
AcDbEntity
  8
AM_0
100
AcDbSpline
210
0.0
220
0.0
230
1.0
 70
     8
 71
     3
 72
    14
 73
    10
 74
     0
 42
0.0000000001
 43
0.0000000001
 40
4.563347739497467
 40
4.563347739497467
 40
4.563347739497467
 40
4.563347739497467
 40
5.079857003664532
 40
6.109500240690281
 40
7.145961322679372
 40
8.189895241603872
 40
9.241717795325891
 40
10.30168407291828
 40
10.55450228288433
 40
10.55450228288433
 40
10.55450228288433
 40
10.55450228288433
 10
-109.5243434496508
 20
-7.300000636927049
 30
0.0
 10
-110.2479018114992
 20
-7.300000636927019
 30
0.0
 10
-112.1280815971365
 20
-7.109756609359326
 30
0.0
 10
-116.0800744406237
 20
-6.469810550941393
 30
0.0
 10
-117.3812680832118
 20
-6.210566898166241
 30
0.0
 10
-118.6823353218942
 20
-5.915850602958867
 30
0.0
 10
-119.983267294032
 20
-5.587471205493163
 30
0.0
 10
-120.9505462744949
 20
-5.31978863534188
 30
0.0
 10
-121.4850121732547
 20
-5.164442992071881
 30
0.0
 10
-121.7198484097102
 20
-5.107730632760076
 30
0.0
  0
SPLINE
  5
4679
330
1F
100
AcDbEntity
  8
AM_0
100
AcDbSpline
210
0.0
220
0.0
230
1.0
 70
     8
 71
     3
 72
    17
 73
    13
 74
     0
 42
0.0000000001
 43
0.0000000001
 40
3.731426397987522
 40
3.731426397987522
 40
3.731426397987522
 40
3.731426397987522
 40
4.232934581347659
 40
5.09097061220244
 40
5.954688180526682
 40
6.824620803463244
 40
7.701151815239697
 40
8.58445704656667
 40
9.47458238407075
 40
10.37139106676736
 40
11.27458944007584
 40
12.17321262433756
 40
12.17321262433756
 40
12.17321262433756
 40
12.17321262433756
 10
-106.4108250319126
 20
-7.300180871204169
 30
0.0
 10
-107.1956196491042
 20
-7.178325511010337
 30
0.0
 10
-107.8859554227822
 20
-7.075474306093215
 30
0.0
 10
-109.0096007472335
 20
-6.881508532415731
 30
0.0
 10
-110.310788706824
 20
-6.619302575908162
 30
0.0
 10
-111.6118531233621
 20
-6.32123323626859
 30
0.0
 10
-116.339505737028
 20
-5.445705144053636
 30
0.0
 10
-117.6403140873261
 20
-5.081629240955348
 30
0.0
 10
-118.9409922058538
 20
-4.687824987517513
 30
0.0
 10
-120.2415609887011
 20
-4.266738634769443
 30
0.0
 10
-121.5369764740271
 20
-3.822689984915749
 30
0.0
 10
-122.3962582218614
 20
-3.513704685763442
 30
0.0
 10
-122.9999807595969
 20
-3.356964233995366
 30
0.0
  0
SPLINE
  5
467A
330
1F
100
AcDbEntity
  8
AM_0
100
AcDbSpline
210
0.0
220
0.0
230
1.0
 70
     8
 71
     3
 72
    21
 73
    17
 74
     0
 42
0.0000000001
 43
0.0000000001
 40
17.46072332543636
 40
17.46072332543636
 40
17.46072332543636
 40
17.46072332543636
 40
18.41823744757437
 40
19.46215659509824
 40
20.51397914882054
 40
21.57394542641293
 40
22.64209583141747
 40
23.71826625065247
 40
24.80210429862395
 40
25.8930771157021
 40
26.99048705697709
 40
28.09349309193389
 40
29.20112995599786
 40
30.31233024745139
 40
31.42594771747373
 40
32.5407895042663
 40
32.54078950426994
 40
32.54078950426994
 40
32.54078950426994
 10
-91.33208035500478
 20
-7.300000636927713
 30
0.0
 10
-94.44927298574674
 20
-6.537299979718585
 30
0.0
 10
-96.20364242458499
 20
-6.00271046162231
 30
0.0
 10
-97.4719083271232
 20
-5.71541788260649
 30
0.0
 10
-98.77283475898193
 20
-5.387041614638675
 30
0.0
 10
-100.0736378001265
 20
-5.027059886778498
 30
0.0
 10
-101.3743157322868
 20
-4.637679919257434
 30
0.0
 10
-102.6748845652997
 20
-4.221325003543698
 30
0.0
 10
-103.9753503211646
 20
-3.780553922986831
 30
0.0
 10
-105.2757250322821
 20
-3.318084888689139
 30
0.0
 10
-106.5760231579945
 20
-2.836771041659462
 30
0.0
 10
-107.8762559841051
 20
-2.339571995298483
 30
0.0
 10
-109.1764365995595
 20
-1.829546602155969
 30
0.0
 10
-110.4765765293272
 20
-1.309830941084192
 30
0.0
 10
-111.7766950338505
 20
-0.7836319386224437
 30
0.0
 10
-112.6432705717374
 20
-0.4307214294712657
 30
0.0
 10
-113.0767963952201
 20
-0.2541692422459469
 30
0.0
  0
SPLINE
  5
467B
330
1F
100
AcDbEntity
  8
AM_0
100
AcDbSpline
210
0.0
220
0.0
230
1.0
 70
     8
 71
     3
 72
    22
 73
    18
 74
     0
 42
0.0000000001
 43
0.0000000001
 40
30.51371389116273
 40
30.51371389116273
 40
30.51371389116273
 40
30.51371389116273
 40
31.16722880550176
 40
32.23537921050758
 40
33.29534548809967
 40
34.347168041821
 40
35.39108718934584
 40
36.42754827133493
 40
37.45720575381954
 40
38.48085062012849
 40
39.49948440763516
 40
40.51422944315121
 40
41.52631975251916
 40
42.53706336719636
 40
43.54780698187354
 40
44.55989729124051
 40
45.14939243453665
 40
45.14939243453665
 40
45.14939243453665
 40
45.14939243453665
 10
-90.09054733852597
 20
0.000000000001111
 30
0.0
 10
-99.81180881047514
 20
3.960836056568665
 30
0.0
 10
-100.5064677978272
 20
4.180358798105495
 30
0.0
 10
-101.6355822305221
 20
4.518378349233115
 30
0.0
 10
-102.9363852862848
 20
4.878360012998255
 30
0.0
 10
-104.2373116674949
 20
5.206736510878084
 30
0.0
 10
-105.5383708605793
 20
5.501456666133623
 30
0.0
 10
-106.8395640204921
 20
5.760705531972521
 30
0.0
 10
-108.1408818198068
 20
5.982863681781485
 30
0.0
 10
-109.4423138446589
 20
6.166547210427458
 30
0.0
 10
-110.7438354992984
 20
6.310629516475931
 30
0.0
 10
-112.0454382288754
 20
6.414179540844304
 30
0.0
 10
-113.3470945132557
 20
6.476576085034296
 30
0.0
 10
-114.6487794007434
 20
6.497420705805756
 30
0.0
 10
-115.9504642863159
 20
6.476576085001694
 30
0.0
 10
-117.0698934789987
 20
6.422914827852163
 30
0.0
 10
-117.5609563366266
 20
6.48488226145137
 30
0.0
 10
-118.3994179231925
 20
6.471253282157433
 30
0.0
  0
ELLIPSE
  5
467C
330
1F
100
AcDbEntity
  8
AM_0
100
AcDbEllipse
 10
-121.1181419661692
 20
-7.39174381152493
 30
0.0
 11
1.611307850728425
 21
1.117027082613263
 31
0.0
210
0.0
220
0.0
230
1.0
 40
0.8766965671790853
 41
1.276445711192216
 42
2.532664434397509
  0
ELLIPSE
  5
467D
330
1F
100
AcDbEntity
  8
AM_0
100
AcDbEllipse
 10
-118.550885444361
 20
24.29005168155629
 30
0.0
 11
-7.48673284166955
 21
16.89877931516512
 31
0.0
210
0.0
220
0.0
230
1.0
 40
0.8218175713984557
 41
2.458394353492544
 42
2.656764477860065
  0
LINE
  5
467E
330
1F
100
AcDbEntity
  8
AM_0
100
AcDbLine
 10
-93.63006449559787
 20
7.299999363072177
 30
0.0
 11
-66.95854551277424
 21
7.30103646055239
 31
0.0
  0
SPLINE
  5
467F
330
1F
100
AcDbEntity
  8
AM_0
100
AcDbSpline
210
0.0
220
0.0
230
1.0
 70
     8
 71
     3
 72
    22
 73
    18
 74
     0
 42
0.0000000001
 43
0.0000000001
 40
17.17441611292
 40
17.17441611292
 40
17.17441611292
 40
17.17441611292
 40
17.38177636558528
 40
18.41823744757437
 40
19.46215659509824
 40
20.51397914882054
 40
21.57394542641293
 40
22.64209583141747
 40
23.71826625065247
 40
24.80210429862395
 40
25.8930771157021
 40
26.99048705697709
 40
28.09349309193389
 40
29.20112995599786
 40
30.31233024745139
 40
31.42594771747373
 40
32.5407895042663
 40
32.54078950426994
 40
32.54078950426994
 40
32.54078950426994
 10
-74.03799415259624
 20
-6.555453471766831
 30
0.0
 10
-74.11373912159496
 20
-6.538554687763751
 30
0.0
 10
-74.56778884400549
 20
-6.435622347318351
 30
0.0
 10
-75.3995823498616
 20
-6.229229607782942
 30
0.0
 10
-76.53023554969223
 20
-5.91025745416289
 30
0.0
 10
-77.66077353833516
 20
-5.554860707122246
 30
0.0
 10
-78.79120429732522
 20
-5.165257841277774
 30
0.0
 10
-79.92152633344204
 20
-4.743837698232158
 30
0.0
 10
-81.05175355963913
 20
-4.29322297027155
 30
0.0
 10
-82.18189120918621
 20
-3.816182990528389
 30
0.0
 10
-83.31194973854405
 20
-3.315659638418983
 30
0.0
 10
-84.4419417132468
 20
-2.79474082598907
 30
0.0
 10
-85.57187694094322
 20
-2.256629698769253
 30
0.0
 10
-86.70176679625827
 20
-1.704636807344045
 30
0.0
 10
-87.83162129468204
 20
-1.142156283175686
 30
0.0
 10
-88.96145717402626
 20
-0.5726589351235187
 30
0.0
 10
-89.71453324475389
 20
-0.1907091440348458
 30
0.0
 10
-90.09127815553616
 20
0.000370660273474
 30
0.0
  0
SPLINE
  5
4680
330
1F
100
AcDbEntity
  8
AM_0
100
AcDbSpline
210
0.0
220
0.0
230
1.0
 70
     8
 71
     3
 72
    46
 73
    42
 74
     0
 42
0.0000000001
 43
0.0000000001
 40
0.0
 40
0.0
 40
0.0
 40
0.0
 40
1.348332046947654
 40
2.024828967632893
 40
2.703918159304094
 40
3.386347665078122
 40
4.072776489761951
 40
4.763750544421345
 40
5.459696642770595
 40
6.160921452191748
 40
6.867565637253344
 40
7.579665907256597
 40
8.297112853413899
 40
9.019671552060666
 40
9.746986763446125
 40
10.47859339096365
 40
11.21393074760088
 40
11.95235532364327
 40
12.69315551794651
 40
13.43556823304427
 40
14.1787950170388
 40
14.92202180103393
 40
15.66443451613169
 40
16.40523471043432
 40
17.14365928647669
 40
17.87899664311455
 40
18.61060327063121
 40
19.33791848201689
 40
20.06048192311554
 40
20.77792886927282
 40
21.49002913927608
 40
22.19667332433747
 40
22.89788836015233
 40
23.59383445850157
 40
24.28480851316097
 40
24.97123685067575
 40
25.65366676154837
 40
26.33276604526151
 40
27.00926273560554
 40
27.68398960851752
 40
28.35781868496899
 40
28.35781868496899
 40
28.35781868496899
 40
28.35781868496899
 10
-45.24564983715982
 20
-7.300000636930001
 30
0.0
 10
-45.99998516541136
 20
-7.28337067263329
 30
0.0
 10
-47.13279219718837
 20
-7.258396977529847
 30
0.0
 10
-48.63913510705973
 20
-7.104638524690032
 30
0.0
 10
-49.7702021760773
 20
-6.949609102665943
 30
0.0
 10
-50.90117256578598
 20
-6.750577658996737
 30
0.0
 10
-52.03204329682257
 20
-6.510190786879864
 30
0.0
 10
-53.16280855968232
 20
-6.229597740354572
 30
0.0
 10
-54.29346646050328
 20
-5.910626404999562
 30
0.0
 10
-55.42401196745853
 20
-5.555235312031806
 30
0.0
 10
-56.55444734023729
 20
-5.165628728804374
 30
0.0
 10
-57.68476953831214
 20
-4.744209106311678
 30
0.0
 10
-58.814996720914
 20
-4.2935942379786
 30
0.0
 10
-59.9451343811728
 20
-3.816554293682461
 30
0.0
 10
-61.07519291175854
 20
-3.316030941666026
 30
0.0
 10
-62.20518487059445
 20
-2.795112092749532
 30
0.0
 10
-63.33512016098726
 20
-2.257001112475883
 30
0.0
 10
-64.46500978005833
 20
-1.705007666635496
 30
0.0
 10
-65.59486570785859
 20
-1.142528951441786
 30
0.0
 10
-66.72469826569582
 20
-0.5730238156052893
 30
0.0
 10
-67.85452132596107
 20
-0.0000006370449228
 30
0.0
 10
-68.98434438597809
 20
0.5730225422117802
 30
0.0
 10
-70.11417694455982
 20
1.142527675960274
 30
0.0
 10
-71.24403286963887
 20
1.705006398784693
 30
0.0
 10
-72.37392249880054
 20
2.256999816325569
 30
0.0
 10
-73.50385775177842
 20
2.795110901530933
 30
0.0
 10
-74.63384984917421
 20
3.316029361848415
 30
0.0
 10
-75.76391032392762
 20
3.816555239412558
 30
0.0
 10
-76.89405237535623
 20
4.293590849558961
 30
0.0
 10
-78.02428157411018
 20
4.744208028490771
 30
0.0
 10
-79.15460374586794
 20
5.165627776378222
 30
0.0
 10
-80.28503447494662
 20
5.555230779454117
 30
0.0
 10
-81.41557244930963
 20
5.910627370021033
 30
0.0
 10
-82.5462257348609
 20
6.229600008408846
 30
0.0
 10
-83.67699034329309
 20
6.510174697063943
 30
0.0
 10
-84.8078619034149
 20
6.750631290846444
 30
0.0
 10
-85.93883951106386
 20
6.949378515061966
 30
0.0
 10
-87.06990075197959
 20
7.105499315336436
 30
0.0
 10
-88.20103197110388
 20
7.216883285616691
 30
0.0
 10
-89.33220424944998
 20
7.286972947880997
 30
0.0
 10
-90.08650303977246
 20
7.295659152278536
 30
0.0
 10
-90.46340134902791
 20
7.299999363072034
 30
0.0
  0
SPLINE
  5
4681
330
1F
100
AcDbEntity
  8
AM_0
100
AcDbSpline
210
0.0
220
0.0
230
1.0
 70
     8
 71
     3
 72
    55
 73
    51
 74
     0
 42
0.0000000001
 43
0.0000000001
 40
0.0
 40
0.0
 40
0.0
 40
0.0
 40
1.010743684496582
 40
2.022833576467832
 40
3.037578957496688
 40
4.056212745003489
 40
5.079857003664532
 40
6.109500240690281
 40
7.145961322679372
 40
8.189895241603872
 40
9.241717795325891
 40
10.30168407291828
 40
11.36983447792315
 40
12.44600489715814
 40
13.52984294512926
 40
14.62081576220742
 40
15.7182257034828
 40
16.82123173843959
 40
17.92886860250316
 40
19.0400688939571
 40
20.15368796660465
 40
21.26852814259644
 40
22.38336992938901
 40
23.49698739941135
 40
24.6081876908653
 40
25.71582455492886
 40
26.81883757994213
 40
27.91624752121713
 40
29.00722033829659
 40
30.09105838626677
 40
31.16722880550176
 40
32.23537921050758
 40
33.29534548809967
 40
34.347168041821
 40
35.39108718934584
 40
36.42754827133493
 40
37.45720575381954
 40
38.48085062012849
 40
39.49948440763516
 40
40.51422944315121
 40
41.52631975251916
 40
42.53706336719636
 40
43.54780698187354
 40
44.55989729124051
 40
45.57464232675757
 40
46.59327611426424
 40
47.6169209805722
 40
48.64656348684535
 40
49.68302456883444
 40
50.58557219878025
 40
50.58557219878025
 40
50.58557219878025
 40
50.58557219878025
 10
-48.41216619449032
 20
-7.300000636929861
 30
0.0
 10
-48.78906443670112
 20
-7.295657313783149
 30
0.0
 10
-49.54336291113131
 20
-7.28696488262642
 30
0.0
 10
-50.67453611918418
 20
-7.216894129024551
 30
0.0
 10
-51.80566104171782
 20
-7.105499935320608
 30
0.0
 10
-52.93671595872384
 20
-6.949376736204357
 30
0.0
 10
-54.06768958405456
 20
-6.750640300352424
 30
0.0
 10
-55.19855960612911
 20
-6.510174377024238
 30
0.0
 10
-56.32932980765753
 20
-6.229598830388648
 30
0.0
 10
-57.45999016099341
 20
-5.910631770848155
 30
0.0
 10
-58.59053296427913
 20
-5.555231636798535
 30
0.0
 10
-59.72096385264549
 20
-5.165629238143031
 30
0.0
 10
-60.85128585361187
 20
-4.744208968270803
 30
0.0
 10
-61.98151308964624
 20
-4.293594275409844
 30
0.0
 10
-63.11165073534998
 20
-3.816554283394849
 30
0.0
 10
-64.24170927019327
 20
-3.316030945036737
 30
0.0
 10
-65.37170122667813
 20
-2.795112089622641
 30
0.0
 10
-66.50163652221713
 20
-2.257001121648543
 30
0.0
 10
-67.63152612296129
 20
-1.705007632897807
 30
0.0
 10
-68.7613821192094
 20
-1.142529077713595
 30
0.0
 10
-69.89121442087408
 20
-0.5730233430947505
 30
0.0
 10
-71.02103898293751
 20
-0.000002126394015
 30
0.0
 10
-72.15085847303395
 20
0.573029405045733
 30
0.0
 10
-73.28069456165028
 20
1.142526270953912
 30
0.0
 10
-74.41054916307603
 20
1.705006528728686
 30
0.0
 10
-75.54044077840086
 20
2.257002120328579
 30
0.0
 10
-76.6703807614535
 20
2.79510849596919
 30
0.0
 10
-77.80037450136406
 20
3.316029993166678
 30
0.0
 10
-78.93043319935016
 20
3.816552925651967
 30
0.0
 10
-80.06057080393187
 20
4.293593017986675
 30
0.0
 10
-81.19079804286036
 20
4.744207711506788
 30
0.0
 10
-82.32112007261696
 20
5.165627880611074
 30
0.0
 10
-83.45155084431047
 20
5.555230677086468
 30
0.0
 10
-84.5820887889385
 20
5.910627672957464
 30
0.0
 10
-85.71274215044606
 20
6.22959891017063
 30
0.0
 10
-86.84351193251742
 20
6.51018009882749
 30
0.0
 10
-87.97439002938297
 20
6.75061855760921
 30
0.0
 10
-89.105367391131
 20
6.949416506589259
 30
0.0
 10
-90.23642264343228
 20
7.105354641804185
 30
0.0
 10
-91.36754835190592
 20
7.217425291867463
 30
0.0
 10
-92.49872060085868
 20
7.2849561428907
 30
0.0
 10
-93.62991770663562
 20
7.307515965685809
 30
0.0
 10
-94.76111481074822
 20
7.284956142855428
 30
0.0
 10
-95.89228706470388
 20
7.217425292009547
 30
0.0
 10
-97.02341275475831
 20
7.105354641269682
 30
0.0
 10
-98.15446807611767
 20
6.949416508599165
 30
0.0
 10
-99.28543966451996
 20
6.750619519225268
 30
0.0
 10
-100.4163133061561
 20
6.510182557181323
 30
0.0
 10
-101.495669440202
 20
6.242335519765927
 30
0.0
 10
-102.195967992028
 20
6.046456449165597
 30
0.0
 10
-104.2000949753882
 20
5.192196288773223
 30
0.0
  0
LINE
  5
46B5
330
1F
100
AcDbEntity
  8
AM_0
100
AcDbLine
 10
-122.6535880706608
 20
5.449353026978013
 30
0.0
 11
-122.6535887352973
 21
7.299999363073427
 31
0.0
  0
LINE
  5
46B6
330
1F
100
AcDbEntity
  8
AM_0
100
AcDbLine
 10
-122.6535849420313
 20
-3.262154471465621
 30
0.0
 11
-122.6535876619904
 21
4.311431470996356
 31
0.0
  0
LINE
  5
46B7
330
1F
100
AcDbEntity
  8
AM_0
100
AcDbLine
 10
-122.6535842726928
 20
-5.125893159237595
 30
0.0
 11
-122.6535848739318
 21
-3.451774016174948
 31
0.0
  0
DIMENSION
  5
471E
330
1F
100
AcDbEntity
  8
AM_5
100
AcDbDimension
  2
*D9
 10
-0.6134061199819715
 20
-1.685306752286479
 30
0.0
 11
23.0219852580754
 21
-0.0000279344265346
 31
0.0
 70
    34
  1
<>
 51
359.9999999999998
  3
AM_JIS$2
100
AcDb2LineAngularDimension
 13
0.000000000000032
 23
0.0000000000000304
 33
0.0
 14
-0.6133936239360168
 24
1.685285145005457
 34
0.0
 15
0.0000000000000888
 25
0.000000000000041
 35
0.0
 16
23.98561922904665
 26
-10.34640923331289
 36
0.0
1001
GENIUS_GENDTOL_13
1000

1000
h7
1000

1040
0.0
1001
ACAD
1000
DSTYLE
1002
{
1070
   271
1070
     0
1002
}
  0
ELLIPSE
  5
481E
330
1F
100
AcDbEntity
  8
AM_11
 48
0.5
100
AcDbEllipse
 10
-195.3165719824546
 20
29.81452229293927
 30
0.0
 11
-33.29749107360793
 21
0.000000000000904
 31
0.0
210
0.0
220
0.0
230
1.0
 40
0.9899999999999995
 41
1.792337542479572
 42
2.011520147323624
  0
ELLIPSE
  5
481F
330
1F
100
AcDbEntity
  8
AM_11
 48
0.5
100
AcDbEllipse
 10
-195.3165719824545
 20
-29.81452033248769
 30
0.0
 11
-33.29749107360789
 21
0.0000000000016878
 31
0.0
210
0.0
220
0.0
230
1.0
 40
0.9900000000000011
 41
4.271664206181739
 42
4.490847764700085
  0
ELLIPSE
  5
4820
330
1F
100
AcDbEntity
  8
AM_11
 48
0.5
100
AcDbEllipse
 10
-166.9075763918498
 20
-29.81448459473959
 30
0.0
 11
-33.29749107360783
 21
0.0000000000013772
 31
0.0
210
0.0
220
0.0
230
1.0
 40
0.9900000000000032
 41
4.271664206181728
 42
5.153113667165039
  0
ELLIPSE
  5
4821
330
1F
100
AcDbEntity
  8
AM_11
 48
0.5
100
AcDbEllipse
 10
-138.4984854827589
 20
-29.81448459473948
 30
0.0
 11
-33.29749107360789
 21
0.0000000000016878
 31
0.0
210
0.0
220
0.0
230
1.0
 40
0.9900000000000011
 41
4.271664206181739
 42
5.153113667165048
  0
ELLIPSE
  5
4822
330
1F
100
AcDbEntity
  8
AM_11
 48
0.5
100
AcDbEllipse
 10
-166.90757639185
 20
29.81455803068739
 30
0.0
 11
-33.29749107360793
 21
-0.0000000000000349
 31
0.0
210
0.0
220
0.0
230
1.0
 40
0.99
 41
1.130070686340306
 42
2.011520147323597
  0
ELLIPSE
  5
4823
330
1F
100
AcDbEntity
  8
AM_11
 48
0.5
100
AcDbEllipse
 10
-138.498485482759
 20
29.81455803068748
 30
0.0
 11
-33.29749107360793
 21
0.000000000000904
 31
0.0
210
0.0
220
0.0
230
1.0
 40
0.9899999999999995
 41
1.130070686340335
 42
2.011520147323624
  0
ELLIPSE
  5
4824
330
1F
100
AcDbEntity
  8
AM_11
 48
0.5
100
AcDbEllipse
 10
-81.68028609531651
 20
29.81454105568779
 30
0.0
 11
-33.29749107360793
 21
0.000000000000904
 31
0.0
210
0.0
220
0.0
230
1.0
 40
0.9899999999999995
 41
1.130070686340335
 42
2.011520147323624
  0
ELLIPSE
  5
4825
330
1F
100
AcDbEntity
  8
AM_11
 48
0.5
100
AcDbEllipse
 10
-81.6802860953164
 20
-29.81450156973918
 30
0.0
 11
-33.29749107360789
 21
0.0000000000016878
 31
0.0
210
0.0
220
0.0
230
1.0
 40
0.9900000000000011
 41
4.271664206181739
 42
5.153113667165048
  0
ELLIPSE
  5
4826
330
1F
100
AcDbEntity
  8
AM_11
 48
0.5
100
AcDbEllipse
 10
-110.0893770044072
 20
-29.81450156973928
 30
0.0
 11
-33.29749107360783
 21
0.0000000000013772
 31
0.0
210
0.0
220
0.0
230
1.0
 40
0.9900000000000032
 41
4.271664206181728
 42
5.153113667165039
  0
ELLIPSE
  5
4827
330
1F
100
AcDbEntity
  8
AM_11
 48
0.5
100
AcDbEllipse
 10
-110.0893770044074
 20
29.8145410556877
 30
0.0
 11
-33.29749107360793
 21
-0.0000000000000349
 31
0.0
210
0.0
220
0.0
230
1.0
 40
0.99
 41
1.130070686340306
 42
2.011520147323597
  0
ELLIPSE
  5
4828
330
1F
100
AcDbEntity
  8
AM_11
 48
0.5
100
AcDbEllipse
 10
-24.86214030075635
 20
29.81453300552685
 30
0.0
 11
-33.29749107360793
 21
0.000000000000904
 31
0.0
210
0.0
220
0.0
230
1.0
 40
0.9899999999999995
 41
1.130070686340335
 42
2.011520147323624
  0
ELLIPSE
  5
4829
330
1F
100
AcDbEntity
  8
AM_11
 48
0.5
100
AcDbEllipse
 10
-53.27123120984712
 20
-29.81450961990022
 30
0.0
 11
-33.29749107360783
 21
0.0000000000013772
 31
0.0
210
0.0
220
0.0
230
1.0
 40
0.9900000000000032
 41
4.271664206181728
 42
5.153113667165039
  0
ELLIPSE
  5
482A
330
1F
100
AcDbEntity
  8
AM_11
 48
0.5
100
AcDbEllipse
 10
-24.86214030075624
 20
-29.81450961990011
 30
0.0
 11
-33.29749107360789
 21
0.0000000000016878
 31
0.0
210
0.0
220
0.0
230
1.0
 40
0.9900000000000011
 41
4.271664206181739
 42
5.153113667165048
  0
ELLIPSE
  5
482B
330
1F
100
AcDbEntity
  8
AM_11
 48
0.5
100
AcDbEllipse
 10
-53.27123120984731
 20
29.81453300552677
 30
0.0
 11
-33.29749107360793
 21
-0.0000000000000349
 31
0.0
210
0.0
220
0.0
230
1.0
 40
0.99
 41
1.130070686340306
 42
2.011520147323597
  0
ELLIPSE
  5
482C
330
1F
100
AcDbEntity
  8
AM_11
 48
0.5
100
AcDbEllipse
 10
3.546950608334526
 20
29.81453300552691
 30
0.0
 11
-33.29749107360851
 21
0.0000000000307517
 31
0.0
210
0.0
220
0.0
230
1.0
 40
0.9899999999999861
 41
1.130070686341231
 42
1.291800737381917
  0
VIEWPORT
  5
110
330
101
100
AcDbEntity
 67
     1
  8
0
100
AcDbViewport
 10
420.5
 20
297.0
 30
0.0
 40
948.9782706766916
 41
628.452
 68
     1
 69
     1
1001
ACAD
1000
MVIEW
1002
{
1070
    16
1010
0.0
1020
0.0
1030
0.0
1010
0.0
1020
0.0
1030
1.0
1040
0.0
1040
628.452
1040
420.5
1040
297.0
1040
50.0
1040
0.0
1040
0.0
1070
     0
1070
   100
1070
     1
1070
     1
1070
     0
1070
     0
1070
     0
1070
     0
1040
0.0
1040
0.0
1040
0.0
1040
10.0
1040
10.0
1040
10.0
1040
10.0
1070
     0
1002
{
1002
}
1002
}
  0
ENDSEC
  0
SECTION
  2
OBJECTS
  0
DICTIONARY
  5
C
330
0
100
AcDbDictionary
  3
ACAD_GROUP
350
D
  3
ACAD_LAYOUT
350
1A
  3
ACAD_MLINESTYLE
350
17
  3
ACAD_PLOTSETTINGS
350
19
  3
ACAD_PLOTSTYLENAME
350
E
  3
ACDBVARIABLEDICTIONARY
350
34
  3
ACMDICTIONARY
350
43
  3
AMG
350
2B
  3
AMGSNAPSETTINGS
350
6E
  3
DWGPROPS
350
4846
  3
ACDBHEADERROUNDTRIPXREC
350
4853
  0
DICTIONARY
  5
74
330
1F
100
AcDbDictionary
280
     1
  3
ACAD_INDEX
360
4848
  3
ACAD_LAYOUTSELFREF
360
4876
  0
DICTIONARY
  5
487B
330
101
100
AcDbDictionary
280
     1
  3
ACAD_LAYOUTSELFREF
360
487C
  0
DICTIONARY
  5
D
102
{ACAD_REACTORS
330
C
102
}
330
C
100
AcDbDictionary
  0
DICTIONARY
  5
1A
102
{ACAD_REACTORS
330
C
102
}
330
C
100
AcDbDictionary
  0
DICTIONARY
  5
17
102
{ACAD_REACTORS
330
C
102
}
330
C
100
AcDbDictionary
  3
STANDARD
350
18
  0
DICTIONARY
  5
19
102
{ACAD_REACTORS
330
C
102
}
330
C
100
AcDbDictionary
  0
ACDBDICTIONARYWDFLT
  5
E
102
{ACAD_REACTORS
330
C
102
}
330
C
100
AcDbDictionary
281
     1
  3
Normal
350
F
100
AcDbDictionaryWithDefault
340
F
  0
DICTIONARY
  5
34
102
{ACAD_REACTORS
330
C
102
}
330
C
100
AcDbDictionary
  3
INDEXCTL
350
35
  3
SORTENTS
350
B5E
  0
DICTIONARY
  5
43
102
{ACAD_REACTORS
330
C
102
}
330
C
100
AcDbDictionary
  3
ACMSTDDICTIONARY
350
260
  0
DICTIONARY
  5
2B
102
{ACAD_REACTORS
330
C
102
}
330
C
100
AcDbDictionary
  3
ACMGSETTINGS
350
2C
  0
DICTIONARY
  5
6E
102
{ACAD_REACTORS
330
C
102
}
330
C
100
AcDbDictionary
  0
XRECORD
  5
4846
102
{ACAD_REACTORS
330
C
102
}
330
C
100
AcDbXrecord
  1
DWGPROPS COOKIE
  2

  3

  4

  6

  7

  8

  9

300
AmdtFileType=82
301
=
302
=
303
=
304
=
305
=
306
=
307
=
308
=
309
=
 40
0.2435671643518519
 41
2452800.443498622
 42
2452948.666289595
  1

 90
        1
  0
DICTIONARY
  5
4853
102
{ACAD_REACTORS
330
C
102
}
330
C
100
AcDbDictionary
  3
TSTACKALIGN
350
4854
  3
TSTACKSIZE
350
4855
  3
HYPERLINKBASE
350
4856
  3
STYLESHEET
350
4857
  3
LAYOUTDICT
350
4858
  3
PLOTSETDICT
350
4859
  3
PLOTSTYLNAMDICT
350
485A
  3
LWETCUNION
350
485B
  3
INSUNITS
350
485C
  3
CEPSNTYPE
350
485D
  3
FINGERPRINTGUID
350
485E
  3
VERSIONGUID
350
485F
  3
PSVPSCALE
350
4860
  3
DIMSTYLEDATA
350
4861
  3
PUCSORTHOREF
350
4862
  3
PUCSORTHOVIEW
350
4863
  3
PUCSBASE
350
4864
  3
PUCSORGTOP
350
4865
  3
PUCSORGBOTTOM
350
4866
  3
PUCSORGLEFT
350
4867
  3
PUCSORGRIGHT
350
4868
  3
PUCSORGFRONT
350
4869
  3
PUCSORGBACK
350
486A
  3
UCSORTHOREF
350
486B
  3
UCSORTHOVIEW
350
486C
  3
UCSBASE
350
486D
  3
UCSORGTOP
350
486E
  3
UCSORGBOTTOM
350
486F
  3
UCSORGLEFT
350
4870
  3
UCSORGRIGHT
350
4871
  3
UCSORGFRONT
350
4872
  3
UCSORGBACK
350
4873
  0
DICTIONARY
  5
4848
102
{ACAD_REACTORS
330
74
102
}
330
74
100
AcDbDictionary
  3
*A1
350
4849
  0
XRECORD
  5
4876
102
{ACAD_REACTORS
330
74
102
}
330
74
100
AcDbXrecord
340
1F
  0
XRECORD
  5
487C
102
{ACAD_REACTORS
330
487B
102
}
330
487B
100
AcDbXrecord
340
101
  0
MLINESTYLE
  5
18
102
{ACAD_REACTORS
330
17
102
}
330
17
100
AcDbMlineStyle
  2
STANDARD
 70
     0
  3

 62
   256
 51
90.0
 52
90.0
 71
     2
 49
0.5
 62
   256
  6
BYLAYER
 49
-0.5
 62
   256
  6
BYLAYER
  0
ACDBPLACEHOLDER
  5
F
102
{ACAD_REACTORS
330
E
102
}
330
E
100
AcDbPlaceHolder
280
     0
  0
DICTIONARYVAR
  5
35
102
{ACAD_REACTORS
330
34
102
}
330
34
100
DictionaryVariables
280
     0
  1
1
  0
DICTIONARYVAR
  5
B5E
102
{ACAD_REACTORS
330
34
102
}
330
34
100
DictionaryVariables
280
     0
  1
96
  0
DICTIONARY
  5
260
102
{ACAD_REACTORS
330
43
102
}
330
43
100
AcDbDictionary
  0
DICTIONARY
  5
2C
102
{ACAD_REACTORS
330
2B
102
}
330
2B
100
AcDbDictionary
  3
DWGSETTINGS
350
2D
  0
XRECORD
  5
4854
102
{ACAD_REACTORS
330
4853
102
}
330
4853
100
AcDbXrecord
 90
        1
  0
XRECORD
  5
4855
102
{ACAD_REACTORS
330
4853
102
}
330
4853
100
AcDbXrecord
 90
       70
  0
XRECORD
  5
4856
102
{ACAD_REACTORS
330
4853
102
}
330
4853
100
AcDbXrecord
  1

  0
XRECORD
  5
4857
102
{ACAD_REACTORS
330
4853
102
}
330
4853
100
AcDbXrecord
  1
ASAMI.ctb
  0
XRECORD
  5
4858
102
{ACAD_REACTORS
330
4853
102
}
330
4853
100
AcDbXrecord
340
1A
  0
XRECORD
  5
4859
102
{ACAD_REACTORS
330
4853
102
}
330
4853
100
AcDbXrecord
340
19
  0
XRECORD
  5
485A
102
{ACAD_REACTORS
330
4853
102
}
330
4853
100
AcDbXrecord
340
E
  0
XRECORD
  5
485B
102
{ACAD_REACTORS
330
4853
102
}
330
4853
100
AcDbXrecord
 90
    10781
  0
XRECORD
  5
485C
102
{ACAD_REACTORS
330
4853
102
}
330
4853
100
AcDbXrecord
 90
        4
  0
XRECORD
  5
485D
102
{ACAD_REACTORS
330
4853
102
}
330
4853
100
AcDbXrecord
 90
        0
  0
XRECORD
  5
485E
102
{ACAD_REACTORS
330
4853
102
}
330
4853
100
AcDbXrecord
  1
{AFB28963-8C59-40AE-9337-C84526B81ACE}
  0
XRECORD
  5
485F
102
{ACAD_REACTORS
330
4853
102
}
330
4853
100
AcDbXrecord
  1
{3D9F2E50-37BD-49C1-8EC8-2A6C60A3F3BD}
  0
XRECORD
  5
4860
102
{ACAD_REACTORS
330
4853
102
}
330
4853
100
AcDbXrecord
 40
0.0
  0
XRECORD
  5
4861
102
{ACAD_REACTORS
330
4853
102
}
330
4853
100
AcDbXrecord
1000
DSTYLE
1002
{
1070
    79
 70
     2
1070
   341
340
59
1070
   342
340
59
1070
   371
 70
    -1
1070
   372
 70
    -1
1002
}
  0
XRECORD
  5
4862
102
{ACAD_REACTORS
330
4853
102
}
330
4853
100
AcDbXrecord
340
0
  0
XRECORD
  5
4863
102
{ACAD_REACTORS
330
4853
102
}
330
4853
100
AcDbXrecord
 70
     0
  0
XRECORD
  5
4864
102
{ACAD_REACTORS
330
4853
102
}
330
4853
100
AcDbXrecord
340
0
  0
XRECORD
  5
4865
102
{ACAD_REACTORS
330
4853
102
}
330
4853
100
AcDbXrecord
 10
0.0
 20
0.0
 30
0.0
  0
XRECORD
  5
4866
102
{ACAD_REACTORS
330
4853
102
}
330
4853
100
AcDbXrecord
 10
0.0
 20
0.0
 30
0.0
  0
XRECORD
  5
4867
102
{ACAD_REACTORS
330
4853
102
}
330
4853
100
AcDbXrecord
 10
0.0
 20
0.0
 30
0.0
  0
XRECORD
  5
4868
102
{ACAD_REACTORS
330
4853
102
}
330
4853
100
AcDbXrecord
 10
0.0
 20
0.0
 30
0.0
  0
XRECORD
  5
4869
102
{ACAD_REACTORS
330
4853
102
}
330
4853
100
AcDbXrecord
 10
0.0
 20
0.0
 30
0.0
  0
XRECORD
  5
486A
102
{ACAD_REACTORS
330
4853
102
}
330
4853
100
AcDbXrecord
 10
0.0
 20
0.0
 30
0.0
  0
XRECORD
  5
486B
102
{ACAD_REACTORS
330
4853
102
}
330
4853
100
AcDbXrecord
340
0
  0
XRECORD
  5
486C
102
{ACAD_REACTORS
330
4853
102
}
330
4853
100
AcDbXrecord
 70
     0
  0
XRECORD
  5
486D
102
{ACAD_REACTORS
330
4853
102
}
330
4853
100
AcDbXrecord
340
0
  0
XRECORD
  5
486E
102
{ACAD_REACTORS
330
4853
102
}
330
4853
100
AcDbXrecord
 10
0.0
 20
0.0
 30
0.0
  0
XRECORD
  5
486F
102
{ACAD_REACTORS
330
4853
102
}
330
4853
100
AcDbXrecord
 10
0.0
 20
0.0
 30
0.0
  0
XRECORD
  5
4870
102
{ACAD_REACTORS
330
4853
102
}
330
4853
100
AcDbXrecord
 10
0.0
 20
0.0
 30
0.0
  0
XRECORD
  5
4871
102
{ACAD_REACTORS
330
4853
102
}
330
4853
100
AcDbXrecord
 10
0.0
 20
0.0
 30
0.0
  0
XRECORD
  5
4872
102
{ACAD_REACTORS
330
4853
102
}
330
4853
100
AcDbXrecord
 10
0.0
 20
0.0
 30
0.0
  0
XRECORD
  5
4873
102
{ACAD_REACTORS
330
4853
102
}
330
4853
100
AcDbXrecord
 10
0.0
 20
0.0
 30
0.0
  0
LAYER_INDEX
  5
4849
102
{ACAD_REACTORS
330
4848
102
}
330
4848
100
AcDbIndex
 40
2453151.66994772
100
AcDbLayerIndex
  8
0
360
484A
 90
        0
  8
AM_0
360
484B
 90
       69
  8
AM_7
360
484C
 90
        1
  8
AM_11
360
484D
 90
       20
  8
AM_5
360
484E
 90
        5
  8
Defpoints
360
484F
 90
        0
  8
AM_6
360
4850
 90
        1
  8
AM_CL
360
4851
 90
        0
  0
XRECORD
  5
2D
102
{ACAD_REACTORS
330
2C
102
}
330
2C
100
AcDbXrecord
  1
VERSION
140
15.0
  1
PRODUCT
  2
AutoCAD Mechanical 2000
  0
IDBUFFER
  5
484A
330
0
100
AcDbIdBuffer
  0
IDBUFFER
  5
484B
330
0
100
AcDbIdBuffer
330
4670
330
4671
330
4672
330
4673
330
4674
330
4675
330
4676
330
4677
330
4678
330
4679
330
467A
330
467B
330
467C
330
467D
330
467E
330
467F
330
4680
330
4681
330
46B5
330
46B6
330
46B7
330
1E25
330
1E26
330
1FD9
330
21D7
330
21D8
330
21D9
330
21DC
330
21DD
330
2694
330
2695
330
2696
330
2699
330
2CB4
330
2CB7
330
3366
330
3367
330
463C
330
463D
330
463E
330
463F
330
4644
330
4645
330
4646
330
4647
330
4648
330
4649
330
464A
330
464B
330
464D
330
464E
330
464F
330
4650
330
4651
330
4652
330
4653
330
4654
330
4655
330
4656
330
4657
330
4658
330
4659
330
4669
330
466A
330
466B
330
466C
330
466D
330
466E
330
466F
  0
IDBUFFER
  5
484C
330
0
100
AcDbIdBuffer
330
C9F
  0
IDBUFFER
  5
484D
330
0
100
AcDbIdBuffer
330
4829
330
482A
330
482B
330
482C
330
4640
330
4641
330
4642
330
4643
330
4668
330
481E
330
481F
330
4820
330
4821
330
4822
330
4823
330
4824
330
4825
330
4826
330
4827
330
4828
  0
IDBUFFER
  5
484E
330
0
100
AcDbIdBuffer
330
CC6
330
DF5
330
1FB6
330
2216
330
471E
  0
IDBUFFER
  5
484F
330
0
100
AcDbIdBuffer
  0
IDBUFFER
  5
4850
330
0
100
AcDbIdBuffer
330
19BD
  0
IDBUFFER
  5
4851
330
0
100
AcDbIdBuffer
  0
ENDSEC
  0
EOF
