  0
SECTION
  2
HEADER
  9
$ACADVER
  1
AC1014
  9
$ACADMAINTVER
 70
     9
  9
$DWGCODEPAGE
  3
ANSI_932
  9
$INSBASE
 10
0.0
 20
0.0
 30
0.0
  9
$EXTMIN
 10
-164.800001
 20
-54.00000099999958
 30
-0.00000001
  9
$EXTMAX
 10
37.04001720295884
 20
35.8102292536337
 30
0.00000001
  9
$LIMMIN
 10
-174.4563797951447
 20
-70.82206914383238
  9
$LIMMAX
 10
45.85902212792825
 20
52.2453258987743
  9
$ORTHOMODE
 70
     0
  9
$REGENMODE
 70
     1
  9
$FILLMODE
 70
     1
  9
$QTEXTMODE
 70
     0
  9
$MIRRTEXT
 70
     0
  9
$DRAGMODE
 70
     2
  9
$LTSCALE
 40
1.0
  9
$OSMODE
 70
    55
  9
$ATTMODE
 70
     1
  9
$TEXTSIZE
 40
2.5
  9
$TRACEWID
 40
1.0
  9
$TEXTSTYLE
  7
STANDARD
  9
$CLAYER
  8
AM_0
  9
$CELTYPE
  6
BYLAYER
  9
$CECOLOR
 62
   256
  9
$CELTSCALE
 40
1.0
  9
$DELOBJ
 70
     1
  9
$DISPSILH
 70
     0
  9
$DIMSCALE
 40
1.0
  9
$DIMASZ
 40
2.5
  9
$DIMEXO
 40
1.0
  9
$DIMDLI
 40
12.0
  9
$DIMRND
 40
0.0
  9
$DIMDLE
 40
0.0
  9
$DIMEXE
 40
1.0
  9
$DIMTP
 40
0.1
  9
$DIMTM
 40
0.1
  9
$DIMTXT
 40
3.2
  9
$DIMCEN
 40
0.0
  9
$DIMTSZ
 40
0.0
  9
$DIMTOL
 70
     0
  9
$DIMLIM
 70
     0
  9
$DIMTIH
 70
     0
  9
$DIMTOH
 70
     0
  9
$DIMSE1
 70
     0
  9
$DIMSE2
 70
     0
  9
$DIMTAD
 70
     3
  9
$DIMZIN
 70
     8
  9
$DIMBLK
  1
OPEN30
  9
$DIMASO
 70
     1
  9
$DIMSHO
 70
     1
  9
$DIMPOST
  1

  9
$DIMAPOST
  1
"
  9
$DIMALT
 70
     0
  9
$DIMALTD
 70
     2
  9
$DIMALTF
 40
0.0393701
  9
$DIMLFAC
 40
1.0
  9
$DIMTOFL
 70
     1
  9
$DIMTVP
 40
0.0
  9
$DIMTIX
 70
     0
  9
$DIMSOXD
 70
     0
  9
$DIMSAH
 70
     0
  9
$DIMBLK1
  1

  9
$DIMBLK2
  1

  9
$DIMSTYLE
  2
AM_JIS
  9
$DIMCLRD
 70
   256
  9
$DIMCLRE
 70
   256
  9
$DIMCLRT
 70
     2
  9
$DIMTFAC
 40
0.71
  9
$DIMGAP
 40
1.5
  9
$DIMJUST
 70
     0
  9
$DIMSD1
 70
     0
  9
$DIMSD2
 70
     0
  9
$DIMTOLJ
 70
     0
  9
$DIMTZIN
 70
     0
  9
$DIMALTZ
 70
     0
  9
$DIMALTTZ
 70
     0
  9
$DIMFIT
 70
     3
  9
$DIMUPT
 70
     0
  9
$DIMUNIT
 70
     2
  9
$DIMDEC
 70
     3
  9
$DIMTDEC
 70
     3
  9
$DIMALTU
 70
     2
  9
$DIMALTTD
 70
     2
  9
$DIMTXSTY
  7
ASAMI
  9
$DIMAUNIT
 70
     0
  9
$LUNITS
 70
     2
  9
$LUPREC
 70
     2
  9
$SKETCHINC
 40
1.0
  9
$FILLETRAD
 40
2.5
  9
$AUNITS
 70
     0
  9
$AUPREC
 70
     0
  9
$MENU
  1
.
  9
$ELEVATION
 40
0.0
  9
$PELEVATION
 40
0.0
  9
$THICKNESS
 40
0.0
  9
$LIMCHECK
 70
     0
  9
$BLIPMODE
 70
     0
  9
$CHAMFERA
 40
0.75
  9
$CHAMFERB
 40
0.75
  9
$CHAMFERC
 40
20.0
  9
$CHAMFERD
 40
0.0
  9
$SKPOLY
 70
     0
  9
$TDCREATE
 40
2452800.443498622
  9
$TDUPDATE
 40
2453151.565285544
  9
$TDINDWG
 40
0.0939248380
  9
$TDUSRTIMER
 40
0.0939248380
  9
$USRTIMER
 70
     1
  9
$ANGBASE
 50
0.0
  9
$ANGDIR
 70
     0
  9
$PDMODE
 70
     0
  9
$PDSIZE
 40
0.0
  9
$PLINEWID
 40
0.0
  9
$COORDS
 70
     1
  9
$SPLFRAME
 70
     0
  9
$SPLINETYPE
 70
     6
  9
$SPLINESEGS
 70
     8
  9
$ATTDIA
 70
     1
  9
$ATTREQ
 70
     1
  9
$HANDLING
 70
 12289
  9
$HANDSEED
  5
432D
  9
$SURFTAB1
 70
     6
  9
$SURFTAB2
 70
     6
  9
$SURFTYPE
 70
     6
  9
$SURFU
 70
     6
  9
$SURFV
 70
     6
  9
$UCSNAME
  2

  9
$UCSORG
 10
0.0
 20
0.0
 30
0.0
  9
$UCSXDIR
 10
1.0
 20
0.0000000000000027
 30
0.0
  9
$UCSYDIR
 10
-0.0000000000000027
 20
1.0
 30
0.0
  9
$PUCSNAME
  2

  9
$PUCSORG
 10
0.0
 20
0.0
 30
0.0
  9
$PUCSXDIR
 10
1.0
 20
0.0
 30
0.0
  9
$PUCSYDIR
 10
0.0
 20
1.0
 30
0.0
  9
$USERI1
 70
     0
  9
$USERI2
 70
     0
  9
$USERI3
 70
     0
  9
$USERI4
 70
     0
  9
$USERI5
 70
     0
  9
$USERR1
 40
0.0
  9
$USERR2
 40
0.0
  9
$USERR3
 40
0.0
  9
$USERR4
 40
0.0
  9
$USERR5
 40
0.0
  9
$WORLDVIEW
 70
     1
  9
$SHADEDGE
 70
     3
  9
$SHADEDIF
 70
    70
  9
$TILEMODE
 70
     1
  9
$MAXACTVP
 70
    64
  9
$PINSBASE
 10
0.0
 20
0.0
 30
0.0
  9
$PLIMCHECK
 70
     0
  9
$PEXTMIN
 10
1.000000000000000E+20
 20
1.000000000000000E+20
 30
1.000000000000000E+20
  9
$PEXTMAX
 10
-1.000000000000000E+20
 20
-1.000000000000000E+20
 30
-1.000000000000000E+20
  9
$PLIMMIN
 10
0.0
 20
0.0
  9
$PLIMMAX
 10
841.0
 20
594.0
  9
$UNITMODE
 70
     0
  9
$VISRETAIN
 70
     1
  9
$PLINEGEN
 70
     0
  9
$PSLTSCALE
 70
     0
  9
$TREEDEPTH
 70
  3020
  9
$PICKSTYLE
 70
     0
  9
$CMLSTYLE
  2
STANDARD
  9
$CMLJUST
 70
     0
  9
$CMLSCALE
 40
20.0
  9
$PROXYGRAPHICS
 70
     1
  9
$MEASUREMENT
 70
     1
  0
ENDSEC
  0
SECTION
  2
CLASSES
  0
CLASS
  1
ACDBDICTIONARYWDFLT
  2
AcDbDictionaryWithDefault
  3
AutoCAD 2000
 90
        0
280
     0
281
     0
  0
CLASS
  1
ACDBPLACEHOLDER
  2
AcDbPlaceHolder
  3
AutoCAD 2000
 90
        0
280
     0
281
     0
  0
CLASS
  1
LAYOUT
  2
AcDbLayout
  3
AutoCAD 2000
 90
        0
280
     0
281
     0
  0
CLASS
  1
AMGSETTINGSOBJ
  2
AmgSettingsObj
  3
"AcadM|Product Description: AutoCAD Mechanical 2000|Company: Autodesk"
 90
        0
280
     0
281
     0
  0
CLASS
  1
ACME_DOCUMENT
  2
AcMeDbDoc
  3
AcMeServices
 90
        0
280
     0
281
     0
  0
CLASS
  1
ACMESCOPE
  2
AcMeScope
  3
AcMeServices
 90
        0
280
     0
281
     0
  0
CLASS
  1
ACMECOMMANDHISTORY
  2
AcMeCommandHistory
  3
AcMeServices
 90
        0
280
     0
281
     0
  0
CLASS
  1
DICTIONARYVAR
  2
AcDbDictionaryVar
  3
AutoCAD 2000
 90
        0
280
     0
281
     0
  0
CLASS
  1
ACIMSYSVARMAN
  2
AcImSysVarManager
  3
AcMeServices
 90
        0
280
     0
281
     0
  0
CLASS
  1
ACIMREALSYSVAR
  2
AcImRealSysVar
  3
AcMeServices
 90
        0
280
     0
281
     0
  0
CLASS
  1
ACIMINTSYSVAR
  2
AcImIntSysVar
  3
AcMeServices
 90
        0
280
     0
281
     0
  0
CLASS
  1
ACMEDRAWINGMAN
  2
AcMeDrawingMan
  3
AcMeServices
 90
        0
280
     0
281
     0
  0
CLASS
  1
ACMEVIEW
  2
AcMeView
  3
AcMeServices
 90
        0
280
     0
281
     0
  0
CLASS
  1
ACDBENTITYCACHE
  2
AcMeEntityCache
  3
AcMeServices
 90
        0
280
     0
281
     0
  0
CLASS
  1
GSMANAGER
  2
AcMeGSManager
  3
AcMeServices
 90
        0
280
     0
281
     0
  0
CLASS
  1
AmdtInternalReactor
  2
AmdtInternalReactor
  3
AcMeServices
 90
        0
280
     0
281
     0
  0
CLASS
  1
ACMESTATEMGR
  2
AcMeStateMgr
  3
AcMeServices
 90
        0
280
     0
281
     0
  0
CLASS
  1
ACME_DATABASE
  2
AcMeDbDatabase
  3
AcMeServices
 90
        0
280
     0
281
     0
  0
CLASS
  1
ACRFINSADJUSTERMGR
  2
AcRfInsAdjusterMgr
  3
AcMeServices
 90
        0
280
     0
281
     0
  0
CLASS
  1
ACMDATADICTIONARY
  2
AcmDataDictionary
  3
"AcmSymBB|Product Description: AutoCAD Mechanical 2000|Company: Autodesk"
 90
        0
280
     0
281
     0
  0
CLASS
  1
ACMDATAENTRYBLOCK
  2
AcmDataEntryBlock
  3
"AcmSymBB|Product Description: AutoCAD Mechanical 2000|Company: Autodesk"
 90
        0
280
     0
281
     0
  0
CLASS
  1
AMGOBJPROPCFG
  2
AmgObjPropCfg
  3
"AmgLay|Product Description: AutoCAD Mechanical 2000|Company: Autodesk"
 90
        1
280
     0
281
     0
  0
CLASS
  1
ACAMGFILTERDAT
  2
AcAmgFilterDat
  3
"AcadM|Product Description: AutoCAD Mechanical 2000|Company: Autodesk"
 90
        0
280
     0
281
     0
  0
CLASS
  1
LAYER_INDEX
  2
AcDbLayerIndex
  3
AutoCAD 2000
 90
        0
280
     0
281
     0
  0
CLASS
  1
IDBUFFER
  2
AcDbIdBuffer
  3
AutoCAD 2000
 90
        0
280
     0
281
     0
  0
CLASS
  1
ACIMSTRSYSVAR
  2
AcImStrSysVar
  3
AcMeServices
 90
        0
280
     0
281
     0
  0
CLASS
  1
ACMSTANDARDJIS
  2
AcmStandardJIS
  3
"AcmSymBB|Product Description: AutoCAD Mechanical 2000|Company: Autodesk"
 90
        0
280
     0
281
     0
  0
CLASS
  1
ACMSURFSTANDARDJIS
  2
AcmSurfTextStdJIS
  3
"AcmSymBB|Product Description: AutoCAD Mechanical 2000|Company: Autodesk"
 90
        0
280
     0
281
     0
  0
CLASS
  1
ACMFCFSTANDARDJIS
  2
AcmFCFStdJIS
  3
"AcmSymBB|Product Description: AutoCAD Mechanical 2000|Company: Autodesk"
 90
        0
280
     0
281
     0
  0
CLASS
  1
ACMWELDSTANDARDJIS
  2
AcmWeldingStdJIS
  3
"AcmSymBB|Product Description: AutoCAD Mechanical 2000|Company: Autodesk"
 90
        0
280
     0
281
     0
  0
CLASS
  1
ACMIDSTANDARDJIS
  2
AcmIdStdJIS
  3
"AcmSymBB|Product Description: AutoCAD Mechanical 2000|Company: Autodesk"
 90
        0
280
     0
281
     0
  0
CLASS
  1
ACMDATUMSTANDARDJIS
  2
AcmDatumStdJIS
  3
"AcmSymBB|Product Description: AutoCAD Mechanical 2000|Company: Autodesk"
 90
        0
280
     0
281
     0
  0
CLASS
  1
ACMBOMSTANDARDJIS
  2
AcmBOMStdJIS
  3
"AcmSymBB|Product Description: AutoCAD Mechanical 2000|Company: Autodesk"
 90
        0
280
     0
281
     0
  0
CLASS
  1
ACMSTANDARDANSI
  2
AcmStandardANSI
  3
"AcmSymBB|Product Description: AutoCAD Mechanical 2000|Company: Autodesk"
 90
        0
280
     0
281
     0
  0
CLASS
  1
ACMSURFSTANDARDANSI
  2
AcmSurfTextStdANSI
  3
"AcmSymBB|Product Description: AutoCAD Mechanical 2000|Company: Autodesk"
 90
        0
280
     0
281
     0
  0
CLASS
  1
ACMFCFSTANDARDANSI
  2
AcmFCFStdANSI
  3
"AcmSymBB|Product Description: AutoCAD Mechanical 2000|Company: Autodesk"
 90
        0
280
     0
281
     0
  0
CLASS
  1
ACMWELDSTANDARDANSI
  2
AcmWeldingStdANSI
  3
"AcmSymBB|Product Description: AutoCAD Mechanical 2000|Company: Autodesk"
 90
        0
280
     0
281
     0
  0
CLASS
  1
ACMIDSTANDARDANSI
  2
AcmIdStdANSI
  3
"AcmSymBB|Product Description: AutoCAD Mechanical 2000|Company: Autodesk"
 90
        0
280
     0
281
     0
  0
CLASS
  1
ACMDATUMSTANDARDANSI
  2
AcmDatumStdANSI
  3
"AcmSymBB|Product Description: AutoCAD Mechanical 2000|Company: Autodesk"
 90
        0
280
     0
281
     0
  0
CLASS
  1
ACMBOMSTANDARDANSI
  2
AcmBOMStdANSI
  3
"AcmSymBB|Product Description: AutoCAD Mechanical 2000|Company: Autodesk"
 90
        0
280
     0
281
     0
  0
CLASS
  1
ACMSTANDARDBSI
  2
AcmStandardBSI
  3
"AcmSymBB|Product Description: AutoCAD Mechanical 2000|Company: Autodesk"
 90
        0
280
     0
281
     0
  0
CLASS
  1
ACMSURFSTANDARDBSI
  2
AcmSurfTextStdBSI
  3
"AcmSymBB|Product Description: AutoCAD Mechanical 2000|Company: Autodesk"
 90
        0
280
     0
281
     0
  0
CLASS
  1
ACMFCFSTANDARDBSI
  2
AcmFCFStdBSI
  3
"AcmSymBB|Product Description: AutoCAD Mechanical 2000|Company: Autodesk"
 90
        0
280
     0
281
     0
  0
CLASS
  1
ACMWELDSTANDARDBSI
  2
AcmWeldingStdBSI
  3
"AcmSymBB|Product Description: AutoCAD Mechanical 2000|Company: Autodesk"
 90
        0
280
     0
281
     0
  0
CLASS
  1
ACMIDSTANDARDBSI
  2
AcmIdStdBSI
  3
"AcmSymBB|Product Description: AutoCAD Mechanical 2000|Company: Autodesk"
 90
        0
280
     0
281
     0
  0
CLASS
  1
ACMDATUMSTANDARDBSI
  2
AcmDatumStdBSI
  3
"AcmSymBB|Product Description: AutoCAD Mechanical 2000|Company: Autodesk"
 90
        0
280
     0
281
     0
  0
CLASS
  1
ACMBOMSTANDARDBSI
  2
AcmBOMStdBSI
  3
"AcmSymBB|Product Description: AutoCAD Mechanical 2000|Company: Autodesk"
 90
        0
280
     0
281
     0
  0
CLASS
  1
LONG_TRANSACTION
  2
AcDbLongTransaction
  3
AutoCAD 2000
 90
        0
280
     0
281
     0
  0
CLASS
  1
LWPOLYLINE
  2
AcDbPolyline
  3
AutoCAD 2000
 90
        0
280
     0
281
     1
  0
CLASS
  1
HATCH
  2
AcDbHatch
  3
AutoCAD 2000
 90
        0
280
     0
281
     1
  0
CLASS
  1
XRECORD
  2
AcDbXrecord
  3
AutoCAD 2000
 90
        0
280
     0
281
     0
  0
ENDSEC
  0
SECTION
  2
TABLES
  0
TABLE
  2
VPORT
  5
8
330
0
100
AcDbSymbolTable
 70
     3
  0
VPORT
  5
42F7
330
8
100
AcDbSymbolTableRecord
100
AcDbViewportTableRecord
  2
*ACTIVE
 70
     0
 10
0.0
 20
0.0
 11
1.0
 21
1.0
 12
-60.10297670391742
 22
-9.091196096511083
 13
0.0
 23
0.0
 14
2.5
 24
2.5
 15
10.0
 25
10.0
 16
0.0
 26
0.0
 36
1.0
 17
0.0
 27
0.0
 37
0.0
 40
134.3980006285333
 41
1.56570841889117
 42
50.0
 43
0.0
 44
0.0
 50
0.0
 51
0.0
 71
     0
 72
   100
 73
     1
 74
     1
 75
     0
 76
     0
 77
     0
 78
     0
  0
ENDTAB
  0
TABLE
  2
LTYPE
  5
5
330
0
100
AcDbSymbolTable
 70
    10
  0
LTYPE
  5
14
330
5
100
AcDbSymbolTableRecord
100
AcDbLinetypeTableRecord
  2
BYBLOCK
 70
     0
  3

 72
    65
 73
     0
 40
0.0
  0
LTYPE
  5
15
330
5
100
AcDbSymbolTableRecord
100
AcDbLinetypeTableRecord
  2
BYLAYER
 70
     0
  3

 72
    65
 73
     0
 40
0.0
  0
LTYPE
  5
16
330
5
100
AcDbSymbolTableRecord
100
AcDbLinetypeTableRecord
  2
CONTINUOUS
 70
     0
  3
Solid line
 72
    65
 73
     0
 40
0.0
  0
LTYPE
  5
4B
330
5
100
AcDbSymbolTableRecord
100
AcDbLinetypeTableRecord
  2
AM_ISO02W050
 70
     0
  3
__ __ __ __ __ __ __ __ __ __ __ __ __ __ __
 72
    65
 73
     2
 40
7.5
 49
6.0
 74
     0
 49
-1.5
 74
     0
  0
LTYPE
  5
4C
330
5
100
AcDbSymbolTableRecord
100
AcDbLinetypeTableRecord
  2
AM_ISO08W050
 70
     0
  3
____ . ____ . ____ . ____ . ____ . ____ . ____
 72
    65
 73
     4
 40
18.0
 49
12.0
 74
     0
 49
-1.5
 74
     0
 49
3.0
 74
     0
 49
-1.5
 74
     0
  0
LTYPE
  5
4D
330
5
100
AcDbSymbolTableRecord
100
AcDbLinetypeTableRecord
  2
AM_ISO09W050
 70
     0
  3
_____ . . _____ . . _____ . . ____ .. ____
 72
    65
 73
     6
 40
22.5
 49
12.0
 74
     0
 49
-1.5
 74
     0
 49
3.0
 74
     0
 49
-1.5
 74
     0
 49
3.0
 74
     0
 49
-1.5
 74
     0
  0
LTYPE
  5
4E
330
5
100
AcDbSymbolTableRecord
100
AcDbLinetypeTableRecord
  2
AMCONSTR
 70
     0
  3
_______________________
 72
    65
 73
     2
 40
9999.0
 49
9999.0
 74
     0
 49
0.0
 74
     0
  0
LTYPE
  5
4F
330
5
100
AcDbSymbolTableRecord
100
AcDbLinetypeTableRecord
  2
AM_ISO02W050X2
 70
     0
  3
 _ _ _ _ _ _ _ _ _ _ _ _
 72
    65
 73
     2
 40
3.75
 49
3.0
 74
     0
 49
-0.75
 74
     0
  0
LTYPE
  5
50
330
5
100
AcDbSymbolTableRecord
100
AcDbLinetypeTableRecord
  2
AM_ISO08W050X2
 70
     0
  3
__ . __ . __ . __ . __ . __
 72
    65
 73
     4
 40
9.0
 49
6.0
 74
     0
 49
-0.75
 74
     0
 49
1.5
 74
     0
 49
-0.75
 74
     0
  0
LTYPE
  5
53
330
5
100
AcDbSymbolTableRecord
100
AcDbLinetypeTableRecord
  2
AMZIGZAG
 70
     0
  3
/\/-/\/-/\/-/\/-/\/-/\/
 72
    65
 73
     2
 40
11.00009999999999
 49
0.0001
 74
     4
 75
   135
340
52
 46
0.04
 50
0.0
 44
0.0
 45
0.0
 49
-11.0
 74
     0
  0
LTYPE
  5
166
330
5
100
AcDbSymbolTableRecord
100
AcDbLinetypeTableRecord
  2
ACJISTGL
 70
     0
  3
_ _ _ _ _
 72
    65
 73
     2
 40
3.0
 49
2.0
 74
     0
 49
-1.0
 74
     0
  0
LTYPE
  5
26A
330
5
100
AcDbSymbolTableRecord
100
AcDbLinetypeTableRecord
  2
ACJISTGB
 70
     0
  3
__ . . __ . .
 72
    65
 73
     6
 40
9.0
 49
4.0
 74
     0
 49
-1.0
 74
     0
 49
1.0
 74
     0
 49
-1.0
 74
     0
 49
1.0
 74
     0
 49
-1.0
 74
     0
  0
ENDTAB
  0
TABLE
  2
LAYER
  5
2
330
0
100
AcDbSymbolTable
 70
     7
  0
LAYER
  5
10
330
2
100
AcDbSymbolTableRecord
100
AcDbLayerTableRecord
  2
0
 70
     0
 62
     7
  6
CONTINUOUS
  0
LAYER
  5
3F9
330
2
100
AcDbSymbolTableRecord
100
AcDbLayerTableRecord
  2
AM_0
 70
     0
 62
     7
  6
CONTINUOUS
  0
LAYER
  5
C7C
330
2
100
AcDbSymbolTableRecord
100
AcDbLayerTableRecord
  2
AM_7
 70
     0
 62
     4
  6
AM_ISO08W050
  0
LAYER
  5
C97
330
2
100
AcDbSymbolTableRecord
100
AcDbLayerTableRecord
  2
AM_11
 70
     0
 62
     3
  6
AM_ISO09W050
  0
LAYER
  5
CC5
330
2
100
AcDbSymbolTableRecord
100
AcDbLayerTableRecord
  2
AM_5
 70
     0
 62
     3
  6
CONTINUOUS
  0
LAYER
  5
CC7
330
2
100
AcDbSymbolTableRecord
100
AcDbLayerTableRecord
  2
DEFPOINTS
 70
     0
 62
     7
  6
CONTINUOUS
  0
LAYER
  5
19BC
330
2
100
AcDbSymbolTableRecord
100
AcDbLayerTableRecord
  2
AM_6
 70
     0
 62
     2
  6
CONTINUOUS
  0
ENDTAB
  0
TABLE
  2
STYLE
  5
3
330
0
100
AcDbSymbolTable
 70
     5
  0
STYLE
  5
11
330
3
100
AcDbSymbolTableRecord
100
AcDbTextStyleTableRecord
  2
STANDARD
 70
     0
 40
0.0
 41
1.0
 50
0.0
 71
     0
 42
2.5
  3
simplex.shx
  4
EXTFONT.SHX
  0
STYLE
  5
52
330
3
100
AcDbSymbolTableRecord
100
AcDbTextStyleTableRecord
  2

 70
     1
 40
0.0
 41
1.0
 50
0.0
 71
     0
 42
2.5
  3
ltypeshp.shx
  4

  0
STYLE
  5
6B
330
3
100
AcDbSymbolTableRecord
100
AcDbTextStyleTableRecord
  2
ASAMI
 70
     0
 40
0.0
 41
1.0
 50
0.0
 71
     0
 42
2.5
  3
simplex.shx
  4
EXTFONT.SHX
  0
STYLE
  5
262
330
3
100
AcDbSymbolTableRecord
100
AcDbTextStyleTableRecord
  2
ACJISTS
 70
     0
 40
1.0
 41
1.0
 50
0.0
 71
     0
 42
2.5
  3
simplex.shx
  4
bigfont.shx
  0
STYLE
  5
269
330
3
100
AcDbSymbolTableRecord
100
AcDbTextStyleTableRecord
  2
ACJISGDT
 70
     0
 40
0.0
 41
1.0
 50
0.0
 71
     0
 42
2.5
  3
amgdtans.shx
  4

  0
ENDTAB
  0
TABLE
  2
VIEW
  5
6
330
0
100
AcDbSymbolTable
 70
     0
  0
ENDTAB
  0
TABLE
  2
UCS
  5
7
330
0
100
AcDbSymbolTable
 70
     0
  0
ENDTAB
  0
TABLE
  2
APPID
  5
9
330
0
100
AcDbSymbolTable
 70
    16
  0
APPID
  5
12
330
9
100
AcDbSymbolTableRecord
100
AcDbRegAppTableRecord
  2
ACAD
 70
     0
  0
APPID
  5
30
330
9
100
AcDbSymbolTableRecord
100
AcDbRegAppTableRecord
  2
MCAD_NO_VIS
 70
     0
  0
APPID
  5
31
330
9
100
AcDbSymbolTableRecord
100
AcDbRegAppTableRecord
  2
ACAD_TEMP_GRAPHIC
 70
     0
  0
APPID
  5
2C2
330
9
100
AcDbSymbolTableRecord
100
AcDbRegAppTableRecord
  2
GENIUS_GENDTOL_13
 70
     0
  0
APPID
  5
339
330
9
100
AcDbSymbolTableRecord
100
AcDbRegAppTableRecord
  2
GENIUS_GENODEF_13
 70
     0
  0
APPID
  5
33A
330
9
100
AcDbSymbolTableRecord
100
AcDbRegAppTableRecord
  2
GENIUS_GENOBJ-N-RSBK_13
 70
     0
  0
APPID
  5
33B
330
9
100
AcDbSymbolTableRecord
100
AcDbRegAppTableRecord
  2
GENIUS_GENOBJ-N-LIB_13
 70
     0
  0
APPID
  5
33C
330
9
100
AcDbSymbolTableRecord
100
AcDbRegAppTableRecord
  2
GENIUS_GENSCALE_13
 70
     0
  0
APPID
  5
378
330
9
100
AcDbSymbolTableRecord
100
AcDbRegAppTableRecord
  2
GENIUS_GENDIMSH_14
 70
     0
  0
APPID
  5
C82
330
9
100
AcDbSymbolTableRecord
100
AcDbRegAppTableRecord
  2
GENIUS_GENOBJ-N-CRS_13
 70
     0
  0
APPID
  5
C83
330
9
100
AcDbSymbolTableRecord
100
AcDbRegAppTableRecord
  2
GENIUS_GENOENT_13
 70
     0
  0
APPID
  5
C84
330
9
100
AcDbSymbolTableRecord
100
AcDbRegAppTableRecord
  2
GENIUS_GENOREF_13
 70
     0
  0
APPID
  5
C85
330
9
100
AcDbSymbolTableRecord
100
AcDbRegAppTableRecord
  2
GENIUS_GENOLIS_13
 70
     0
  0
APPID
  5
CA0
330
9
100
AcDbSymbolTableRecord
100
AcDbRegAppTableRecord
  2
GENIUS_GENOBJ-N-CEN_13
 70
     0
  0
APPID
  5
2796
330
9
100
AcDbSymbolTableRecord
100
AcDbRegAppTableRecord
  2
GENIUS_GENFIL_13
 70
     0
  0
APPID
  5
2797
330
9
100
AcDbSymbolTableRecord
100
AcDbRegAppTableRecord
  2
GENIUS_GENOBJ-N-CHA_13
 70
     0
  0
ENDTAB
  0
TABLE
  2
DIMSTYLE
  5
A
330
0
100
AcDbSymbolTable
 70
     9
  0
DIMSTYLE
105
58
330
A
100
AcDbSymbolTableRecord
100
AcDbDimStyleTableRecord
  2
AM_JIS
 70
     0
  3

  4
"
  5
OPEN30
  6

  7

 40
1.0
 41
2.5
 42
1.0
 43
12.0
 44
1.0
 45
0.0
 46
0.0
 47
0.1
 48
0.1
140
3.2
141
0.0
142
0.0
143
0.0393701
144
1.0
145
0.0
146
0.71
147
1.5
 71
     0
 72
     0
 73
     0
 74
     0
 75
     0
 76
     0
 77
     3
 78
     8
170
     0
171
     2
172
     1
173
     0
174
     0
175
     0
176
   256
177
   256
178
     2
270
     2
271
     3
272
     3
273
     2
274
     2
340
6B
275
     0
280
     0
281
     0
282
     0
283
     0
284
     0
285
     0
286
     0
287
     3
288
     0
  0
DIMSTYLE
105
5F
330
A
100
AcDbSymbolTableRecord
100
AcDbDimStyleTableRecord
  2
AM_JIS$3
 70
     0
  3

  4
"
  5
OPEN30
  6

  7

 40
1.0
 41
2.5
 42
1.0
 43
10.0
 44
1.0
 45
0.0
 46
0.0
 47
0.1
 48
0.1
140
3.2
141
0.0
142
0.0
143
0.0393701
144
1.0
145
0.0
146
0.71
147
1.5
 71
     0
 72
     0
 73
     0
 74
     1
 75
     0
 76
     0
 77
     3
 78
     8
170
     0
171
     2
172
     0
173
     0
174
     0
175
     0
176
   256
177
   256
178
     2
270
     2
271
     2
272
     3
273
     2
274
     2
340
6B
275
     0
280
     0
281
     0
282
     0
283
     0
284
     0
285
     0
286
     0
287
     0
288
     1
  0
DIMSTYLE
105
60
330
A
100
AcDbSymbolTableRecord
100
AcDbDimStyleTableRecord
  2
AM_JIS$4
 70
     0
  3

  4
"
  5
OPEN30
  6

  7

 40
1.0
 41
2.5
 42
1.0
 43
10.0
 44
1.0
 45
0.0
 46
0.0
 47
0.1
 48
0.1
140
3.2
141
0.0
142
0.0
143
0.0393701
144
1.0
145
0.0
146
0.71
147
1.5
 71
     0
 72
     0
 73
     0
 74
     1
 75
     0
 76
     0
 77
     3
 78
     8
170
     0
171
     2
172
     0
173
     0
174
     0
175
     0
176
   256
177
   256
178
     2
270
     2
271
     2
272
     3
273
     2
274
     2
340
6B
275
     0
280
     0
281
     0
282
     0
283
     0
284
     0
285
     0
286
     0
287
     0
288
     1
  0
DIMSTYLE
105
61
330
A
100
AcDbSymbolTableRecord
100
AcDbDimStyleTableRecord
  2
AM_JIS$6
 70
     0
  3

  4
"
  5
OPEN30
  6

  7

 40
1.0
 41
2.5
 42
1.0
 43
10.0
 44
1.0
 45
0.0
 46
0.0
 47
0.1
 48
0.1
140
3.2
141
0.0
142
0.0
143
0.0393701
144
1.0
145
0.0
146
0.71
147
1.5
 71
     0
 72
     0
 73
     0
 74
     0
 75
     0
 76
     0
 77
     0
 78
     8
170
     0
171
     2
172
     1
173
     0
174
     0
175
     0
176
   256
177
   256
178
     2
270
     2
271
     2
272
     2
273
     2
274
     2
340
6B
275
     0
280
     0
281
     0
282
     0
283
     0
284
     0
285
     0
286
     0
287
     3
288
     0
  0
DIMSTYLE
105
62
330
A
100
AcDbSymbolTableRecord
100
AcDbDimStyleTableRecord
  2
AM_JIS$7
 70
     0
  3

  4
"
  5
OPEN30
  6

  7

 40
1.0
 41
2.5
 42
1.0
 43
10.0
 44
1.0
 45
0.0
 46
0.0
 47
0.1
 48
0.1
140
3.2
141
0.0
142
0.0
143
0.0393701
144
1.0
145
0.0
146
0.71
147
1.5
 71
     0
 72
     0
 73
     0
 74
     0
 75
     0
 76
     0
 77
     3
 78
     8
170
     0
171
     2
172
     1
173
     0
174
     0
175
     0
176
   256
177
   256
178
     2
270
     2
271
     2
272
     3
273
     2
274
     2
340
6B
275
     0
280
     0
281
     0
282
     0
283
     0
284
     0
285
     0
286
     0
287
     3
288
     0
  0
DIMSTYLE
105
63
330
A
100
AcDbSymbolTableRecord
100
AcDbDimStyleTableRecord
  2
AM_JIS$SF
 70
     0
  3

  4
"
  5
OPEN30
  6

  7

 40
1.0
 41
2.5
 42
1.0
 43
10.0
 44
1.0
 45
0.0
 46
0.0
 47
0.1
 48
0.1
140
3.2
141
0.0
142
0.0
143
0.0393701
144
1.0
145
0.0
146
0.71
147
1.5
 71
     0
 72
     0
 73
     0
 74
     0
 75
     1
 76
     1
 77
     3
 78
     8
170
     0
171
     2
172
     1
173
     0
174
     0
175
     0
176
   256
177
   256
178
     2
270
     2
271
     2
272
     2
273
     2
274
     2
340
6B
275
     0
280
     0
281
     0
282
     0
283
     0
284
     0
285
     0
286
     0
287
     3
288
     0
  0
DIMSTYLE
105
68
330
A
100
AcDbSymbolTableRecord
100
AcDbDimStyleTableRecord
  2
AM_JIS$SH
 70
     0
  3

  4
"
  5

  6
GENAXEH
  7
OPEN30
 40
1.0
 41
2.5
 42
1.0
 43
10.0
 44
1.0
 45
0.0
 46
0.0
 47
0.1
 48
0.1
140
3.2
141
0.0
142
0.0
143
0.0393701
144
2.0
145
0.0
146
0.71
147
1.5
 71
     0
 72
     0
 73
     0
 74
     0
 75
     1
 76
     1
 77
     3
 78
     8
170
     0
171
     2
172
     1
173
     1
174
     0
175
     0
176
   256
177
   256
178
     2
270
     2
271
     2
272
     2
273
     2
274
     2
340
6B
275
     0
280
     0
281
     0
282
     0
283
     0
284
     0
285
     0
286
     0
287
     3
288
     0
  0
DIMSTYLE
105
B34
102
{ACAD_REACTORS
330
3D2F
102
}
330
A
100
AcDbSymbolTableRecord
100
AcDbDimStyleTableRecord
  2
AM_JIS$2
 70
     0
  3

  4
"
  5
OPEN30
  6

  7

 40
1.0
 41
2.5
 42
1.0
 43
12.0
 44
1.0
 45
0.0
 46
0.0
 47
0.1
 48
0.1
140
3.2
141
0.0
142
0.0
143
0.0393701
144
1.0
145
0.0
146
0.71
147
1.5
 71
     0
 72
     0
 73
     0
 74
     0
 75
     0
 76
     0
 77
     3
 78
     8
170
     0
171
     2
172
     1
173
     0
174
     0
175
     0
176
   256
177
   256
178
     2
270
     2
271
     3
272
     3
273
     2
274
     2
340
6B
275
     0
280
     0
281
     0
282
     0
283
     0
284
     0
285
     0
286
     0
287
     3
288
     0
  0
DIMSTYLE
105
BA5
102
{ACAD_REACTORS
330
CC6
330
2069
330
2D60
330
3C5B
102
}
330
A
100
AcDbSymbolTableRecord
100
AcDbDimStyleTableRecord
  2
AM_JIS$0
 70
     0
  3

  4
"
  5
OPEN30
  6

  7

 40
1.0
 41
2.5
 42
0.0
 43
10.0
 44
1.0
 45
0.0
 46
0.0
 47
0.1
 48
0.1000000001
140
3.799999999999999
141
0.0
142
0.0
143
0.0393701
144
1.0
145
0.0
146
0.71
147
1.5
 71
     0
 72
     0
 73
     0
 74
     0
 75
     0
 76
     0
 77
     3
 78
     1
170
     0
171
     2
172
     1
173
     0
174
     0
175
     0
176
     3
177
     3
178
     2
270
     2
271
     2
272
     2
273
     2
274
     2
340
11
275
     1
280
     0
281
     0
282
     0
283
     0
284
     8
285
     0
286
     0
287
     0
288
     0
  0
ENDTAB
  0
TABLE
  2
BLOCK_RECORD
  5
1
330
0
100
AcDbSymbolTable
 70
    10
  0
BLOCK_RECORD
  5
1F
102
{ACAD_XDICTIONARY
360
74
102
}
330
1
100
AcDbSymbolTableRecord
100
AcDbBlockTableRecord
  2
*MODEL_SPACE
  0
BLOCK_RECORD
  5
101
102
{ACAD_XDICTIONARY
360
4320
102
}
330
1
100
AcDbSymbolTableRecord
100
AcDbBlockTableRecord
  2
*PAPER_SPACE
  0
BLOCK_RECORD
  5
59
330
1
100
AcDbSymbolTableRecord
100
AcDbBlockTableRecord
  2
_OPEN30
  0
BLOCK_RECORD
  5
64
330
1
100
AcDbSymbolTableRecord
100
AcDbBlockTableRecord
  2
GENAXEH
  0
BLOCK_RECORD
  5
CC8
330
1
100
AcDbSymbolTableRecord
100
AcDbBlockTableRecord
  2
*D5
  0
BLOCK_RECORD
  5
206A
330
1
100
AcDbSymbolTableRecord
100
AcDbBlockTableRecord
  2
*D6
  0
BLOCK_RECORD
  5
2D61
330
1
100
AcDbSymbolTableRecord
100
AcDbBlockTableRecord
  2
*D7
  0
BLOCK_RECORD
  5
3C5C
330
1
100
AcDbSymbolTableRecord
100
AcDbBlockTableRecord
  2
*D8
  0
BLOCK_RECORD
  5
3D30
330
1
100
AcDbSymbolTableRecord
100
AcDbBlockTableRecord
  2
*D9
  0
ENDTAB
  0
ENDSEC
  0
SECTION
  2
BLOCKS
  0
BLOCK
  5
20
330
1F
100
AcDbEntity
  8
0
100
AcDbBlockBegin
  2
*MODEL_SPACE
 70
     0
 10
0.0
 20
0.0
 30
0.0
  3
*MODEL_SPACE
  1

  0
ENDBLK
  5
21
330
1F
100
AcDbEntity
  8
0
100
AcDbBlockEnd
  0
BLOCK
  5
103
330
101
100
AcDbEntity
 67
     1
  8
0
100
AcDbBlockBegin
  2
*PAPER_SPACE
 70
     0
 10
0.0
 20
0.0
 30
0.0
  3
*PAPER_SPACE
  1

  0
ENDBLK
  5
104
330
101
100
AcDbEntity
 67
     1
  8
0
100
AcDbBlockEnd
  0
BLOCK
  5
5D
330
59
100
AcDbEntity
  8
0
100
AcDbBlockBegin
  2
_OPEN30
 70
     0
 10
0.0
 20
0.0
 30
0.0
  3
_OPEN30
  1

  0
LINE
  5
5A
330
59
100
AcDbEntity
  8
0
 62
     0
100
AcDbLine
 10
-1.0
 20
0.26794919
 30
0.0
 11
0.0
 21
0.0
 31
0.0
  0
LINE
  5
5B
330
59
100
AcDbEntity
  8
0
 62
     0
100
AcDbLine
 10
0.0
 20
0.0
 30
0.0
 11
-1.0
 21
-0.26794919
 31
0.0
  0
LINE
  5
5C
330
59
100
AcDbEntity
  8
0
 62
     0
100
AcDbLine
 10
0.0
 20
0.0
 30
0.0
 11
-1.0
 21
0.0
 31
0.0
  0
ENDBLK
  5
5E
330
59
100
AcDbEntity
  8
0
100
AcDbBlockEnd
  0
BLOCK
  5
66
330
64
100
AcDbEntity
  8
0
100
AcDbBlockBegin
  2
GENAXEH
 70
     0
 10
0.0
 20
0.0
 30
0.0
  3
GENAXEH
  1

  0
LINE
  5
65
330
64
100
AcDbEntity
  8
0
100
AcDbLine
 10
-1.0
 20
0.0
 30
0.0
 11
1.0
 21
0.0
 31
0.0
  0
ENDBLK
  5
67
330
64
100
AcDbEntity
  8
0
100
AcDbBlockEnd
  0
BLOCK
  5
CD2
330
CC8
100
AcDbEntity
  8
0
100
AcDbBlockBegin
  2
*D5
 70
     1
 10
0.0
 20
0.0
 30
0.0
  3
*D5
  1

  0
LINE
  5
42AC
330
CC8
100
AcDbEntity
  8
AM_5
 62
     3
100
AcDbLine
 10
-143.0
 20
-6.749999999999399
 30
0.0
 11
-143.0
 21
-32.50000099999953
 31
0.0
  0
LINE
  5
42AD
330
CC8
100
AcDbEntity
  8
AM_5
 62
     3
100
AcDbLine
 10
-3.000000073929434
 20
-7.299999950115788
 30
0.0
 11
-3.000000073929435
 21
-32.50000099999953
 31
0.0
  0
LINE
  5
42AE
330
CC8
100
AcDbEntity
  8
AM_5
 62
     3
100
AcDbLine
 10
-140.5
 20
-31.50000099999953
 30
0.0
 11
-5.500000073929435
 21
-31.50000099999953
 31
0.0
  0
INSERT
  5
42AF
330
CC8
100
AcDbEntity
  8
AM_5
 62
     3
100
AcDbBlockReference
  2
_OPEN30
 10
-143.0
 20
-31.50000099999953
 30
0.0
 41
2.5
 42
2.5
 43
2.5
 50
180.0
  0
INSERT
  5
42B0
330
CC8
100
AcDbEntity
  8
AM_5
 62
     3
100
AcDbBlockReference
  2
_OPEN30
 10
-3.000000073929435
 20
-31.50000099999953
 30
0.0
 41
2.5
 42
2.5
 43
2.5
  0
MTEXT
  5
42B1
330
CC8
100
AcDbEntity
  8
AM_5
 62
     2
100
AcDbMText
 10
-73.00000003696476
 20
-28.10000099999953
 30
0.0
 40
3.799999999999999
 41
0.0
 71
     5
 72
     1
  1
140
1001
ACAD
1000
MTEXTBEGIN
1070
    73
1070
     1
1070
    44
1040
1.0
1070
    74
1070
     0
1000
MTEXTEND
  0
POINT
  5
42B2
330
CC8
100
AcDbEntity
  8
DEFPOINTS
 62
     0
100
AcDbPoint
 10
-143.0
 20
-6.749999999999399
 30
0.0
  0
POINT
  5
42B3
330
CC8
100
AcDbEntity
  8
DEFPOINTS
 62
     0
100
AcDbPoint
 10
-3.000000073929434
 20
-7.299999950115788
 30
0.0
  0
POINT
  5
42B4
330
CC8
100
AcDbEntity
  8
DEFPOINTS
 62
     0
100
AcDbPoint
 10
-3.000000073929435
 20
-31.50000099999953
 30
0.0
  0
ENDBLK
  5
CD3
330
CC8
100
AcDbEntity
  8
0
100
AcDbBlockEnd
  0
BLOCK
  5
2074
330
206A
100
AcDbEntity
  8
0
100
AcDbBlockBegin
  2
*D6
 70
     1
 10
0.0
 20
0.0
 30
0.0
  3
*D6
  1

  0
LINE
  5
42A3
330
206A
100
AcDbEntity
  8
AM_5
 62
     3
100
AcDbLine
 10
-77.99999999999966
 20
-7.499999999999662
 30
0.0
 11
-77.99999999999961
 21
-22.50000099999966
 31
0.0
  0
LINE
  5
42A4
330
206A
100
AcDbEntity
  8
AM_5
 62
     3
100
AcDbLine
 10
-3.000000073929413
 20
-7.299999950115797
 30
0.0
 11
-3.00000007392937
 21
-22.50000099999944
 31
0.0
  0
LINE
  5
42A5
330
206A
100
AcDbEntity
  8
AM_5
 62
     3
100
AcDbLine
 10
-75.49999999999963
 20
-21.50000099999965
 30
0.0
 11
-5.500000073929372
 21
-21.50000099999946
 31
0.0
  0
INSERT
  5
42A6
330
206A
100
AcDbEntity
  8
AM_5
 62
     3
100
AcDbBlockReference
  2
_OPEN30
 10
-77.99999999999963
 20
-21.50000099999966
 30
0.0
 41
2.5
 42
2.5
 43
2.5
 50
180.0000000000001
  0
INSERT
  5
42A7
330
206A
100
AcDbEntity
  8
AM_5
 62
     3
100
AcDbBlockReference
  2
_OPEN30
 10
-3.000000073929372
 20
-21.50000099999944
 30
0.0
 41
2.5
 42
2.5
 43
2.5
 50
0.0000000000001527
  0
MTEXT
  5
42A8
330
206A
100
AcDbEntity
  8
AM_5
 62
     2
100
AcDbMText
 10
-40.50000003696451
 20
-18.10000099999955
 30
0.0
 40
3.799999999999999
 41
0.0
 71
     5
 72
     1
  1
75
1001
ACAD
1000
MTEXTBEGIN
1070
    73
1070
     1
1070
    44
1040
1.0
1070
    74
1070
     0
1000
MTEXTEND
  0
POINT
  5
42A9
330
206A
100
AcDbEntity
  8
DEFPOINTS
 62
     0
100
AcDbPoint
 10
-77.99999999999968
 20
-7.499999999999435
 30
0.0
  0
POINT
  5
42AA
330
206A
100
AcDbEntity
  8
DEFPOINTS
 62
     0
100
AcDbPoint
 10
-3.000000073929434
 20
-7.299999950115788
 30
0.0
  0
POINT
  5
42AB
330
206A
100
AcDbEntity
  8
DEFPOINTS
 62
     0
100
AcDbPoint
 10
-3.000000073929435
 20
-21.50000099999944
 30
0.0
  0
ENDBLK
  5
2075
330
206A
100
AcDbEntity
  8
0
100
AcDbBlockEnd
  0
BLOCK
  5
2D6B
330
2D61
100
AcDbEntity
  8
0
100
AcDbBlockBegin
  2
*D7
 70
     1
 10
0.0
 20
0.0
 30
0.0
  3
*D7
  1

  0
LINE
  5
42C9
330
2D61
100
AcDbEntity
  8
AM_5
 62
     3
100
AcDbLine
 10
-2.999999999999982
 20
7.299999999999994
 30
0.0
 11
17.31992665505778
 21
7.299928673892337
 31
0.0
  0
LINE
  5
42CA
330
2D61
100
AcDbEntity
  8
AM_5
 62
     3
100
AcDbLine
 10
-3.000000073929433
 20
-7.29999995011579
 30
0.0
 11
17.31987540678382
 21
-7.300071276043817
 31
0.0
  0
LINE
  5
42CB
330
2D61
100
AcDbEntity
  8
AM_5
 62
     3
100
AcDbLine
 10
16.31986663140057
 20
-9.800067765872652
 30
0.0
 11
16.31985785601116
 21
-12.30006776585725
 31
0.0
  0
LINE
  5
42CC
330
2D61
100
AcDbEntity
  8
AM_5
 62
     3
100
AcDbLine
 10
16.31993543045335
 20
9.799932184032698
 30
0.0
 11
16.32000456380685
 21
29.49517027915005
 31
0.0
  0
LINE
  5
42CD
330
2D61
100
AcDbEntity
  8
AM_5
 62
     3
100
AcDbLine
 10
16.31987540678998
 20
-7.300067765888053
 30
0.0
 11
16.31992665506394
 21
7.299932184048101
 31
0.0
  0
INSERT
  5
42CE
330
2D61
100
AcDbEntity
  8
AM_5
 62
     3
100
AcDbBlockReference
  2
_OPEN30
 10
16.31987540678998
 20
-7.300067765888053
 30
0.0
 41
2.5
 42
2.5
 43
2.5
 50
89.99979888288931
  0
INSERT
  5
42CF
330
2D61
100
AcDbEntity
  8
AM_5
 62
     3
100
AcDbBlockReference
  2
_OPEN30
 10
16.31992665506394
 20
7.299932184048101
 30
0.0
 41
2.5
 42
2.5
 43
2.5
 50
269.9997988828893
  0
MTEXT
  5
42D0
330
2D61
100
AcDbEntity
  8
AM_5
 62
     2
100
AcDbMText
 10
12.91997452692349
 20
20.93803935658951
 30
0.0
 40
3.799999999999999
 41
0.0
 71
     5
 72
     1
  1
%%c14.6
 11
0.0000035101557632
 21
0.9999999999938395
 31
0.0
1001
ACAD
1000
MTEXTBEGIN
1070
    73
1070
     1
1070
    44
1040
1.0
1070
    74
1070
     0
1000
MTEXTEND
  0
POINT
  5
42D1
330
2D61
100
AcDbEntity
  8
DEFPOINTS
 62
     0
100
AcDbPoint
 10
-2.999999999999962
 20
7.300000000000004
 30
0.0
  0
POINT
  5
42D2
330
2D61
100
AcDbEntity
  8
DEFPOINTS
 62
     0
100
AcDbPoint
 10
-3.000000073929455
 20
-7.299999950115783
 30
0.0
  0
POINT
  5
42D3
330
2D61
100
AcDbEntity
  8
DEFPOINTS
 62
     0
100
AcDbPoint
 10
16.31987540678996
 20
-7.300067765888101
 30
0.0
  0
ENDBLK
  5
2D6C
330
2D61
100
AcDbEntity
  8
0
100
AcDbBlockEnd
  0
BLOCK
  5
3C66
330
3C5C
100
AcDbEntity
  8
0
100
AcDbBlockBegin
  2
*D8
 70
     1
 10
0.0
 20
0.0
 30
0.0
  3
*D8
  1

  0
LINE
  5
42B5
330
3C5C
100
AcDbEntity
  8
AM_5
 62
     3
100
AcDbLine
 10
-142.25
 20
7.500000000000142
 30
0.0
 11
-160.500001
 21
7.500000000000089
 31
0.0
  0
LINE
  5
42B6
330
3C5C
100
AcDbEntity
  8
AM_5
 62
     3
100
AcDbLine
 10
-142.25
 20
-7.499999999999856
 30
0.0
 11
-160.5000009999999
 21
-7.499999999999908
 31
0.0
  0
LINE
  5
42B7
330
3C5C
100
AcDbEntity
  8
AM_5
 62
     3
100
AcDbLine
 10
-159.500001
 20
5.000000000000093
 30
0.0
 11
-159.5000009999999
 21
-4.999999999999904
 31
0.0
  0
INSERT
  5
42B8
330
3C5C
100
AcDbEntity
  8
AM_5
 62
     3
100
AcDbBlockReference
  2
_OPEN30
 10
-159.500001
 20
7.500000000000093
 30
0.0
 41
2.5
 42
2.5
 43
2.5
 50
90.00000000000017
  0
INSERT
  5
42B9
330
3C5C
100
AcDbEntity
  8
AM_5
 62
     3
100
AcDbBlockReference
  2
_OPEN30
 10
-159.5000009999999
 20
-7.499999999999904
 30
0.0
 41
2.5
 42
2.5
 43
2.5
 50
270.0000000000001
  0
MTEXT
  5
42BA
330
3C5C
100
AcDbEntity
  8
AM_5
 62
     2
100
AcDbMText
 10
-162.900001
 20
0.0000000000000905
 30
0.0
 40
3.799999999999999
 41
0.0
 71
     5
 72
     1
  1
%%c15
 11
-0.0000000000000028
 21
1.0
 31
0.0
1001
ACAD
1000
MTEXTBEGIN
1070
    73
1070
     1
1070
    44
1040
1.0
1070
    74
1070
     0
1000
MTEXTEND
  0
POINT
  5
42BB
330
3C5C
100
AcDbEntity
  8
DEFPOINTS
 62
     0
100
AcDbPoint
 10
-142.25
 20
7.500000000000584
 30
0.0
  0
POINT
  5
42BC
330
3C5C
100
AcDbEntity
  8
DEFPOINTS
 62
     0
100
AcDbPoint
 10
-142.25
 20
-7.499999999999413
 30
0.0
  0
POINT
  5
42BD
330
3C5C
100
AcDbEntity
  8
DEFPOINTS
 62
     0
100
AcDbPoint
 10
-159.500001
 20
-7.499999999999409
 30
0.0
  0
ENDBLK
  5
3C67
330
3C5C
100
AcDbEntity
  8
0
100
AcDbBlockEnd
  0
BLOCK
  5
3D3E
330
3D30
100
AcDbEntity
  8
0
100
AcDbBlockBegin
  2
*D9
 70
     1
 10
0.0
 20
0.0
 30
0.0
  3
*D9
  1

  0
LINE
  5
4322
330
3D30
100
AcDbEntity
  8
AM_5
100
AcDbLine
 10
0.342020140816062
 20
-0.9396926216993206
 30
0.0
 11
13.03386793079077
 21
-35.81025812556314
 31
0.0
  0
LINE
  5
4323
330
3D30
100
AcDbEntity
  8
AM_5
100
AcDbLine
 10
0.3420222223658895
 20
0.9396918640745193
 30
0.0
 11
13.03394725549217
 21
35.81022925363371
 31
0.0
  0
ARC
  5
4324
330
3D30
100
AcDbEntity
  8
AM_5
100
AcDbCircle
 10
-0.0000000000000783
 20
-0.0000000000000092
 30
0.0
 40
37.10848068680721
100
AcDbArc
 50
293.8607494244157
 51
66.13912365741406
  0
INSERT
  5
4325
330
3D30
100
AcDbEntity
  8
AM_5
100
AcDbBlockReference
  2
_OPEN30
 10
12.69184778997463
 20
-34.87056550386383
 30
0.0
 41
2.5
 42
2.5
 43
2.5
 50
201.9303746357011
  0
INSERT
  5
4326
330
3D30
100
AcDbEntity
  8
AM_5
100
AcDbBlockReference
  2
_OPEN30
 10
12.69192503312621
 20
34.87053738955919
 30
0.0
 41
2.5
 42
2.5
 43
2.5
 50
158.0694984461286
  0
MTEXT
  5
4327
330
3D30
100
AcDbEntity
  8
AM_5
 62
     2
100
AcDbMText
 10
34.00848068678627
 20
-0.0000376667721386
 30
0.0
 40
3.2
 41
0.0
 71
     5
 72
     1
  1
140°
  7
ASAMI
 11
0.0000011075699751
 21
0.9999999999993868
 31
0.0
  0
POINT
  5
4328
330
3D30
100
AcDbEntity
  8
DEFPOINTS
 62
     0
100
AcDbPoint
 10
34.07359380273979
 20
-14.6979435380951
 30
0.0
  0
POINT
  5
4329
330
3D30
100
AcDbEntity
  8
DEFPOINTS
 62
     0
100
AcDbPoint
 10
-0.0000000000000753
 20
-0.0000000000000009
 30
0.0
  0
POINT
  5
432A
330
3D30
100
AcDbEntity
  8
DEFPOINTS
 62
     0
100
AcDbPoint
 10
-0.0000000000000753
 20
-0.0000000000000175
 30
0.0
  0
POINT
  5
432B
330
3D30
100
AcDbEntity
  8
DEFPOINTS
 62
     0
100
AcDbPoint
 10
-0.8779186122630958
 20
2.412061583354362
 30
0.0
  0
POINT
  5
432C
330
3D30
100
AcDbEntity
  8
DEFPOINTS
 62
     0
100
AcDbPoint
 10
-0.8779361609658991
 20
-2.412093173155441
 30
0.0
  0
ENDBLK
  5
3D3F
330
3D30
100
AcDbEntity
  8
0
100
AcDbBlockEnd
  0
ENDSEC
  0
SECTION
  2
ENTITIES
  0
LINE
  5
C1D
330
1F
100
AcDbEntity
  8
AM_0
 48
0.5
100
AcDbLine
 10
-0.0000000000000753
 20
-0.0000000000000175
 30
0.0
 11
-0.8779186122630957
 21
2.412061583354362
 31
0.0
  0
LINE
  5
C20
330
1F
100
AcDbEntity
  8
AM_0
 48
0.5
100
AcDbLine
 10
-0.0000000000000753
 20
-0.0000000000000009
 30
0.0
 11
-0.8779361609658991
 21
-2.41209317315544
 31
0.0
  0
DIMENSION
  5
CC6
330
1F
100
AcDbEntity
  8
AM_5
100
AcDbDimension
  2
*D5
 10
-3.000000073929435
 20
-31.50000099999953
 30
0.0
 11
-73.00000003696476
 21
-28.10000099999953
 31
0.0
 70
    32
  1
<>
  3
AM_JIS$0
100
AcDbAlignedDimension
 13
-143.0
 23
-6.749999999999399
 33
0.0
 14
-3.000000073929434
 24
-7.299999950115788
 34
0.0
 50
0.0000000000001132
100
AcDbRotatedDimension
1001
GENIUS_GENDTOL_13
1000

1000
h7
1000

1040
0.0
1001
ACAD
1000
DSTYLE
1002
{
1070
   271
1070
     0
1002
}
  0
TEXT
  5
19BD
330
1F
100
AcDbEntity
  8
AM_6
100
AcDbText
 10
-95.02380953825555
 20
-54.00000099999958
 30
0.0
 40
5.0
  1
MDW146MHK
 50
0.0000000000001527
 72
     4
 11
-73.00000001444605
 21
-51.50000099999953
 31
0.0
100
AcDbText
  0
DIMENSION
  5
2069
330
1F
100
AcDbEntity
  8
AM_5
100
AcDbDimension
  2
*D6
 10
-3.000000073929435
 20
-21.50000099999944
 30
0.0
 11
-40.50000003696456
 21
-18.10000099999944
 31
0.0
 70
    32
  1
<>
 51
359.9999999999998
  3
AM_JIS$0
100
AcDbAlignedDimension
 13
-77.99999999999968
 23
-7.499999999999435
 33
0.0
 14
-3.000000073929434
 24
-7.299999950115788
 34
0.0
 50
0.0000000000001527
100
AcDbRotatedDimension
1001
ACAD
1000
DSTYLE
1002
{
1070
   271
1070
     0
1070
   174
1070
     1
1002
}
1001
GENIUS_GENDTOL_13
1000

1000
h7
1000

1040
0.0
  0
LINE
  5
23EF
330
1F
100
AcDbEntity
  8
AM_7
100
AcDbLine
 10
-145.5
 20
0.0000000000006045
 30
0.0
 11
1.319900031072474
 21
-0.0000000000000055
 31
0.0
1001
GENIUS_GENODEF_13
1002
{
1000
HIER
1070
     0
1002
}
1002
{
1000
MANEDIT
1070
     0
1002
}
1002
{
1000
NOSEL
1070
     0
1002
}
1002
{
1000
BEHIND
1070
     0
1002
}
1002
{
1000
REACTOR
1002
}
1001
GENIUS_GENOBJ-N-CEN_13
1002
{
1000
OWNER
1000
GEN
1002
}
  0
LINE
  5
24A7
330
1F
100
AcDbEntity
  8
AM_0
 48
0.5
100
AcDbLine
 10
-2.190873760329959
 20
5.637994789760915
 30
0.0
 11
-2.999999999999961
 21
7.300000000000003
 31
0.0
  0
ELLIPSE
  5
24B7
330
1F
100
AcDbEntity
  8
AM_11
 48
0.5
100
AcDbEllipse
 10
-21.92812304282958
 20
27.40527701206777
 30
0.0
 11
-31.63261651992755
 21
0.0000000000002407
 31
0.0
210
0.0
220
0.0
230
1.0
 40
0.9578947368421056
 41
1.130070686340284
 42
2.011520147323574
  0
ELLIPSE
  5
24B8
330
1F
100
AcDbEntity
  8
AM_11
 48
0.5
100
AcDbEllipse
 10
-21.92812304283108
 20
-27.40525711837523
 30
0.0
 11
-31.6326165199275
 21
0.0000000000001424
 31
0.0
210
0.0
220
0.0
230
1.0
 40
0.9578947368421054
 41
4.271664206181664
 42
5.153113667164971
  0
ELLIPSE
  5
24B9
330
1F
100
AcDbEntity
  8
AM_11
 48
0.5
100
AcDbEllipse
 10
5.06051332080681
 20
27.40527701206706
 30
0.0
 11
-31.63261651992747
 21
0.0000000000024743
 31
0.0
210
0.0
220
0.0
230
1.0
 40
0.9578947368421141
 41
1.130070686340349
 42
1.291800737381041
  0
ELLIPSE
  5
24BE
330
1F
100
AcDbEntity
  8
AM_0
 48
0.5
100
AcDbEllipse
 10
6.918623594257095
 20
7.342926428848114
 30
0.0
 11
-4.440095187034224
 21
8.904787688231298
 31
0.0
210
0.0
220
0.0
230
1.0
 40
0.9264225005910461
 41
1.312765717361252
 42
1.664773036319176
  0
ELLIPSE
  5
24C7
330
1F
100
AcDbEntity
  8
AM_11
 48
0.5
100
AcDbEllipse
 10
-102.894032133731
 20
27.40527701206984
 30
0.0
 11
-31.63261651992755
 21
0.0000000000007043
 31
0.0
210
0.0
220
0.0
230
1.0
 40
0.9578947368421056
 41
1.130070686340301
 42
2.011520147323591
  0
ELLIPSE
  5
24C8
330
1F
100
AcDbEntity
  8
AM_11
 48
0.5
100
AcDbEllipse
 10
-102.8940321337326
 20
-27.40525711837316
 30
0.0
 11
31.6326165199275
 21
0.0000000000005287
 31
0.0
210
0.0
220
0.0
230
1.0
 40
0.957894736842107
 41
1.13007155259185
 42
2.011521013575156
  0
ELLIPSE
  5
24D4
330
1F
100
AcDbEntity
  8
AM_11
 48
0.5
100
AcDbEllipse
 10
-75.90539577009471
 20
27.40527701206918
 30
0.0
 11
-31.63261651992759
 21
0.0000000000001846
 31
0.0
210
0.0
220
0.0
230
1.0
 40
0.9578947368421051
 41
1.130070686340283
 42
2.011520147323574
  0
ELLIPSE
  5
24D5
330
1F
100
AcDbEntity
  8
AM_11
 48
0.5
100
AcDbEllipse
 10
-75.90539577009623
 20
-27.40525711837382
 30
0.0
 11
-31.63261651992745
 21
0.0000000000005709
 31
0.0
210
0.0
220
0.0
230
1.0
 40
0.9578947368421081
 41
4.271664206181676
 42
5.153113667164986
  0
ELLIPSE
  5
24E6
330
1F
100
AcDbEntity
  8
AM_11
 48
0.5
100
AcDbEllipse
 10
-48.91675940646744
 20
-27.40525711837454
 30
0.0
 11
-31.63261651992749
 21
0.0000000000008588
 31
0.0
210
0.0
220
0.0
230
1.0
 40
0.9578947368421058
 41
4.271664206181685
 42
5.153113667164993
  0
ELLIPSE
  5
24E7
330
1F
100
AcDbEntity
  8
AM_11
 48
0.5
100
AcDbEllipse
 10
-48.91675940646592
 20
27.40527701206846
 30
0.0
 11
31.63261651992755
 21
0.0000000000000511
 31
0.0
210
0.0
220
0.0
230
1.0
 40
0.9578947368421051
 41
4.271663339930067
 42
5.153112800913361
  0
ELLIPSE
  5
2BF3
330
1F
100
AcDbEntity
  8
AM_11
 48
0.5
100
AcDbEllipse
 10
-129.8826684973563
 20
27.40527701206899
 30
0.0
 11
-31.63261651992759
 21
0.0000000000001846
 31
0.0
210
0.0
220
0.0
230
1.0
 40
0.9578947368421051
 41
1.143208058812137
 42
2.011520147323574
  0
ELLIPSE
  5
2BF5
330
1F
100
AcDbEntity
  8
AM_11
 48
0.5
100
AcDbEllipse
 10
-129.8826684973578
 20
-27.405257118374
 30
0.0
 11
-31.63261651992745
 21
0.0000000000005709
 31
0.0
210
0.0
220
0.0
230
1.0
 40
0.9578947368421081
 41
4.271664206181676
 42
5.13997724836742
  0
LINE
  5
2C0E
330
1F
100
AcDbEntity
  8
AM_0
 48
0.5
100
AcDbLine
 10
-78.00000000000006
 20
-7.499999999999436
 30
0.0
 11
-78.00000000000006
 21
7.500000000000561
 31
0.0
  0
DIMENSION
  5
2D60
330
1F
100
AcDbEntity
  8
AM_5
100
AcDbDimension
  2
*D7
 10
16.31987540678996
 20
-7.300067765888101
 30
0.0
 11
16.3199745269026
 21
20.93802742205987
 31
0.0
 70
   160
  1
%%c<>
 51
359.9999999999998
  3
AM_JIS$0
100
AcDbAlignedDimension
 13
-2.999999999999961
 23
7.300000000000003
 33
0.0
 14
-3.000000073929454
 24
-7.299999950115782
 34
0.0
 50
89.99979888288933
100
AcDbRotatedDimension
1001
ACAD
1000
DSTYLE
1002
{
1070
   271
1070
     1
1002
}
1001
GENIUS_GENDTOL_13
1000

1000
h7
1000

1040
0.0
  0
LINE
  5
2FB7
330
1F
100
AcDbEntity
  8
AM_0
100
AcDbLine
 10
-78.00000000000006
 20
7.500000000000539
 30
0.0
 11
-77.56702972833463
 21
7.250024497103392
 31
0.0
  0
LINE
  5
2FB9
330
1F
100
AcDbEntity
  8
AM_0
100
AcDbLine
 10
-78.00000000000003
 20
-7.499999999999638
 30
0.0
 11
-77.56698679789703
 21
-7.249999711202812
 31
0.0
  0
LINE
  5
324C
330
1F
100
AcDbEntity
  8
AM_0
100
AcDbLine
 10
-142.2500000000001
 20
-7.499999999999413
 30
0.0
 11
-78.00000000000004
 21
-7.499999999999435
 31
0.0
  0
LINE
  5
325C
330
1F
100
AcDbEntity
  8
AM_0
 48
0.5
100
AcDbLine
 10
-142.25
 20
-7.499999999999445
 30
0.0
 11
-142.25
 21
7.500000000000591
 31
0.0
  0
LINE
  5
325D
330
1F
100
AcDbEntity
  8
AM_0
 48
0.5
100
AcDbLine
 10
-143.0
 20
-6.749999999999399
 30
0.0
 11
-143.0
 21
6.750000000000579
 31
0.0
  0
LINE
  5
325E
330
1F
100
AcDbEntity
  8
AM_0
100
AcDbLine
 10
-78.00000000000006
 20
7.500000000000561
 30
0.0
 11
-142.25
 21
7.500000000000584
 31
0.0
  0
LINE
  5
3921
330
1F
100
AcDbEntity
  8
AM_0
 48
0.5
100
AcDbLine
 10
-142.25
 20
7.500000000000584
 30
0.0
 11
-143.0
 21
6.750000000000585
 31
0.0
1001
GENIUS_GENFIL_13
1070
     0
1040
0.75
1040
0.75
1040
20.0
1040
0.0
1002
{
1002
}
1001
GENIUS_GENODEF_13
1002
{
1000
HIER
1070
     0
1002
}
1002
{
1000
MANEDIT
1070
     0
1002
}
1002
{
1000
NOSEL
1070
     0
1002
}
1002
{
1000
BEHIND
1070
     0
1002
}
1002
{
1000
REACTOR
1002
}
1001
GENIUS_GENOBJ-N-CHA_13
1002
{
1000
OWNER
1000
GEN
1002
}
  0
LINE
  5
3924
330
1F
100
AcDbEntity
  8
AM_0
100
AcDbLine
 10
-143.0
 20
-6.749999999999412
 30
0.0
 11
-142.2500000000001
 21
-7.499999999999413
 31
0.0
1001
GENIUS_GENFIL_13
1070
     0
1040
0.75
1040
0.75
1040
20.0
1040
0.0
1002
{
1002
}
1001
GENIUS_GENODEF_13
1002
{
1000
HIER
1070
     0
1002
}
1002
{
1000
MANEDIT
1070
     0
1002
}
1002
{
1000
NOSEL
1070
     0
1002
}
1002
{
1000
BEHIND
1070
     0
1002
}
1002
{
1000
REACTOR
1002
}
1001
GENIUS_GENOBJ-N-CHA_13
1002
{
1000
OWNER
1000
GEN
1002
}
  0
ELLIPSE
  5
3976
330
1F
100
AcDbEntity
  8
AM_0
 48
0.5
100
AcDbEllipse
 10
6.918623594257795
 20
-7.3429264288476
 30
0.0
 11
-4.440095187033376
 21
-8.904787688231721
 31
0.0
210
0.0
220
0.0
230
-1.0
 40
0.9264225005910461
 41
1.312765717361252
 42
1.664773036319176
  0
LINE
  5
3977
330
1F
100
AcDbEntity
  8
AM_0
 48
0.5
100
AcDbLine
 10
-2.190873760329422
 20
-5.637994789761268
 30
0.0
 11
-3.000000073929454
 21
-7.299999950115782
 31
0.0
  0
DIMENSION
  5
3C5B
330
1F
100
AcDbEntity
  8
AM_5
100
AcDbDimension
  2
*D8
 10
-159.500001
 20
-7.499999999999409
 30
0.0
 11
-162.900001
 21
0.0000000000005644
 31
0.0
 70
    32
  1
%%c<>
 51
359.9999999999998
  3
AM_JIS$0
100
AcDbAlignedDimension
 13
-142.25
 23
7.500000000000584
 33
0.0
 14
-142.25
 24
-7.499999999999413
 34
0.0
 50
270.0
100
AcDbRotatedDimension
1001
ACAD
1000
DSTYLE
1002
{
1070
   271
1070
     0
1002
}
1001
GENIUS_GENDTOL_13
1000

1000
h7
1000

1040
0.0
  0
DIMENSION
  5
3D2F
330
1F
100
AcDbEntity
  8
AM_5
100
AcDbDimension
  2
*D9
 10
-0.8779361609658991
 20
-2.41209317315544
 30
0.0
 11
34.00848068678627
 21
-0.0000376667722392
 31
0.0
 70
    34
  1
<>
 51
359.9999999999998
  3
AM_JIS$2
100
AcDb2LineAngularDimension
 13
-0.0000000000000753
 23
-0.0000000000000175
 33
0.0
 14
-0.8779186122630957
 24
2.412061583354362
 34
0.0
 15
-0.0000000000000753
 25
-0.0000000000000009
 35
0.0
 16
34.07359380273979
 26
-14.6979435380951
 36
0.0
1001
GENIUS_GENDTOL_13
1000

1000
h7
1000

1040
0.0
1001
ACAD
1000
DSTYLE
1002
{
1070
   271
1070
     0
1002
}
  0
LINE
  5
422A
330
1F
100
AcDbEntity
  8
AM_0
100
AcDbLine
 10
-77.5670297283346
 20
7.300024666049139
 30
0.0
 11
-77.56705131529161
 21
0.6654009260135896
 31
0.0
  0
LINE
  5
422B
330
1F
100
AcDbEntity
  8
AM_0
 48
0.5
100
AcDbLine
 10
-77.56698679789704
 20
-7.299999709210899
 30
0.0
 11
-75.12017792748203
 21
-7.299999950091053
 31
0.0
  0
ELLIPSE
  5
422C
330
1F
100
AcDbEntity
  8
AM_0
 48
0.5
100
AcDbEllipse
 10
-75.54100593489384
 20
-4.580374768777073
 30
0.0
 11
-1.428009609063489
 21
2.444590153806571
 31
0.0
210
0.0
220
0.0
230
1.0
 40
0.8349448335773685
 41
1.120900815563027
 42
2.700866851725618
  0
ELLIPSE
  5
422D
330
1F
100
AcDbEntity
  8
AM_0
 48
0.5
100
AcDbEllipse
 10
-75.92993771280614
 20
-4.413070443356502
 30
0.0
 11
1.760087889146419
 21
1.335146986621965
 31
0.0
210
0.0
220
0.0
230
1.0
 40
0.8281511241608424
 41
0.6618883466654389
 42
2.490134528927254
  0
SPLINE
  5
422E
330
1F
100
AcDbEntity
  8
AM_0
 48
0.5
100
AcDbSpline
210
0.0
220
0.0
230
1.0
 70
     8
 71
     3
 72
    26
 73
    22
 74
     0
 42
0.0000000001
 43
0.0000000001
 40
0.0
 40
0.0
 40
0.0
 40
0.0
 40
0.8422864037471089
 40
1.685694647057321
 40
2.531315797913884
 40
3.380177287502886
 40
4.233214169721234
 40
5.09125020057522
 40
5.954967768899448
 40
6.824900391836836
 40
7.701419186604396
 40
8.584724417931369
 40
9.47485577056355
 40
10.37165251267315
 40
11.27486274211709
 40
12.18400675634887
 40
13.09851504074504
 40
14.01768673654235
 40
14.94071745659532
 40
15.8667176994736
 40
16.76607142455336
 40
16.76607142455336
 40
16.76607142455336
 40
16.76607142455336
 10
-51.98549025399408
 20
-7.300371297199104
 30
0.0
 10
-52.39878881850289
 20
-7.296027974241672
 30
0.0
 10
-53.22593641904531
 20
-7.287335543463703
 30
0.0
 10
-54.46635680418353
 20
-7.2172647870157
 30
0.0
 10
-55.70672424405311
 20
-7.10587060417181
 30
0.0
 10
-56.94701490377862
 20
-6.949747364233273
 30
0.0
 10
-58.18721647184077
 20
-6.751011081889666
 30
0.0
 10
-59.42730423861337
 20
-6.510544580565442
 30
0.0
 10
-60.66727737912125
 20
-6.229972545245148
 30
0.0
 10
-61.90712743677486
 20
-5.910999029163937
 30
0.0
 10
-63.14685148044865
 20
-5.555603209694544
 30
0.0
 10
-64.38645971311777
 20
-5.165997099978087
 30
0.0
 10
-65.62594699825057
 20
-4.744586392158708
 30
0.0
 10
-66.86532737958704
 20
-4.293956124016955
 30
0.0
 10
-68.10461742849691
 20
-3.816929892890716
 30
0.0
 10
-69.34381982262062
 20
-3.316401462829293
 30
0.0
 10
-70.58294379956082
 20
-2.795480502395725
 30
0.0
 10
-71.82201211437116
 20
-2.2573809814483
 30
0.0
 10
-73.06100429007256
 20
-1.705343556730326
 30
0.0
 10
-74.2872693242697
 20
-1.148833687286225
 30
0.0
 10
-75.09971604631449
 20
-0.7749664533064614
 30
0.0
 10
-78.00000000000006
 20
0.5503366828404244
 30
0.0
  0
LINE
  5
422F
330
1F
100
AcDbEntity
  8
AM_0
 48
0.5
100
AcDbLine
 10
-63.34876049265091
 20
4.444178713096198
 30
0.0
 11
-78.00000000000006
 21
0.5503366828404298
 31
0.0
  0
LINE
  5
4230
330
1F
100
AcDbEntity
  8
AM_0
 48
0.5
100
AcDbLine
 10
-74.25344965496003
 20
7.300000000000775
 30
0.0
 11
-77.5670297283346
 21
7.300024666049139
 31
0.0
  0
LINE
  5
4231
330
1F
100
AcDbEntity
  8
AM_0
 48
0.5
100
AcDbLine
 10
-8.095019503640099
 20
7.300000000000223
 30
0.0
 11
-2.999999999999961
 21
7.300000000000003
 31
0.0
  0
LINE
  5
4232
330
1F
100
AcDbEntity
  8
AM_0
 48
0.5
100
AcDbLine
 10
-8.095019501994741
 20
-7.299999245182288
 30
0.0
 11
-3.000000000000151
 21
-7.300000081382269
 31
0.0
  0
LINE
  5
4233
330
1F
100
AcDbEntity
  8
AM_0
 48
0.5
100
AcDbLine
 10
-0.0000000000000933
 20
0.0000000000000311
 30
0.0
 11
-4.782354253524355
 21
2.802979016128916
 31
0.0
  0
LINE
  5
4234
330
1F
100
AcDbEntity
  8
AM_0
 48
0.5
100
AcDbLine
 10
-57.67983091174451
 20
7.300000754819717
 30
0.0
 11
-31.46134542701433
 21
7.300000000001166
 31
0.0
  0
LINE
  5
4235
330
1F
100
AcDbEntity
  8
AM_0
 48
0.5
100
AcDbLine
 10
-56.5091239246049
 20
-7.299999245180615
 30
0.0
 11
-31.46135037969018
 21
-7.299999999999659
 31
0.0
  0
LINE
  5
4236
330
1F
100
AcDbEntity
  8
AM_11
 48
0.5
100
AcDbLine
 10
-31.46135037969018
 20
-7.299999999999659
 30
0.0
 11
-8.095019501994741
 21
-7.299999245182288
 31
0.0
  0
LINE
  5
4237
330
1F
100
AcDbEntity
  8
AM_11
 48
0.5
100
AcDbLine
 10
-31.46134542701433
 20
7.300000000001166
 30
0.0
 11
-8.095019503640099
 21
7.300000000000224
 31
0.0
  0
SPLINE
  5
4238
330
1F
100
AcDbEntity
  8
AM_0
100
AcDbSpline
210
0.0
220
0.0
230
1.0
 70
     8
 71
     3
 72
    22
 73
    18
 74
     0
 42
0.0000000001
 43
0.0000000001
 40
17.17441611292
 40
17.17441611292
 40
17.17441611292
 40
17.17441611292
 40
17.38177636558528
 40
18.41823744757437
 40
19.46215659509824
 40
20.51397914882054
 40
21.57394542641293
 40
22.64209583141747
 40
23.71826625065247
 40
24.80210429862395
 40
25.8930771157021
 40
26.99048705697709
 40
28.09349309193389
 40
29.20112995599786
 40
30.31233024745139
 40
31.42594771747373
 40
32.5407895042663
 40
32.54078950426994
 40
32.54078950426994
 40
32.54078950426994
 10
-36.19575524975425
 20
-6.555452080019286
 30
0.0
 10
-36.27881556536769
 20
-6.538553296016206
 30
0.0
 10
-36.77671679558982
 20
-6.435620955570803
 30
0.0
 10
-37.68884379273417
 20
-6.229228216035393
 30
0.0
 10
-38.92869394870734
 20
-5.910256062415343
 30
0.0
 10
-40.16841776655222
 20
-5.5548593153747
 30
0.0
 10
-41.40802399864942
 20
-5.165256449530224
 30
0.0
 10
-42.64751100756535
 20
-4.743836306484612
 30
0.0
 10
-43.88689404994782
 20
-4.293221578524008
 30
0.0
 10
-45.12617886448866
 20
-3.816181598780843
 30
0.0
 10
-46.36537691751939
 20
-3.31565824667144
 30
0.0
 10
-47.60450198813665
 20
-2.794739434241527
 30
0.0
 10
-48.84356483119853
 20
-2.256628307021712
 30
0.0
 10
-50.08257791987567
 20
-1.704635415596503
 30
0.0
 10
-51.32155223694073
 20
-1.142154891428146
 30
0.0
 10
-52.56050613672085
 20
-0.5726575433759792
 30
0.0
 10
-53.38631327536531
 20
-0.1907077522873064
 30
0.0
 10
-53.79944369985394
 20
0.0003720520210132
 30
0.0
  0
SPLINE
  5
4239
330
1F
100
AcDbEntity
  8
AM_0
100
AcDbSpline
210
0.0
220
0.0
230
1.0
 70
     8
 71
     3
 72
    17
 73
    13
 74
     0
 42
0.0000000001
 43
0.0000000001
 40
1.580019955310467
 40
1.580019955310467
 40
1.580019955310467
 40
1.580019955310467
 40
2.030549285115227
 40
3.082371838836284
 40
4.126290986361125
 40
5.162752068350215
 40
6.192395305374981
 40
7.216039564037012
 40
8.234688489606833
 40
9.249433870634691
 40
10.26152376260694
 40
11.27226744710342
 40
11.27226744710342
 40
11.27226744710342
 40
11.27226744710352
 10
-19.77727095030833
 20
-5.387614205291447
 30
0.0
 10
-19.95276973041286
 20
-5.443102163684656
 30
0.0
 10
-20.53899461691748
 20
-5.624971358794638
 30
0.0
 10
-21.53982587586885
 20
-5.910239698717366
 30
0.0
 10
-22.77950344753709
 20
-6.229702395996897
 30
0.0
 10
-24.01952230128015
 20
-6.510148228620398
 30
0.0
 10
-25.2595979722542
 20
-6.750635396450849
 30
0.0
 10
-26.49980874725012
 20
-6.949414584215626
 30
0.0
 10
-27.74010520484969
 20
-7.105351446739654
 30
0.0
 10
-28.98047889323517
 20
-7.217435460976679
 30
0.0
 10
-30.22089925281106
 20
-7.284945129110491
 30
0.0
 10
-31.04804686636244
 20
-7.299999286952357
 30
0.0
 10
-31.46135037969019
 20
-7.299999999999662
 30
0.0
  0
SPLINE
  5
423A
330
1F
100
AcDbEntity
  8
AM_0
100
AcDbSpline
210
0.0
220
0.0
230
1.0
 70
     8
 71
     3
 72
    11
 73
     7
 74
     0
 42
0.0000000001
 43
0.0000000001
 40
11.27226913003534
 40
11.27226913003534
 40
11.27226913003534
 40
11.2722691300354
 40
12.28301561507924
 40
13.29510212255852
 40
14.30984805882082
 40
15.18258238371378
 40
15.18258238371378
 40
15.18258238371378
 40
15.18258238371378
 10
-31.46135037969025
 20
-7.299999999999662
 30
0.0
 10
-31.87307241978265
 20
-7.264270923815184
 30
0.0
 10
-32.69574981320597
 20
-7.177774212747743
 30
0.0
 10
-33.92551775065043
 20
-7.003288951613987
 30
0.0
 10
-35.09258920747059
 20
-6.794885438752446
 30
0.0
 10
-35.84738252002173
 20
-6.634679455929369
 30
0.0
 10
-36.19521277116524
 20
-6.555542125463468
 30
0.0
  0
SPLINE
  5
423B
330
1F
100
AcDbEntity
  8
AM_0
 48
0.5
100
AcDbSpline
210
0.0
220
0.0
230
1.0
 70
     8
 71
     3
 72
    25
 73
    21
 74
     0
 42
0.0000000001
 43
0.0000000001
 40
6.846175049578289
 40
6.846175049578289
 40
6.846175049578289
 40
6.846175049578289
 40
7.604337694224321
 40
8.711974558287883
 40
9.814980593243754
 40
10.91239053451967
 40
12.0033633515982
 40
13.08720139956839
 40
14.16337181880432
 40
15.23152222380919
 40
16.29148850140128
 40
17.34331105512262
 40
18.38723020264746
 40
19.42369128463655
 40
20.45333379090873
 40
21.47697865721768
 40
22.49561244472435
 40
23.5103574802404
 40
24.52244778960836
 40
25.53320666051913
 40
25.53320666051913
 40
25.53320666051913
 40
25.53320666051913
 10
-9.541661878681569
 20
1.321348546828888
 30
0.0
 10
-9.823442929386235
 20
1.449523563826697
 30
0.0
 10
-10.51748471073929
 20
1.76367311305596
 30
0.0
 10
-11.62481864263446
 20
2.257000993763156
 30
0.0
 10
-12.86388141798038
 20
2.795112273038138
 30
0.0
 10
-14.10300650659802
 20
3.316031044978251
 30
0.0
 10
-15.34220455488117
 20
3.816554408027371
 30
0.0
 10
-16.58148937055426
 20
4.293594384192528
 30
0.0
 10
-17.8208724131091
 20
4.74420911559067
 30
0.0
 10
-19.06035942023649
 20
5.165629248537893
 30
0.0
 10
-20.29996565923656
 20
5.55523215096068
 30
0.0
 10
-21.53968945153454
 20
5.910628763223436
 30
0.0
 10
-22.77953970180626
 20
6.22960141418672
 30
0.0
 10
-24.01951203456318
 20
6.510176031845348
 30
0.0
 10
-25.2596016058467
 20
6.750632894534802
 30
0.0
 10
-26.49980151514121
 20
6.949378142636313
 30
0.0
 10
-27.74009246543407
 20
7.105502172282831
 30
0.0
 10
-28.98046078746028
 20
7.216884431800318
 30
0.0
 10
-30.22088634630432
 20
7.286974766242106
 30
0.0
 10
-31.04804054319216
 20
7.29566066431127
 30
0.0
 10
-31.46134542701433
 20
7.300000000001165
 30
0.0
  0
SPLINE
  5
423C
330
1F
100
AcDbEntity
  8
AM_0
 48
0.5
100
AcDbSpline
210
0.0
220
0.0
230
1.0
 70
     8
 71
     3
 72
    17
 73
    13
 74
     0
 42
0.0000000001
 43
0.0000000001
 40
0.0
 40
0.0
 40
0.0
 40
0.0
 40
1.010743614677189
 40
2.022833924044153
 40
3.037578959561199
 40
4.056212747067873
 40
5.079857613375832
 40
6.109500119648989
 40
7.14596120163808
 40
8.18989512056258
 40
9.241717674284874
 40
9.693948937866434
 40
9.693948937866434
 40
9.693948937866434
 40
9.693948937866434
 10
-8.095019503640099
 20
7.300000000000223
 30
0.0
 10
-8.508318143314586
 20
7.295659806863404
 30
0.0
 10
-9.335466093551122
 20
7.286973637802818
 30
0.0
 10
-10.57588543443982
 20
7.216883710009522
 30
0.0
 10
-11.81625370798427
 20
7.105501306517476
 30
0.0
 10
-13.056544841178
 20
6.949377801001294
 30
0.0
 10
-14.29674406251296
 20
6.750630586555312
 30
0.0
 10
-15.53683622418163
 20
6.510181126394406
 30
0.0
 10
-16.77680468206301
 20
6.229577273213082
 30
0.0
 10
-18.01669755191064
 20
5.9107081244177
 30
0.0
 10
-19.01757140824212
 20
5.623455222105778
 30
0.0
 10
-19.60534321899483
 20
5.443880849385982
 30
0.0
 10
-19.78176078223531
 20
5.388914336020072
 30
0.0
  0
SPLINE
  5
423D
330
1F
100
AcDbEntity
  8
AM_0
 48
0.5
100
AcDbSpline
210
0.0
220
0.0
230
1.0
 70
     8
 71
     3
 72
    10
 73
     6
 74
     0
 42
0.0000000001
 43
0.0000000001
 40
0.0
 40
0.0
 40
0.0
 40
0.0
 40
2.69986029516136
 40
4.147722969032201
 40
6.285750005020438
 40
6.285750005020438
 40
6.285750005020438
 40
6.285750005020438
 10
-9.541463562770726
 20
1.321261842871014
 30
0.0
 10
-8.658631330683238
 20
0.6430413975974226
 30
0.0
 10
-7.302359847527732
 20
-0.3988904845707318
 30
0.0
 10
-4.094959981092344
 20
0.1055269926934101
 30
0.0
 10
-4.69900666891907
 20
1.804471800486268
 30
0.0
 10
-4.782354253524355
 20
2.802979016128916
 30
0.0
  0
ELLIPSE
  5
423E
330
1F
100
AcDbEntity
  8
AM_0
 48
0.5
100
AcDbEllipse
 10
-18.23013210725922
 20
32.52357334839416
 30
0.0
 11
0.0000000000147611
 21
37.60463401663681
 31
0.0
210
0.0
220
0.0
230
1.0
 40
0.9657534246575611
 41
3.579847691617471
 42
3.667473607414553
  0
ELLIPSE
  5
423F
330
1F
100
AcDbEntity
  8
AM_0
 48
0.5
100
AcDbEllipse
 10
-9.529289541212374
 20
7.447380125923381
 30
0.0
 11
0.0000000000021329
 21
11.34163522008932
 31
0.0
210
0.0
220
0.0
230
1.0
 40
0.9657534246575437
 41
3.517054509082857
 42
3.681821570856357
  0
ELLIPSE
  5
4240
330
1F
100
AcDbEntity
  8
AM_0
 48
0.5
100
AcDbEllipse
 10
-3.357998318189512
 20
-1.899895208917038
 30
0.0
 11
-0.2122112450471297
 21
1.197905638705155
 31
0.0
210
0.0
220
0.0
230
0.9999999999999998
 40
0.5030431287180348
 41
1.802699452241736
 42
4.938041341953712
  0
ELLIPSE
  5
4241
330
1F
100
AcDbEntity
  8
AM_0
 48
0.5
100
AcDbEllipse
 10
-3.358104075239913
 20
-1.90248432971665
 30
0.0
 11
-1.063736774498593
 21
0.6058583575501168
 31
0.0
210
0.0
220
0.0
230
1.0
 40
0.4979408422060373
 41
4.479151352664109
 42
7.622591693993621
  0
ELLIPSE
  5
4242
330
1F
100
AcDbEntity
  8
AM_0
 48
0.5
100
AcDbEllipse
 10
3.253967134158105
 20
8.764099875910966
 30
0.0
 11
-14.83345192343302
 21
0.000000000006944
 31
0.0
210
0.0
220
0.0
230
1.0
 40
0.9918626353116854
 41
0.5303675532345218
 42
0.938488483429413
  0
ELLIPSE
  5
4243
330
1F
100
AcDbEntity
  8
AM_0
 48
0.5
100
AcDbEllipse
 10
6.202494303903158
 20
-1.949572495415933
 30
0.0
 11
-11.55794350650869
 21
5.051707993823015
 31
0.0
210
0.0
220
0.0
230
1.0
 40
0.7854635178591957
 41
0.6191521211364477
 42
1.048791956811829
  0
SPLINE
  5
4244
330
1F
100
AcDbEntity
  8
AM_0
100
AcDbSpline
210
0.0
220
0.0
230
1.0
 70
     8
 71
     3
 72
    55
 73
    51
 74
     0
 42
0.0000000001
 43
0.0000000001
 40
0.0
 40
0.0
 40
0.0
 40
0.0
 40
1.010743684496582
 40
2.022833576467832
 40
3.037578957496688
 40
4.056212745003489
 40
5.079857003664532
 40
6.109500240690281
 40
7.145961322679372
 40
8.189895241603872
 40
9.241717795325891
 40
10.30168407291828
 40
11.36983447792315
 40
12.44600489715814
 40
13.52984294512926
 40
14.62081576220742
 40
15.7182257034828
 40
16.82123173843959
 40
17.92886860250316
 40
19.0400688939571
 40
20.15368796660465
 40
21.26852814259644
 40
22.38336992938901
 40
23.49698739941135
 40
24.6081876908653
 40
25.71582455492886
 40
26.81883757994213
 40
27.91624752121713
 40
29.00722033829659
 40
30.09105838626677
 40
31.16722880550176
 40
32.23537921050758
 40
33.29534548809967
 40
34.347168041821
 40
35.39108718934584
 40
36.42754827133493
 40
37.45720575381954
 40
38.48085062012849
 40
39.49948440763516
 40
40.51422944315121
 40
41.52631975251916
 40
42.53706336719636
 40
43.54780698187354
 40
44.55989729124051
 40
45.57464232675757
 40
46.59327611426424
 40
47.6169209805722
 40
48.64656348684535
 40
49.68302456883444
 40
50.58557219878025
 40
50.58557219878025
 40
50.58557219878025
 40
50.58557219878025
 10
-8.095019501994741
 20
-7.299999245182289
 30
0.0
 10
-8.508318066453824
 20
-7.295655922035589
 30
0.0
 10
-9.335465666896375
 20
-7.286963490878866
 30
0.0
 10
-10.57588605278225
 20
-7.216892737276992
 30
0.0
 10
-11.81625348979881
 20
-7.105498543573044
 30
0.0
 10
-13.05654416024858
 20
-6.949375344456797
 30
0.0
 10
-14.29674568798311
 20
-6.750638908604868
 30
0.0
 10
-15.53683360659913
 20
-6.510172985276677
 30
0.0
 10
-16.77681206413576
 20
-6.229597438641088
 30
0.0
 10
-18.01667006449005
 20
-5.910630379100595
 30
0.0
 10
-19.25639916196933
 20
-5.555230245050973
 30
0.0
 10
-20.49600553593783
 20
-5.165627846395469
 30
0.0
 10
-21.73549250630858
 20
-4.744207576523238
 30
0.0
 10
-22.97487555947847
 20
-4.293592883662291
 30
0.0
 10
-24.21416036980481
 20
-3.816552891647294
 30
0.0
 10
-25.45335842885074
 20
-3.316029553289182
 30
0.0
 10
-26.69248347949047
 20
-2.795110697875089
 30
0.0
 10
-27.93154639694706
 20
-2.256999729900987
 30
0.0
 10
-29.17055920646723
 20
-1.705006241150253
 30
0.0
 10
-30.40953516601462
 20
-1.142527685966042
 30
0.0
 10
-31.64848514258768
 20
-0.5730219513471992
 30
0.0
 10
-32.88742663207932
 20
-0.0000007346464641
 30
0.0
 10
-34.12636255976031
 20
0.5730307967932832
 30
0.0
 10
-35.36531668902366
 20
1.14252766270146
 30
0.0
 10
-36.60429111903857
 20
1.705007920476235
 30
0.0
 10
-37.8433061377049
 20
2.257003512076129
 30
0.0
 10
-39.08237419538883
 20
2.795109887716737
 30
0.0
 10
-40.32150120169524
 20
3.316031384914225
 30
0.0
 10
-41.56069943964019
 20
3.816554317399513
 30
0.0
 10
-42.7999842048729
 20
4.293594409734224
 30
0.0
 10
-44.03936726121637
 20
4.744209103254338
 30
0.0
 10
-45.27885426315782
 20
5.165629272358621
 30
0.0
 10
-46.51846050918539
 20
5.555232068834016
 30
0.0
 10
-47.75818427876444
 20
5.910629064705009
 30
0.0
 10
-48.99803461202903
 20
6.229600301918168
 30
0.0
 10
-50.23801260959803
 20
6.510181490575026
 30
0.0
 10
-51.4781093828574
 20
6.750619949356752
 30
0.0
 10
-52.71831500786728
 20
6.949417898336804
 30
0.0
 10
-53.95860604599469
 20
7.105356033551731
 30
0.0
 10
-55.19897434485624
 20
7.217426683615006
 30
0.0
 10
-56.43939367901348
 20
7.284957534638239
 30
0.0
 10
-57.67984027063331
 20
7.307517357433346
 30
0.0
 10
-58.92028686042798
 20
7.284957534602962
 30
0.0
 10
-60.16070620007124
 20
7.217426683757088
 30
0.0
 10
-61.40107447873469
 20
7.105356033017219
 30
0.0
 10
-62.64136559258974
 20
6.949417900346697
 30
0.0
 10
-63.88156488667203
 20
6.750620910972799
 30
0.0
 10
-65.12165677442215
 20
6.510183948928861
 30
0.0
 10
-66.30525566340755
 20
6.242336911513462
 30
0.0
 10
-67.07318810178861
 20
6.046457840913135
 30
0.0
 10
-67.42946399485775
 20
5.950996414253081
 30
0.0
  0
SPLINE
  5
4245
330
1F
100
AcDbEntity
  8
AM_0
100
AcDbSpline
210
0.0
220
0.0
230
1.0
 70
     8
 71
     3
 72
    46
 73
    42
 74
     0
 42
0.0000000001
 43
0.0000000001
 40
0.0
 40
0.0
 40
0.0
 40
0.0
 40
1.685415058684571
 40
2.531036209541119
 40
3.379897699130121
 40
4.232934581347655
 40
5.090970612202441
 40
5.954688180526682
 40
6.824620803463246
 40
7.701151815239689
 40
8.584457046566678
 40
9.474582384070741
 40
10.37139106676737
 40
11.27458944007583
 40
12.18373345430765
 40
13.09824173870457
 40
14.01741343450111
 40
14.9404441545541
 40
15.86644439743314
 40
16.79446029130534
 40
17.7234937712985
 40
18.65252725129241
 40
19.58054314516461
 40
20.50654338804289
 40
21.42957410809586
 40
22.34874580389317
 40
23.26325408828901
 40
24.17239810252111
 40
25.07560240389441
 40
25.97241108659103
 40
26.8625364240951
 40
27.74584165542183
 40
28.62236045019041
 40
29.49229307312697
 40
30.35601064145121
 40
31.21404606334468
 40
32.06708345193547
 40
32.91595755657689
 40
33.76157841950693
 40
34.60498701064689
 40
35.44727335621125
 40
35.44727335621125
 40
35.44727335621125
 40
35.44727335621125
 10
-4.622685279515247
 20
-7.299999245182441
 30
0.0
 10
-5.449873293071359
 20
-7.283369280885722
 30
0.0
 10
-6.692085295165929
 20
-7.258395585782275
 30
0.0
 10
-8.343908765026418
 20
-7.104637132942475
 30
0.0
 10
-9.584212761112581
 20
-6.949607710918379
 30
0.0
 10
-10.82441074073306
 20
-6.750576267249175
 30
0.0
 10
-12.06449943678171
 20
-6.510189395132297
 30
0.0
 10
-13.3044724786797
 20
-6.229596348607013
 30
0.0
 10
-14.54432778965852
 20
-5.910625013252007
 30
0.0
 10
-15.78405985192407
 20
-5.55523392028425
 30
0.0
 10
-17.02367114340344
 20
-5.165627337056805
 30
0.0
 10
-18.26315832991917
 20
-4.744207714564119
 30
0.0
 10
-19.50254132449604
 20
-4.293592846231038
 30
0.0
 10
-20.74182615078321
 20
-3.816552901934913
 30
0.0
 10
-21.98102420516038
 20
-3.316029549918455
 30
0.0
 10
-23.2201492583783
 20
-2.795110701001987
 30
0.0
 10
-24.4592121701916
 20
-2.25699972072832
 30
0.0
 10
-25.69822499980869
 20
-1.705006274887944
 30
0.0
 10
-26.93720088429764
 20
-1.142527559694227
 30
0.0
 10
-28.17615114178403
 20
-0.5730224238577375
 30
0.0
 10
-29.41509098443587
 20
0.0000007547026285
 30
0.0
 10
-30.6540308268155
 20
0.5730239339593339
 30
0.0
 10
-31.89298108511829
 20
1.142529067707825
 30
0.0
 10
-33.13195696662318
 20
1.705007790532245
 30
0.0
 10
-34.37096980730536
 20
2.257001208073117
 30
0.0
 10
-35.61003267809033
 20
2.795112293278485
 30
0.0
 10
-36.84915788325014
 20
3.316030753595963
 30
0.0
 10
-38.08835806956013
 20
3.816556631160106
 30
0.0
 10
-39.32764771111023
 20
4.293592241306507
 30
0.0
 10
-40.56703291655644
 20
4.744209420238319
 30
0.0
 10
-41.80652007421337
 20
5.165629168125774
 30
0.0
 10
-43.0461262735104
 20
5.555232171201667
 30
0.0
 10
-44.28585007569614
 20
5.910628761768573
 30
0.0
 10
-45.52570032566875
 20
6.229601400156391
 30
0.0
 10
-46.7656726499355
 20
6.510176088811486
 30
0.0
 10
-48.00576225514128
 20
6.750632682593987
 30
0.0
 10
-49.24596814980093
 20
6.949379906809513
 30
0.0
 10
-50.48626575491503
 20
7.105500707083981
 30
0.0
 10
-51.72664009663836
 20
7.216884677364229
 30
0.0
 10
-52.96705946302768
 20
7.286974339628542
 30
0.0
 10
-53.79420740987099
 20
7.295660544026079
 30
0.0
 10
-54.20750604784983
 20
7.300000754819577
 30
0.0
  0
SPLINE
  5
4246
330
1F
100
AcDbEntity
  8
AM_0
100
AcDbSpline
210
0.0
220
0.0
230
1.0
 70
     8
 71
     3
 72
    23
 73
    19
 74
     0
 42
0.0000000001
 43
0.0000000001
 40
16.03460024169435
 40
16.03460024169435
 40
16.03460024169435
 40
16.03460024169435
 40
16.35212704903564
 40
17.38177054169784
 40
18.41822485651776
 40
19.46214173629503
 40
20.51396345435107
 40
21.57393551351153
 40
22.64208202342361
 40
23.7182574881101
 40
24.80209208578934
 40
25.89306333925047
 40
26.99048218457928
 40
28.09348763352352
 40
29.20111863782268
 40
30.31232390128032
 40
31.42594612798585
 40
32.5407912310448
 40
32.5407912310486
 40
32.5407912310486
 40
32.5407912310486
 10
-74.25344965496003
 20
7.300000000000775
 30
0.0
 10
-72.54864237137913
 20
7.190580325998486
 30
0.0
 10
-71.8372007377676
 20
7.081513474383629
 30
0.0
 10
-70.97226921849508
 20
6.9577724361315
 30
0.0
 10
-69.7401273732817
 20
6.645105505939794
 30
0.0
 10
-68.50912999937007
 20
6.294032659635429
 30
0.0
 10
-67.27920435614382
 20
5.906585727786985
 30
0.0
 10
-66.0503067913622
 20
5.484924735713327
 30
0.0
 10
-64.82236627769115
 20
5.031460075465114
 30
0.0
 10
-63.59529730602052
 20
4.548830797619842
 30
0.0
 10
-62.36903014988424
 20
4.039770003638876
 30
0.0
 10
-61.1434664949978
 20
3.507239799668561
 30
0.0
 10
-59.91850702313197
 20
2.954335481333168
 30
0.0
 10
-58.69407011873097
 20
2.384236016670782
 30
0.0
 10
-57.47005333464622
 20
1.800256455996471
 30
0.0
 10
-56.2463433010004
 20
1.205806811503826
 30
0.0
 10
-55.0228403732532
 20
0.604331757911392
 30
0.0
 10
-54.20739084306145
 20
0.2010756227936772
 30
0.0
 10
-53.79944369984848
 20
-0.0006658002824077
 30
0.0
  0
LINE
  5
4247
330
1F
100
AcDbEntity
  8
AM_11
 48
0.5
100
AcDbLine
 10
-74.25344965496003
 20
7.300000000000775
 30
0.0
 11
-57.67981078646542
 21
7.300000000000618
 31
0.0
  0
SPLINE
  5
4248
330
1F
100
AcDbEntity
  8
AM_0
 48
0.5
100
AcDbSpline
210
0.0
220
0.0
230
1.0
 70
     8
 71
     3
 72
    22
 73
    18
 74
     0
 42
0.0000000001
 43
0.0000000001
 40
0.0
 40
0.0
 40
0.0
 40
0.0
 40
1.010743684496582
 40
2.022833993863546
 40
3.037578683882831
 40
4.056212471389632
 40
5.079857945358201
 40
6.109499720892564
 40
7.145961650132166
 40
8.189873411961459
 40
9.241710626092514
 40
10.30166235592959
 40
11.36982472628033
 40
12.44598212828784
 40
13.52983440361964
 40
14.62080578343036
 40
14.90544694398022
 40
14.90544694398022
 40
14.90544694398022
 40
14.90544694398022
 10
-55.45761744932374
 20
-7.2999999999994
 30
0.0
 10
-55.87112311990694
 20
-7.296029271628862
 30
0.0
 10
-56.69827104907867
 20
-7.287339435560514
 30
0.0
 10
-57.93869013523694
 20
-7.217249162943692
 30
0.0
 10
-59.17905891446224
 20
-7.105873722848854
 30
0.0
 10
-60.41935024441799
 20
-6.949750379809591
 30
0.0
 10
-61.65954839425616
 20
-6.750995402712842
 30
0.0
 10
-62.89964042585848
 20
-6.510549692599219
 30
0.0
 10
-64.13960816747539
 20
-6.229967461579583
 30
0.0
 10
-65.37946014555771
 20
-5.910989327415784
 30
0.0
 10
-66.61918519341355
 20
-5.555606936251643
 30
0.0
 10
-67.85878978972434
 20
-5.165983185351274
 30
0.0
 10
-69.09828192538499
 20
-4.74459742877981
 30
0.0
 10
-70.3376606693915
 20
-4.293954787021459
 30
0.0
 10
-71.5769492400444
 20
-3.816926057734182
 30
0.0
 10
-72.50836120786217
 20
-3.44073729209159
 30
0.0
 10
-73.02737645922775
 20
-3.225719885912866
 30
0.0
 10
-75.22109591241413
 20
-2.463998899697311
 30
0.0
  0
SPLINE
  5
4249
330
1F
100
AcDbEntity
  8
AM_0
100
AcDbSpline
210
0.0
220
0.0
230
1.0
 70
     8
 71
     3
 72
    13
 73
     9
 74
     0
 42
0.0000000001
 43
0.0000000001
 40
16.03460056234195
 40
16.03460056234195
 40
16.03460056234195
 40
16.03460056234195
 40
16.35212717791071
 40
17.38177067057215
 40
18.41822498539278
 40
19.46214186516937
 40
20.5139635832251
 40
21.34083983469381
 40
21.34083983469381
 40
21.34083983469381
 40
21.34083983469381
 10
-75.12017848114187
 20
-7.299999886998559
 30
0.0
 10
-74.85828740637455
 20
-7.276392298325953
 30
0.0
 10
-74.31814892702362
 20
-7.169079673259123
 30
0.0
 10
-73.36669048472183
 20
-6.958808738388935
 30
0.0
 10
-72.13454848444891
 20
-6.646142675147823
 30
0.0
 10
-70.90355115253055
 20
-6.295069594058652
 30
0.0
 10
-69.76447366020071
 20
-5.936241395445269
 30
0.0
 10
-69.03776227914018
 20
-5.689162644222433
 30
0.0
 10
-67.50285336526381
 20
-5.275803673103969
 30
0.0
  0
LINE
  5
424A
330
1F
100
AcDbEntity
  8
AM_11
 48
0.5
100
AcDbLine
 10
-75.12017792748203
 20
-7.299999950091053
 30
0.0
 11
-56.28414233553677
 21
-7.299999245180619
 31
0.0
  0
LINE
  5
4275
330
1F
100
AcDbEntity
  8
AM_0
100
AcDbLine
 10
-77.56707234566599
 20
-5.798160445068838
 30
0.0
 11
-77.56707723220478
 21
-7.300009282735258
 31
0.0
  0
LINE
  5
4276
330
1F
100
AcDbEntity
  8
AM_0
100
AcDbLine
 10
-77.56705233340953
 20
0.3524883891958761
 30
0.0
 11
-77.56706485089556
 21
-3.494687015682564
 31
0.0
  0
VIEWPORT
  5
110
330
101
100
AcDbEntity
 67
     1
  8
0
100
AcDbViewport
 10
420.5
 20
297.0
 30
0.0
 40
948.9782706766916
 41
628.452
 68
     1
 69
     1
1001
ACAD
1000
MVIEW
1002
{
1070
    16
1010
0.0
1020
0.0
1030
0.0
1010
0.0
1020
0.0
1030
1.0
1040
0.0
1040
628.452
1040
420.5
1040
297.0
1040
50.0
1040
0.0
1040
0.0
1070
     0
1070
   100
1070
     1
1070
     1
1070
     0
1070
     0
1070
     0
1070
     0
1040
0.0
1040
0.0
1040
0.0
1040
10.0
1040
10.0
1040
10.0
1040
10.0
1070
     0
1002
{
1002
}
1002
}
  0
ENDSEC
  0
SECTION
  2
OBJECTS
  0
DICTIONARY
  5
C
330
0
100
AcDbDictionary
  3
ACAD_GROUP
350
D
  3
ACAD_LAYOUT
350
1A
  3
ACAD_MLINESTYLE
350
17
  3
ACAD_PLOTSETTINGS
350
19
  3
ACAD_PLOTSTYLENAME
350
E
  3
ACDBVARIABLEDICTIONARY
350
34
  3
ACMDICTIONARY
350
43
  3
AMG
350
2B
  3
AMGSNAPSETTINGS
350
6E
  3
DWGPROPS
350
42EC
  3
ACDBHEADERROUNDTRIPXREC
350
42F8
  0
DICTIONARY
  5
74
330
1F
100
AcDbDictionary
280
     1
  3
ACAD_INDEX
360
42EE
  3
ACAD_LAYOUTSELFREF
360
431B
  0
DICTIONARY
  5
4320
330
101
100
AcDbDictionary
280
     1
  3
ACAD_LAYOUTSELFREF
360
4321
  0
DICTIONARY
  5
D
102
{ACAD_REACTORS
330
C
102
}
330
C
100
AcDbDictionary
  0
DICTIONARY
  5
1A
102
{ACAD_REACTORS
330
C
102
}
330
C
100
AcDbDictionary
  0
DICTIONARY
  5
17
102
{ACAD_REACTORS
330
C
102
}
330
C
100
AcDbDictionary
  3
STANDARD
350
18
  0
DICTIONARY
  5
19
102
{ACAD_REACTORS
330
C
102
}
330
C
100
AcDbDictionary
  0
ACDBDICTIONARYWDFLT
  5
E
102
{ACAD_REACTORS
330
C
102
}
330
C
100
AcDbDictionary
281
     1
  3
Normal
350
F
100
AcDbDictionaryWithDefault
340
F
  0
DICTIONARY
  5
34
102
{ACAD_REACTORS
330
C
102
}
330
C
100
AcDbDictionary
  3
INDEXCTL
350
35
  3
SORTENTS
350
B5E
  0
DICTIONARY
  5
43
102
{ACAD_REACTORS
330
C
102
}
330
C
100
AcDbDictionary
  3
ACMSTDDICTIONARY
350
260
  0
DICTIONARY
  5
2B
102
{ACAD_REACTORS
330
C
102
}
330
C
100
AcDbDictionary
  3
ACMGSETTINGS
350
2C
  0
DICTIONARY
  5
6E
102
{ACAD_REACTORS
330
C
102
}
330
C
100
AcDbDictionary
  0
XRECORD
  5
42EC
102
{ACAD_REACTORS
330
C
102
}
330
C
100
AcDbXrecord
  1
DWGPROPS COOKIE
  2

  3

  4

  6

  7

  8

  9

300
AmdtFileType=82
301
=
302
=
303
=
304
=
305
=
306
=
307
=
308
=
309
=
 40
0.0938481597222222
 41
2452800.443498622
 42
2452946.638030775
  1

 90
        1
  0
DICTIONARY
  5
42F8
102
{ACAD_REACTORS
330
C
102
}
330
C
100
AcDbDictionary
  3
TSTACKALIGN
350
42F9
  3
TSTACKSIZE
350
42FA
  3
HYPERLINKBASE
350
42FB
  3
STYLESHEET
350
42FC
  3
LAYOUTDICT
350
42FD
  3
PLOTSETDICT
350
42FE
  3
PLOTSTYLNAMDICT
350
42FF
  3
LWETCUNION
350
4300
  3
INSUNITS
350
4301
  3
CEPSNTYPE
350
4302
  3
FINGERPRINTGUID
350
4303
  3
VERSIONGUID
350
4304
  3
PSVPSCALE
350
4305
  3
DIMSTYLEDATA
350
4306
  3
PUCSORTHOREF
350
4307
  3
PUCSORTHOVIEW
350
4308
  3
PUCSBASE
350
4309
  3
PUCSORGTOP
350
430A
  3
PUCSORGBOTTOM
350
430B
  3
PUCSORGLEFT
350
430C
  3
PUCSORGRIGHT
350
430D
  3
PUCSORGFRONT
350
430E
  3
PUCSORGBACK
350
430F
  3
UCSORTHOREF
350
4310
  3
UCSORTHOVIEW
350
4311
  3
UCSBASE
350
4312
  3
UCSORGTOP
350
4313
  3
UCSORGBOTTOM
350
4314
  3
UCSORGLEFT
350
4315
  3
UCSORGRIGHT
350
4316
  3
UCSORGFRONT
350
4317
  3
UCSORGBACK
350
4318
  0
DICTIONARY
  5
42EE
102
{ACAD_REACTORS
330
74
102
}
330
74
100
AcDbDictionary
  3
*A1
350
42EF
  0
XRECORD
  5
431B
102
{ACAD_REACTORS
330
74
102
}
330
74
100
AcDbXrecord
340
1F
  0
XRECORD
  5
4321
102
{ACAD_REACTORS
330
4320
102
}
330
4320
100
AcDbXrecord
340
101
  0
MLINESTYLE
  5
18
102
{ACAD_REACTORS
330
17
102
}
330
17
100
AcDbMlineStyle
  2
STANDARD
 70
     0
  3

 62
   256
 51
90.0
 52
90.0
 71
     2
 49
0.5
 62
   256
  6
BYLAYER
 49
-0.5
 62
   256
  6
BYLAYER
  0
ACDBPLACEHOLDER
  5
F
102
{ACAD_REACTORS
330
E
102
}
330
E
100
AcDbPlaceHolder
280
     0
  0
DICTIONARYVAR
  5
35
102
{ACAD_REACTORS
330
34
102
}
330
34
100
DictionaryVariables
280
     0
  1
1
  0
DICTIONARYVAR
  5
B5E
102
{ACAD_REACTORS
330
34
102
}
330
34
100
DictionaryVariables
280
     0
  1
96
  0
DICTIONARY
  5
260
102
{ACAD_REACTORS
330
43
102
}
330
43
100
AcDbDictionary
  0
DICTIONARY
  5
2C
102
{ACAD_REACTORS
330
2B
102
}
330
2B
100
AcDbDictionary
  3
DWGSETTINGS
350
2D
  0
XRECORD
  5
42F9
102
{ACAD_REACTORS
330
42F8
102
}
330
42F8
100
AcDbXrecord
 90
        1
  0
XRECORD
  5
42FA
102
{ACAD_REACTORS
330
42F8
102
}
330
42F8
100
AcDbXrecord
 90
       70
  0
XRECORD
  5
42FB
102
{ACAD_REACTORS
330
42F8
102
}
330
42F8
100
AcDbXrecord
  1

  0
XRECORD
  5
42FC
102
{ACAD_REACTORS
330
42F8
102
}
330
42F8
100
AcDbXrecord
  1
ASAMI.ctb
  0
XRECORD
  5
42FD
102
{ACAD_REACTORS
330
42F8
102
}
330
42F8
100
AcDbXrecord
340
1A
  0
XRECORD
  5
42FE
102
{ACAD_REACTORS
330
42F8
102
}
330
42F8
100
AcDbXrecord
340
19
  0
XRECORD
  5
42FF
102
{ACAD_REACTORS
330
42F8
102
}
330
42F8
100
AcDbXrecord
340
E
  0
XRECORD
  5
4300
102
{ACAD_REACTORS
330
42F8
102
}
330
42F8
100
AcDbXrecord
 90
    10781
  0
XRECORD
  5
4301
102
{ACAD_REACTORS
330
42F8
102
}
330
42F8
100
AcDbXrecord
 90
        4
  0
XRECORD
  5
4302
102
{ACAD_REACTORS
330
42F8
102
}
330
42F8
100
AcDbXrecord
 90
        0
  0
XRECORD
  5
4303
102
{ACAD_REACTORS
330
42F8
102
}
330
42F8
100
AcDbXrecord
  1
{AFB28963-8C59-40AE-9337-C84526B81ACE}
  0
XRECORD
  5
4304
102
{ACAD_REACTORS
330
42F8
102
}
330
42F8
100
AcDbXrecord
  1
{D0B2E93A-377B-44E0-ADB6-2ABAE66E73DD}
  0
XRECORD
  5
4305
102
{ACAD_REACTORS
330
42F8
102
}
330
42F8
100
AcDbXrecord
 40
0.0
  0
XRECORD
  5
4306
102
{ACAD_REACTORS
330
42F8
102
}
330
42F8
100
AcDbXrecord
1000
DSTYLE
1002
{
1070
    79
 70
     2
1070
   341
340
59
1070
   342
340
59
1070
   371
 70
    -1
1070
   372
 70
    -1
1002
}
  0
XRECORD
  5
4307
102
{ACAD_REACTORS
330
42F8
102
}
330
42F8
100
AcDbXrecord
340
0
  0
XRECORD
  5
4308
102
{ACAD_REACTORS
330
42F8
102
}
330
42F8
100
AcDbXrecord
 70
     0
  0
XRECORD
  5
4309
102
{ACAD_REACTORS
330
42F8
102
}
330
42F8
100
AcDbXrecord
340
0
  0
XRECORD
  5
430A
102
{ACAD_REACTORS
330
42F8
102
}
330
42F8
100
AcDbXrecord
 10
0.0
 20
0.0
 30
0.0
  0
XRECORD
  5
430B
102
{ACAD_REACTORS
330
42F8
102
}
330
42F8
100
AcDbXrecord
 10
0.0
 20
0.0
 30
0.0
  0
XRECORD
  5
430C
102
{ACAD_REACTORS
330
42F8
102
}
330
42F8
100
AcDbXrecord
 10
0.0
 20
0.0
 30
0.0
  0
XRECORD
  5
430D
102
{ACAD_REACTORS
330
42F8
102
}
330
42F8
100
AcDbXrecord
 10
0.0
 20
0.0
 30
0.0
  0
XRECORD
  5
430E
102
{ACAD_REACTORS
330
42F8
102
}
330
42F8
100
AcDbXrecord
 10
0.0
 20
0.0
 30
0.0
  0
XRECORD
  5
430F
102
{ACAD_REACTORS
330
42F8
102
}
330
42F8
100
AcDbXrecord
 10
0.0
 20
0.0
 30
0.0
  0
XRECORD
  5
4310
102
{ACAD_REACTORS
330
42F8
102
}
330
42F8
100
AcDbXrecord
340
0
  0
XRECORD
  5
4311
102
{ACAD_REACTORS
330
42F8
102
}
330
42F8
100
AcDbXrecord
 70
     0
  0
XRECORD
  5
4312
102
{ACAD_REACTORS
330
42F8
102
}
330
42F8
100
AcDbXrecord
340
0
  0
XRECORD
  5
4313
102
{ACAD_REACTORS
330
42F8
102
}
330
42F8
100
AcDbXrecord
 10
0.0
 20
0.0
 30
0.0
  0
XRECORD
  5
4314
102
{ACAD_REACTORS
330
42F8
102
}
330
42F8
100
AcDbXrecord
 10
0.0
 20
0.0
 30
0.0
  0
XRECORD
  5
4315
102
{ACAD_REACTORS
330
42F8
102
}
330
42F8
100
AcDbXrecord
 10
0.0
 20
0.0
 30
0.0
  0
XRECORD
  5
4316
102
{ACAD_REACTORS
330
42F8
102
}
330
42F8
100
AcDbXrecord
 10
0.0
 20
0.0
 30
0.0
  0
XRECORD
  5
4317
102
{ACAD_REACTORS
330
42F8
102
}
330
42F8
100
AcDbXrecord
 10
0.0
 20
0.0
 30
0.0
  0
XRECORD
  5
4318
102
{ACAD_REACTORS
330
42F8
102
}
330
42F8
100
AcDbXrecord
 10
0.0
 20
0.0
 30
0.0
  0
LAYER_INDEX
  5
42EF
102
{ACAD_REACTORS
330
42EE
102
}
330
42EE
100
AcDbIndex
 40
2453151.565285544
100
AcDbLayerIndex
  8
0
360
42F0
 90
        0
  8
AM_0
360
42F1
 90
       46
  8
AM_7
360
42F2
 90
        1
  8
AM_11
360
42F3
 90
       15
  8
AM_5
360
42F4
 90
        5
  8
Defpoints
360
42F5
 90
        0
  8
AM_6
360
42F6
 90
        1
  0
XRECORD
  5
2D
102
{ACAD_REACTORS
330
2C
102
}
330
2C
100
AcDbXrecord
  1
VERSION
140
15.0
  1
PRODUCT
  2
AutoCAD Mechanical 2000
  0
IDBUFFER
  5
42F0
330
0
100
AcDbIdBuffer
  0
IDBUFFER
  5
42F1
330
0
100
AcDbIdBuffer
330
422B
330
422C
330
422D
330
422E
330
422F
330
4230
330
4231
330
4232
330
4233
330
4234
330
4235
330
4238
330
4239
330
423A
330
423B
330
423C
330
423D
330
423E
330
423F
330
4240
330
4241
330
4242
330
4243
330
4244
330
4245
330
4246
330
4248
330
4249
330
4275
330
4276
330
C1D
330
C20
330
24A7
330
24BE
330
2C0E
330
2FB7
330
2FB9
330
324C
330
325C
330
325D
330
325E
330
3921
330
3924
330
3976
330
3977
330
422A
  0
IDBUFFER
  5
42F2
330
0
100
AcDbIdBuffer
330
23EF
  0
IDBUFFER
  5
42F3
330
0
100
AcDbIdBuffer
330
24B7
330
24B8
330
24B9
330
24C7
330
24C8
330
24D4
330
24D5
330
24E6
330
24E7
330
2BF3
330
2BF5
330
4236
330
4237
330
4247
330
424A
  0
IDBUFFER
  5
42F4
330
0
100
AcDbIdBuffer
330
CC6
330
2069
330
2D60
330
3C5B
330
3D2F
  0
IDBUFFER
  5
42F5
330
0
100
AcDbIdBuffer
  0
IDBUFFER
  5
42F6
330
0
100
AcDbIdBuffer
330
19BD
  0
ENDSEC
  0
EOF
