  0
SECTION
  2
HEADER
  9
$ACADVER
  1
AC1014
  9
$ACADMAINTVER
 70
     9
  9
$DWGCODEPAGE
  3
ANSI_932
  9
$INSBASE
 10
0.0
 20
0.0
 30
0.0
  9
$EXTMIN
 10
-164.800001
 20
-54.00000099999979
 30
-0.00000001
  9
$EXTMAX
 10
37.04001720295884
 20
35.81022925363349
 30
0.00000001
  9
$LIMMIN
 10
-174.4563797951447
 20
-70.82206914383238
  9
$LIMMAX
 10
45.85902212792825
 20
52.2453258987743
  9
$ORTHOMODE
 70
     0
  9
$REGENMODE
 70
     1
  9
$FILLMODE
 70
     1
  9
$QTEXTMODE
 70
     0
  9
$MIRRTEXT
 70
     0
  9
$DRAGMODE
 70
     2
  9
$LTSCALE
 40
1.0
  9
$OSMODE
 70
    55
  9
$ATTMODE
 70
     1
  9
$TEXTSIZE
 40
2.5
  9
$TRACEWID
 40
1.0
  9
$TEXTSTYLE
  7
STANDARD
  9
$CLAYER
  8
AM_0
  9
$CELTYPE
  6
BYLAYER
  9
$CECOLOR
 62
   256
  9
$CELTSCALE
 40
1.0
  9
$DELOBJ
 70
     1
  9
$DISPSILH
 70
     0
  9
$DIMSCALE
 40
1.0
  9
$DIMASZ
 40
2.5
  9
$DIMEXO
 40
1.0
  9
$DIMDLI
 40
12.0
  9
$DIMRND
 40
0.0
  9
$DIMDLE
 40
0.0
  9
$DIMEXE
 40
1.0
  9
$DIMTP
 40
0.1
  9
$DIMTM
 40
0.1
  9
$DIMTXT
 40
3.2
  9
$DIMCEN
 40
0.0
  9
$DIMTSZ
 40
0.0
  9
$DIMTOL
 70
     0
  9
$DIMLIM
 70
     0
  9
$DIMTIH
 70
     0
  9
$DIMTOH
 70
     0
  9
$DIMSE1
 70
     0
  9
$DIMSE2
 70
     0
  9
$DIMTAD
 70
     3
  9
$DIMZIN
 70
     8
  9
$DIMBLK
  1
OPEN30
  9
$DIMASO
 70
     1
  9
$DIMSHO
 70
     1
  9
$DIMPOST
  1

  9
$DIMAPOST
  1
"
  9
$DIMALT
 70
     0
  9
$DIMALTD
 70
     2
  9
$DIMALTF
 40
0.0393701
  9
$DIMLFAC
 40
1.0
  9
$DIMTOFL
 70
     1
  9
$DIMTVP
 40
0.0
  9
$DIMTIX
 70
     0
  9
$DIMSOXD
 70
     0
  9
$DIMSAH
 70
     0
  9
$DIMBLK1
  1

  9
$DIMBLK2
  1

  9
$DIMSTYLE
  2
AM_JIS
  9
$DIMCLRD
 70
   256
  9
$DIMCLRE
 70
   256
  9
$DIMCLRT
 70
     2
  9
$DIMTFAC
 40
0.71
  9
$DIMGAP
 40
1.5
  9
$DIMJUST
 70
     0
  9
$DIMSD1
 70
     0
  9
$DIMSD2
 70
     0
  9
$DIMTOLJ
 70
     0
  9
$DIMTZIN
 70
     0
  9
$DIMALTZ
 70
     0
  9
$DIMALTTZ
 70
     0
  9
$DIMFIT
 70
     3
  9
$DIMUPT
 70
     0
  9
$DIMUNIT
 70
     2
  9
$DIMDEC
 70
     3
  9
$DIMTDEC
 70
     3
  9
$DIMALTU
 70
     2
  9
$DIMALTTD
 70
     2
  9
$DIMTXSTY
  7
ASAMI
  9
$DIMAUNIT
 70
     0
  9
$LUNITS
 70
     2
  9
$LUPREC
 70
     2
  9
$SKETCHINC
 40
1.0
  9
$FILLETRAD
 40
2.5
  9
$AUNITS
 70
     0
  9
$AUPREC
 70
     0
  9
$MENU
  1
.
  9
$ELEVATION
 40
0.0
  9
$PELEVATION
 40
0.0
  9
$THICKNESS
 40
0.0
  9
$LIMCHECK
 70
     0
  9
$BLIPMODE
 70
     0
  9
$CHAMFERA
 40
0.75
  9
$CHAMFERB
 40
0.75
  9
$CHAMFERC
 40
20.0
  9
$CHAMFERD
 40
0.0
  9
$SKPOLY
 70
     0
  9
$TDCREATE
 40
2452800.443498622
  9
$TDUPDATE
 40
2453151.565500023
  9
$TDINDWG
 40
0.0958284144
  9
$TDUSRTIMER
 40
0.0958284144
  9
$USRTIMER
 70
     1
  9
$ANGBASE
 50
0.0
  9
$ANGDIR
 70
     0
  9
$PDMODE
 70
     0
  9
$PDSIZE
 40
0.0
  9
$PLINEWID
 40
0.0
  9
$COORDS
 70
     1
  9
$SPLFRAME
 70
     0
  9
$SPLINETYPE
 70
     6
  9
$SPLINESEGS
 70
     8
  9
$ATTDIA
 70
     1
  9
$ATTREQ
 70
     1
  9
$HANDLING
 70
 12289
  9
$HANDSEED
  5
4429
  9
$SURFTAB1
 70
     6
  9
$SURFTAB2
 70
     6
  9
$SURFTYPE
 70
     6
  9
$SURFU
 70
     6
  9
$SURFV
 70
     6
  9
$UCSNAME
  2

  9
$UCSORG
 10
0.0
 20
0.0
 30
0.0
  9
$UCSXDIR
 10
1.0
 20
0.0000000000000027
 30
0.0
  9
$UCSYDIR
 10
-0.0000000000000027
 20
1.0
 30
0.0
  9
$PUCSNAME
  2

  9
$PUCSORG
 10
0.0
 20
0.0
 30
0.0
  9
$PUCSXDIR
 10
1.0
 20
0.0
 30
0.0
  9
$PUCSYDIR
 10
0.0
 20
1.0
 30
0.0
  9
$USERI1
 70
     0
  9
$USERI2
 70
     0
  9
$USERI3
 70
     0
  9
$USERI4
 70
     0
  9
$USERI5
 70
     0
  9
$USERR1
 40
0.0
  9
$USERR2
 40
0.0
  9
$USERR3
 40
0.0
  9
$USERR4
 40
0.0
  9
$USERR5
 40
0.0
  9
$WORLDVIEW
 70
     1
  9
$SHADEDGE
 70
     3
  9
$SHADEDIF
 70
    70
  9
$TILEMODE
 70
     1
  9
$MAXACTVP
 70
    64
  9
$PINSBASE
 10
0.0
 20
0.0
 30
0.0
  9
$PLIMCHECK
 70
     0
  9
$PEXTMIN
 10
1.000000000000000E+20
 20
1.000000000000000E+20
 30
1.000000000000000E+20
  9
$PEXTMAX
 10
-1.000000000000000E+20
 20
-1.000000000000000E+20
 30
-1.000000000000000E+20
  9
$PLIMMIN
 10
0.0
 20
0.0
  9
$PLIMMAX
 10
841.0
 20
594.0
  9
$UNITMODE
 70
     0
  9
$VISRETAIN
 70
     1
  9
$PLINEGEN
 70
     0
  9
$PSLTSCALE
 70
     0
  9
$TREEDEPTH
 70
  3020
  9
$PICKSTYLE
 70
     0
  9
$CMLSTYLE
  2
STANDARD
  9
$CMLJUST
 70
     0
  9
$CMLSCALE
 40
20.0
  9
$PROXYGRAPHICS
 70
     1
  9
$MEASUREMENT
 70
     1
  0
ENDSEC
  0
SECTION
  2
CLASSES
  0
CLASS
  1
ACDBDICTIONARYWDFLT
  2
AcDbDictionaryWithDefault
  3
AutoCAD 2000
 90
        0
280
     0
281
     0
  0
CLASS
  1
ACDBPLACEHOLDER
  2
AcDbPlaceHolder
  3
AutoCAD 2000
 90
        0
280
     0
281
     0
  0
CLASS
  1
LAYOUT
  2
AcDbLayout
  3
AutoCAD 2000
 90
        0
280
     0
281
     0
  0
CLASS
  1
AMGSETTINGSOBJ
  2
AmgSettingsObj
  3
"AcadM|Product Description: AutoCAD Mechanical 2000|Company: Autodesk"
 90
        0
280
     0
281
     0
  0
CLASS
  1
ACME_DOCUMENT
  2
AcMeDbDoc
  3
AcMeServices
 90
        0
280
     0
281
     0
  0
CLASS
  1
ACMESCOPE
  2
AcMeScope
  3
AcMeServices
 90
        0
280
     0
281
     0
  0
CLASS
  1
ACMECOMMANDHISTORY
  2
AcMeCommandHistory
  3
AcMeServices
 90
        0
280
     0
281
     0
  0
CLASS
  1
DICTIONARYVAR
  2
AcDbDictionaryVar
  3
AutoCAD 2000
 90
        0
280
     0
281
     0
  0
CLASS
  1
ACIMSYSVARMAN
  2
AcImSysVarManager
  3
AcMeServices
 90
        0
280
     0
281
     0
  0
CLASS
  1
ACIMREALSYSVAR
  2
AcImRealSysVar
  3
AcMeServices
 90
        0
280
     0
281
     0
  0
CLASS
  1
ACIMINTSYSVAR
  2
AcImIntSysVar
  3
AcMeServices
 90
        0
280
     0
281
     0
  0
CLASS
  1
ACMEDRAWINGMAN
  2
AcMeDrawingMan
  3
AcMeServices
 90
        0
280
     0
281
     0
  0
CLASS
  1
ACMEVIEW
  2
AcMeView
  3
AcMeServices
 90
        0
280
     0
281
     0
  0
CLASS
  1
ACDBENTITYCACHE
  2
AcMeEntityCache
  3
AcMeServices
 90
        0
280
     0
281
     0
  0
CLASS
  1
GSMANAGER
  2
AcMeGSManager
  3
AcMeServices
 90
        0
280
     0
281
     0
  0
CLASS
  1
AmdtInternalReactor
  2
AmdtInternalReactor
  3
AcMeServices
 90
        0
280
     0
281
     0
  0
CLASS
  1
ACMESTATEMGR
  2
AcMeStateMgr
  3
AcMeServices
 90
        0
280
     0
281
     0
  0
CLASS
  1
ACME_DATABASE
  2
AcMeDbDatabase
  3
AcMeServices
 90
        0
280
     0
281
     0
  0
CLASS
  1
ACRFINSADJUSTERMGR
  2
AcRfInsAdjusterMgr
  3
AcMeServices
 90
        0
280
     0
281
     0
  0
CLASS
  1
ACMDATADICTIONARY
  2
AcmDataDictionary
  3
"AcmSymBB|Product Description: AutoCAD Mechanical 2000|Company: Autodesk"
 90
        0
280
     0
281
     0
  0
CLASS
  1
ACMDATAENTRYBLOCK
  2
AcmDataEntryBlock
  3
"AcmSymBB|Product Description: AutoCAD Mechanical 2000|Company: Autodesk"
 90
        0
280
     0
281
     0
  0
CLASS
  1
AMGOBJPROPCFG
  2
AmgObjPropCfg
  3
"AmgLay|Product Description: AutoCAD Mechanical 2000|Company: Autodesk"
 90
        1
280
     0
281
     0
  0
CLASS
  1
ACAMGFILTERDAT
  2
AcAmgFilterDat
  3
"AcadM|Product Description: AutoCAD Mechanical 2000|Company: Autodesk"
 90
        0
280
     0
281
     0
  0
CLASS
  1
LAYER_INDEX
  2
AcDbLayerIndex
  3
AutoCAD 2000
 90
        0
280
     0
281
     0
  0
CLASS
  1
IDBUFFER
  2
AcDbIdBuffer
  3
AutoCAD 2000
 90
        0
280
     0
281
     0
  0
CLASS
  1
ACIMSTRSYSVAR
  2
AcImStrSysVar
  3
AcMeServices
 90
        0
280
     0
281
     0
  0
CLASS
  1
ACMSTANDARDJIS
  2
AcmStandardJIS
  3
"AcmSymBB|Product Description: AutoCAD Mechanical 2000|Company: Autodesk"
 90
        0
280
     0
281
     0
  0
CLASS
  1
ACMSURFSTANDARDJIS
  2
AcmSurfTextStdJIS
  3
"AcmSymBB|Product Description: AutoCAD Mechanical 2000|Company: Autodesk"
 90
        0
280
     0
281
     0
  0
CLASS
  1
ACMFCFSTANDARDJIS
  2
AcmFCFStdJIS
  3
"AcmSymBB|Product Description: AutoCAD Mechanical 2000|Company: Autodesk"
 90
        0
280
     0
281
     0
  0
CLASS
  1
ACMWELDSTANDARDJIS
  2
AcmWeldingStdJIS
  3
"AcmSymBB|Product Description: AutoCAD Mechanical 2000|Company: Autodesk"
 90
        0
280
     0
281
     0
  0
CLASS
  1
ACMIDSTANDARDJIS
  2
AcmIdStdJIS
  3
"AcmSymBB|Product Description: AutoCAD Mechanical 2000|Company: Autodesk"
 90
        0
280
     0
281
     0
  0
CLASS
  1
ACMDATUMSTANDARDJIS
  2
AcmDatumStdJIS
  3
"AcmSymBB|Product Description: AutoCAD Mechanical 2000|Company: Autodesk"
 90
        0
280
     0
281
     0
  0
CLASS
  1
ACMBOMSTANDARDJIS
  2
AcmBOMStdJIS
  3
"AcmSymBB|Product Description: AutoCAD Mechanical 2000|Company: Autodesk"
 90
        0
280
     0
281
     0
  0
CLASS
  1
ACMSTANDARDANSI
  2
AcmStandardANSI
  3
"AcmSymBB|Product Description: AutoCAD Mechanical 2000|Company: Autodesk"
 90
        0
280
     0
281
     0
  0
CLASS
  1
ACMSURFSTANDARDANSI
  2
AcmSurfTextStdANSI
  3
"AcmSymBB|Product Description: AutoCAD Mechanical 2000|Company: Autodesk"
 90
        0
280
     0
281
     0
  0
CLASS
  1
ACMFCFSTANDARDANSI
  2
AcmFCFStdANSI
  3
"AcmSymBB|Product Description: AutoCAD Mechanical 2000|Company: Autodesk"
 90
        0
280
     0
281
     0
  0
CLASS
  1
ACMWELDSTANDARDANSI
  2
AcmWeldingStdANSI
  3
"AcmSymBB|Product Description: AutoCAD Mechanical 2000|Company: Autodesk"
 90
        0
280
     0
281
     0
  0
CLASS
  1
ACMIDSTANDARDANSI
  2
AcmIdStdANSI
  3
"AcmSymBB|Product Description: AutoCAD Mechanical 2000|Company: Autodesk"
 90
        0
280
     0
281
     0
  0
CLASS
  1
ACMDATUMSTANDARDANSI
  2
AcmDatumStdANSI
  3
"AcmSymBB|Product Description: AutoCAD Mechanical 2000|Company: Autodesk"
 90
        0
280
     0
281
     0
  0
CLASS
  1
ACMBOMSTANDARDANSI
  2
AcmBOMStdANSI
  3
"AcmSymBB|Product Description: AutoCAD Mechanical 2000|Company: Autodesk"
 90
        0
280
     0
281
     0
  0
CLASS
  1
ACMSTANDARDBSI
  2
AcmStandardBSI
  3
"AcmSymBB|Product Description: AutoCAD Mechanical 2000|Company: Autodesk"
 90
        0
280
     0
281
     0
  0
CLASS
  1
ACMSURFSTANDARDBSI
  2
AcmSurfTextStdBSI
  3
"AcmSymBB|Product Description: AutoCAD Mechanical 2000|Company: Autodesk"
 90
        0
280
     0
281
     0
  0
CLASS
  1
ACMFCFSTANDARDBSI
  2
AcmFCFStdBSI
  3
"AcmSymBB|Product Description: AutoCAD Mechanical 2000|Company: Autodesk"
 90
        0
280
     0
281
     0
  0
CLASS
  1
ACMWELDSTANDARDBSI
  2
AcmWeldingStdBSI
  3
"AcmSymBB|Product Description: AutoCAD Mechanical 2000|Company: Autodesk"
 90
        0
280
     0
281
     0
  0
CLASS
  1
ACMIDSTANDARDBSI
  2
AcmIdStdBSI
  3
"AcmSymBB|Product Description: AutoCAD Mechanical 2000|Company: Autodesk"
 90
        0
280
     0
281
     0
  0
CLASS
  1
ACMDATUMSTANDARDBSI
  2
AcmDatumStdBSI
  3
"AcmSymBB|Product Description: AutoCAD Mechanical 2000|Company: Autodesk"
 90
        0
280
     0
281
     0
  0
CLASS
  1
ACMBOMSTANDARDBSI
  2
AcmBOMStdBSI
  3
"AcmSymBB|Product Description: AutoCAD Mechanical 2000|Company: Autodesk"
 90
        0
280
     0
281
     0
  0
CLASS
  1
LONG_TRANSACTION
  2
AcDbLongTransaction
  3
AutoCAD 2000
 90
        0
280
     0
281
     0
  0
CLASS
  1
LWPOLYLINE
  2
AcDbPolyline
  3
AutoCAD 2000
 90
        0
280
     0
281
     1
  0
CLASS
  1
HATCH
  2
AcDbHatch
  3
AutoCAD 2000
 90
        0
280
     0
281
     1
  0
CLASS
  1
XRECORD
  2
AcDbXrecord
  3
AutoCAD 2000
 90
        0
280
     0
281
     0
  0
ENDSEC
  0
SECTION
  2
TABLES
  0
TABLE
  2
VPORT
  5
8
330
0
100
AcDbSymbolTable
 70
     3
  0
VPORT
  5
43F3
330
8
100
AcDbSymbolTableRecord
100
AcDbViewportTableRecord
  2
*ACTIVE
 70
     0
 10
0.0
 20
0.0
 11
1.0
 21
1.0
 12
-60.10297670391742
 22
-9.091196096511083
 13
0.0
 23
0.0
 14
2.5
 24
2.5
 15
10.0
 25
10.0
 16
0.0
 26
0.0
 36
1.0
 17
0.0
 27
0.0
 37
0.0
 40
134.3980006285333
 41
1.56570841889117
 42
50.0
 43
0.0
 44
0.0
 50
0.0
 51
0.0
 71
     0
 72
   100
 73
     1
 74
     1
 75
     0
 76
     0
 77
     0
 78
     0
  0
ENDTAB
  0
TABLE
  2
LTYPE
  5
5
330
0
100
AcDbSymbolTable
 70
    10
  0
LTYPE
  5
14
330
5
100
AcDbSymbolTableRecord
100
AcDbLinetypeTableRecord
  2
BYBLOCK
 70
     0
  3

 72
    65
 73
     0
 40
0.0
  0
LTYPE
  5
15
330
5
100
AcDbSymbolTableRecord
100
AcDbLinetypeTableRecord
  2
BYLAYER
 70
     0
  3

 72
    65
 73
     0
 40
0.0
  0
LTYPE
  5
16
330
5
100
AcDbSymbolTableRecord
100
AcDbLinetypeTableRecord
  2
CONTINUOUS
 70
     0
  3
Solid line
 72
    65
 73
     0
 40
0.0
  0
LTYPE
  5
4B
330
5
100
AcDbSymbolTableRecord
100
AcDbLinetypeTableRecord
  2
AM_ISO02W050
 70
     0
  3
__ __ __ __ __ __ __ __ __ __ __ __ __ __ __
 72
    65
 73
     2
 40
7.5
 49
6.0
 74
     0
 49
-1.5
 74
     0
  0
LTYPE
  5
4C
330
5
100
AcDbSymbolTableRecord
100
AcDbLinetypeTableRecord
  2
AM_ISO08W050
 70
     0
  3
____ . ____ . ____ . ____ . ____ . ____ . ____
 72
    65
 73
     4
 40
18.0
 49
12.0
 74
     0
 49
-1.5
 74
     0
 49
3.0
 74
     0
 49
-1.5
 74
     0
  0
LTYPE
  5
4D
330
5
100
AcDbSymbolTableRecord
100
AcDbLinetypeTableRecord
  2
AM_ISO09W050
 70
     0
  3
_____ . . _____ . . _____ . . ____ .. ____
 72
    65
 73
     6
 40
22.5
 49
12.0
 74
     0
 49
-1.5
 74
     0
 49
3.0
 74
     0
 49
-1.5
 74
     0
 49
3.0
 74
     0
 49
-1.5
 74
     0
  0
LTYPE
  5
4E
330
5
100
AcDbSymbolTableRecord
100
AcDbLinetypeTableRecord
  2
AMCONSTR
 70
     0
  3
_______________________
 72
    65
 73
     2
 40
9999.0
 49
9999.0
 74
     0
 49
0.0
 74
     0
  0
LTYPE
  5
4F
330
5
100
AcDbSymbolTableRecord
100
AcDbLinetypeTableRecord
  2
AM_ISO02W050X2
 70
     0
  3
 _ _ _ _ _ _ _ _ _ _ _ _
 72
    65
 73
     2
 40
3.75
 49
3.0
 74
     0
 49
-0.75
 74
     0
  0
LTYPE
  5
50
330
5
100
AcDbSymbolTableRecord
100
AcDbLinetypeTableRecord
  2
AM_ISO08W050X2
 70
     0
  3
__ . __ . __ . __ . __ . __
 72
    65
 73
     4
 40
9.0
 49
6.0
 74
     0
 49
-0.75
 74
     0
 49
1.5
 74
     0
 49
-0.75
 74
     0
  0
LTYPE
  5
53
330
5
100
AcDbSymbolTableRecord
100
AcDbLinetypeTableRecord
  2
AMZIGZAG
 70
     0
  3
/\/-/\/-/\/-/\/-/\/-/\/
 72
    65
 73
     2
 40
11.00009999999999
 49
0.0001
 74
     4
 75
   135
340
52
 46
0.04
 50
0.0
 44
0.0
 45
0.0
 49
-11.0
 74
     0
  0
LTYPE
  5
166
330
5
100
AcDbSymbolTableRecord
100
AcDbLinetypeTableRecord
  2
ACJISTGL
 70
     0
  3
_ _ _ _ _
 72
    65
 73
     2
 40
3.0
 49
2.0
 74
     0
 49
-1.0
 74
     0
  0
LTYPE
  5
26A
330
5
100
AcDbSymbolTableRecord
100
AcDbLinetypeTableRecord
  2
ACJISTGB
 70
     0
  3
__ . . __ . .
 72
    65
 73
     6
 40
9.0
 49
4.0
 74
     0
 49
-1.0
 74
     0
 49
1.0
 74
     0
 49
-1.0
 74
     0
 49
1.0
 74
     0
 49
-1.0
 74
     0
  0
ENDTAB
  0
TABLE
  2
LAYER
  5
2
330
0
100
AcDbSymbolTable
 70
     7
  0
LAYER
  5
10
330
2
100
AcDbSymbolTableRecord
100
AcDbLayerTableRecord
  2
0
 70
     0
 62
     7
  6
CONTINUOUS
  0
LAYER
  5
3F9
330
2
100
AcDbSymbolTableRecord
100
AcDbLayerTableRecord
  2
AM_0
 70
     0
 62
     7
  6
CONTINUOUS
  0
LAYER
  5
C7C
330
2
100
AcDbSymbolTableRecord
100
AcDbLayerTableRecord
  2
AM_7
 70
     0
 62
     4
  6
AM_ISO08W050
  0
LAYER
  5
C97
330
2
100
AcDbSymbolTableRecord
100
AcDbLayerTableRecord
  2
AM_11
 70
     0
 62
     3
  6
AM_ISO09W050
  0
LAYER
  5
CC5
330
2
100
AcDbSymbolTableRecord
100
AcDbLayerTableRecord
  2
AM_5
 70
     0
 62
     3
  6
CONTINUOUS
  0
LAYER
  5
CC7
330
2
100
AcDbSymbolTableRecord
100
AcDbLayerTableRecord
  2
DEFPOINTS
 70
     0
 62
     7
  6
CONTINUOUS
  0
LAYER
  5
19BC
330
2
100
AcDbSymbolTableRecord
100
AcDbLayerTableRecord
  2
AM_6
 70
     0
 62
     2
  6
CONTINUOUS
  0
ENDTAB
  0
TABLE
  2
STYLE
  5
3
330
0
100
AcDbSymbolTable
 70
     5
  0
STYLE
  5
11
330
3
100
AcDbSymbolTableRecord
100
AcDbTextStyleTableRecord
  2
STANDARD
 70
     0
 40
0.0
 41
1.0
 50
0.0
 71
     0
 42
2.5
  3
simplex.shx
  4
EXTFONT.SHX
  0
STYLE
  5
52
330
3
100
AcDbSymbolTableRecord
100
AcDbTextStyleTableRecord
  2

 70
     1
 40
0.0
 41
1.0
 50
0.0
 71
     0
 42
2.5
  3
ltypeshp.shx
  4

  0
STYLE
  5
6B
330
3
100
AcDbSymbolTableRecord
100
AcDbTextStyleTableRecord
  2
ASAMI
 70
     0
 40
0.0
 41
1.0
 50
0.0
 71
     0
 42
2.5
  3
simplex.shx
  4
EXTFONT.SHX
  0
STYLE
  5
262
330
3
100
AcDbSymbolTableRecord
100
AcDbTextStyleTableRecord
  2
ACJISTS
 70
     0
 40
1.0
 41
1.0
 50
0.0
 71
     0
 42
2.5
  3
simplex.shx
  4
bigfont.shx
  0
STYLE
  5
269
330
3
100
AcDbSymbolTableRecord
100
AcDbTextStyleTableRecord
  2
ACJISGDT
 70
     0
 40
0.0
 41
1.0
 50
0.0
 71
     0
 42
2.5
  3
amgdtans.shx
  4

  0
ENDTAB
  0
TABLE
  2
VIEW
  5
6
330
0
100
AcDbSymbolTable
 70
     0
  0
ENDTAB
  0
TABLE
  2
UCS
  5
7
330
0
100
AcDbSymbolTable
 70
     0
  0
ENDTAB
  0
TABLE
  2
APPID
  5
9
330
0
100
AcDbSymbolTable
 70
    16
  0
APPID
  5
12
330
9
100
AcDbSymbolTableRecord
100
AcDbRegAppTableRecord
  2
ACAD
 70
     0
  0
APPID
  5
30
330
9
100
AcDbSymbolTableRecord
100
AcDbRegAppTableRecord
  2
MCAD_NO_VIS
 70
     0
  0
APPID
  5
31
330
9
100
AcDbSymbolTableRecord
100
AcDbRegAppTableRecord
  2
ACAD_TEMP_GRAPHIC
 70
     0
  0
APPID
  5
2C2
330
9
100
AcDbSymbolTableRecord
100
AcDbRegAppTableRecord
  2
GENIUS_GENDTOL_13
 70
     0
  0
APPID
  5
339
330
9
100
AcDbSymbolTableRecord
100
AcDbRegAppTableRecord
  2
GENIUS_GENODEF_13
 70
     0
  0
APPID
  5
33A
330
9
100
AcDbSymbolTableRecord
100
AcDbRegAppTableRecord
  2
GENIUS_GENOBJ-N-RSBK_13
 70
     0
  0
APPID
  5
33B
330
9
100
AcDbSymbolTableRecord
100
AcDbRegAppTableRecord
  2
GENIUS_GENOBJ-N-LIB_13
 70
     0
  0
APPID
  5
33C
330
9
100
AcDbSymbolTableRecord
100
AcDbRegAppTableRecord
  2
GENIUS_GENSCALE_13
 70
     0
  0
APPID
  5
378
330
9
100
AcDbSymbolTableRecord
100
AcDbRegAppTableRecord
  2
GENIUS_GENDIMSH_14
 70
     0
  0
APPID
  5
C82
330
9
100
AcDbSymbolTableRecord
100
AcDbRegAppTableRecord
  2
GENIUS_GENOBJ-N-CRS_13
 70
     0
  0
APPID
  5
C83
330
9
100
AcDbSymbolTableRecord
100
AcDbRegAppTableRecord
  2
GENIUS_GENOENT_13
 70
     0
  0
APPID
  5
C84
330
9
100
AcDbSymbolTableRecord
100
AcDbRegAppTableRecord
  2
GENIUS_GENOREF_13
 70
     0
  0
APPID
  5
C85
330
9
100
AcDbSymbolTableRecord
100
AcDbRegAppTableRecord
  2
GENIUS_GENOLIS_13
 70
     0
  0
APPID
  5
CA0
330
9
100
AcDbSymbolTableRecord
100
AcDbRegAppTableRecord
  2
GENIUS_GENOBJ-N-CEN_13
 70
     0
  0
APPID
  5
2796
330
9
100
AcDbSymbolTableRecord
100
AcDbRegAppTableRecord
  2
GENIUS_GENFIL_13
 70
     0
  0
APPID
  5
2797
330
9
100
AcDbSymbolTableRecord
100
AcDbRegAppTableRecord
  2
GENIUS_GENOBJ-N-CHA_13
 70
     0
  0
ENDTAB
  0
TABLE
  2
DIMSTYLE
  5
A
330
0
100
AcDbSymbolTable
 70
     9
  0
DIMSTYLE
105
58
330
A
100
AcDbSymbolTableRecord
100
AcDbDimStyleTableRecord
  2
AM_JIS
 70
     0
  3

  4
"
  5
OPEN30
  6

  7

 40
1.0
 41
2.5
 42
1.0
 43
12.0
 44
1.0
 45
0.0
 46
0.0
 47
0.1
 48
0.1
140
3.2
141
0.0
142
0.0
143
0.0393701
144
1.0
145
0.0
146
0.71
147
1.5
 71
     0
 72
     0
 73
     0
 74
     0
 75
     0
 76
     0
 77
     3
 78
     8
170
     0
171
     2
172
     1
173
     0
174
     0
175
     0
176
   256
177
   256
178
     2
270
     2
271
     3
272
     3
273
     2
274
     2
340
6B
275
     0
280
     0
281
     0
282
     0
283
     0
284
     0
285
     0
286
     0
287
     3
288
     0
  0
DIMSTYLE
105
5F
330
A
100
AcDbSymbolTableRecord
100
AcDbDimStyleTableRecord
  2
AM_JIS$3
 70
     0
  3

  4
"
  5
OPEN30
  6

  7

 40
1.0
 41
2.5
 42
1.0
 43
10.0
 44
1.0
 45
0.0
 46
0.0
 47
0.1
 48
0.1
140
3.2
141
0.0
142
0.0
143
0.0393701
144
1.0
145
0.0
146
0.71
147
1.5
 71
     0
 72
     0
 73
     0
 74
     1
 75
     0
 76
     0
 77
     3
 78
     8
170
     0
171
     2
172
     0
173
     0
174
     0
175
     0
176
   256
177
   256
178
     2
270
     2
271
     2
272
     3
273
     2
274
     2
340
6B
275
     0
280
     0
281
     0
282
     0
283
     0
284
     0
285
     0
286
     0
287
     0
288
     1
  0
DIMSTYLE
105
60
330
A
100
AcDbSymbolTableRecord
100
AcDbDimStyleTableRecord
  2
AM_JIS$4
 70
     0
  3

  4
"
  5
OPEN30
  6

  7

 40
1.0
 41
2.5
 42
1.0
 43
10.0
 44
1.0
 45
0.0
 46
0.0
 47
0.1
 48
0.1
140
3.2
141
0.0
142
0.0
143
0.0393701
144
1.0
145
0.0
146
0.71
147
1.5
 71
     0
 72
     0
 73
     0
 74
     1
 75
     0
 76
     0
 77
     3
 78
     8
170
     0
171
     2
172
     0
173
     0
174
     0
175
     0
176
   256
177
   256
178
     2
270
     2
271
     2
272
     3
273
     2
274
     2
340
6B
275
     0
280
     0
281
     0
282
     0
283
     0
284
     0
285
     0
286
     0
287
     0
288
     1
  0
DIMSTYLE
105
61
330
A
100
AcDbSymbolTableRecord
100
AcDbDimStyleTableRecord
  2
AM_JIS$6
 70
     0
  3

  4
"
  5
OPEN30
  6

  7

 40
1.0
 41
2.5
 42
1.0
 43
10.0
 44
1.0
 45
0.0
 46
0.0
 47
0.1
 48
0.1
140
3.2
141
0.0
142
0.0
143
0.0393701
144
1.0
145
0.0
146
0.71
147
1.5
 71
     0
 72
     0
 73
     0
 74
     0
 75
     0
 76
     0
 77
     0
 78
     8
170
     0
171
     2
172
     1
173
     0
174
     0
175
     0
176
   256
177
   256
178
     2
270
     2
271
     2
272
     2
273
     2
274
     2
340
6B
275
     0
280
     0
281
     0
282
     0
283
     0
284
     0
285
     0
286
     0
287
     3
288
     0
  0
DIMSTYLE
105
62
330
A
100
AcDbSymbolTableRecord
100
AcDbDimStyleTableRecord
  2
AM_JIS$7
 70
     0
  3

  4
"
  5
OPEN30
  6

  7

 40
1.0
 41
2.5
 42
1.0
 43
10.0
 44
1.0
 45
0.0
 46
0.0
 47
0.1
 48
0.1
140
3.2
141
0.0
142
0.0
143
0.0393701
144
1.0
145
0.0
146
0.71
147
1.5
 71
     0
 72
     0
 73
     0
 74
     0
 75
     0
 76
     0
 77
     3
 78
     8
170
     0
171
     2
172
     1
173
     0
174
     0
175
     0
176
   256
177
   256
178
     2
270
     2
271
     2
272
     3
273
     2
274
     2
340
6B
275
     0
280
     0
281
     0
282
     0
283
     0
284
     0
285
     0
286
     0
287
     3
288
     0
  0
DIMSTYLE
105
63
330
A
100
AcDbSymbolTableRecord
100
AcDbDimStyleTableRecord
  2
AM_JIS$SF
 70
     0
  3

  4
"
  5
OPEN30
  6

  7

 40
1.0
 41
2.5
 42
1.0
 43
10.0
 44
1.0
 45
0.0
 46
0.0
 47
0.1
 48
0.1
140
3.2
141
0.0
142
0.0
143
0.0393701
144
1.0
145
0.0
146
0.71
147
1.5
 71
     0
 72
     0
 73
     0
 74
     0
 75
     1
 76
     1
 77
     3
 78
     8
170
     0
171
     2
172
     1
173
     0
174
     0
175
     0
176
   256
177
   256
178
     2
270
     2
271
     2
272
     2
273
     2
274
     2
340
6B
275
     0
280
     0
281
     0
282
     0
283
     0
284
     0
285
     0
286
     0
287
     3
288
     0
  0
DIMSTYLE
105
68
330
A
100
AcDbSymbolTableRecord
100
AcDbDimStyleTableRecord
  2
AM_JIS$SH
 70
     0
  3

  4
"
  5

  6
GENAXEH
  7
OPEN30
 40
1.0
 41
2.5
 42
1.0
 43
10.0
 44
1.0
 45
0.0
 46
0.0
 47
0.1
 48
0.1
140
3.2
141
0.0
142
0.0
143
0.0393701
144
2.0
145
0.0
146
0.71
147
1.5
 71
     0
 72
     0
 73
     0
 74
     0
 75
     1
 76
     1
 77
     3
 78
     8
170
     0
171
     2
172
     1
173
     1
174
     0
175
     0
176
   256
177
   256
178
     2
270
     2
271
     2
272
     2
273
     2
274
     2
340
6B
275
     0
280
     0
281
     0
282
     0
283
     0
284
     0
285
     0
286
     0
287
     3
288
     0
  0
DIMSTYLE
105
B34
102
{ACAD_REACTORS
330
3D2F
102
}
330
A
100
AcDbSymbolTableRecord
100
AcDbDimStyleTableRecord
  2
AM_JIS$2
 70
     0
  3

  4
"
  5
OPEN30
  6

  7

 40
1.0
 41
2.5
 42
1.0
 43
12.0
 44
1.0
 45
0.0
 46
0.0
 47
0.1
 48
0.1
140
3.2
141
0.0
142
0.0
143
0.0393701
144
1.0
145
0.0
146
0.71
147
1.5
 71
     0
 72
     0
 73
     0
 74
     0
 75
     0
 76
     0
 77
     3
 78
     8
170
     0
171
     2
172
     1
173
     0
174
     0
175
     0
176
   256
177
   256
178
     2
270
     2
271
     3
272
     3
273
     2
274
     2
340
6B
275
     0
280
     0
281
     0
282
     0
283
     0
284
     0
285
     0
286
     0
287
     3
288
     0
  0
DIMSTYLE
105
BA5
102
{ACAD_REACTORS
330
CC6
330
2069
330
2D60
330
3C5B
102
}
330
A
100
AcDbSymbolTableRecord
100
AcDbDimStyleTableRecord
  2
AM_JIS$0
 70
     0
  3

  4
"
  5
OPEN30
  6

  7

 40
1.0
 41
2.5
 42
0.0
 43
10.0
 44
1.0
 45
0.0
 46
0.0
 47
0.1
 48
0.1000000001
140
3.799999999999999
141
0.0
142
0.0
143
0.0393701
144
1.0
145
0.0
146
0.71
147
1.5
 71
     0
 72
     0
 73
     0
 74
     0
 75
     0
 76
     0
 77
     3
 78
     1
170
     0
171
     2
172
     1
173
     0
174
     0
175
     0
176
     3
177
     3
178
     2
270
     2
271
     2
272
     2
273
     2
274
     2
340
11
275
     1
280
     0
281
     0
282
     0
283
     0
284
     8
285
     0
286
     0
287
     0
288
     0
  0
ENDTAB
  0
TABLE
  2
BLOCK_RECORD
  5
1
330
0
100
AcDbSymbolTable
 70
    10
  0
BLOCK_RECORD
  5
1F
102
{ACAD_XDICTIONARY
360
74
102
}
330
1
100
AcDbSymbolTableRecord
100
AcDbBlockTableRecord
  2
*MODEL_SPACE
  0
BLOCK_RECORD
  5
101
102
{ACAD_XDICTIONARY
360
441C
102
}
330
1
100
AcDbSymbolTableRecord
100
AcDbBlockTableRecord
  2
*PAPER_SPACE
  0
BLOCK_RECORD
  5
59
330
1
100
AcDbSymbolTableRecord
100
AcDbBlockTableRecord
  2
_OPEN30
  0
BLOCK_RECORD
  5
64
330
1
100
AcDbSymbolTableRecord
100
AcDbBlockTableRecord
  2
GENAXEH
  0
BLOCK_RECORD
  5
CC8
330
1
100
AcDbSymbolTableRecord
100
AcDbBlockTableRecord
  2
*D5
  0
BLOCK_RECORD
  5
206A
330
1
100
AcDbSymbolTableRecord
100
AcDbBlockTableRecord
  2
*D6
  0
BLOCK_RECORD
  5
2D61
330
1
100
AcDbSymbolTableRecord
100
AcDbBlockTableRecord
  2
*D7
  0
BLOCK_RECORD
  5
3C5C
330
1
100
AcDbSymbolTableRecord
100
AcDbBlockTableRecord
  2
*D8
  0
BLOCK_RECORD
  5
3D30
330
1
100
AcDbSymbolTableRecord
100
AcDbBlockTableRecord
  2
*D9
  0
ENDTAB
  0
ENDSEC
  0
SECTION
  2
BLOCKS
  0
BLOCK
  5
20
330
1F
100
AcDbEntity
  8
0
100
AcDbBlockBegin
  2
*MODEL_SPACE
 70
     0
 10
0.0
 20
0.0
 30
0.0
  3
*MODEL_SPACE
  1

  0
ENDBLK
  5
21
330
1F
100
AcDbEntity
  8
0
100
AcDbBlockEnd
  0
BLOCK
  5
103
330
101
100
AcDbEntity
 67
     1
  8
0
100
AcDbBlockBegin
  2
*PAPER_SPACE
 70
     0
 10
0.0
 20
0.0
 30
0.0
  3
*PAPER_SPACE
  1

  0
ENDBLK
  5
104
330
101
100
AcDbEntity
 67
     1
  8
0
100
AcDbBlockEnd
  0
BLOCK
  5
5D
330
59
100
AcDbEntity
  8
0
100
AcDbBlockBegin
  2
_OPEN30
 70
     0
 10
0.0
 20
0.0
 30
0.0
  3
_OPEN30
  1

  0
LINE
  5
5A
330
59
100
AcDbEntity
  8
0
 62
     0
100
AcDbLine
 10
-1.0
 20
0.26794919
 30
0.0
 11
0.0
 21
0.0
 31
0.0
  0
LINE
  5
5B
330
59
100
AcDbEntity
  8
0
 62
     0
100
AcDbLine
 10
0.0
 20
0.0
 30
0.0
 11
-1.0
 21
-0.26794919
 31
0.0
  0
LINE
  5
5C
330
59
100
AcDbEntity
  8
0
 62
     0
100
AcDbLine
 10
0.0
 20
0.0
 30
0.0
 11
-1.0
 21
0.0
 31
0.0
  0
ENDBLK
  5
5E
330
59
100
AcDbEntity
  8
0
100
AcDbBlockEnd
  0
BLOCK
  5
66
330
64
100
AcDbEntity
  8
0
100
AcDbBlockBegin
  2
GENAXEH
 70
     0
 10
0.0
 20
0.0
 30
0.0
  3
GENAXEH
  1

  0
LINE
  5
65
330
64
100
AcDbEntity
  8
0
100
AcDbLine
 10
-1.0
 20
0.0
 30
0.0
 11
1.0
 21
0.0
 31
0.0
  0
ENDBLK
  5
67
330
64
100
AcDbEntity
  8
0
100
AcDbBlockEnd
  0
BLOCK
  5
CD2
330
CC8
100
AcDbEntity
  8
0
100
AcDbBlockBegin
  2
*D5
 70
     1
 10
0.0
 20
0.0
 30
0.0
  3
*D5
  1

  0
LINE
  5
43A8
330
CC8
100
AcDbEntity
  8
AM_5
 62
     3
100
AcDbLine
 10
-143.0
 20
-6.749999999999605
 30
0.0
 11
-143.0
 21
-32.50000099999974
 31
0.0
  0
LINE
  5
43A9
330
CC8
100
AcDbEntity
  8
AM_5
 62
     3
100
AcDbLine
 10
-3.00000000000017
 20
-7.400000082497292
 30
0.0
 11
-3.000000000000171
 21
-32.50000099999974
 31
0.0
  0
LINE
  5
43AA
330
CC8
100
AcDbEntity
  8
AM_5
 62
     3
100
AcDbLine
 10
-140.5
 20
-31.50000099999973
 30
0.0
 11
-5.500000000000172
 21
-31.50000099999973
 31
0.0
  0
INSERT
  5
43AB
330
CC8
100
AcDbEntity
  8
AM_5
 62
     3
100
AcDbBlockReference
  2
_OPEN30
 10
-143.0
 20
-31.50000099999973
 30
0.0
 41
2.5
 42
2.5
 43
2.5
 50
180.0
  0
INSERT
  5
43AC
330
CC8
100
AcDbEntity
  8
AM_5
 62
     3
100
AcDbBlockReference
  2
_OPEN30
 10
-3.000000000000171
 20
-31.50000099999973
 30
0.0
 41
2.5
 42
2.5
 43
2.5
  0
MTEXT
  5
43AD
330
CC8
100
AcDbEntity
  8
AM_5
 62
     2
100
AcDbMText
 10
-73.00000000000013
 20
-28.10000099999974
 30
0.0
 40
3.799999999999999
 41
0.0
 71
     5
 72
     1
  1
140
1001
ACAD
1000
MTEXTBEGIN
1070
    73
1070
     1
1070
    44
1040
1.0
1070
    74
1070
     0
1000
MTEXTEND
  0
POINT
  5
43AE
330
CC8
100
AcDbEntity
  8
DEFPOINTS
 62
     0
100
AcDbPoint
 10
-143.0
 20
-6.749999999999605
 30
0.0
  0
POINT
  5
43AF
330
CC8
100
AcDbEntity
  8
DEFPOINTS
 62
     0
100
AcDbPoint
 10
-3.00000000000017
 20
-7.400000082497292
 30
0.0
  0
POINT
  5
43B0
330
CC8
100
AcDbEntity
  8
DEFPOINTS
 62
     0
100
AcDbPoint
 10
-3.000000000000171
 20
-31.50000099999973
 30
0.0
  0
ENDBLK
  5
CD3
330
CC8
100
AcDbEntity
  8
0
100
AcDbBlockEnd
  0
BLOCK
  5
2074
330
206A
100
AcDbEntity
  8
0
100
AcDbBlockBegin
  2
*D6
 70
     1
 10
0.0
 20
0.0
 30
0.0
  3
*D6
  1

  0
LINE
  5
439F
330
206A
100
AcDbEntity
  8
AM_5
 62
     3
100
AcDbLine
 10
-77.99999999999966
 20
-7.499999999999868
 30
0.0
 11
-77.99999999999961
 21
-22.50000099999987
 31
0.0
  0
LINE
  5
43A0
330
206A
100
AcDbEntity
  8
AM_5
 62
     3
100
AcDbLine
 10
-3.000000000000149
 20
-7.400000082497301
 30
0.0
 11
-3.000000000000106
 21
-22.50000099999965
 31
0.0
  0
LINE
  5
43A1
330
206A
100
AcDbEntity
  8
AM_5
 62
     3
100
AcDbLine
 10
-75.49999999999963
 20
-21.50000099999986
 30
0.0
 11
-5.500000000000109
 21
-21.50000099999966
 31
0.0
  0
INSERT
  5
43A2
330
206A
100
AcDbEntity
  8
AM_5
 62
     3
100
AcDbBlockReference
  2
_OPEN30
 10
-77.99999999999963
 20
-21.50000099999987
 30
0.0
 41
2.5
 42
2.5
 43
2.5
 50
180.0000000000001
  0
INSERT
  5
43A3
330
206A
100
AcDbEntity
  8
AM_5
 62
     3
100
AcDbBlockReference
  2
_OPEN30
 10
-3.000000000000108
 20
-21.50000099999965
 30
0.0
 41
2.5
 42
2.5
 43
2.5
 50
0.0000000000001527
  0
MTEXT
  5
43A4
330
206A
100
AcDbEntity
  8
AM_5
 62
     2
100
AcDbMText
 10
-40.49999999999988
 20
-18.10000099999976
 30
0.0
 40
3.799999999999999
 41
0.0
 71
     5
 72
     1
  1
75
1001
ACAD
1000
MTEXTBEGIN
1070
    73
1070
     1
1070
    44
1040
1.0
1070
    74
1070
     0
1000
MTEXTEND
  0
POINT
  5
43A5
330
206A
100
AcDbEntity
  8
DEFPOINTS
 62
     0
100
AcDbPoint
 10
-77.99999999999968
 20
-7.499999999999641
 30
0.0
  0
POINT
  5
43A6
330
206A
100
AcDbEntity
  8
DEFPOINTS
 62
     0
100
AcDbPoint
 10
-3.00000000000017
 20
-7.400000082497292
 30
0.0
  0
POINT
  5
43A7
330
206A
100
AcDbEntity
  8
DEFPOINTS
 62
     0
100
AcDbPoint
 10
-3.000000000000171
 20
-21.50000099999964
 30
0.0
  0
ENDBLK
  5
2075
330
206A
100
AcDbEntity
  8
0
100
AcDbBlockEnd
  0
BLOCK
  5
2D6B
330
2D61
100
AcDbEntity
  8
0
100
AcDbBlockBegin
  2
*D7
 70
     1
 10
0.0
 20
0.0
 30
0.0
  3
*D7
  1

  0
LINE
  5
43C5
330
2D61
100
AcDbEntity
  8
AM_5
 62
     3
100
AcDbLine
 10
-2.999999999999944
 20
7.399999999999804
 30
0.0
 11
17.31992700607336
 21
7.399928673890915
 31
0.0
  0
LINE
  5
43C6
330
2D61
100
AcDbEntity
  8
AM_5
 62
     3
100
AcDbLine
 10
-3.000000000000169
 20
-7.400000082497296
 30
0.0
 11
17.31987505576777
 21
-7.400071408423831
 31
0.0
  0
LINE
  5
43C7
330
2D61
100
AcDbEntity
  8
AM_5
 62
     3
100
AcDbLine
 10
16.31986628038453
 20
-9.900067898252666
 30
0.0
 11
16.31985750499512
 21
-12.40006789823726
 31
0.0
  0
LINE
  5
43C8
330
2D61
100
AcDbEntity
  8
AM_5
 62
     3
100
AcDbLine
 10
16.31993578146892
 20
9.899932184031277
 30
0.0
 11
16.32000526583801
 21
29.69517027914742
 31
0.0
  0
LINE
  5
43C9
330
2D61
100
AcDbEntity
  8
AM_5
 62
     3
100
AcDbLine
 10
16.31987505577393
 20
-7.400067898268067
 30
0.0
 11
16.31992700607952
 21
7.399932184046678
 31
0.0
  0
INSERT
  5
43CA
330
2D61
100
AcDbEntity
  8
AM_5
 62
     3
100
AcDbBlockReference
  2
_OPEN30
 10
16.31987505577393
 20
-7.400067898268067
 30
0.0
 41
2.5
 42
2.5
 43
2.5
 50
89.99979888288931
  0
INSERT
  5
43CB
330
2D61
100
AcDbEntity
  8
AM_5
 62
     3
100
AcDbBlockReference
  2
_OPEN30
 10
16.31992700607952
 20
7.399932184046678
 30
0.0
 41
2.5
 42
2.5
 43
2.5
 50
269.9997988828893
  0
MTEXT
  5
43CC
330
2D61
100
AcDbEntity
  8
AM_5
 62
     2
100
AcDbMText
 10
12.91997491136912
 20
21.04756316611124
 30
0.0
 40
3.799999999999999
 41
0.0
 71
     5
 72
     1
  1
%%c14.8
 11
0.0000035101557632
 21
0.9999999999938395
 31
0.0
1001
ACAD
1000
MTEXTBEGIN
1070
    73
1070
     1
1070
    44
1040
1.0
1070
    74
1070
     0
1000
MTEXTEND
  0
POINT
  5
43CD
330
2D61
100
AcDbEntity
  8
DEFPOINTS
 62
     0
100
AcDbPoint
 10
-2.999999999999923
 20
7.399999999999813
 30
0.0
  0
POINT
  5
43CE
330
2D61
100
AcDbEntity
  8
DEFPOINTS
 62
     0
100
AcDbPoint
 10
-3.00000000000019
 20
-7.400000082497288
 30
0.0
  0
POINT
  5
43CF
330
2D61
100
AcDbEntity
  8
DEFPOINTS
 62
     0
100
AcDbPoint
 10
16.31987505577392
 20
-7.400067898268115
 30
0.0
  0
ENDBLK
  5
2D6C
330
2D61
100
AcDbEntity
  8
0
100
AcDbBlockEnd
  0
BLOCK
  5
3C66
330
3C5C
100
AcDbEntity
  8
0
100
AcDbBlockBegin
  2
*D8
 70
     1
 10
0.0
 20
0.0
 30
0.0
  3
*D8
  1

  0
LINE
  5
43B1
330
3C5C
100
AcDbEntity
  8
AM_5
 62
     3
100
AcDbLine
 10
-142.25
 20
7.499999999999936
 30
0.0
 11
-160.500001
 21
7.499999999999883
 31
0.0
  0
LINE
  5
43B2
330
3C5C
100
AcDbEntity
  8
AM_5
 62
     3
100
AcDbLine
 10
-142.25
 20
-7.500000000000062
 30
0.0
 11
-160.5000009999999
 21
-7.500000000000114
 31
0.0
  0
LINE
  5
43B3
330
3C5C
100
AcDbEntity
  8
AM_5
 62
     3
100
AcDbLine
 10
-159.500001
 20
4.999999999999887
 30
0.0
 11
-159.5000009999999
 21
-5.000000000000111
 31
0.0
  0
INSERT
  5
43B4
330
3C5C
100
AcDbEntity
  8
AM_5
 62
     3
100
AcDbBlockReference
  2
_OPEN30
 10
-159.500001
 20
7.499999999999887
 30
0.0
 41
2.5
 42
2.5
 43
2.5
 50
90.00000000000017
  0
INSERT
  5
43B5
330
3C5C
100
AcDbEntity
  8
AM_5
 62
     3
100
AcDbBlockReference
  2
_OPEN30
 10
-159.5000009999999
 20
-7.500000000000111
 30
0.0
 41
2.5
 42
2.5
 43
2.5
 50
270.0000000000001
  0
MTEXT
  5
43B6
330
3C5C
100
AcDbEntity
  8
AM_5
 62
     2
100
AcDbMText
 10
-162.900001
 20
-0.0000000000001156
 30
0.0
 40
3.799999999999999
 41
0.0
 71
     5
 72
     1
  1
%%c15
 11
-0.0000000000000028
 21
1.0
 31
0.0
1001
ACAD
1000
MTEXTBEGIN
1070
    73
1070
     1
1070
    44
1040
1.0
1070
    74
1070
     0
1000
MTEXTEND
  0
POINT
  5
43B7
330
3C5C
100
AcDbEntity
  8
DEFPOINTS
 62
     0
100
AcDbPoint
 10
-142.25
 20
7.500000000000378
 30
0.0
  0
POINT
  5
43B8
330
3C5C
100
AcDbEntity
  8
DEFPOINTS
 62
     0
100
AcDbPoint
 10
-142.25
 20
-7.499999999999619
 30
0.0
  0
POINT
  5
43B9
330
3C5C
100
AcDbEntity
  8
DEFPOINTS
 62
     0
100
AcDbPoint
 10
-159.500001
 20
-7.499999999999615
 30
0.0
  0
ENDBLK
  5
3C67
330
3C5C
100
AcDbEntity
  8
0
100
AcDbBlockEnd
  0
BLOCK
  5
3D3E
330
3D30
100
AcDbEntity
  8
0
100
AcDbBlockBegin
  2
*D9
 70
     1
 10
0.0
 20
0.0
 30
0.0
  3
*D9
  1

  0
LINE
  5
441E
330
3D30
100
AcDbEntity
  8
AM_5
100
AcDbLine
 10
0.342020140816062
 20
-0.9396926216995266
 30
0.0
 11
13.03386793079077
 21
-35.81025812556334
 31
0.0
  0
LINE
  5
441F
330
3D30
100
AcDbEntity
  8
AM_5
100
AcDbLine
 10
0.3420222223658895
 20
0.9396918640743134
 30
0.0
 11
13.03394725549217
 21
35.81022925363351
 31
0.0
  0
ARC
  5
4420
330
3D30
100
AcDbEntity
  8
AM_5
100
AcDbCircle
 10
-0.0000000000000783
 20
-0.0000000000002151
 30
0.0
 40
37.10848068680721
100
AcDbArc
 50
293.8607494244157
 51
66.13912365741406
  0
INSERT
  5
4421
330
3D30
100
AcDbEntity
  8
AM_5
100
AcDbBlockReference
  2
_OPEN30
 10
12.69184778997463
 20
-34.87056550386403
 30
0.0
 41
2.5
 42
2.5
 43
2.5
 50
201.9303746357011
  0
INSERT
  5
4422
330
3D30
100
AcDbEntity
  8
AM_5
100
AcDbBlockReference
  2
_OPEN30
 10
12.69192503312621
 20
34.87053738955899
 30
0.0
 41
2.5
 42
2.5
 43
2.5
 50
158.0694984461286
  0
MTEXT
  5
4423
330
3D30
100
AcDbEntity
  8
AM_5
 62
     2
100
AcDbMText
 10
34.00848068678627
 20
-0.0000376667723445
 30
0.0
 40
3.2
 41
0.0
 71
     5
 72
     1
  1
140°
  7
ASAMI
 11
0.0000011075699751
 21
0.9999999999993868
 31
0.0
  0
POINT
  5
4424
330
3D30
100
AcDbEntity
  8
DEFPOINTS
 62
     0
100
AcDbPoint
 10
34.07359380273979
 20
-14.69794353809531
 30
0.0
  0
POINT
  5
4425
330
3D30
100
AcDbEntity
  8
DEFPOINTS
 62
     0
100
AcDbPoint
 10
-0.0000000000000753
 20
-0.0000000000002068
 30
0.0
  0
POINT
  5
4426
330
3D30
100
AcDbEntity
  8
DEFPOINTS
 62
     0
100
AcDbPoint
 10
-0.0000000000000753
 20
-0.0000000000002234
 30
0.0
  0
POINT
  5
4427
330
3D30
100
AcDbEntity
  8
DEFPOINTS
 62
     0
100
AcDbPoint
 10
-0.8779186122630958
 20
2.412061583354156
 30
0.0
  0
POINT
  5
4428
330
3D30
100
AcDbEntity
  8
DEFPOINTS
 62
     0
100
AcDbPoint
 10
-0.8779361609658991
 20
-2.412093173155647
 30
0.0
  0
ENDBLK
  5
3D3F
330
3D30
100
AcDbEntity
  8
0
100
AcDbBlockEnd
  0
ENDSEC
  0
SECTION
  2
ENTITIES
  0
LINE
  5
C1D
330
1F
100
AcDbEntity
  8
AM_0
 48
0.5
100
AcDbLine
 10
-0.0000000000000753
 20
-0.0000000000002234
 30
0.0
 11
-0.8779186122630957
 21
2.412061583354156
 31
0.0
  0
LINE
  5
C20
330
1F
100
AcDbEntity
  8
AM_0
 48
0.5
100
AcDbLine
 10
-0.0000000000000753
 20
-0.0000000000002068
 30
0.0
 11
-0.8779361609658991
 21
-2.412093173155646
 31
0.0
  0
DIMENSION
  5
CC6
330
1F
100
AcDbEntity
  8
AM_5
100
AcDbDimension
  2
*D5
 10
-3.000000000000171
 20
-31.50000099999973
 30
0.0
 11
-73.00000000000013
 21
-28.10000099999974
 31
0.0
 70
    32
  1
<>
  3
AM_JIS$0
100
AcDbAlignedDimension
 13
-143.0
 23
-6.749999999999605
 33
0.0
 14
-3.00000000000017
 24
-7.400000082497292
 34
0.0
 50
0.0000000000001132
100
AcDbRotatedDimension
1001
GENIUS_GENDTOL_13
1000

1000
h7
1000

1040
0.0
1001
ACAD
1000
DSTYLE
1002
{
1070
   271
1070
     0
1002
}
  0
TEXT
  5
19BD
330
1F
100
AcDbEntity
  8
AM_6
100
AcDbText
 10
-95.02380953825555
 20
-54.00000099999979
 30
0.0
 40
5.0
  1
MDW148MHK
 50
0.0000000000001527
 72
     4
 11
-73.00000001444605
 21
-51.50000099999973
 31
0.0
100
AcDbText
  0
DIMENSION
  5
2069
330
1F
100
AcDbEntity
  8
AM_5
100
AcDbDimension
  2
*D6
 10
-3.000000000000171
 20
-21.50000099999964
 30
0.0
 11
-40.49999999999992
 21
-18.10000099999964
 31
0.0
 70
    32
  1
<>
 51
359.9999999999998
  3
AM_JIS$0
100
AcDbAlignedDimension
 13
-77.99999999999968
 23
-7.499999999999641
 33
0.0
 14
-3.00000000000017
 24
-7.400000082497292
 34
0.0
 50
0.0000000000001527
100
AcDbRotatedDimension
1001
ACAD
1000
DSTYLE
1002
{
1070
   271
1070
     0
1070
   174
1070
     1
1002
}
1001
GENIUS_GENDTOL_13
1000

1000
h7
1000

1040
0.0
  0
LINE
  5
23EF
330
1F
100
AcDbEntity
  8
AM_7
100
AcDbLine
 10
-145.5
 20
0.0000000000003986
 30
0.0
 11
1.319900031072474
 21
-0.0000000000002114
 31
0.0
1001
GENIUS_GENODEF_13
1002
{
1000
HIER
1070
     0
1002
}
1002
{
1000
MANEDIT
1070
     0
1002
}
1002
{
1000
NOSEL
1070
     0
1002
}
1002
{
1000
BEHIND
1070
     0
1002
}
1002
{
1000
REACTOR
1002
}
1001
GENIUS_GENOBJ-N-CEN_13
1002
{
1000
OWNER
1000
GEN
1002
}
  0
LINE
  5
24A7
330
1F
100
AcDbEntity
  8
AM_0
 48
0.5
100
AcDbLine
 10
-2.190873760329959
 20
5.637994789760709
 30
0.0
 11
-2.999999999999922
 21
7.399999999999812
 31
0.0
  0
ELLIPSE
  5
24B7
330
1F
100
AcDbEntity
  8
AM_11
 48
0.5
100
AcDbEllipse
 10
-21.92810796254739
 20
27.40527019869858
 30
0.0
 11
-31.63261651992755
 21
0.0000000000002407
 31
0.0
210
0.0
220
0.0
230
1.0
 40
0.9578947368421056
 41
1.130070686340284
 42
2.011520147323574
  0
ELLIPSE
  5
24B8
330
1F
100
AcDbEntity
  8
AM_11
 48
0.5
100
AcDbEllipse
 10
-21.92810796254889
 20
-27.40526393174441
 30
0.0
 11
-31.6326165199275
 21
0.0000000000001424
 31
0.0
210
0.0
220
0.0
230
1.0
 40
0.9578947368421054
 41
4.271664206181664
 42
5.153113667164971
  0
ELLIPSE
  5
24B9
330
1F
100
AcDbEntity
  8
AM_11
 48
0.5
100
AcDbEllipse
 10
5.060528401088999
 20
27.40527019869787
 30
0.0
 11
-31.63261651992747
 21
0.0000000000024743
 31
0.0
210
0.0
220
0.0
230
1.0
 40
0.9578947368421141
 41
1.130070686340349
 42
1.291800737381041
  0
ELLIPSE
  5
24BE
330
1F
100
AcDbEntity
  8
AM_0
 48
0.5
100
AcDbEllipse
 10
6.918623594257095
 20
7.342926428847908
 30
0.0
 11
-4.440095187034224
 21
8.904787688231298
 31
0.0
210
0.0
220
0.0
230
1.0
 40
0.9264225005910461
 41
1.312765717361252
 42
1.664773036319176
  0
ELLIPSE
  5
24C7
330
1F
100
AcDbEntity
  8
AM_11
 48
0.5
100
AcDbEllipse
 10
-102.8940170534488
 20
27.40527019870065
 30
0.0
 11
-31.63261651992755
 21
0.0000000000007043
 31
0.0
210
0.0
220
0.0
230
1.0
 40
0.9578947368421056
 41
1.130070686340301
 42
2.011520147323591
  0
ELLIPSE
  5
24C8
330
1F
100
AcDbEntity
  8
AM_11
 48
0.5
100
AcDbEllipse
 10
-102.8940170534504
 20
-27.40526393174235
 30
0.0
 11
31.6326165199275
 21
0.0000000000005287
 31
0.0
210
0.0
220
0.0
230
1.0
 40
0.957894736842107
 41
1.13007155259185
 42
2.011521013575156
  0
ELLIPSE
  5
24D4
330
1F
100
AcDbEntity
  8
AM_11
 48
0.5
100
AcDbEllipse
 10
-75.90538068981253
 20
27.40527019869999
 30
0.0
 11
-31.63261651992759
 21
0.0000000000001846
 31
0.0
210
0.0
220
0.0
230
1.0
 40
0.9578947368421051
 41
1.130070686340283
 42
2.011520147323574
  0
ELLIPSE
  5
24D5
330
1F
100
AcDbEntity
  8
AM_11
 48
0.5
100
AcDbEllipse
 10
-75.90538068981405
 20
-27.40526393174301
 30
0.0
 11
-31.63261651992745
 21
0.0000000000005709
 31
0.0
210
0.0
220
0.0
230
1.0
 40
0.9578947368421081
 41
4.271664206181676
 42
5.153113667164986
  0
ELLIPSE
  5
24E6
330
1F
100
AcDbEntity
  8
AM_11
 48
0.5
100
AcDbEllipse
 10
-48.91674432618525
 20
-27.40526393174373
 30
0.0
 11
-31.63261651992749
 21
0.0000000000008588
 31
0.0
210
0.0
220
0.0
230
1.0
 40
0.9578947368421058
 41
4.271664206181685
 42
5.153113667164993
  0
ELLIPSE
  5
24E7
330
1F
100
AcDbEntity
  8
AM_11
 48
0.5
100
AcDbEllipse
 10
-48.91674432618374
 20
27.40527019869928
 30
0.0
 11
31.63261651992755
 21
0.0000000000000511
 31
0.0
210
0.0
220
0.0
230
1.0
 40
0.9578947368421051
 41
4.271663339930067
 42
5.153112800913361
  0
ELLIPSE
  5
2BF3
330
1F
100
AcDbEntity
  8
AM_11
 48
0.5
100
AcDbEllipse
 10
-129.8826534170741
 20
27.40527019869981
 30
0.0
 11
-31.63261651992759
 21
0.0000000000001846
 31
0.0
210
0.0
220
0.0
230
1.0
 40
0.9578947368421051
 41
1.143207534912555
 42
2.011520147323574
  0
ELLIPSE
  5
2BF5
330
1F
100
AcDbEntity
  8
AM_11
 48
0.5
100
AcDbEllipse
 10
-129.8826534170756
 20
-27.40526393174319
 30
0.0
 11
-31.63261651992745
 21
0.0000000000005709
 31
0.0
210
0.0
220
0.0
230
1.0
 40
0.9578947368421081
 41
4.271664206181676
 42
5.139977772267003
  0
LINE
  5
2C0E
330
1F
100
AcDbEntity
  8
AM_0
 48
0.5
100
AcDbLine
 10
-78.00000000000006
 20
-7.499999999999642
 30
0.0
 11
-78.00000000000006
 21
7.500000000000355
 31
0.0
  0
DIMENSION
  5
2D60
330
1F
100
AcDbEntity
  8
AM_5
100
AcDbDimension
  2
*D7
 10
16.31987505577392
 20
-7.400067898268115
 30
0.0
 11
16.31997491134823
 21
21.0475512315816
 31
0.0
 70
   160
  1
%%c<>
 51
359.9999999999998
  3
AM_JIS$0
100
AcDbAlignedDimension
 13
-2.999999999999922
 23
7.399999999999812
 33
0.0
 14
-3.00000000000019
 24
-7.400000082497286
 34
0.0
 50
89.99979888288933
100
AcDbRotatedDimension
1001
ACAD
1000
DSTYLE
1002
{
1070
   271
1070
     1
1002
}
1001
GENIUS_GENDTOL_13
1000

1000
h7
1000

1040
0.0
  0
LINE
  5
2FB7
330
1F
100
AcDbEntity
  8
AM_0
100
AcDbLine
 10
-78.00000000000006
 20
7.500000000000333
 30
0.0
 11
-77.82684162304807
 21
7.40002696445466
 31
0.0
  0
LINE
  5
2FB9
330
1F
100
AcDbEntity
  8
AM_0
100
AcDbLine
 10
-78.00000000000003
 20
-7.499999999999844
 30
0.0
 11
-77.82679436377424
 21
-7.399999679299714
 31
0.0
  0
LINE
  5
324C
330
1F
100
AcDbEntity
  8
AM_0
100
AcDbLine
 10
-142.2500000000001
 20
-7.499999999999619
 30
0.0
 11
-78.00000000000004
 21
-7.499999999999641
 31
0.0
  0
LINE
  5
325C
330
1F
100
AcDbEntity
  8
AM_0
 48
0.5
100
AcDbLine
 10
-142.25
 20
-7.499999999999651
 30
0.0
 11
-142.25
 21
7.500000000000385
 31
0.0
  0
LINE
  5
325D
330
1F
100
AcDbEntity
  8
AM_0
 48
0.5
100
AcDbLine
 10
-143.0
 20
-6.749999999999605
 30
0.0
 11
-143.0
 21
6.750000000000373
 31
0.0
  0
LINE
  5
325E
330
1F
100
AcDbEntity
  8
AM_0
100
AcDbLine
 10
-78.00000000000006
 20
7.500000000000355
 30
0.0
 11
-142.25
 21
7.500000000000378
 31
0.0
  0
LINE
  5
3921
330
1F
100
AcDbEntity
  8
AM_0
 48
0.5
100
AcDbLine
 10
-142.25
 20
7.500000000000378
 30
0.0
 11
-143.0
 21
6.750000000000379
 31
0.0
1001
GENIUS_GENFIL_13
1070
     0
1040
0.75
1040
0.75
1040
20.0
1040
0.0
1002
{
1002
}
1001
GENIUS_GENODEF_13
1002
{
1000
HIER
1070
     0
1002
}
1002
{
1000
MANEDIT
1070
     0
1002
}
1002
{
1000
NOSEL
1070
     0
1002
}
1002
{
1000
BEHIND
1070
     0
1002
}
1002
{
1000
REACTOR
1002
}
1001
GENIUS_GENOBJ-N-CHA_13
1002
{
1000
OWNER
1000
GEN
1002
}
  0
LINE
  5
3924
330
1F
100
AcDbEntity
  8
AM_0
100
AcDbLine
 10
-143.0
 20
-6.749999999999618
 30
0.0
 11
-142.2500000000001
 21
-7.499999999999619
 31
0.0
1001
GENIUS_GENFIL_13
1070
     0
1040
0.75
1040
0.75
1040
20.0
1040
0.0
1002
{
1002
}
1001
GENIUS_GENODEF_13
1002
{
1000
HIER
1070
     0
1002
}
1002
{
1000
MANEDIT
1070
     0
1002
}
1002
{
1000
NOSEL
1070
     0
1002
}
1002
{
1000
BEHIND
1070
     0
1002
}
1002
{
1000
REACTOR
1002
}
1001
GENIUS_GENOBJ-N-CHA_13
1002
{
1000
OWNER
1000
GEN
1002
}
  0
ELLIPSE
  5
3976
330
1F
100
AcDbEntity
  8
AM_0
 48
0.5
100
AcDbEllipse
 10
6.918623594257795
 20
-7.342926428847806
 30
0.0
 11
-4.440095187033376
 21
-8.904787688231721
 31
0.0
210
0.0
220
0.0
230
-1.0
 40
0.9264225005910461
 41
1.312765717361252
 42
1.664773036319176
  0
LINE
  5
3977
330
1F
100
AcDbEntity
  8
AM_0
 48
0.5
100
AcDbLine
 10
-2.190873760329422
 20
-5.637994789761474
 30
0.0
 11
-3.00000000000019
 21
-7.400000082497286
 31
0.0
  0
DIMENSION
  5
3C5B
330
1F
100
AcDbEntity
  8
AM_5
100
AcDbDimension
  2
*D8
 10
-159.500001
 20
-7.499999999999615
 30
0.0
 11
-162.900001
 21
0.0000000000003583
 31
0.0
 70
    32
  1
%%c<>
 51
359.9999999999998
  3
AM_JIS$0
100
AcDbAlignedDimension
 13
-142.25
 23
7.500000000000378
 33
0.0
 14
-142.25
 24
-7.499999999999619
 34
0.0
 50
270.0
100
AcDbRotatedDimension
1001
ACAD
1000
DSTYLE
1002
{
1070
   271
1070
     0
1002
}
1001
GENIUS_GENDTOL_13
1000

1000
h7
1000

1040
0.0
  0
DIMENSION
  5
3D2F
330
1F
100
AcDbEntity
  8
AM_5
100
AcDbDimension
  2
*D9
 10
-0.8779361609658991
 20
-2.412093173155646
 30
0.0
 11
34.00848068678627
 21
-0.0000376667724451
 31
0.0
 70
    34
  1
<>
 51
359.9999999999998
  3
AM_JIS$2
100
AcDb2LineAngularDimension
 13
-0.0000000000000753
 23
-0.0000000000002234
 33
0.0
 14
-0.8779186122630957
 24
2.412061583354156
 34
0.0
 15
-0.0000000000000753
 25
-0.0000000000002068
 35
0.0
 16
34.07359380273979
 26
-14.69794353809531
 36
0.0
1001
GENIUS_GENDTOL_13
1000

1000
h7
1000

1040
0.0
1001
ACAD
1000
DSTYLE
1002
{
1070
   271
1070
     0
1002
}
  0
LINE
  5
4328
330
1F
100
AcDbEntity
  8
AM_0
100
AcDbLine
 10
-77.82688248473714
 20
-5.330607428268923
 30
0.0
 11
-77.8268891269183
 21
-7.400007449381576
 31
0.0
  0
LINE
  5
4329
330
1F
100
AcDbEntity
  8
AM_0
 48
0.5
100
AcDbLine
 10
-77.82679436377424
 20
-7.399999679299714
 30
0.0
 11
-75.12017792748206
 21
-7.399999949407171
 31
0.0
  0
ELLIPSE
  5
432A
330
1F
100
AcDbEntity
  8
AM_0
 48
0.5
100
AcDbEllipse
 10
-75.92993771280617
 20
-4.473523463128309
 30
0.0
 11
1.720118899744151
 21
1.404556891243955
 31
0.0
210
0.0
220
0.0
230
1.0
 40
0.8308034261787142
 41
0.626717511240666
 42
2.454963693502468
  0
ELLIPSE
  5
432B
330
1F
100
AcDbEntity
  8
AM_0
 48
0.5
100
AcDbEllipse
 10
-75.54100593489387
 20
-4.643119628623135
 30
0.0
 11
-1.363122911515031
 21
2.514857019962437
 31
0.0
210
0.0
220
0.0
230
1.0
 40
0.8290694585955
 41
1.152350136378108
 42
2.732316172540691
  0
SPLINE
  5
432C
330
1F
100
AcDbEntity
  8
AM_0
 48
0.5
100
AcDbSpline
210
0.0
220
0.0
230
1.0
 70
     8
 71
     3
 72
    26
 73
    22
 74
     0
 42
0.0000000001
 43
0.0000000001
 40
0.0
 40
0.0
 40
0.0
 40
0.0
 40
0.8422864037471089
 40
1.685694647057321
 40
2.531315797913884
 40
3.380177287502886
 40
4.233214169721234
 40
5.09125020057522
 40
5.954967768899448
 40
6.824900391836836
 40
7.701419186604396
 40
8.584724417931369
 40
9.47485577056355
 40
10.37165251267315
 40
11.27486274211709
 40
12.18400675634887
 40
13.09851504074504
 40
14.01768673654235
 40
14.94071745659532
 40
15.8667176994736
 40
16.76607142455336
 40
16.76607142455336
 40
16.76607142455336
 40
16.76607142455336
 10
-51.98549025399413
 20
-7.400376383462034
 30
0.0
 10
-52.39878881850294
 20
-7.395973562929839
 30
0.0
 10
-53.22593641904536
 20
-7.387162057757647
 30
0.0
 10
-54.46635680418357
 20
-7.316131427933638
 30
0.0
 10
-55.70672424405316
 20
-7.20321129737955
 30
0.0
 10
-56.94701490377866
 20
-7.044949382921301
 30
0.0
 10
-58.1872164718408
 20
-6.843490685751063
 30
0.0
 10
-59.42730423861339
 20
-6.599730122764856
 30
0.0
 10
-60.66727737912128
 20
-6.315314634905922
 30
0.0
 10
-61.90712743677488
 20
-5.991971618604413
 30
0.0
 10
-63.14685148044867
 20
-5.631707363251871
 30
0.0
 10
-64.3864597131178
 20
-5.236764183539291
 30
0.0
 10
-65.62594699825059
 20
-4.809580726297722
 30
0.0
 10
-66.86532737958707
 20
-4.352777440784158
 30
0.0
 10
-68.10461742849693
 20
-3.869216603752072
 30
0.0
 10
-69.34381982262064
 20
-3.361831619854185
 30
0.0
 10
-70.58294379956085
 20
-2.833774755853028
 30
0.0
 10
-71.82201211437116
 20
-2.288304008591247
 30
0.0
 10
-73.06100429007256
 20
-1.72870442737028
 30
0.0
 10
-74.2872693242697
 20
-1.164571135057075
 30
0.0
 10
-75.09971604631449
 20
-0.7855824321186801
 30
0.0
 10
-78.00000000000006
 20
0.5578755415096856
 30
0.0
  0
LINE
  5
432D
330
1F
100
AcDbEntity
  8
AM_0
100
AcDbLine
 10
-77.82686384181618
 20
0.4776745153633306
 30
0.0
 11
-77.82687820187771
 21
-3.996264214327178
 31
0.0
  0
LINE
  5
432E
330
1F
100
AcDbEntity
  8
AM_0
100
AcDbLine
 10
-77.82684162304807
 20
7.400026964454662
 30
0.0
 11
-77.82686343467798
 21
0.6045201678108684
 31
0.0
  0
LINE
  5
432F
330
1F
100
AcDbEntity
  8
AM_0
 48
0.5
100
AcDbLine
 10
-74.25344965496001
 20
7.400000000000978
 30
0.0
 11
-77.82684162304807
 21
7.400026964454661
 31
0.0
  0
LINE
  5
4330
330
1F
100
AcDbEntity
  8
AM_0
 48
0.5
100
AcDbLine
 10
-63.34876049265088
 20
4.505057873549705
 30
0.0
 11
-78.00000000000006
 21
0.5578755415096911
 31
0.0
  0
LINE
  5
4331
330
1F
100
AcDbEntity
  8
AM_0
 48
0.5
100
AcDbLine
 10
-8.09501950364006
 20
7.400000000000063
 30
0.0
 11
-2.999999999999922
 21
7.399999999999812
 31
0.0
  0
LINE
  5
4332
330
1F
100
AcDbEntity
  8
AM_0
 48
0.5
100
AcDbLine
 10
-8.09501950199478
 20
-7.399999234842482
 30
0.0
 11
-3.00000000000019
 21
-7.400000082497286
 31
0.0
  0
LINE
  5
4333
330
1F
100
AcDbEntity
  8
AM_0
 48
0.5
100
AcDbLine
 10
-0.0000000000000933
 20
-0.0000000000001744
 30
0.0
 11
-4.78235425352434
 21
2.84137598895242
 31
0.0
  0
LINE
  5
4334
330
1F
100
AcDbEntity
  8
AM_0
 48
0.5
100
AcDbLine
 10
-57.67983091174446
 20
7.400000765159816
 30
0.0
 11
-31.46134542701429
 21
7.400000000001145
 31
0.0
  0
LINE
  5
4335
330
1F
100
AcDbEntity
  8
AM_0
 48
0.5
100
AcDbLine
 10
-56.50912392460495
 20
-7.399999234840525
 30
0.0
 11
-31.46135037969022
 21
-7.399999999999692
 31
0.0
  0
LINE
  5
4336
330
1F
100
AcDbEntity
  8
AM_11
 48
0.5
100
AcDbLine
 10
-31.46135037969022
 20
-7.399999999999692
 30
0.0
 11
-8.09501950199478
 21
-7.399999234842482
 31
0.0
  0
LINE
  5
4337
330
1F
100
AcDbEntity
  8
AM_11
 48
0.5
100
AcDbLine
 10
-31.46134542701429
 20
7.400000000001145
 30
0.0
 11
-8.09501950364006
 21
7.400000000000064
 31
0.0
  0
SPLINE
  5
4338
330
1F
100
AcDbEntity
  8
AM_0
100
AcDbSpline
210
0.0
220
0.0
230
1.0
 70
     8
 71
     3
 72
    22
 73
    18
 74
     0
 42
0.0000000001
 43
0.0000000001
 40
17.17441611292
 40
17.17441611292
 40
17.17441611292
 40
17.17441611292
 40
17.38177636558528
 40
18.41823744757437
 40
19.46215659509824
 40
20.51397914882054
 40
21.57394542641293
 40
22.64209583141747
 40
23.71826625065247
 40
24.80210429862395
 40
25.8930771157021
 40
26.99048705697709
 40
28.09349309193389
 40
29.20112995599786
 40
30.31233024745139
 40
31.42594771747373
 40
32.5407895042663
 40
32.54078950426994
 40
32.54078950426994
 40
32.54078950426994
 10
-36.19575524975427
 20
-6.64525279344422
 30
0.0
 10
-36.27881556536772
 20
-6.628122519249317
 30
0.0
 10
-36.77671679558985
 20
-6.523780146743016
 30
0.0
 10
-37.6888437927342
 20
-6.314560109405744
 30
0.0
 10
-38.92869394870738
 20
-5.99121847422925
 30
0.0
 10
-40.16841776655224
 20
-5.630953278599001
 30
0.0
 10
-41.40802399864945
 20
-5.236013387195005
 30
0.0
 10
-42.64751100756537
 20
-4.808820365477531
 30
0.0
 10
-43.88689404994785
 20
-4.352032833024307
 30
0.0
 10
-45.12617886448867
 20
-3.868458059038078
 30
0.0
 10
-46.36537691751941
 20
-3.361078222653197
 30
0.0
 10
-47.60450198813667
 20
-2.833023536080402
 30
0.0
 10
-48.84356483119855
 20
-2.2875410235562
 30
0.0
 10
-50.08257791987568
 20
-1.727986585673103
 30
0.0
 10
-51.32155223694073
 20
-1.157800848844899
 30
0.0
 10
-52.56050613672085
 20
-0.5805021672577646
 30
0.0
 10
-53.38631327536531
 20
-0.1933201872500648
 30
0.0
 10
-53.79944369985394
 20
0.0003771486241245
 30
0.0
  0
SPLINE
  5
4339
330
1F
100
AcDbEntity
  8
AM_0
100
AcDbSpline
210
0.0
220
0.0
230
1.0
 70
     8
 71
     3
 72
    17
 73
    13
 74
     0
 42
0.0000000001
 43
0.0000000001
 40
1.580019955310467
 40
1.580019955310467
 40
1.580019955310467
 40
1.580019955310467
 40
2.030549285115227
 40
3.082371838836284
 40
4.126290986361125
 40
5.162752068350215
 40
6.192395305374981
 40
7.216039564037012
 40
8.234688489606833
 40
9.249433870634691
 40
10.26152376260694
 40
11.27226744710342
 40
11.27226744710342
 40
11.27226744710342
 40
11.27226744710352
 10
-19.77727095030836
 20
-5.461417139610609
 30
0.0
 10
-19.95276973041289
 20
-5.517665207022902
 30
0.0
 10
-20.53899461691751
 20
-5.702025760970004
 30
0.0
 10
-21.53982587586888
 20
-5.99120188637112
 30
0.0
 10
-22.77950344753712
 20
-6.315040784983239
 30
0.0
 10
-24.01952230128019
 20
-6.599328341341302
 30
0.0
 10
-25.25959797225423
 20
-6.843109853936549
 30
0.0
 10
-26.49980874725016
 20
-7.044612044273439
 30
0.0
 10
-27.74010520484972
 20
-7.202685028201899
 30
0.0
 10
-28.98047889323521
 20
-7.31630443989422
 30
0.0
 10
-30.2208992528111
 20
-7.384738898002461
 30
0.0
 10
-31.04804686636248
 20
-7.399999277184621
 30
0.0
 10
-31.46135037969023
 20
-7.399999999999694
 30
0.0
  0
SPLINE
  5
433A
330
1F
100
AcDbEntity
  8
AM_0
100
AcDbSpline
210
0.0
220
0.0
230
1.0
 70
     8
 71
     3
 72
    11
 73
     7
 74
     0
 42
0.0000000001
 43
0.0000000001
 40
11.27226913003534
 40
11.27226913003534
 40
11.27226913003534
 40
11.2722691300354
 40
12.28301561507924
 40
13.29510212255852
 40
14.30984805882082
 40
15.18258238371378
 40
15.18258238371378
 40
15.18258238371378
 40
15.18258238371378
 10
-31.46135037969029
 20
-7.399999999999694
 30
0.0
 10
-31.87307241978269
 20
-7.363781484415428
 30
0.0
 10
-32.695749813206
 20
-7.276099886895003
 30
0.0
 10
-33.92551775065047
 20
-7.099224416704614
 30
0.0
 10
-35.09258920747063
 20
-6.887966061201128
 30
0.0
 10
-35.84738252002177
 20
-6.725565475873621
 30
0.0
 10
-36.19521277116527
 20
-6.645344072387637
 30
0.0
  0
SPLINE
  5
433B
330
1F
100
AcDbEntity
  8
AM_0
 48
0.5
100
AcDbSpline
210
0.0
220
0.0
230
1.0
 70
     8
 71
     3
 72
    25
 73
    21
 74
     0
 42
0.0000000001
 43
0.0000000001
 40
6.846175049578289
 40
6.846175049578289
 40
6.846175049578289
 40
6.846175049578289
 40
7.604337694224321
 40
8.711974558287883
 40
9.814980593243754
 40
10.91239053451967
 40
12.0033633515982
 40
13.08720139956839
 40
14.16337181880432
 40
15.23152222380919
 40
16.29148850140128
 40
17.34331105512262
 40
18.38723020264746
 40
19.42369128463655
 40
20.45333379090873
 40
21.47697865721768
 40
22.49561244472435
 40
23.5103574802404
 40
24.52244778960836
 40
25.53320666051913
 40
25.53320666051913
 40
25.53320666051913
 40
25.53320666051913
 10
-9.541661878681562
 20
1.339449211853786
 30
0.0
 10
-9.823442929386228
 20
1.469380051002252
 30
0.0
 10
-10.51748471073928
 20
1.787833018714112
 30
0.0
 10
-11.62481864263446
 20
2.287918815595384
 30
0.0
 10
-12.86388141798037
 20
2.833401482257702
 30
0.0
 10
-14.103006506598
 20
3.361456127786042
 30
0.0
 10
-15.34220455488115
 20
3.8688359752605
 30
0.0
 10
-16.58148937055424
 20
4.352410745619704
 30
0.0
 10
-17.82087241310907
 20
4.809198281557555
 30
0.0
 10
-19.06035942023646
 20
5.236391293038309
 30
0.0
 10
-20.29996565923653
 20
5.631331221521687
 30
0.0
 10
-21.5396894515345
 20
5.991596280527775
 30
0.0
 10
-22.77953970180622
 20
6.314938419860427
 30
0.0
 10
-24.01951203456314
 20
6.599356525432193
 30
0.0
 10
-25.25960160584667
 20
6.843107317747536
 30
0.0
 10
-26.49980151514117
 20
7.044575103494281
 30
0.0
 10
-27.74009246543404
 20
7.202837818478429
 30
0.0
 10
-28.98046078746025
 20
7.315745862372874
 30
0.0
 10
-30.22088634630428
 20
7.386796338382365
 30
0.0
 10
-31.04804054319212
 20
7.395601221356591
 30
0.0
 10
-31.46134542701429
 20
7.400000000001144
 30
0.0
  0
SPLINE
  5
433C
330
1F
100
AcDbEntity
  8
AM_0
 48
0.5
100
AcDbSpline
210
0.0
220
0.0
230
1.0
 70
     8
 71
     3
 72
    17
 73
    13
 74
     0
 42
0.0000000001
 43
0.0000000001
 40
0.0
 40
0.0
 40
0.0
 40
0.0
 40
1.010743614677189
 40
2.022833924044153
 40
3.037578959561199
 40
4.056212747067873
 40
5.079857613375832
 40
6.109500119648989
 40
7.14596120163808
 40
8.18989512056258
 40
9.241717674284874
 40
9.693948937866434
 40
9.693948937866434
 40
9.693948937866434
 40
9.693948937866434
 10
-8.09501950364006
 20
7.400000000000063
 30
0.0
 10
-8.508318143314546
 20
7.395600352162742
 30
0.0
 10
-9.335466093551083
 20
7.386795194484891
 30
0.0
 10
-10.57588543443978
 20
7.315745130694434
 30
0.0
 10
-11.81625370798423
 20
7.202836940853188
 30
0.0
 10
-13.05654484117797
 20
7.044574757179259
 30
0.0
 10
-14.29674406251292
 20
6.84310497815183
 30
0.0
 10
-15.53683622418159
 20
6.599361689769549
 30
0.0
 10
-16.77680468206298
 20
6.314913948188487
 30
0.0
 10
-18.01669755191062
 20
5.991676728861669
 30
0.0
 10
-19.01757140824209
 20
5.700488855285206
 30
0.0
 10
-19.6053432189948
 20
5.518454559651441
 30
0.0
 10
-19.78176078223528
 20
5.462735080349014
 30
0.0
  0
SPLINE
  5
433D
330
1F
100
AcDbEntity
  8
AM_0
 48
0.5
100
AcDbSpline
210
0.0
220
0.0
230
1.0
 70
     8
 71
     3
 72
    10
 73
     6
 74
     0
 42
0.0000000001
 43
0.0000000001
 40
0.0
 40
0.0
 40
0.0
 40
0.0
 40
2.69986029516136
 40
4.147722969032201
 40
6.285750005020438
 40
6.285750005020438
 40
6.285750005020438
 40
6.285750005020438
 10
-9.541463562770719
 20
1.339361320170463
 30
0.0
 10
-8.658631330683235
 20
0.6518501838657213
 30
0.0
 10
-7.302359847527734
 20
-0.4043547377841963
 30
0.0
 10
-4.094959981092344
 20
0.1069725679356017
 30
0.0
 10
-4.699006668919059
 20
1.82919059227357
 30
0.0
 10
-4.78235425352434
 20
2.84137598895242
 30
0.0
  0
ELLIPSE
  5
433E
330
1F
100
AcDbEntity
  8
AM_0
 48
0.5
100
AcDbEllipse
 10
-18.23013210725905
 20
32.96910175042683
 30
0.0
 11
-0.0000000000066708
 21
38.11976598946699
 31
0.0
210
0.0
220
0.0
230
1.0
 40
0.9527027027026989
 41
3.579847691616895
 42
3.667473607413981
  0
ELLIPSE
  5
433F
330
1F
100
AcDbEntity
  8
AM_0
 48
0.5
100
AcDbEllipse
 10
-9.529289541212335
 20
7.549399031757793
 30
0.0
 11
-0.0000000000009634
 21
11.49700008611788
 31
0.0
210
0.0
220
0.0
230
0.9999999999999998
 40
0.9527027027026953
 41
3.517054509082577
 42
3.681821570856081
  0
ELLIPSE
  5
4340
330
1F
100
AcDbEntity
  8
AM_0
 48
0.5
100
AcDbEllipse
 10
-3.357998318189522
 20
-1.925921170683212
 30
0.0
 11
-0.2103533959579377
 21
1.214642989090972
 31
0.0
210
0.0
220
0.0
230
1.0
 40
0.4966473697527588
 41
1.805780849685568
 42
4.941122739397544
  0
ELLIPSE
  5
4341
330
1F
100
AcDbEntity
  8
AM_0
 48
0.5
100
AcDbEllipse
 10
-3.358104075239923
 20
-1.928545758891038
 30
0.0
 11
-1.061339767784406
 21
0.6183469813185117
 31
0.0
210
0.0
220
0.0
230
1.0
 40
0.5013513103695616
 41
4.486988628866194
 42
7.630428970195707
  0
ELLIPSE
  5
4342
330
1F
100
AcDbEntity
  8
AM_0
 48
0.5
100
AcDbEllipse
 10
3.253967134158151
 20
8.884156038594456
 30
0.0
 11
-0.0000000000161948
 21
14.91429119110091
 31
0.0
210
0.0
220
0.0
230
1.0
 40
0.9945797445797428
 41
2.101163880027859
 42
2.509284810222748
  0
ELLIPSE
  5
4343
330
1F
100
AcDbEntity
  8
AM_0
 48
0.5
100
AcDbEllipse
 10
6.202494303903147
 20
-1.976278967956116
 30
0.0
 11
-11.47083871737323
 21
5.315691202682412
 31
0.0
210
0.0
220
0.0
230
1.0
 40
0.7925823184070438
 41
0.640445584119159
 42
1.07008541979454
  0
SPLINE
  5
4344
330
1F
100
AcDbEntity
  8
AM_0
100
AcDbSpline
210
0.0
220
0.0
230
1.0
 70
     8
 71
     3
 72
    55
 73
    51
 74
     0
 42
0.0000000001
 43
0.0000000001
 40
0.0
 40
0.0
 40
0.0
 40
0.0
 40
1.010743684496582
 40
2.022833576467832
 40
3.037578957496688
 40
4.056212745003489
 40
5.079857003664532
 40
6.109500240690281
 40
7.145961322679372
 40
8.189895241603872
 40
9.241717795325891
 40
10.30168407291828
 40
11.36983447792315
 40
12.44600489715814
 40
13.52984294512926
 40
14.62081576220742
 40
15.7182257034828
 40
16.82123173843959
 40
17.92886860250316
 40
19.0400688939571
 40
20.15368796660465
 40
21.26852814259644
 40
22.38336992938901
 40
23.49698739941135
 40
24.6081876908653
 40
25.71582455492886
 40
26.81883757994213
 40
27.91624752121713
 40
29.00722033829659
 40
30.09105838626677
 40
31.16722880550176
 40
32.23537921050758
 40
33.29534548809967
 40
34.347168041821
 40
35.39108718934584
 40
36.42754827133493
 40
37.45720575381954
 40
38.48085062012849
 40
39.49948440763516
 40
40.51422944315121
 40
41.52631975251916
 40
42.53706336719636
 40
43.54780698187354
 40
44.55989729124051
 40
45.57464232675757
 40
46.59327611426424
 40
47.6169209805722
 40
48.64656348684535
 40
49.68302456883444
 40
50.58557219878025
 40
50.58557219878025
 40
50.58557219878025
 40
50.58557219878025
 10
-8.09501950199478
 20
-7.399999234842483
 30
0.0
 10
-8.508318066453863
 20
-7.395596414118429
 30
0.0
 10
-9.335465666896414
 20
-7.386784908562296
 30
0.0
 10
-10.57588605278229
 20
-7.315754281623403
 30
0.0
 10
-11.81625348979885
 20
-7.202834140060489
 30
0.0
 10
-13.05654416024862
 20
-7.044572266983738
 30
0.0
 10
-14.29674568798315
 20
-6.843113414202326
 30
0.0
 10
-15.53683360659917
 20
-6.599353437129907
 30
0.0
 10
-16.77681206413579
 20
-6.314934389855467
 30
0.0
 10
-18.01667006449008
 20
-5.991597918540438
 30
0.0
 10
-19.25639916196936
 20
-5.631329289503829
 30
0.0
 10
-20.49600553593785
 20
-5.236389871688655
 30
0.0
 10
-21.7354925063086
 20
-4.809196721407207
 30
0.0
 10
-22.97487555947849
 20
-4.352409224534461
 30
0.0
 10
-24.21416036980483
 20
-3.868834438108292
 30
0.0
 10
-25.45335842885076
 20
-3.361454615663075
 30
0.0
 10
-26.69248347949048
 20
-2.833399885517276
 30
0.0
 10
-27.93154639694707
 20
-2.287917534420234
 30
0.0
 10
-29.17055920646724
 20
-1.728362491029072
 30
0.0
 10
-30.40953516601462
 20
-1.1581787501574
 30
0.0
 10
-31.64848514258768
 20
-0.5808715671191141
 30
0.0
 10
-32.88742663207932
 20
-0.0000007447101431
 30
0.0
 10
-34.12636255976031
 20
0.5808805337356351
 30
0.0
 10
-35.36531668902366
 20
1.158178726574068
 30
0.0
 10
-36.60429111903856
 20
1.728364193359463
 30
0.0
 10
-37.84330613770488
 20
2.287921368405937
 30
0.0
 10
-39.08237419538881
 20
2.833399064260806
 30
0.0
 10
-40.32150120169523
 20
3.361456472378815
 30
0.0
 10
-41.56069943964018
 20
3.868835883391305
 30
0.0
 10
-42.79998420487287
 20
4.352410771511428
 30
0.0
 10
-44.03936726121634
 20
4.809198269052373
 30
0.0
 10
-45.27885426315779
 20
5.236391317185488
 30
0.0
 10
-46.51846050918536
 20
5.631331138270143
 30
0.0
 10
-47.75818427876441
 20
5.991596586139375
 30
0.0
 10
-48.99803461202901
 20
6.31493729235546
 30
0.0
 10
-50.23801260959801
 20
6.59936205893913
 30
0.0
 10
-51.47810938285735
 20
6.843094195238422
 30
0.0
 10
-52.71831500786723
 20
7.04461540379355
 30
0.0
 10
-53.95860604599465
 20
7.202689677847043
 30
0.0
 10
-55.19897434485621
 20
7.316295542294755
 30
0.0
 10
-56.43939367901343
 20
7.384751473468997
 30
0.0
 10
-57.67984027063326
 20
7.407620334932536
 30
0.0
 10
-58.92028686042793
 20
7.384751473433249
 30
0.0
 10
-60.1607062000712
 20
7.31629554243881
 30
0.0
 10
-61.40107447873464
 20
7.20268967730525
 30
0.0
 10
-62.6413655925897
 20
7.044615405831028
 30
0.0
 10
-63.88156488667199
 20
6.843095170027358
 30
0.0
 10
-65.12165677442212
 20
6.599364550969126
 30
0.0
 10
-66.30525566340752
 20
6.327848376054892
 30
0.0
 10
-67.07318810178859
 20
6.12928603051484
 30
0.0
 10
-67.42946399485773
 20
6.032516913078622
 30
0.0
  0
SPLINE
  5
4345
330
1F
100
AcDbEntity
  8
AM_0
100
AcDbSpline
210
0.0
220
0.0
230
1.0
 70
     8
 71
     3
 72
    46
 73
    42
 74
     0
 42
0.0000000001
 43
0.0000000001
 40
0.0
 40
0.0
 40
0.0
 40
0.0
 40
1.685415058684571
 40
2.531036209541119
 40
3.379897699130121
 40
4.232934581347655
 40
5.090970612202441
 40
5.954688180526682
 40
6.824620803463246
 40
7.701151815239689
 40
8.584457046566678
 40
9.474582384070741
 40
10.37139106676737
 40
11.27458944007583
 40
12.18373345430765
 40
13.09824173870457
 40
14.01741343450111
 40
14.9404441545541
 40
15.86644439743314
 40
16.79446029130534
 40
17.7234937712985
 40
18.65252725129241
 40
19.58054314516461
 40
20.50654338804289
 40
21.42957410809586
 40
22.34874580389317
 40
23.26325408828901
 40
24.17239810252111
 40
25.07560240389441
 40
25.97241108659103
 40
26.8625364240951
 40
27.74584165542183
 40
28.62236045019041
 40
29.49229307312697
 40
30.35601064145121
 40
31.21404606334468
 40
32.06708345193547
 40
32.91595755657689
 40
33.76157841950693
 40
34.60498701064689
 40
35.44727335621125
 40
35.44727335621125
 40
35.44727335621125
 40
35.44727335621125
 10
-4.622685279515286
 20
-7.399999234842657
 30
0.0
 10
-5.449873293071398
 20
-7.38314146281584
 30
0.0
 10
-6.692085295165968
 20
-7.357825662300011
 30
0.0
 10
-8.343908765026455
 20
-7.201960929284315
 30
0.0
 10
-9.584212761112617
 20
-7.044807816547554
 30
0.0
 10
-10.82441074073309
 20
-6.843049914745888
 30
0.0
 10
-12.06449943678175
 20
-6.599370071778087
 30
0.0
 10
-13.30447247867973
 20
-6.314933284889437
 30
0.0
 10
-14.54432778965855
 20
-5.991592479187096
 30
0.0
 10
-15.7840598519241
 20
-5.631333015082786
 30
0.0
 10
-17.02367114340347
 20
-5.236389355372766
 30
0.0
 10
-18.2631583299192
 20
-4.809196861339079
 30
0.0
 10
-19.50254132449606
 20
-4.352409186590469
 30
0.0
 10
-20.74182615078323
 20
-3.868834448536856
 30
0.0
 10
-21.9810242051604
 20
-3.361454612246193
 30
0.0
 10
-23.22014925837831
 20
-2.833399888687027
 30
0.0
 10
-24.45921217019161
 20
-2.287917525121933
 30
0.0
 10
-25.69822499980869
 20
-1.728362525228942
 30
0.0
 10
-26.93720088429765
 20
-1.158178622155853
 30
0.0
 10
-28.17615114178403
 20
-0.5808720461024181
 30
0.0
 10
-29.41509098443587
 20
0.0000007650409731
 30
0.0
 10
-30.6540308268155
 20
0.5808735768902429
 30
0.0
 10
-31.89298108511828
 20
1.158180150827076
 30
0.0
 10
-33.13195696662317
 20
1.728364061635399
 30
0.0
 10
-34.37096980730535
 20
2.287919032841221
 30
0.0
 10
-35.61003267809032
 20
2.833401502775436
 30
0.0
 10
-36.84915788325012
 20
3.361455832412339
 30
0.0
 10
-38.08835806956011
 20
3.868838228847229
 30
0.0
 10
-39.3276477111102
 20
4.352408573379203
 30
0.0
 10
-40.56703291655641
 20
4.809198590378581
 30
0.0
 10
-41.80652007421334
 20
5.236391211524775
 30
0.0
 10
-43.04612627351036
 20
5.631331242040071
 30
0.0
 10
-44.28585007569611
 20
5.991596279053105
 30
0.0
 10
-45.52570032566872
 20
6.314938405638024
 30
0.0
 10
-46.76567264993546
 20
6.599356583178812
 30
0.0
 10
-48.00576225514124
 20
6.843107102903545
 30
0.0
 10
-49.24596814980088
 20
7.044576891834359
 30
0.0
 10
-50.486265754915
 20
7.202836333208485
 30
0.0
 10
-51.72664009663833
 20
7.315746111300798
 30
0.0
 10
-52.96705946302765
 20
7.3867959059249
 30
0.0
 10
-53.79420740987095
 20
7.39560109942378
 30
0.0
 10
-54.20750604784979
 20
7.400000765159656
 30
0.0
  0
SPLINE
  5
4346
330
1F
100
AcDbEntity
  8
AM_0
100
AcDbSpline
210
0.0
220
0.0
230
1.0
 70
     8
 71
     3
 72
    23
 73
    19
 74
     0
 42
0.0000000001
 43
0.0000000001
 40
16.03460024169435
 40
16.03460024169435
 40
16.03460024169435
 40
16.03460024169435
 40
16.35212704903564
 40
17.38177054169784
 40
18.41822485651776
 40
19.46214173629503
 40
20.51396345435107
 40
21.57393551351153
 40
22.64208202342361
 40
23.7182574881101
 40
24.80209208578934
 40
25.89306333925047
 40
26.99048218457928
 40
28.09348763352352
 40
29.20111863782268
 40
30.31232390128032
 40
31.42594612798585
 40
32.5407912310448
 40
32.5407912310486
 40
32.5407912310486
 40
32.5407912310486
 10
-74.25344965496001
 20
7.400000000000978
 30
0.0
 10
-72.5486423713791
 20
7.289081426354814
 30
0.0
 10
-71.83720073776758
 20
7.178520508279476
 30
0.0
 10
-70.97226921849506
 20
7.053084387311558
 30
0.0
 10
-69.74012737328166
 20
6.736134348487084
 30
0.0
 10
-68.50912999937005
 20
6.380252285110049
 30
0.0
 10
-67.27920435614379
 20
5.987497861044496
 30
0.0
 10
-66.05030679136217
 20
5.56006069099722
 30
0.0
 10
-64.82236627769111
 20
5.100384186088066
 30
0.0
 10
-63.5952973060205
 20
4.611143548272305
 30
0.0
 10
-62.36903014988421
 20
4.095109318757347
 30
0.0
 10
-61.14346649499779
 20
3.555284180486062
 30
0.0
 10
-59.91850702313196
 20
2.994805830392643
 30
0.0
 10
-58.69407011873096
 20
2.416896784022546
 30
0.0
 10
-57.4700533346462
 20
1.824917503338992
 30
0.0
 10
-56.2463433010004
 20
1.222324713031372
 30
0.0
 10
-55.0228403732532
 20
0.6126102751431453
 30
0.0
 10
-54.20739084306145
 20
0.2038300833799778
 30
0.0
 10
-53.79944369984848
 20
-0.0006749208341378
 30
0.0
  0
LINE
  5
4347
330
1F
100
AcDbEntity
  8
AM_11
 48
0.5
100
AcDbLine
 10
-74.25344965496001
 20
7.400000000000978
 30
0.0
 11
-57.67981078646537
 21
7.400000000000729
 31
0.0
  0
LINE
  5
4348
330
1F
100
AcDbEntity
  8
AM_11
 48
0.5
100
AcDbLine
 10
-75.12017792748206
 20
-7.399999949407171
 30
0.0
 11
-56.2841423355368
 21
-7.399999234840533
 31
0.0
  0
SPLINE
  5
4349
330
1F
100
AcDbEntity
  8
AM_0
100
AcDbSpline
210
0.0
220
0.0
230
1.0
 70
     8
 71
     3
 72
    13
 73
     9
 74
     0
 42
0.0000000001
 43
0.0000000001
 40
16.03460056234195
 40
16.03460056234195
 40
16.03460056234195
 40
16.03460056234195
 40
16.35212717791071
 40
17.38177067057215
 40
18.41822498539278
 40
19.46214186516937
 40
20.5139635832251
 40
21.34083983469381
 40
21.34083983469381
 40
21.34083983469381
 40
21.34083983469381
 10
-75.12017848114189
 20
-7.399999885450396
 30
0.0
 10
-74.85828740637457
 20
-7.37606890515214
 30
0.0
 10
-74.31814892702366
 20
-7.267286244125494
 30
0.0
 10
-73.36669048472185
 20
-7.054134885489965
 30
0.0
 10
-72.13454848444894
 20
-6.737185725492132
 30
0.0
 10
-70.90355115253058
 20
-6.381303424114076
 30
0.0
 10
-69.76447366020074
 20
-6.017559770725172
 30
0.0
 10
-69.03776227914021
 20
-5.767096379074629
 30
0.0
 10
-67.50285336526385
 20
-5.348074956297018
 30
0.0
  0
SPLINE
  5
434A
330
1F
100
AcDbEntity
  8
AM_0
 48
0.5
100
AcDbSpline
210
0.0
220
0.0
230
1.0
 70
     8
 71
     3
 72
    22
 73
    18
 74
     0
 42
0.0000000001
 43
0.0000000001
 40
0.0
 40
0.0
 40
0.0
 40
0.0
 40
1.010743684496582
 40
2.022833993863546
 40
3.037578683882831
 40
4.056212471389632
 40
5.079857945358201
 40
6.109499720892564
 40
7.145961650132166
 40
8.189873411961459
 40
9.241710626092514
 40
10.30166235592959
 40
11.36982472628033
 40
12.44598212828784
 40
13.52983440361964
 40
14.62080578343036
 40
14.90544694398022
 40
14.90544694398022
 40
14.90544694398022
 40
14.90544694398022
 10
-55.45761744932378
 20
-7.3999999999993
 30
0.0
 10
-55.87112311990698
 20
-7.395974878089438
 30
0.0
 10
-56.6982710490787
 20
-7.387166003170833
 30
0.0
 10
-57.93869013523699
 20
-7.316115589833227
 30
0.0
 10
-59.17905891446229
 20
-7.203214458778179
 30
0.0
 10
-60.41935024441803
 20
-7.044952439806865
 30
0.0
 10
-61.6595483942562
 20
-6.843474791790976
 30
0.0
 10
-62.89964042585851
 20
-6.599735304826475
 30
0.0
 10
-64.13960816747541
 20
-6.315309481601083
 30
0.0
 10
-65.37946014555775
 20
-5.991961783955582
 30
0.0
 10
-66.61918519341359
 20
-5.631711140857679
 30
0.0
 10
-67.85878978972437
 20
-5.236750078301134
 30
0.0
 10
-69.09828192538502
 20
-4.809591914105395
 30
0.0
 10
-70.33766066939152
 20
-4.352776085473638
 30
0.0
 10
-71.57694924004442
 20
-3.869212716059129
 30
0.0
 10
-72.50836120786219
 20
-3.487870679654305
 30
0.0
 10
-73.02737645922778
 20
-3.269907829555322
 30
0.0
 10
-75.22109591241413
 20
-2.497752309282008
 30
0.0
  0
VIEWPORT
  5
110
330
101
100
AcDbEntity
 67
     1
  8
0
100
AcDbViewport
 10
420.5
 20
297.0
 30
0.0
 40
948.9782706766916
 41
628.452
 68
     1
 69
     1
1001
ACAD
1000
MVIEW
1002
{
1070
    16
1010
0.0
1020
0.0
1030
0.0
1010
0.0
1020
0.0
1030
1.0
1040
0.0
1040
628.452
1040
420.5
1040
297.0
1040
50.0
1040
0.0
1040
0.0
1070
     0
1070
   100
1070
     1
1070
     1
1070
     0
1070
     0
1070
     0
1070
     0
1040
0.0
1040
0.0
1040
0.0
1040
10.0
1040
10.0
1040
10.0
1040
10.0
1070
     0
1002
{
1002
}
1002
}
  0
ENDSEC
  0
SECTION
  2
OBJECTS
  0
DICTIONARY
  5
C
330
0
100
AcDbDictionary
  3
ACAD_GROUP
350
D
  3
ACAD_LAYOUT
350
1A
  3
ACAD_MLINESTYLE
350
17
  3
ACAD_PLOTSETTINGS
350
19
  3
ACAD_PLOTSTYLENAME
350
E
  3
ACDBVARIABLEDICTIONARY
350
34
  3
ACMDICTIONARY
350
43
  3
AMG
350
2B
  3
AMGSNAPSETTINGS
350
6E
  3
DWGPROPS
350
43E8
  3
ACDBHEADERROUNDTRIPXREC
350
43F4
  0
DICTIONARY
  5
74
330
1F
100
AcDbDictionary
280
     1
  3
ACAD_INDEX
360
43EA
  3
ACAD_LAYOUTSELFREF
360
4417
  0
DICTIONARY
  5
441C
330
101
100
AcDbDictionary
280
     1
  3
ACAD_LAYOUTSELFREF
360
441D
  0
DICTIONARY
  5
D
102
{ACAD_REACTORS
330
C
102
}
330
C
100
AcDbDictionary
  0
DICTIONARY
  5
1A
102
{ACAD_REACTORS
330
C
102
}
330
C
100
AcDbDictionary
  0
DICTIONARY
  5
17
102
{ACAD_REACTORS
330
C
102
}
330
C
100
AcDbDictionary
  3
STANDARD
350
18
  0
DICTIONARY
  5
19
102
{ACAD_REACTORS
330
C
102
}
330
C
100
AcDbDictionary
  0
ACDBDICTIONARYWDFLT
  5
E
102
{ACAD_REACTORS
330
C
102
}
330
C
100
AcDbDictionary
281
     1
  3
Normal
350
F
100
AcDbDictionaryWithDefault
340
F
  0
DICTIONARY
  5
34
102
{ACAD_REACTORS
330
C
102
}
330
C
100
AcDbDictionary
  3
INDEXCTL
350
35
  3
SORTENTS
350
B5E
  0
DICTIONARY
  5
43
102
{ACAD_REACTORS
330
C
102
}
330
C
100
AcDbDictionary
  3
ACMSTDDICTIONARY
350
260
  0
DICTIONARY
  5
2B
102
{ACAD_REACTORS
330
C
102
}
330
C
100
AcDbDictionary
  3
ACMGSETTINGS
350
2C
  0
DICTIONARY
  5
6E
102
{ACAD_REACTORS
330
C
102
}
330
C
100
AcDbDictionary
  0
XRECORD
  5
43E8
102
{ACAD_REACTORS
330
C
102
}
330
C
100
AcDbXrecord
  1
DWGPROPS COOKIE
  2

  3

  4

  6

  7

  8

  9

300
AmdtFileType=82
301
=
302
=
303
=
304
=
305
=
306
=
307
=
308
=
309
=
 40
0.0957513773148148
 41
2452800.443498622
 42
2452946.638304571
  1

 90
        1
  0
DICTIONARY
  5
43F4
102
{ACAD_REACTORS
330
C
102
}
330
C
100
AcDbDictionary
  3
TSTACKALIGN
350
43F5
  3
TSTACKSIZE
350
43F6
  3
HYPERLINKBASE
350
43F7
  3
STYLESHEET
350
43F8
  3
LAYOUTDICT
350
43F9
  3
PLOTSETDICT
350
43FA
  3
PLOTSTYLNAMDICT
350
43FB
  3
LWETCUNION
350
43FC
  3
INSUNITS
350
43FD
  3
CEPSNTYPE
350
43FE
  3
FINGERPRINTGUID
350
43FF
  3
VERSIONGUID
350
4400
  3
PSVPSCALE
350
4401
  3
DIMSTYLEDATA
350
4402
  3
PUCSORTHOREF
350
4403
  3
PUCSORTHOVIEW
350
4404
  3
PUCSBASE
350
4405
  3
PUCSORGTOP
350
4406
  3
PUCSORGBOTTOM
350
4407
  3
PUCSORGLEFT
350
4408
  3
PUCSORGRIGHT
350
4409
  3
PUCSORGFRONT
350
440A
  3
PUCSORGBACK
350
440B
  3
UCSORTHOREF
350
440C
  3
UCSORTHOVIEW
350
440D
  3
UCSBASE
350
440E
  3
UCSORGTOP
350
440F
  3
UCSORGBOTTOM
350
4410
  3
UCSORGLEFT
350
4411
  3
UCSORGRIGHT
350
4412
  3
UCSORGFRONT
350
4413
  3
UCSORGBACK
350
4414
  0
DICTIONARY
  5
43EA
102
{ACAD_REACTORS
330
74
102
}
330
74
100
AcDbDictionary
  3
*A1
350
43EB
  0
XRECORD
  5
4417
102
{ACAD_REACTORS
330
74
102
}
330
74
100
AcDbXrecord
340
1F
  0
XRECORD
  5
441D
102
{ACAD_REACTORS
330
441C
102
}
330
441C
100
AcDbXrecord
340
101
  0
MLINESTYLE
  5
18
102
{ACAD_REACTORS
330
17
102
}
330
17
100
AcDbMlineStyle
  2
STANDARD
 70
     0
  3

 62
   256
 51
90.0
 52
90.0
 71
     2
 49
0.5
 62
   256
  6
BYLAYER
 49
-0.5
 62
   256
  6
BYLAYER
  0
ACDBPLACEHOLDER
  5
F
102
{ACAD_REACTORS
330
E
102
}
330
E
100
AcDbPlaceHolder
280
     0
  0
DICTIONARYVAR
  5
35
102
{ACAD_REACTORS
330
34
102
}
330
34
100
DictionaryVariables
280
     0
  1
1
  0
DICTIONARYVAR
  5
B5E
102
{ACAD_REACTORS
330
34
102
}
330
34
100
DictionaryVariables
280
     0
  1
96
  0
DICTIONARY
  5
260
102
{ACAD_REACTORS
330
43
102
}
330
43
100
AcDbDictionary
  0
DICTIONARY
  5
2C
102
{ACAD_REACTORS
330
2B
102
}
330
2B
100
AcDbDictionary
  3
DWGSETTINGS
350
2D
  0
XRECORD
  5
43F5
102
{ACAD_REACTORS
330
43F4
102
}
330
43F4
100
AcDbXrecord
 90
        1
  0
XRECORD
  5
43F6
102
{ACAD_REACTORS
330
43F4
102
}
330
43F4
100
AcDbXrecord
 90
       70
  0
XRECORD
  5
43F7
102
{ACAD_REACTORS
330
43F4
102
}
330
43F4
100
AcDbXrecord
  1

  0
XRECORD
  5
43F8
102
{ACAD_REACTORS
330
43F4
102
}
330
43F4
100
AcDbXrecord
  1
ASAMI.ctb
  0
XRECORD
  5
43F9
102
{ACAD_REACTORS
330
43F4
102
}
330
43F4
100
AcDbXrecord
340
1A
  0
XRECORD
  5
43FA
102
{ACAD_REACTORS
330
43F4
102
}
330
43F4
100
AcDbXrecord
340
19
  0
XRECORD
  5
43FB
102
{ACAD_REACTORS
330
43F4
102
}
330
43F4
100
AcDbXrecord
340
E
  0
XRECORD
  5
43FC
102
{ACAD_REACTORS
330
43F4
102
}
330
43F4
100
AcDbXrecord
 90
    10781
  0
XRECORD
  5
43FD
102
{ACAD_REACTORS
330
43F4
102
}
330
43F4
100
AcDbXrecord
 90
        4
  0
XRECORD
  5
43FE
102
{ACAD_REACTORS
330
43F4
102
}
330
43F4
100
AcDbXrecord
 90
        0
  0
XRECORD
  5
43FF
102
{ACAD_REACTORS
330
43F4
102
}
330
43F4
100
AcDbXrecord
  1
{AFB28963-8C59-40AE-9337-C84526B81ACE}
  0
XRECORD
  5
4400
102
{ACAD_REACTORS
330
43F4
102
}
330
43F4
100
AcDbXrecord
  1
{42DC8D6D-66A6-49AE-A34E-CB9ACB1DF3EE}
  0
XRECORD
  5
4401
102
{ACAD_REACTORS
330
43F4
102
}
330
43F4
100
AcDbXrecord
 40
0.0
  0
XRECORD
  5
4402
102
{ACAD_REACTORS
330
43F4
102
}
330
43F4
100
AcDbXrecord
1000
DSTYLE
1002
{
1070
    79
 70
     2
1070
   341
340
59
1070
   342
340
59
1070
   371
 70
    -1
1070
   372
 70
    -1
1002
}
  0
XRECORD
  5
4403
102
{ACAD_REACTORS
330
43F4
102
}
330
43F4
100
AcDbXrecord
340
0
  0
XRECORD
  5
4404
102
{ACAD_REACTORS
330
43F4
102
}
330
43F4
100
AcDbXrecord
 70
     0
  0
XRECORD
  5
4405
102
{ACAD_REACTORS
330
43F4
102
}
330
43F4
100
AcDbXrecord
340
0
  0
XRECORD
  5
4406
102
{ACAD_REACTORS
330
43F4
102
}
330
43F4
100
AcDbXrecord
 10
0.0
 20
0.0
 30
0.0
  0
XRECORD
  5
4407
102
{ACAD_REACTORS
330
43F4
102
}
330
43F4
100
AcDbXrecord
 10
0.0
 20
0.0
 30
0.0
  0
XRECORD
  5
4408
102
{ACAD_REACTORS
330
43F4
102
}
330
43F4
100
AcDbXrecord
 10
0.0
 20
0.0
 30
0.0
  0
XRECORD
  5
4409
102
{ACAD_REACTORS
330
43F4
102
}
330
43F4
100
AcDbXrecord
 10
0.0
 20
0.0
 30
0.0
  0
XRECORD
  5
440A
102
{ACAD_REACTORS
330
43F4
102
}
330
43F4
100
AcDbXrecord
 10
0.0
 20
0.0
 30
0.0
  0
XRECORD
  5
440B
102
{ACAD_REACTORS
330
43F4
102
}
330
43F4
100
AcDbXrecord
 10
0.0
 20
0.0
 30
0.0
  0
XRECORD
  5
440C
102
{ACAD_REACTORS
330
43F4
102
}
330
43F4
100
AcDbXrecord
340
0
  0
XRECORD
  5
440D
102
{ACAD_REACTORS
330
43F4
102
}
330
43F4
100
AcDbXrecord
 70
     0
  0
XRECORD
  5
440E
102
{ACAD_REACTORS
330
43F4
102
}
330
43F4
100
AcDbXrecord
340
0
  0
XRECORD
  5
440F
102
{ACAD_REACTORS
330
43F4
102
}
330
43F4
100
AcDbXrecord
 10
0.0
 20
0.0
 30
0.0
  0
XRECORD
  5
4410
102
{ACAD_REACTORS
330
43F4
102
}
330
43F4
100
AcDbXrecord
 10
0.0
 20
0.0
 30
0.0
  0
XRECORD
  5
4411
102
{ACAD_REACTORS
330
43F4
102
}
330
43F4
100
AcDbXrecord
 10
0.0
 20
0.0
 30
0.0
  0
XRECORD
  5
4412
102
{ACAD_REACTORS
330
43F4
102
}
330
43F4
100
AcDbXrecord
 10
0.0
 20
0.0
 30
0.0
  0
XRECORD
  5
4413
102
{ACAD_REACTORS
330
43F4
102
}
330
43F4
100
AcDbXrecord
 10
0.0
 20
0.0
 30
0.0
  0
XRECORD
  5
4414
102
{ACAD_REACTORS
330
43F4
102
}
330
43F4
100
AcDbXrecord
 10
0.0
 20
0.0
 30
0.0
  0
LAYER_INDEX
  5
43EB
102
{ACAD_REACTORS
330
43EA
102
}
330
43EA
100
AcDbIndex
 40
2453151.565500023
100
AcDbLayerIndex
  8
0
360
43EC
 90
        0
  8
AM_0
360
43ED
 90
       46
  8
AM_7
360
43EE
 90
        1
  8
AM_11
360
43EF
 90
       15
  8
AM_5
360
43F0
 90
        5
  8
Defpoints
360
43F1
 90
        0
  8
AM_6
360
43F2
 90
        1
  0
XRECORD
  5
2D
102
{ACAD_REACTORS
330
2C
102
}
330
2C
100
AcDbXrecord
  1
VERSION
140
15.0
  1
PRODUCT
  2
AutoCAD Mechanical 2000
  0
IDBUFFER
  5
43EC
330
0
100
AcDbIdBuffer
  0
IDBUFFER
  5
43ED
330
0
100
AcDbIdBuffer
330
4329
330
432A
330
432B
330
432C
330
432D
330
432E
330
432F
330
4330
330
4331
330
4332
330
4333
330
4334
330
4335
330
4338
330
4339
330
433A
330
433B
330
433C
330
433D
330
433E
330
433F
330
4340
330
4341
330
4342
330
4343
330
4344
330
4345
330
4346
330
4349
330
434A
330
C1D
330
C20
330
24A7
330
24BE
330
2C0E
330
2FB7
330
2FB9
330
324C
330
325C
330
325D
330
325E
330
3921
330
3924
330
3976
330
3977
330
4328
  0
IDBUFFER
  5
43EE
330
0
100
AcDbIdBuffer
330
23EF
  0
IDBUFFER
  5
43EF
330
0
100
AcDbIdBuffer
330
24B7
330
24B8
330
24B9
330
24C7
330
24C8
330
24D4
330
24D5
330
24E6
330
24E7
330
2BF3
330
2BF5
330
4336
330
4337
330
4347
330
4348
  0
IDBUFFER
  5
43F0
330
0
100
AcDbIdBuffer
330
CC6
330
2069
330
2D60
330
3C5B
330
3D2F
  0
IDBUFFER
  5
43F1
330
0
100
AcDbIdBuffer
  0
IDBUFFER
  5
43F2
330
0
100
AcDbIdBuffer
330
19BD
  0
ENDSEC
  0
EOF
