  0
SECTION
  2
HEADER
  9
$ACADVER
  1
AC1014
  9
$ACADMAINTVER
 70
     9
  9
$DWGCODEPAGE
  3
ANSI_932
  9
$INSBASE
 10
0.0
 20
0.0
 30
0.0
  9
$EXTMIN
 10
-206.6859094039599
 20
-65.14239330363711
 30
-0.00000001
  9
$EXTMAX
 10
42.26070809756504
 20
40.65176900203561
 30
0.00000001
  9
$LIMMIN
 10
-242.6613137180597
 20
-104.0956389073926
  9
$LIMMAX
 10
61.71825462088623
 20
69.76104599684027
  9
$ORTHOMODE
 70
     0
  9
$REGENMODE
 70
     1
  9
$FILLMODE
 70
     1
  9
$QTEXTMODE
 70
     0
  9
$MIRRTEXT
 70
     0
  9
$DRAGMODE
 70
     2
  9
$LTSCALE
 40
1.0
  9
$OSMODE
 70
    55
  9
$ATTMODE
 70
     1
  9
$TEXTSIZE
 40
2.5
  9
$TRACEWID
 40
1.0
  9
$TEXTSTYLE
  7
STANDARD
  9
$CLAYER
  8
AM_0
  9
$CELTYPE
  6
BYLAYER
  9
$CECOLOR
 62
   256
  9
$CELTSCALE
 40
1.0
  9
$DELOBJ
 70
     1
  9
$DISPSILH
 70
     0
  9
$DIMSCALE
 40
1.0
  9
$DIMASZ
 40
2.5
  9
$DIMEXO
 40
1.0
  9
$DIMDLI
 40
12.0
  9
$DIMRND
 40
0.0
  9
$DIMDLE
 40
0.0
  9
$DIMEXE
 40
1.0
  9
$DIMTP
 40
0.1
  9
$DIMTM
 40
0.1
  9
$DIMTXT
 40
3.2
  9
$DIMCEN
 40
0.0
  9
$DIMTSZ
 40
0.0
  9
$DIMTOL
 70
     0
  9
$DIMLIM
 70
     0
  9
$DIMTIH
 70
     0
  9
$DIMTOH
 70
     0
  9
$DIMSE1
 70
     0
  9
$DIMSE2
 70
     0
  9
$DIMTAD
 70
     3
  9
$DIMZIN
 70
     8
  9
$DIMBLK
  1
OPEN30
  9
$DIMASO
 70
     1
  9
$DIMSHO
 70
     1
  9
$DIMPOST
  1

  9
$DIMAPOST
  1
"
  9
$DIMALT
 70
     0
  9
$DIMALTD
 70
     2
  9
$DIMALTF
 40
0.0393701
  9
$DIMLFAC
 40
1.0
  9
$DIMTOFL
 70
     1
  9
$DIMTVP
 40
0.0
  9
$DIMTIX
 70
     0
  9
$DIMSOXD
 70
     0
  9
$DIMSAH
 70
     0
  9
$DIMBLK1
  1

  9
$DIMBLK2
  1

  9
$DIMSTYLE
  2
AM_JIS
  9
$DIMCLRD
 70
   256
  9
$DIMCLRE
 70
   256
  9
$DIMCLRT
 70
     2
  9
$DIMTFAC
 40
0.71
  9
$DIMGAP
 40
1.5
  9
$DIMJUST
 70
     0
  9
$DIMSD1
 70
     0
  9
$DIMSD2
 70
     0
  9
$DIMTOLJ
 70
     0
  9
$DIMTZIN
 70
     0
  9
$DIMALTZ
 70
     0
  9
$DIMALTTZ
 70
     0
  9
$DIMFIT
 70
     3
  9
$DIMUPT
 70
     0
  9
$DIMUNIT
 70
     2
  9
$DIMDEC
 70
     3
  9
$DIMTDEC
 70
     3
  9
$DIMALTU
 70
     2
  9
$DIMALTTD
 70
     2
  9
$DIMTXSTY
  7
ASAMI
  9
$DIMAUNIT
 70
     0
  9
$LUNITS
 70
     2
  9
$LUPREC
 70
     2
  9
$SKETCHINC
 40
1.0
  9
$FILLETRAD
 40
2.5
  9
$AUNITS
 70
     0
  9
$AUPREC
 70
     0
  9
$MENU
  1
.
  9
$ELEVATION
 40
0.0
  9
$PELEVATION
 40
0.0
  9
$THICKNESS
 40
0.0
  9
$LIMCHECK
 70
     0
  9
$BLIPMODE
 70
     0
  9
$CHAMFERA
 40
2.5
  9
$CHAMFERB
 40
2.5
  9
$CHAMFERC
 40
20.0
  9
$CHAMFERD
 40
0.0
  9
$SKPOLY
 70
     0
  9
$TDCREATE
 40
2452800.443498622
  9
$TDUPDATE
 40
2453151.587485336
  9
$TDINDWG
 40
0.1962800000
  9
$TDUSRTIMER
 40
0.1962800000
  9
$USRTIMER
 70
     1
  9
$ANGBASE
 50
0.0
  9
$ANGDIR
 70
     0
  9
$PDMODE
 70
     0
  9
$PDSIZE
 40
0.0
  9
$PLINEWID
 40
0.0
  9
$COORDS
 70
     1
  9
$SPLFRAME
 70
     0
  9
$SPLINETYPE
 70
     6
  9
$SPLINESEGS
 70
     8
  9
$ATTDIA
 70
     1
  9
$ATTREQ
 70
     1
  9
$HANDLING
 70
 12289
  9
$HANDSEED
  5
350B
  9
$SURFTAB1
 70
     6
  9
$SURFTAB2
 70
     6
  9
$SURFTYPE
 70
     6
  9
$SURFU
 70
     6
  9
$SURFV
 70
     6
  9
$UCSNAME
  2

  9
$UCSORG
 10
0.0
 20
0.0
 30
0.0
  9
$UCSXDIR
 10
1.0
 20
0.0000000000000027
 30
0.0
  9
$UCSYDIR
 10
-0.0000000000000027
 20
1.0
 30
0.0
  9
$PUCSNAME
  2

  9
$PUCSORG
 10
0.0
 20
0.0
 30
0.0
  9
$PUCSXDIR
 10
1.0
 20
0.0
 30
0.0
  9
$PUCSYDIR
 10
0.0
 20
1.0
 30
0.0
  9
$USERI1
 70
     0
  9
$USERI2
 70
     0
  9
$USERI3
 70
     0
  9
$USERI4
 70
     0
  9
$USERI5
 70
     0
  9
$USERR1
 40
0.0
  9
$USERR2
 40
0.0
  9
$USERR3
 40
0.0
  9
$USERR4
 40
0.0
  9
$USERR5
 40
0.0
  9
$WORLDVIEW
 70
     1
  9
$SHADEDGE
 70
     3
  9
$SHADEDIF
 70
    70
  9
$TILEMODE
 70
     1
  9
$MAXACTVP
 70
    64
  9
$PINSBASE
 10
0.0
 20
0.0
 30
0.0
  9
$PLIMCHECK
 70
     0
  9
$PEXTMIN
 10
1.000000000000000E+20
 20
1.000000000000000E+20
 30
1.000000000000000E+20
  9
$PEXTMAX
 10
-1.000000000000000E+20
 20
-1.000000000000000E+20
 30
-1.000000000000000E+20
  9
$PLIMMIN
 10
0.0
 20
0.0
  9
$PLIMMAX
 10
841.0
 20
594.0
  9
$UNITMODE
 70
     0
  9
$VISRETAIN
 70
     1
  9
$PLINEGEN
 70
     0
  9
$PSLTSCALE
 70
     0
  9
$TREEDEPTH
 70
  3020
  9
$PICKSTYLE
 70
     0
  9
$CMLSTYLE
  2
STANDARD
  9
$CMLJUST
 70
     0
  9
$CMLSCALE
 40
20.0
  9
$PROXYGRAPHICS
 70
     1
  9
$MEASUREMENT
 70
     1
  0
ENDSEC
  0
SECTION
  2
CLASSES
  0
CLASS
  1
ACDBDICTIONARYWDFLT
  2
AcDbDictionaryWithDefault
  3
AutoCAD 2000
 90
        0
280
     0
281
     0
  0
CLASS
  1
ACDBPLACEHOLDER
  2
AcDbPlaceHolder
  3
AutoCAD 2000
 90
        0
280
     0
281
     0
  0
CLASS
  1
LAYOUT
  2
AcDbLayout
  3
AutoCAD 2000
 90
        0
280
     0
281
     0
  0
CLASS
  1
AMGSETTINGSOBJ
  2
AmgSettingsObj
  3
"AcadM|Product Description: AutoCAD Mechanical 2000|Company: Autodesk"
 90
        0
280
     0
281
     0
  0
CLASS
  1
ACME_DOCUMENT
  2
AcMeDbDoc
  3
AcMeServices
 90
        0
280
     0
281
     0
  0
CLASS
  1
ACMESCOPE
  2
AcMeScope
  3
AcMeServices
 90
        0
280
     0
281
     0
  0
CLASS
  1
ACMECOMMANDHISTORY
  2
AcMeCommandHistory
  3
AcMeServices
 90
        0
280
     0
281
     0
  0
CLASS
  1
DICTIONARYVAR
  2
AcDbDictionaryVar
  3
AutoCAD 2000
 90
        0
280
     0
281
     0
  0
CLASS
  1
ACIMSYSVARMAN
  2
AcImSysVarManager
  3
AcMeServices
 90
        0
280
     0
281
     0
  0
CLASS
  1
ACIMREALSYSVAR
  2
AcImRealSysVar
  3
AcMeServices
 90
        0
280
     0
281
     0
  0
CLASS
  1
ACIMINTSYSVAR
  2
AcImIntSysVar
  3
AcMeServices
 90
        0
280
     0
281
     0
  0
CLASS
  1
ACMEDRAWINGMAN
  2
AcMeDrawingMan
  3
AcMeServices
 90
        0
280
     0
281
     0
  0
CLASS
  1
ACMEVIEW
  2
AcMeView
  3
AcMeServices
 90
        0
280
     0
281
     0
  0
CLASS
  1
ACDBENTITYCACHE
  2
AcMeEntityCache
  3
AcMeServices
 90
        0
280
     0
281
     0
  0
CLASS
  1
GSMANAGER
  2
AcMeGSManager
  3
AcMeServices
 90
        0
280
     0
281
     0
  0
CLASS
  1
AmdtInternalReactor
  2
AmdtInternalReactor
  3
AcMeServices
 90
        0
280
     0
281
     0
  0
CLASS
  1
ACMESTATEMGR
  2
AcMeStateMgr
  3
AcMeServices
 90
        0
280
     0
281
     0
  0
CLASS
  1
ACME_DATABASE
  2
AcMeDbDatabase
  3
AcMeServices
 90
        0
280
     0
281
     0
  0
CLASS
  1
ACRFINSADJUSTERMGR
  2
AcRfInsAdjusterMgr
  3
AcMeServices
 90
        0
280
     0
281
     0
  0
CLASS
  1
ACMDATADICTIONARY
  2
AcmDataDictionary
  3
"AcmSymBB|Product Description: AutoCAD Mechanical 2000|Company: Autodesk"
 90
        0
280
     0
281
     0
  0
CLASS
  1
ACMDATAENTRYBLOCK
  2
AcmDataEntryBlock
  3
"AcmSymBB|Product Description: AutoCAD Mechanical 2000|Company: Autodesk"
 90
        0
280
     0
281
     0
  0
CLASS
  1
AMGOBJPROPCFG
  2
AmgObjPropCfg
  3
"AmgLay|Product Description: AutoCAD Mechanical 2000|Company: Autodesk"
 90
        1
280
     0
281
     0
  0
CLASS
  1
ACAMGFILTERDAT
  2
AcAmgFilterDat
  3
"AcadM|Product Description: AutoCAD Mechanical 2000|Company: Autodesk"
 90
        0
280
     0
281
     0
  0
CLASS
  1
LAYER_INDEX
  2
AcDbLayerIndex
  3
AutoCAD 2000
 90
        0
280
     0
281
     0
  0
CLASS
  1
IDBUFFER
  2
AcDbIdBuffer
  3
AutoCAD 2000
 90
        0
280
     0
281
     0
  0
CLASS
  1
ACIMSTRSYSVAR
  2
AcImStrSysVar
  3
AcMeServices
 90
        0
280
     0
281
     0
  0
CLASS
  1
ACMSTANDARDJIS
  2
AcmStandardJIS
  3
"AcmSymBB|Product Description: AutoCAD Mechanical 2000|Company: Autodesk"
 90
        0
280
     0
281
     0
  0
CLASS
  1
ACMSURFSTANDARDJIS
  2
AcmSurfTextStdJIS
  3
"AcmSymBB|Product Description: AutoCAD Mechanical 2000|Company: Autodesk"
 90
        0
280
     0
281
     0
  0
CLASS
  1
ACMFCFSTANDARDJIS
  2
AcmFCFStdJIS
  3
"AcmSymBB|Product Description: AutoCAD Mechanical 2000|Company: Autodesk"
 90
        0
280
     0
281
     0
  0
CLASS
  1
ACMWELDSTANDARDJIS
  2
AcmWeldingStdJIS
  3
"AcmSymBB|Product Description: AutoCAD Mechanical 2000|Company: Autodesk"
 90
        0
280
     0
281
     0
  0
CLASS
  1
ACMIDSTANDARDJIS
  2
AcmIdStdJIS
  3
"AcmSymBB|Product Description: AutoCAD Mechanical 2000|Company: Autodesk"
 90
        0
280
     0
281
     0
  0
CLASS
  1
ACMDATUMSTANDARDJIS
  2
AcmDatumStdJIS
  3
"AcmSymBB|Product Description: AutoCAD Mechanical 2000|Company: Autodesk"
 90
        0
280
     0
281
     0
  0
CLASS
  1
ACMBOMSTANDARDJIS
  2
AcmBOMStdJIS
  3
"AcmSymBB|Product Description: AutoCAD Mechanical 2000|Company: Autodesk"
 90
        0
280
     0
281
     0
  0
CLASS
  1
ACMSTANDARDANSI
  2
AcmStandardANSI
  3
"AcmSymBB|Product Description: AutoCAD Mechanical 2000|Company: Autodesk"
 90
        0
280
     0
281
     0
  0
CLASS
  1
ACMSURFSTANDARDANSI
  2
AcmSurfTextStdANSI
  3
"AcmSymBB|Product Description: AutoCAD Mechanical 2000|Company: Autodesk"
 90
        0
280
     0
281
     0
  0
CLASS
  1
ACMFCFSTANDARDANSI
  2
AcmFCFStdANSI
  3
"AcmSymBB|Product Description: AutoCAD Mechanical 2000|Company: Autodesk"
 90
        0
280
     0
281
     0
  0
CLASS
  1
ACMWELDSTANDARDANSI
  2
AcmWeldingStdANSI
  3
"AcmSymBB|Product Description: AutoCAD Mechanical 2000|Company: Autodesk"
 90
        0
280
     0
281
     0
  0
CLASS
  1
ACMIDSTANDARDANSI
  2
AcmIdStdANSI
  3
"AcmSymBB|Product Description: AutoCAD Mechanical 2000|Company: Autodesk"
 90
        0
280
     0
281
     0
  0
CLASS
  1
ACMDATUMSTANDARDANSI
  2
AcmDatumStdANSI
  3
"AcmSymBB|Product Description: AutoCAD Mechanical 2000|Company: Autodesk"
 90
        0
280
     0
281
     0
  0
CLASS
  1
ACMBOMSTANDARDANSI
  2
AcmBOMStdANSI
  3
"AcmSymBB|Product Description: AutoCAD Mechanical 2000|Company: Autodesk"
 90
        0
280
     0
281
     0
  0
CLASS
  1
ACMSTANDARDBSI
  2
AcmStandardBSI
  3
"AcmSymBB|Product Description: AutoCAD Mechanical 2000|Company: Autodesk"
 90
        0
280
     0
281
     0
  0
CLASS
  1
ACMSURFSTANDARDBSI
  2
AcmSurfTextStdBSI
  3
"AcmSymBB|Product Description: AutoCAD Mechanical 2000|Company: Autodesk"
 90
        0
280
     0
281
     0
  0
CLASS
  1
ACMFCFSTANDARDBSI
  2
AcmFCFStdBSI
  3
"AcmSymBB|Product Description: AutoCAD Mechanical 2000|Company: Autodesk"
 90
        0
280
     0
281
     0
  0
CLASS
  1
ACMWELDSTANDARDBSI
  2
AcmWeldingStdBSI
  3
"AcmSymBB|Product Description: AutoCAD Mechanical 2000|Company: Autodesk"
 90
        0
280
     0
281
     0
  0
CLASS
  1
ACMIDSTANDARDBSI
  2
AcmIdStdBSI
  3
"AcmSymBB|Product Description: AutoCAD Mechanical 2000|Company: Autodesk"
 90
        0
280
     0
281
     0
  0
CLASS
  1
ACMDATUMSTANDARDBSI
  2
AcmDatumStdBSI
  3
"AcmSymBB|Product Description: AutoCAD Mechanical 2000|Company: Autodesk"
 90
        0
280
     0
281
     0
  0
CLASS
  1
ACMBOMSTANDARDBSI
  2
AcmBOMStdBSI
  3
"AcmSymBB|Product Description: AutoCAD Mechanical 2000|Company: Autodesk"
 90
        0
280
     0
281
     0
  0
CLASS
  1
LONG_TRANSACTION
  2
AcDbLongTransaction
  3
AutoCAD 2000
 90
        0
280
     0
281
     0
  0
CLASS
  1
LWPOLYLINE
  2
AcDbPolyline
  3
AutoCAD 2000
 90
        0
280
     0
281
     1
  0
CLASS
  1
HATCH
  2
AcDbHatch
  3
AutoCAD 2000
 90
        0
280
     0
281
     1
  0
CLASS
  1
XRECORD
  2
AcDbXrecord
  3
AutoCAD 2000
 90
        0
280
     0
281
     0
  0
ENDSEC
  0
SECTION
  2
TABLES
  0
TABLE
  2
VPORT
  5
8
330
0
100
AcDbSymbolTable
 70
     3
  0
VPORT
  5
34E0
330
8
100
AcDbSymbolTableRecord
100
AcDbViewportTableRecord
  2
*ACTIVE
 70
     0
 10
0.0
 20
0.0
 11
1.0
 21
1.0
 12
-80.64738861296381
 22
-6.65364265015026
 13
0.0
 23
0.0
 14
2.5
 24
2.5
 15
10.0
 25
10.0
 16
0.0
 26
0.0
 36
1.0
 17
0.0
 27
0.0
 37
0.0
 40
225.5235432910662
 41
1.56570841889117
 42
50.0
 43
0.0
 44
0.0
 50
0.0
 51
0.0
 71
     0
 72
   100
 73
     1
 74
     1
 75
     0
 76
     0
 77
     0
 78
     0
  0
ENDTAB
  0
TABLE
  2
LTYPE
  5
5
330
0
100
AcDbSymbolTable
 70
    10
  0
LTYPE
  5
14
330
5
100
AcDbSymbolTableRecord
100
AcDbLinetypeTableRecord
  2
BYBLOCK
 70
     0
  3

 72
    65
 73
     0
 40
0.0
  0
LTYPE
  5
15
330
5
100
AcDbSymbolTableRecord
100
AcDbLinetypeTableRecord
  2
BYLAYER
 70
     0
  3

 72
    65
 73
     0
 40
0.0
  0
LTYPE
  5
16
330
5
100
AcDbSymbolTableRecord
100
AcDbLinetypeTableRecord
  2
CONTINUOUS
 70
     0
  3
Solid line
 72
    65
 73
     0
 40
0.0
  0
LTYPE
  5
4B
330
5
100
AcDbSymbolTableRecord
100
AcDbLinetypeTableRecord
  2
AM_ISO02W050
 70
     0
  3
__ __ __ __ __ __ __ __ __ __ __ __ __ __ __
 72
    65
 73
     2
 40
7.5
 49
6.0
 74
     0
 49
-1.5
 74
     0
  0
LTYPE
  5
4C
330
5
100
AcDbSymbolTableRecord
100
AcDbLinetypeTableRecord
  2
AM_ISO08W050
 70
     0
  3
____ . ____ . ____ . ____ . ____ . ____ . ____
 72
    65
 73
     4
 40
18.0
 49
12.0
 74
     0
 49
-1.5
 74
     0
 49
3.0
 74
     0
 49
-1.5
 74
     0
  0
LTYPE
  5
4D
330
5
100
AcDbSymbolTableRecord
100
AcDbLinetypeTableRecord
  2
AM_ISO09W050
 70
     0
  3
_____ . . _____ . . _____ . . ____ .. ____
 72
    65
 73
     6
 40
22.5
 49
12.0
 74
     0
 49
-1.5
 74
     0
 49
3.0
 74
     0
 49
-1.5
 74
     0
 49
3.0
 74
     0
 49
-1.5
 74
     0
  0
LTYPE
  5
4E
330
5
100
AcDbSymbolTableRecord
100
AcDbLinetypeTableRecord
  2
AMCONSTR
 70
     0
  3
_______________________
 72
    65
 73
     2
 40
9999.0
 49
9999.0
 74
     0
 49
0.0
 74
     0
  0
LTYPE
  5
4F
330
5
100
AcDbSymbolTableRecord
100
AcDbLinetypeTableRecord
  2
AM_ISO02W050X2
 70
     0
  3
 _ _ _ _ _ _ _ _ _ _ _ _
 72
    65
 73
     2
 40
3.75
 49
3.0
 74
     0
 49
-0.75
 74
     0
  0
LTYPE
  5
50
330
5
100
AcDbSymbolTableRecord
100
AcDbLinetypeTableRecord
  2
AM_ISO08W050X2
 70
     0
  3
__ . __ . __ . __ . __ . __
 72
    65
 73
     4
 40
9.0
 49
6.0
 74
     0
 49
-0.75
 74
     0
 49
1.5
 74
     0
 49
-0.75
 74
     0
  0
LTYPE
  5
53
330
5
100
AcDbSymbolTableRecord
100
AcDbLinetypeTableRecord
  2
AMZIGZAG
 70
     0
  3
/\/-/\/-/\/-/\/-/\/-/\/
 72
    65
 73
     2
 40
11.00009999999999
 49
0.0001
 74
     4
 75
   135
340
52
 46
0.04
 50
0.0
 44
0.0
 45
0.0
 49
-11.0
 74
     0
  0
LTYPE
  5
166
330
5
100
AcDbSymbolTableRecord
100
AcDbLinetypeTableRecord
  2
ACJISTGL
 70
     0
  3
_ _ _ _ _
 72
    65
 73
     2
 40
3.0
 49
2.0
 74
     0
 49
-1.0
 74
     0
  0
LTYPE
  5
26A
330
5
100
AcDbSymbolTableRecord
100
AcDbLinetypeTableRecord
  2
ACJISTGB
 70
     0
  3
__ . . __ . .
 72
    65
 73
     6
 40
9.0
 49
4.0
 74
     0
 49
-1.0
 74
     0
 49
1.0
 74
     0
 49
-1.0
 74
     0
 49
1.0
 74
     0
 49
-1.0
 74
     0
  0
ENDTAB
  0
TABLE
  2
LAYER
  5
2
330
0
100
AcDbSymbolTable
 70
    10
  0
LAYER
  5
10
330
2
100
AcDbSymbolTableRecord
100
AcDbLayerTableRecord
  2
0
 70
     0
 62
     7
  6
CONTINUOUS
  0
LAYER
  5
3F9
330
2
100
AcDbSymbolTableRecord
100
AcDbLayerTableRecord
  2
AM_0
 70
     0
 62
     7
  6
CONTINUOUS
  0
LAYER
  5
BA4
330
2
100
AcDbSymbolTableRecord
100
AcDbLayerTableRecord
  2
PV0001_1
 70
     0
 62
     7
  6
CONTINUOUS
  0
LAYER
  5
C6C
330
2
100
AcDbSymbolTableRecord
100
AcDbLayerTableRecord
  2
AM_CL
 70
     0
 62
     1
  6
AMCONSTR
  0
LAYER
  5
C7C
330
2
100
AcDbSymbolTableRecord
100
AcDbLayerTableRecord
  2
AM_7
 70
     0
 62
     4
  6
AM_ISO08W050
  0
LAYER
  5
C97
330
2
100
AcDbSymbolTableRecord
100
AcDbLayerTableRecord
  2
AM_11
 70
     0
 62
     3
  6
AM_ISO09W050
  0
LAYER
  5
CC5
330
2
100
AcDbSymbolTableRecord
100
AcDbLayerTableRecord
  2
AM_5
 70
     0
 62
     3
  6
CONTINUOUS
  0
LAYER
  5
CC7
330
2
100
AcDbSymbolTableRecord
100
AcDbLayerTableRecord
  2
DEFPOINTS
 70
     0
 62
     7
  6
CONTINUOUS
  0
LAYER
  5
19BC
330
2
100
AcDbSymbolTableRecord
100
AcDbLayerTableRecord
  2
AM_6
 70
     0
 62
     2
  6
CONTINUOUS
  0
LAYER
  5
1F8E
330
2
100
AcDbSymbolTableRecord
100
AcDbLayerTableRecord
  2
AM_4
 70
     0
 62
     3
  6
CONTINUOUS
  0
ENDTAB
  0
TABLE
  2
STYLE
  5
3
330
0
100
AcDbSymbolTable
 70
     5
  0
STYLE
  5
11
330
3
100
AcDbSymbolTableRecord
100
AcDbTextStyleTableRecord
  2
STANDARD
 70
     0
 40
0.0
 41
1.0
 50
0.0
 71
     0
 42
2.5
  3
simplex.shx
  4
EXTFONT.SHX
  0
STYLE
  5
52
330
3
100
AcDbSymbolTableRecord
100
AcDbTextStyleTableRecord
  2

 70
     1
 40
0.0
 41
1.0
 50
0.0
 71
     0
 42
2.5
  3
ltypeshp.shx
  4

  0
STYLE
  5
6B
330
3
100
AcDbSymbolTableRecord
100
AcDbTextStyleTableRecord
  2
ASAMI
 70
     0
 40
0.0
 41
1.0
 50
0.0
 71
     0
 42
2.5
  3
simplex.shx
  4
EXTFONT.SHX
  0
STYLE
  5
262
330
3
100
AcDbSymbolTableRecord
100
AcDbTextStyleTableRecord
  2
ACJISTS
 70
     0
 40
1.0
 41
1.0
 50
0.0
 71
     0
 42
2.5
  3
simplex.shx
  4
bigfont.shx
  0
STYLE
  5
269
330
3
100
AcDbSymbolTableRecord
100
AcDbTextStyleTableRecord
  2
ACJISGDT
 70
     0
 40
0.0
 41
1.0
 50
0.0
 71
     0
 42
2.5
  3
amgdtans.shx
  4

  0
ENDTAB
  0
TABLE
  2
VIEW
  5
6
330
0
100
AcDbSymbolTable
 70
     0
  0
ENDTAB
  0
TABLE
  2
UCS
  5
7
330
0
100
AcDbSymbolTable
 70
     0
  0
ENDTAB
  0
TABLE
  2
APPID
  5
9
330
0
100
AcDbSymbolTable
 70
    14
  0
APPID
  5
12
330
9
100
AcDbSymbolTableRecord
100
AcDbRegAppTableRecord
  2
ACAD
 70
     0
  0
APPID
  5
30
330
9
100
AcDbSymbolTableRecord
100
AcDbRegAppTableRecord
  2
MCAD_NO_VIS
 70
     0
  0
APPID
  5
31
330
9
100
AcDbSymbolTableRecord
100
AcDbRegAppTableRecord
  2
ACAD_TEMP_GRAPHIC
 70
     0
  0
APPID
  5
2C2
330
9
100
AcDbSymbolTableRecord
100
AcDbRegAppTableRecord
  2
GENIUS_GENDTOL_13
 70
     0
  0
APPID
  5
339
330
9
100
AcDbSymbolTableRecord
100
AcDbRegAppTableRecord
  2
GENIUS_GENODEF_13
 70
     0
  0
APPID
  5
33A
330
9
100
AcDbSymbolTableRecord
100
AcDbRegAppTableRecord
  2
GENIUS_GENOBJ-N-RSBK_13
 70
     0
  0
APPID
  5
33B
330
9
100
AcDbSymbolTableRecord
100
AcDbRegAppTableRecord
  2
GENIUS_GENOBJ-N-LIB_13
 70
     0
  0
APPID
  5
33C
330
9
100
AcDbSymbolTableRecord
100
AcDbRegAppTableRecord
  2
GENIUS_GENSCALE_13
 70
     0
  0
APPID
  5
378
330
9
100
AcDbSymbolTableRecord
100
AcDbRegAppTableRecord
  2
GENIUS_GENDIMSH_14
 70
     0
  0
APPID
  5
C82
330
9
100
AcDbSymbolTableRecord
100
AcDbRegAppTableRecord
  2
GENIUS_GENOBJ-N-CRS_13
 70
     0
  0
APPID
  5
C83
330
9
100
AcDbSymbolTableRecord
100
AcDbRegAppTableRecord
  2
GENIUS_GENOENT_13
 70
     0
  0
APPID
  5
C84
330
9
100
AcDbSymbolTableRecord
100
AcDbRegAppTableRecord
  2
GENIUS_GENOREF_13
 70
     0
  0
APPID
  5
C85
330
9
100
AcDbSymbolTableRecord
100
AcDbRegAppTableRecord
  2
GENIUS_GENOLIS_13
 70
     0
  0
APPID
  5
CA0
330
9
100
AcDbSymbolTableRecord
100
AcDbRegAppTableRecord
  2
GENIUS_GENOBJ-N-CEN_13
 70
     0
  0
ENDTAB
  0
TABLE
  2
DIMSTYLE
  5
A
330
0
100
AcDbSymbolTable
 70
    10
  0
DIMSTYLE
105
58
330
A
100
AcDbSymbolTableRecord
100
AcDbDimStyleTableRecord
  2
AM_JIS
 70
     0
  3

  4
"
  5
OPEN30
  6

  7

 40
1.0
 41
2.5
 42
1.0
 43
12.0
 44
1.0
 45
0.0
 46
0.0
 47
0.1
 48
0.1
140
3.2
141
0.0
142
0.0
143
0.0393701
144
1.0
145
0.0
146
0.71
147
1.5
 71
     0
 72
     0
 73
     0
 74
     0
 75
     0
 76
     0
 77
     3
 78
     8
170
     0
171
     2
172
     1
173
     0
174
     0
175
     0
176
   256
177
   256
178
     2
270
     2
271
     3
272
     3
273
     2
274
     2
340
6B
275
     0
280
     0
281
     0
282
     0
283
     0
284
     0
285
     0
286
     0
287
     3
288
     0
  0
DIMSTYLE
105
5F
330
A
100
AcDbSymbolTableRecord
100
AcDbDimStyleTableRecord
  2
AM_JIS$3
 70
     0
  3

  4
"
  5
OPEN30
  6

  7

 40
1.0
 41
2.5
 42
1.0
 43
10.0
 44
1.0
 45
0.0
 46
0.0
 47
0.1
 48
0.1
140
3.2
141
0.0
142
0.0
143
0.0393701
144
1.0
145
0.0
146
0.71
147
1.5
 71
     0
 72
     0
 73
     0
 74
     1
 75
     0
 76
     0
 77
     3
 78
     8
170
     0
171
     2
172
     0
173
     0
174
     0
175
     0
176
   256
177
   256
178
     2
270
     2
271
     2
272
     3
273
     2
274
     2
340
6B
275
     0
280
     0
281
     0
282
     0
283
     0
284
     0
285
     0
286
     0
287
     0
288
     1
  0
DIMSTYLE
105
60
330
A
100
AcDbSymbolTableRecord
100
AcDbDimStyleTableRecord
  2
AM_JIS$4
 70
     0
  3

  4
"
  5
OPEN30
  6

  7

 40
1.0
 41
2.5
 42
1.0
 43
10.0
 44
1.0
 45
0.0
 46
0.0
 47
0.1
 48
0.1
140
3.2
141
0.0
142
0.0
143
0.0393701
144
1.0
145
0.0
146
0.71
147
1.5
 71
     0
 72
     0
 73
     0
 74
     1
 75
     0
 76
     0
 77
     3
 78
     8
170
     0
171
     2
172
     0
173
     0
174
     0
175
     0
176
   256
177
   256
178
     2
270
     2
271
     2
272
     3
273
     2
274
     2
340
6B
275
     0
280
     0
281
     0
282
     0
283
     0
284
     0
285
     0
286
     0
287
     0
288
     1
  0
DIMSTYLE
105
61
330
A
100
AcDbSymbolTableRecord
100
AcDbDimStyleTableRecord
  2
AM_JIS$6
 70
     0
  3

  4
"
  5
OPEN30
  6

  7

 40
1.0
 41
2.5
 42
1.0
 43
10.0
 44
1.0
 45
0.0
 46
0.0
 47
0.1
 48
0.1
140
3.2
141
0.0
142
0.0
143
0.0393701
144
1.0
145
0.0
146
0.71
147
1.5
 71
     0
 72
     0
 73
     0
 74
     0
 75
     0
 76
     0
 77
     0
 78
     8
170
     0
171
     2
172
     1
173
     0
174
     0
175
     0
176
   256
177
   256
178
     2
270
     2
271
     2
272
     2
273
     2
274
     2
340
6B
275
     0
280
     0
281
     0
282
     0
283
     0
284
     0
285
     0
286
     0
287
     3
288
     0
  0
DIMSTYLE
105
62
330
A
100
AcDbSymbolTableRecord
100
AcDbDimStyleTableRecord
  2
AM_JIS$7
 70
     0
  3

  4
"
  5
OPEN30
  6

  7

 40
1.0
 41
2.5
 42
1.0
 43
10.0
 44
1.0
 45
0.0
 46
0.0
 47
0.1
 48
0.1
140
3.2
141
0.0
142
0.0
143
0.0393701
144
1.0
145
0.0
146
0.71
147
1.5
 71
     0
 72
     0
 73
     0
 74
     0
 75
     0
 76
     0
 77
     3
 78
     8
170
     0
171
     2
172
     1
173
     0
174
     0
175
     0
176
   256
177
   256
178
     2
270
     2
271
     2
272
     3
273
     2
274
     2
340
6B
275
     0
280
     0
281
     0
282
     0
283
     0
284
     0
285
     0
286
     0
287
     3
288
     0
  0
DIMSTYLE
105
63
330
A
100
AcDbSymbolTableRecord
100
AcDbDimStyleTableRecord
  2
AM_JIS$SF
 70
     0
  3

  4
"
  5
OPEN30
  6

  7

 40
1.0
 41
2.5
 42
1.0
 43
10.0
 44
1.0
 45
0.0
 46
0.0
 47
0.1
 48
0.1
140
3.2
141
0.0
142
0.0
143
0.0393701
144
1.0
145
0.0
146
0.71
147
1.5
 71
     0
 72
     0
 73
     0
 74
     0
 75
     1
 76
     1
 77
     3
 78
     8
170
     0
171
     2
172
     1
173
     0
174
     0
175
     0
176
   256
177
   256
178
     2
270
     2
271
     2
272
     2
273
     2
274
     2
340
6B
275
     0
280
     0
281
     0
282
     0
283
     0
284
     0
285
     0
286
     0
287
     3
288
     0
  0
DIMSTYLE
105
68
330
A
100
AcDbSymbolTableRecord
100
AcDbDimStyleTableRecord
  2
AM_JIS$SH
 70
     0
  3

  4
"
  5

  6
GENAXEH
  7
OPEN30
 40
1.0
 41
2.5
 42
1.0
 43
10.0
 44
1.0
 45
0.0
 46
0.0
 47
0.1
 48
0.1
140
3.2
141
0.0
142
0.0
143
0.0393701
144
2.0
145
0.0
146
0.71
147
1.5
 71
     0
 72
     0
 73
     0
 74
     0
 75
     1
 76
     1
 77
     3
 78
     8
170
     0
171
     2
172
     1
173
     1
174
     0
175
     0
176
   256
177
   256
178
     2
270
     2
271
     2
272
     2
273
     2
274
     2
340
6B
275
     0
280
     0
281
     0
282
     0
283
     0
284
     0
285
     0
286
     0
287
     3
288
     0
  0
DIMSTYLE
105
B34
102
{ACAD_REACTORS
330
11B2
102
}
330
A
100
AcDbSymbolTableRecord
100
AcDbDimStyleTableRecord
  2
AM_JIS$2
 70
     0
  3

  4
"
  5
OPEN30
  6

  7

 40
1.0
 41
2.5
 42
1.0
 43
12.0
 44
1.0
 45
0.0
 46
0.0
 47
0.1
 48
0.1
140
3.2
141
0.0
142
0.0
143
0.0393701
144
1.0
145
0.0
146
0.71
147
1.5
 71
     0
 72
     0
 73
     0
 74
     0
 75
     0
 76
     0
 77
     3
 78
     8
170
     0
171
     2
172
     1
173
     0
174
     0
175
     0
176
   256
177
   256
178
     2
270
     2
271
     3
272
     3
273
     2
274
     2
340
6B
275
     0
280
     0
281
     0
282
     0
283
     0
284
     0
285
     0
286
     0
287
     3
288
     0
  0
DIMSTYLE
105
BA5
102
{ACAD_REACTORS
330
CC6
330
2069
330
23DF
330
246E
102
}
330
A
100
AcDbSymbolTableRecord
100
AcDbDimStyleTableRecord
  2
AM_JIS$0
 70
     0
  3

  4
"
  5
OPEN30
  6

  7

 40
1.0
 41
2.5
 42
0.8
 43
10.0
 44
1.0
 45
0.0
 46
0.0
 47
0.1
 48
0.1000000001
140
3.799999999999999
141
0.0
142
0.0
143
0.0393701
144
1.0
145
0.0
146
0.71
147
1.5
 71
     0
 72
     0
 73
     0
 74
     0
 75
     0
 76
     0
 77
     3
 78
     9
170
     0
171
     2
172
     1
173
     0
174
     0
175
     0
176
     3
177
     3
178
     2
270
     2
271
     2
272
     2
273
     2
274
     2
340
11
275
     1
280
     0
281
     0
282
     0
283
     0
284
     8
285
     0
286
     0
287
     0
288
     0
  0
DIMSTYLE
105
BA6
330
A
100
AcDbSymbolTableRecord
100
AcDbDimStyleTableRecord
  2
AM_JISORG-1P0$2
 70
     0
  3

  4
"
  5
OPEN30
  6

  7

 40
1.0
 41
2.5
 42
0.0
 43
10.0
 44
1.0
 45
0.0
 46
0.0
 47
0.1
 48
0.1000000001
140
3.799999999999999
141
0.0
142
0.0
143
0.0393701
144
-0.999999980146674
145
0.0
146
0.71
147
1.5
 71
     0
 72
     0
 73
     0
 74
     0
 75
     0
 76
     0
 77
     3
 78
     1
170
     0
171
     2
172
     1
173
     0
174
     0
175
     0
176
     3
177
     3
178
     2
270
     2
271
     2
272
     2
273
     2
274
     2
340
11
275
     1
280
     0
281
     0
282
     0
283
     0
284
     8
285
     0
286
     0
287
     0
288
     0
  0
ENDTAB
  0
TABLE
  2
BLOCK_RECORD
  5
1
330
0
100
AcDbSymbolTable
 70
    22
  0
BLOCK_RECORD
  5
1F
102
{ACAD_XDICTIONARY
360
74
102
}
330
1
100
AcDbSymbolTableRecord
100
AcDbBlockTableRecord
  2
*MODEL_SPACE
  0
BLOCK_RECORD
  5
101
102
{ACAD_XDICTIONARY
360
3509
102
}
330
1
100
AcDbSymbolTableRecord
100
AcDbBlockTableRecord
  2
*PAPER_SPACE
  0
BLOCK_RECORD
  5
59
330
1
100
AcDbSymbolTableRecord
100
AcDbBlockTableRecord
  2
_OPEN30
  0
BLOCK_RECORD
  5
64
330
1
100
AcDbSymbolTableRecord
100
AcDbBlockTableRecord
  2
GENAXEH
  0
BLOCK_RECORD
  5
C31
330
1
100
AcDbSymbolTableRecord
100
AcDbBlockTableRecord
  2
A$C36D02A34
  0
BLOCK_RECORD
  5
CC8
330
1
100
AcDbSymbolTableRecord
100
AcDbBlockTableRecord
  2
*D6
  0
BLOCK_RECORD
  5
11B3
330
1
100
AcDbSymbolTableRecord
100
AcDbBlockTableRecord
  2
*D7
  0
BLOCK_RECORD
  5
206A
330
1
100
AcDbSymbolTableRecord
100
AcDbBlockTableRecord
  2
*D8
  0
BLOCK_RECORD
  5
23E0
330
1
100
AcDbSymbolTableRecord
100
AcDbBlockTableRecord
  2
*D9
  0
BLOCK_RECORD
  5
2453
330
1
100
AcDbSymbolTableRecord
100
AcDbBlockTableRecord
  2
*D10
  0
BLOCK_RECORD
  5
245F
330
1
100
AcDbSymbolTableRecord
100
AcDbBlockTableRecord
  2
A$C4FFC6CC0
  0
BLOCK_RECORD
  5
2479
330
1
100
AcDbSymbolTableRecord
100
AcDbBlockTableRecord
  2
*D12
  0
ENDTAB
  0
ENDSEC
  0
SECTION
  2
BLOCKS
  0
BLOCK
  5
20
330
1F
100
AcDbEntity
  8
0
100
AcDbBlockBegin
  2
*MODEL_SPACE
 70
     0
 10
0.0
 20
0.0
 30
0.0
  3
*MODEL_SPACE
  1

  0
ENDBLK
  5
21
330
1F
100
AcDbEntity
  8
0
100
AcDbBlockEnd
  0
BLOCK
  5
103
330
101
100
AcDbEntity
 67
     1
  8
0
100
AcDbBlockBegin
  2
*PAPER_SPACE
 70
     0
 10
0.0
 20
0.0
 30
0.0
  3
*PAPER_SPACE
  1

  0
ENDBLK
  5
104
330
101
100
AcDbEntity
 67
     1
  8
0
100
AcDbBlockEnd
  0
BLOCK
  5
5D
330
59
100
AcDbEntity
  8
0
100
AcDbBlockBegin
  2
_OPEN30
 70
     0
 10
0.0
 20
0.0
 30
0.0
  3
_OPEN30
  1

  0
LINE
  5
5A
330
59
100
AcDbEntity
  8
0
 62
     0
100
AcDbLine
 10
-1.0
 20
0.26794919
 30
0.0
 11
0.0
 21
0.0
 31
0.0
  0
LINE
  5
5B
330
59
100
AcDbEntity
  8
0
 62
     0
100
AcDbLine
 10
0.0
 20
0.0
 30
0.0
 11
-1.0
 21
-0.26794919
 31
0.0
  0
LINE
  5
5C
330
59
100
AcDbEntity
  8
0
 62
     0
100
AcDbLine
 10
0.0
 20
0.0
 30
0.0
 11
-1.0
 21
0.0
 31
0.0
  0
ENDBLK
  5
5E
330
59
100
AcDbEntity
  8
0
100
AcDbBlockEnd
  0
BLOCK
  5
66
330
64
100
AcDbEntity
  8
0
100
AcDbBlockBegin
  2
GENAXEH
 70
     0
 10
0.0
 20
0.0
 30
0.0
  3
GENAXEH
  1

  0
LINE
  5
65
330
64
100
AcDbEntity
  8
0
100
AcDbLine
 10
-1.0
 20
0.0
 30
0.0
 11
1.0
 21
0.0
 31
0.0
  0
ENDBLK
  5
67
330
64
100
AcDbEntity
  8
0
100
AcDbBlockEnd
  0
BLOCK
  5
C4B
330
C31
100
AcDbEntity
  8
0
100
AcDbBlockBegin
  2
A$C36D02A34
 70
     0
 10
0.0
 20
0.0
 30
0.0
  3
A$C36D02A34
  1

  0
ARC
  5
C32
330
C31
100
AcDbEntity
  8
PV0001_1
  6
CONTINUOUS
 48
0.5
100
AcDbCircle
 10
18.06811523436999
 20
-11.83651161193799
 30
0.0
 40
21.600000381469
100
AcDbArc
 50
123.2290435713209
 51
126.6341524197568
  0
ARC
  5
C33
330
C31
100
AcDbEntity
  8
PV0001_1
  6
CONTINUOUS
 48
0.5
100
AcDbCircle
 10
18.06811523436999
 20
-11.83651161193799
 30
0.0
 40
21.600000381469
100
AcDbArc
 50
135.0736707620117
 51
146.7709980930592
  0
ARC
  5
C34
330
C31
100
AcDbEntity
  8
PV0001_1
  6
CONTINUOUS
 48
0.5
100
AcDbCircle
 10
-18.0680770874
 20
11.8365631103514
 30
0.0
 40
21.600000381469
100
AcDbArc
 50
315.0734847530392
 51
326.770781348241
  0
ARC
  5
C35
330
C31
100
AcDbEntity
  8
PV0001_1
  6
CONTINUOUS
 48
0.5
100
AcDbCircle
 10
-18.0680770874
 20
11.8365631103514
 30
0.0
 40
21.600000381469
100
AcDbArc
 50
303.2288882981993
 51
306.633986901359
  0
ARC
  5
C36
330
C31
100
AcDbEntity
  8
PV0001_1
  6
CONTINUOUS
 48
0.5
100
AcDbCircle
 10
-0.6269836425800009
 20
-2.044216156005997
 30
0.0
 40
2.0
100
AcDbArc
 50
337.4067997351092
 51
43.42231293132884
  0
ARC
  5
C37
330
C31
100
AcDbEntity
  8
PV0001_1
  6
CONTINUOUS
 48
0.5
100
AcDbCircle
 10
0.626953125
 20
2.044223785401001
 30
0.0
 40
2.0
100
AcDbArc
 50
157.4068184044407
 51
223.4222769591536
  0
CIRCLE
  5
C38
330
C31
100
AcDbEntity
  8
PV0001_1
  6
CONTINUOUS
 48
0.5
100
AcDbCircle
 10
3.856727600100001
 20
4.596265792847002
 30
0.0
 40
1.6000000238419
  0
CIRCLE
  5
C39
330
C31
100
AcDbEntity
  8
PV0001_1
  6
CONTINUOUS
 48
0.5
100
AcDbCircle
 10
-3.856727600100001
 20
-4.596265792845997
 30
0.0
 40
1.6000000238419
  0
ARC
  5
C3A
330
C31
100
AcDbEntity
  8
PV0001_1
  6
CONTINUOUS
 48
0.5
100
AcDbCircle
 10
-5.58123779297
 20
5.092639923096001
 30
0.0
 40
5.019082546234099
100
AcDbArc
 50
240.2658959250867
 51
321.5156269706421
  0
ARC
  5
C3B
330
C31
100
AcDbEntity
  8
PV0001_1
  6
CONTINUOUS
 48
0.5
100
AcDbCircle
 10
5.486755371089998
 20
-4.601703643798998
 30
0.0
 40
4.651036739349399
100
AcDbArc
 50
56.25271400417071
 51
145.528859890601
  0
ARC
  5
C3C
330
C31
100
AcDbEntity
  8
PV0001_1
  6
CONTINUOUS
 48
0.5
100
AcDbCircle
 10
-2.11590576172
 20
-3.453323364257997
 30
0.0
 40
4.050000190734899
100
AcDbArc
 50
43.42230610113921
 51
58.50391703385149
  0
ARC
  5
C3D
330
C31
100
AcDbEntity
  8
PV0001_1
  6
CONTINUOUS
 48
0.5
100
AcDbCircle
 10
2.115875244139999
 20
3.453330993653001
 30
0.0
 40
4.050000190734899
100
AcDbArc
 50
223.4222942619974
 51
238.5038164022482
  0
ARC
  5
C3E
330
C31
100
AcDbEntity
  8
PV0001_1
  6
CONTINUOUS
 48
0.5
100
AcDbCircle
 10
-6.70369720459
 20
5.094657897949002
 30
0.0
 40
5.940000057220499
100
AcDbArc
 50
328.2536768887549
 51
31.74641873389623
  0
ARC
  5
C3F
330
C31
100
AcDbEntity
  8
PV0001_1
  6
CONTINUOUS
 48
0.5
100
AcDbCircle
 10
6.703674316410001
 20
-5.094650268553998
 30
0.0
 40
5.940000057220499
100
AcDbArc
 50
148.2533403882529
 51
211.7466423089037
  0
ARC
  5
C40
330
C31
100
AcDbEntity
  8
PV0001_1
  6
CONTINUOUS
 48
0.5
100
AcDbCircle
 10
0.0
 20
0.0
 30
0.0
 40
8.812800407409699
100
AcDbArc
 50
175.2198288164333
 51
272.8622597568298
  0
ARC
  5
C41
330
C31
100
AcDbEntity
  8
PV0001_1
  6
CONTINUOUS
 48
0.5
100
AcDbCircle
 10
0.0
 20
0.0
 30
0.0
 40
9.1800003051758
100
AcDbArc
 50
272.7511362215027
 51
280.3697477877874
  0
ARC
  5
C42
330
C31
100
AcDbEntity
  8
PV0001_1
  6
CONTINUOUS
 48
0.5
100
AcDbCircle
 10
0.0
 20
0.0
 30
0.0
 40
8.812800407409699
100
AcDbArc
 50
355.2198199654955
 51
92.86229572901076
  0
ARC
  5
C43
330
C31
100
AcDbEntity
  8
PV0001_1
  6
CONTINUOUS
 48
0.5
100
AcDbCircle
 10
0.0
 20
0.0
 30
0.0
 40
9.1800003051758
100
AcDbArc
 50
92.75115489083434
 51
100.3697664571193
  0
CIRCLE
  5
C44
330
C31
100
AcDbEntity
  8
PV0001_1
  6
CONTINUOUS
100
AcDbCircle
 10
0.0
 20
0.0
 30
0.0
 40
9.1800003051758
  0
LINE
  5
C45
330
C31
100
AcDbEntity
  8
PV0001_1
  6
CONTINUOUS
 48
0.5
100
AcDbLine
 10
-1.652404785160001
 20
9.030059814453
 30
0.0
 11
-1.652404785160001
 21
8.220062255860002
 31
0.0
  0
LINE
  5
C46
330
C31
100
AcDbEntity
  8
PV0001_1
  6
CONTINUOUS
 48
0.5
100
AcDbLine
 10
1.652404785160001
 20
-8.220058441161999
 30
0.0
 11
1.652404785160001
 21
-9.030055999755997
 31
0.0
  0
LINE
  5
C47
330
C31
100
AcDbEntity
  8
PV0001_1
  6
CONTINUOUS
 48
0.5
100
AcDbLine
 10
-8.78217315674
 20
0.7343807220460015
 30
0.0
 11
-8.070594787600001
 21
0.7343997955320028
 31
0.0
  0
LINE
  5
C48
330
C31
100
AcDbEntity
  8
PV0001_1
  6
CONTINUOUS
 48
0.5
100
AcDbLine
 10
8.07057952881
 20
-0.7343864440919994
 30
0.0
 11
8.78215789795
 21
-0.7343654632569994
 31
0.0
  0
LINE
  5
C49
330
C31
100
AcDbEntity
  8
PV0001_1
  6
CONTINUOUS
 48
0.5
100
AcDbLine
 10
0.4406127929700006
 20
-9.169414520263
 30
0.0
 11
0.4406127929700006
 21
-8.812801361083998
 31
0.0
  0
LINE
  5
C4A
330
C31
100
AcDbEntity
  8
PV0001_1
  6
CONTINUOUS
 48
0.5
100
AcDbLine
 10
-0.4406127929700006
 20
9.169418334961001
 30
0.0
 11
-0.4406127929700006
 21
8.812805175781001
 31
0.0
  0
ENDBLK
  5
C4C
330
C31
100
AcDbEntity
  8
0
100
AcDbBlockEnd
  0
BLOCK
  5
CD2
330
CC8
100
AcDbEntity
  8
0
100
AcDbBlockBegin
  2
*D6
 70
     1
 10
0.0
 20
0.0
 30
0.0
  3
*D6
  1

  0
LINE
  5
3404
330
CC8
100
AcDbEntity
  8
AM_5
 62
     3
100
AcDbLine
 10
-187.7268276701971
 20
-7.521770960471756
 30
0.0
 11
-187.7268276701971
 21
-43.64239330363704
 31
0.0
  0
LINE
  5
3405
330
CC8
100
AcDbEntity
  8
AM_5
 62
     3
100
AcDbLine
 10
-2.722503324328132
 20
-8.280016040400029
 30
0.0
 11
-2.722503324328134
 21
-43.64239330363704
 31
0.0
  0
LINE
  5
3406
330
CC8
100
AcDbEntity
  8
AM_5
 62
     3
100
AcDbLine
 10
-185.2268276701971
 20
-42.64239330363704
 30
0.0
 11
-5.222503324328133
 21
-42.64239330363704
 31
0.0
  0
INSERT
  5
3407
330
CC8
100
AcDbEntity
  8
AM_5
 62
     3
100
AcDbBlockReference
  2
_OPEN30
 10
-187.7268276701971
 20
-42.64239330363704
 30
0.0
 41
2.5
 42
2.5
 43
2.5
 50
180.0
  0
INSERT
  5
3408
330
CC8
100
AcDbEntity
  8
AM_5
 62
     3
100
AcDbBlockReference
  2
_OPEN30
 10
-2.722503324328134
 20
-42.64239330363704
 30
0.0
 41
2.5
 42
2.5
 43
2.5
  0
MTEXT
  5
3409
330
CC8
100
AcDbEntity
  8
AM_5
 62
     2
100
AcDbMText
 10
-95.22466549726265
 20
-39.24239330363704
 30
0.0
 40
3.799999999999999
 41
0.0
 71
     5
 72
     1
  1
185
1001
ACAD
1000
MTEXTBEGIN
1070
    73
1070
     1
1070
    44
1040
1.0
1070
    74
1070
     0
1000
MTEXTEND
  0
POINT
  5
340A
330
CC8
100
AcDbEntity
  8
DEFPOINTS
 62
     0
100
AcDbPoint
 10
-187.7268276701971
 20
-6.721770960471756
 30
0.0
  0
POINT
  5
340B
330
CC8
100
AcDbEntity
  8
DEFPOINTS
 62
     0
100
AcDbPoint
 10
-2.722503324328132
 20
-7.480016040400029
 30
0.0
  0
POINT
  5
340C
330
CC8
100
AcDbEntity
  8
DEFPOINTS
 62
     0
100
AcDbPoint
 10
-2.722503324328134
 20
-42.64239330363704
 30
0.0
  0
ENDBLK
  5
CD3
330
CC8
100
AcDbEntity
  8
0
100
AcDbBlockEnd
  0
BLOCK
  5
11C1
330
11B3
100
AcDbEntity
  8
0
100
AcDbBlockBegin
  2
*D7
 70
     1
 10
0.0
 20
0.0
 30
0.0
  3
*D7
  1

  0
LINE
  5
33CB
330
11B3
100
AcDbEntity
  8
AM_5
100
AcDbLine
 10
0.3420137829869789
 20
-0.9396926216993264
 30
0.0
 11
14.79602838844582
 21
-40.65177170064854
 31
0.0
  0
LINE
  5
33CC
330
11B3
100
AcDbEntity
  8
AM_5
100
AcDbLine
 10
0.342013060370197
 20
0.9396961578450159
 30
0.0
 11
14.79605653500898
 21
40.65176900203561
 31
0.0
  0
ARC
  5
33CD
330
11B3
100
AcDbEntity
  8
AM_5
100
AcDbCircle
 10
-0.0000077310723222
 20
0.0000037729546026
 30
0.0
 40
42.26071582863982
100
AcDbArc
 50
293.3899174174367
 51
66.61004291198405
  0
INSERT
  5
33CE
330
11B3
100
AcDbEntity
  8
AM_5
100
AcDbBlockReference
  2
_OPEN30
 10
14.45400824762969
 20
-39.71207907894924
 30
0.0
 41
2.5
 42
2.5
 43
2.5
 50
201.6949586322115
  0
INSERT
  5
33CF
330
11B3
100
AcDbEntity
  8
AM_5
100
AcDbBlockReference
  2
_OPEN30
 10
14.45403574356646
 20
39.7120766171452
 30
0.0
 41
2.5
 42
2.5
 43
2.5
 50
158.3050016972091
  0
MTEXT
  5
33D0
330
11B3
100
AcDbEntity
  8
AM_5
 62
     2
100
AcDbMText
 10
39.16070809756497
 20
-0.0000108573295858
 30
0.0
 40
3.2
 41
0.0
 71
     5
 72
     1
  1
140°
  7
ASAMI
 11
0.0000000000000001
 21
1.0
 31
0.0
1001
ACAD
1000
MTEXTBEGIN
1070
    73
1070
     1
1070
    44
1040
1.0
1070
    74
1070
     0
1000
MTEXTEND
  0
POINT
  5
33D1
330
11B3
100
AcDbEntity
  8
DEFPOINTS
 62
     0
100
AcDbPoint
 10
38.80446994251619
 20
16.73860033386792
 30
0.0
  0
POINT
  5
33D2
330
11B3
100
AcDbEntity
  8
DEFPOINTS
 62
     0
100
AcDbPoint
 10
-0.0000079472858279
 20
0.0000031789141527
 30
0.0
  0
POINT
  5
33D3
330
11B3
100
AcDbEntity
  8
DEFPOINTS
 62
     0
100
AcDbPoint
 10
-0.000006357829155
 20
-0.0000000000000221
 30
0.0
  0
POINT
  5
33D4
330
11B3
100
AcDbEntity
  8
DEFPOINTS
 62
     0
100
AcDbPoint
 10
-0.6672795613608193
 20
1.833318074544154
 30
0.0
  0
POINT
  5
33D5
330
11B3
100
AcDbEntity
  8
DEFPOINTS
 62
     0
100
AcDbPoint
 10
-0.667290687560822
 20
-1.833337148030858
 30
0.0
  0
ENDBLK
  5
11C2
330
11B3
100
AcDbEntity
  8
0
100
AcDbBlockEnd
  0
BLOCK
  5
2074
330
206A
100
AcDbEntity
  8
0
100
AcDbBlockBegin
  2
*D8
 70
     1
 10
0.0
 20
0.0
 30
0.0
  3
*D8
  1

  0
LINE
  5
3442
330
206A
100
AcDbEntity
  8
AM_0
 62
     3
100
AcDbLine
 10
-122.7264634498986
 20
-8.281428268007973
 30
0.0
 11
-122.7264634498986
 21
-30.68267856533385
 31
0.0
  0
LINE
  5
3443
330
206A
100
AcDbEntity
  8
AM_0
 62
     3
100
AcDbLine
 10
-2.722503324328108
 20
-8.280016040400036
 30
0.0
 11
-2.722503324328044
 21
-30.6826785653335
 31
0.0
  0
LINE
  5
3444
330
206A
100
AcDbEntity
  8
AM_0
 62
     3
100
AcDbLine
 10
-120.2264634498986
 20
-29.68267856533384
 30
0.0
 11
-5.222503324328047
 21
-29.6826785653335
 31
0.0
  0
INSERT
  5
3445
330
206A
100
AcDbEntity
  8
AM_0
 62
     3
100
AcDbBlockReference
  2
_OPEN30
 10
-122.7264634498986
 20
-29.68267856533385
 30
0.0
 41
2.5
 42
2.5
 43
2.5
 50
180.0000000000001
  0
INSERT
  5
3446
330
206A
100
AcDbEntity
  8
AM_0
 62
     3
100
AcDbBlockReference
  2
_OPEN30
 10
-2.722503324328047
 20
-29.6826785653335
 30
0.0
 41
2.5
 42
2.5
 43
2.5
 50
0.0000000000001527
  0
MTEXT
  5
3447
330
206A
100
AcDbEntity
  8
AM_0
 62
     2
100
AcDbMText
 10
-62.72448338711333
 20
-26.28267856533367
 30
0.0
 40
3.799999999999999
 41
0.0
 71
     5
 72
     1
  1
120
1001
ACAD
1000
MTEXTBEGIN
1070
    73
1070
     1
1070
    44
1040
1.0
1070
    74
1070
     0
1000
MTEXTEND
  0
POINT
  5
3448
330
206A
100
AcDbEntity
  8
DEFPOINTS
 62
     0
100
AcDbPoint
 10
-122.7264634498986
 20
-7.481428268007615
 30
0.0
  0
POINT
  5
3449
330
206A
100
AcDbEntity
  8
DEFPOINTS
 62
     0
100
AcDbPoint
 10
-2.722503324328132
 20
-7.480016040400029
 30
0.0
  0
POINT
  5
344A
330
206A
100
AcDbEntity
  8
DEFPOINTS
 62
     0
100
AcDbPoint
 10
-2.722503324328133
 20
-29.68267856533349
 30
0.0
  0
ENDBLK
  5
2075
330
206A
100
AcDbEntity
  8
0
100
AcDbBlockEnd
  0
BLOCK
  5
23EC
330
23E0
100
AcDbEntity
  8
0
100
AcDbBlockBegin
  2
*D9
 70
     1
 10
0.0
 20
0.0
 30
0.0
  3
*D9
  1

  0
LINE
  5
3457
330
23E0
100
AcDbEntity
  8
AM_5
 62
     3
100
AcDbLine
 10
-2.167130697817721
 20
-7.500015111088557
 30
0.0
 11
24.11896561863502
 21
-7.500015111088565
 31
0.0
  0
LINE
  5
3458
330
23E0
100
AcDbEntity
  8
AM_5
 62
     3
100
AcDbLine
 10
-2.16714546940356
 20
7.499999194025175
 30
0.0
 11
24.11896561863502
 21
7.499999194025167
 31
0.0
  0
LINE
  5
3459
330
23E0
100
AcDbEntity
  8
AM_5
 62
     3
100
AcDbLine
 10
23.11896561863502
 20
-10.00001511108856
 30
0.0
 11
23.11896561863502
 21
-12.50001511108856
 31
0.0
  0
LINE
  5
345A
330
23E0
100
AcDbEntity
  8
AM_5
 62
     3
100
AcDbLine
 10
23.11896561863503
 20
9.999999194025166
 30
0.0
 11
23.11896561863503
 21
12.49999919402516
 31
0.0
  0
LINE
  5
345B
330
23E0
100
AcDbEntity
  8
AM_5
 62
     3
100
AcDbLine
 10
23.11896561863502
 20
-7.500015111088565
 30
0.0
 11
23.11896561863502
 21
7.499999194025167
 31
0.0
  0
INSERT
  5
345C
330
23E0
100
AcDbEntity
  8
AM_5
 62
     3
100
AcDbBlockReference
  2
_OPEN30
 10
23.11896561863502
 20
-7.500015111088565
 30
0.0
 41
2.5
 42
2.5
 43
2.5
 50
90.0
  0
INSERT
  5
345D
330
23E0
100
AcDbEntity
  8
AM_5
 62
     3
100
AcDbBlockReference
  2
_OPEN30
 10
23.11896561863502
 20
7.499999194025167
 30
0.0
 41
2.5
 42
2.5
 43
2.5
 50
270.0
  0
MTEXT
  5
345E
330
23E0
100
AcDbEntity
  8
AM_5
 62
     2
100
AcDbMText
 10
19.71896561863502
 20
-0.0000079585316999
 30
0.0
 40
3.799999999999999
 41
0.0
 71
     5
 72
     1
  1
%%c15
 11
0.0000000000000001
 21
1.0
 31
0.0
1001
ACAD
1000
MTEXTBEGIN
1070
    73
1070
     1
1070
    44
1040
1.0
1070
    74
1070
     0
1000
MTEXTEND
  0
POINT
  5
345F
330
23E0
100
AcDbEntity
  8
DEFPOINTS
 62
     0
100
AcDbPoint
 10
-2.967130697817721
 20
-7.500015111088557
 30
0.0
  0
POINT
  5
3460
330
23E0
100
AcDbEntity
  8
DEFPOINTS
 62
     0
100
AcDbPoint
 10
-2.96714546940356
 20
7.499999194025175
 30
0.0
  0
POINT
  5
3461
330
23E0
100
AcDbEntity
  8
DEFPOINTS
 62
     0
100
AcDbPoint
 10
23.11896561863502
 20
7.499999194025167
 30
0.0
  0
ENDBLK
  5
23ED
330
23E0
100
AcDbEntity
  8
0
100
AcDbBlockEnd
  0
BLOCK
  5
245D
330
2453
100
AcDbEntity
  8
0
100
AcDbBlockBegin
  2
*D10
 70
     1
 10
0.0
 20
0.0
 30
0.0
  3
*D10
  1

  0
LINE
  5
2454
330
2453
100
AcDbEntity
  8
AM_5
 62
     3
100
AcDbLine
 10
-137.574381722344
 20
-5.00000294019065
 30
0.0
 11
-152.8199008769066
 21
-5.000002940190694
 31
0.0
  0
LINE
  5
2455
330
2453
100
AcDbEntity
  8
AM_5
 62
     3
100
AcDbLine
 10
-137.5743817223442
 20
5.00002461040103
 30
0.0
 11
-152.8199008769066
 21
5.000024610400987
 31
0.0
  0
LINE
  5
2456
330
2453
100
AcDbEntity
  8
AM_5
 62
     3
100
AcDbLine
 10
-151.8199008769066
 20
-2.500002940190691
 30
0.0
 11
-151.8199008769066
 21
2.50002461040099
 31
0.0
  0
INSERT
  5
2457
330
2453
100
AcDbEntity
  8
AM_5
 62
     3
100
AcDbBlockReference
  2
_OPEN30
 10
-151.8199008769066
 20
-5.00000294019069
 30
0.0
 41
2.5
 42
2.5
 43
2.5
 50
270.0000000000001
  0
INSERT
  5
2458
330
2453
100
AcDbEntity
  8
AM_5
 62
     3
100
AcDbBlockReference
  2
_OPEN30
 10
-151.8199008769066
 20
5.00002461040099
 30
0.0
 41
2.5
 42
2.5
 43
2.5
 50
90.00000000000015
  0
MTEXT
  5
2459
330
2453
100
AcDbEntity
  8
AM_5
 62
     2
100
AcDbMText
 10
-155.2199008769066
 20
0.000010835105146
 30
0.0
 40
3.799999999999999
 41
0.0
 71
     5
 72
     1
  1
%%c10
 11
-0.0000000000000028
 21
1.0
 31
0.0
1001
ACAD
1000
MTEXTBEGIN
1070
    73
1070
     1
1070
    44
1040
1.0
1070
    74
1070
     0
1000
MTEXTEND
  0
POINT
  5
245A
330
2453
100
AcDbEntity
  8
DEFPOINTS
 62
     0
100
AcDbPoint
 10
-137.5743817223441
 20
-5.000002940190223
 30
0.0
  0
POINT
  5
245B
330
2453
100
AcDbEntity
  8
DEFPOINTS
 62
     0
100
AcDbPoint
 10
-137.5743817223441
 20
5.000024610401458
 30
0.0
  0
POINT
  5
245C
330
2453
100
AcDbEntity
  8
DEFPOINTS
 62
     0
100
AcDbPoint
 10
-151.8199008769066
 20
5.000024610401462
 30
0.0
  0
ENDBLK
  5
245E
330
2453
100
AcDbEntity
  8
0
100
AcDbBlockEnd
  0
BLOCK
  5
246B
330
245F
100
AcDbEntity
  8
0
100
AcDbBlockBegin
  2
A$C4FFC6CC0
 70
     0
 10
0.0
 20
0.0
 30
0.0
  3
A$C4FFC6CC0
  1

  0
DIMENSION
  5
2460
330
245F
100
AcDbEntity
  8
AM_5
100
AcDbDimension
  2
*D10
 10
-70.00000100000002
 20
5.000008477104842
 30
0.0
 11
-70.00000100000002
 21
-0.0000052981910228
 31
0.0
 12
81.81989987690661
 22
-0.0000161332966199
 32
0.0
 70
   128
  1
%%c<>
 51
359.9999999999998
  3
AM_JIS$0
100
AcDbAlignedDimension
 13
-55.75448184543748
 23
-5.000019073486843
 33
0.0
 14
-55.75448184543756
 24
5.000008477104838
 34
0.0
 50
270.0
100
AcDbRotatedDimension
1001
ACAD
1000
DSTYLE
1002
{
1070
   271
1070
     0
1002
}
1001
GENIUS_GENDTOL_13
1000

1000
h7
1000

1040
0.0
  0
LINE
  5
2461
330
245F
100
AcDbEntity
  8
AM_0
 48
0.5
100
AcDbLine
 10
-56.0
 20
-4.754495620727796
 30
0.0
 11
-56.00000000000003
 21
4.754485024345811
 31
0.0
  0
LINE
  5
2462
330
245F
100
AcDbEntity
  8
AM_0
 48
0.5
100
AcDbLine
 10
-55.75448184543751
 20
-5.000019073486843
 30
0.0
 11
-55.75448184543754
 21
5.000008477104838
 31
0.0
  0
LINE
  5
2463
330
245F
100
AcDbEntity
  8
AM_0
100
AcDbLine
 10
-0.0000000000000142
 20
4.999995231627903
 30
0.0
 11
-55.75448184543754
 21
4.999995231627746
 31
0.0
  0
LINE
  5
2464
330
245F
100
AcDbEntity
  8
AM_0
 48
0.5
100
AcDbLine
 10
-55.99996821086117
 20
4.754439989725671
 30
0.0
 11
-55.75443945990975
 21
4.999963442484006
 31
0.0
  0
LINE
  5
2465
330
245F
100
AcDbEntity
  8
AM_0
100
AcDbLine
 10
-55.75448184543751
 20
-5.000008477105588
 30
0.0
 11
0.0000000000000142
 21
-5.00000847710543
 31
0.0
  0
LINE
  5
2466
330
245F
100
AcDbEntity
  8
AM_0
 48
0.5
100
AcDbLine
 10
-55.99996821086114
 20
-4.754474427965309
 30
0.0
 11
-55.75443945990972
 21
-4.999997880724334
 31
0.0
  0
LINE
  5
2467
330
245F
100
AcDbEntity
  8
AM_0
100
AcDbLine
 10
0.7794201296714505
 20
4.549985867772141
 30
0.0
 11
0.7794201296714789
 21
-4.550003370497427
 31
0.0
  0
LINE
  5
2468
330
245F
100
AcDbEntity
  8
AM_0
 48
0.5
100
AcDbLine
 10
0.0000000000000142
 20
-5.00000847710543
 30
0.0
 11
-0.0000000000000142
 21
5.000008477104995
 31
0.0
  0
LINE
  5
2469
330
245F
100
AcDbEntity
  8
AM_0
 48
0.5
100
AcDbLine
 10
0.7794201296714647
 20
-4.550003370497435
 30
0.0
 11
-0.0000105963812445
 21
-5.00000847710543
 31
0.0
  0
LINE
  5
246A
330
245F
100
AcDbEntity
  8
AM_0
 48
0.5
100
AcDbLine
 10
0.7794201296714647
 20
4.549985867772141
 30
0.0
 11
-0.0000000000000142
 21
4.999984635246652
 31
0.0
  0
ENDBLK
  5
246C
330
245F
100
AcDbEntity
  8
0
100
AcDbBlockEnd
  0
BLOCK
  5
2483
330
2479
100
AcDbEntity
  8
0
100
AcDbBlockBegin
  2
*D12
 70
     1
 10
0.0
 20
0.0
 30
0.0
  3
*D12
  1

  0
LINE
  5
33F0
330
2479
100
AcDbEntity
  8
AM_5
 62
     3
100
AcDbLine
 10
-188.2486075782749
 20
-7.499949032446947
 30
0.0
 11
-202.3859094039599
 21
-7.499949032446942
 31
0.0
  0
LINE
  5
33F1
330
2479
100
AcDbEntity
  8
AM_5
 62
     3
100
AcDbLine
 10
-188.2486556010779
 20
7.499900897335455
 30
0.0
 11
-202.3859094039599
 21
7.49990089733546
 31
0.0
  0
LINE
  5
33F2
330
2479
100
AcDbEntity
  8
AM_5
 62
     3
100
AcDbLine
 10
-201.3859094039599
 20
-9.999949032446943
 30
0.0
 11
-201.3859094039599
 21
-12.49994903244694
 31
0.0
  0
LINE
  5
33F3
330
2479
100
AcDbEntity
  8
AM_5
 62
     3
100
AcDbLine
 10
-201.3859094039599
 20
9.999900897335459
 30
0.0
 11
-201.3859094039599
 21
12.49990089733546
 31
0.0
  0
LINE
  5
33F4
330
2479
100
AcDbEntity
  8
AM_5
 62
     3
100
AcDbLine
 10
-201.3859094039599
 20
-7.499949032446943
 30
0.0
 11
-201.3859094039599
 21
7.499900897335459
 31
0.0
  0
INSERT
  5
33F5
330
2479
100
AcDbEntity
  8
AM_5
 62
     3
100
AcDbBlockReference
  2
_OPEN30
 10
-201.3859094039599
 20
-7.499949032446943
 30
0.0
 41
2.5
 42
2.5
 43
2.5
 50
90.0
  0
INSERT
  5
33F6
330
2479
100
AcDbEntity
  8
AM_5
 62
     3
100
AcDbBlockReference
  2
_OPEN30
 10
-201.3859094039599
 20
7.499900897335459
 30
0.0
 41
2.5
 42
2.5
 43
2.5
 50
270.0
  0
MTEXT
  5
33F7
330
2479
100
AcDbEntity
  8
AM_5
 62
     2
100
AcDbMText
 10
-204.7859094039599
 20
-0.0000240675557417
 30
0.0
 40
3.799999999999999
 41
0.0
 71
     5
 72
     1
  1
%%c15
 11
0.0000000000000001
 21
1.0
 31
0.0
1001
ACAD
1000
MTEXTBEGIN
1070
    73
1070
     1
1070
    44
1040
1.0
1070
    74
1070
     0
1000
MTEXTEND
  0
POINT
  5
33F8
330
2479
100
AcDbEntity
  8
DEFPOINTS
 62
     0
100
AcDbPoint
 10
-187.4486075782749
 20
-7.499949032446947
 30
0.0
  0
POINT
  5
33F9
330
2479
100
AcDbEntity
  8
DEFPOINTS
 62
     0
100
AcDbPoint
 10
-187.4486556010779
 20
7.499900897335455
 30
0.0
  0
POINT
  5
33FA
330
2479
100
AcDbEntity
  8
DEFPOINTS
 62
     0
100
AcDbPoint
 10
-201.3859094039599
 20
7.499900897335459
 30
0.0
  0
ENDBLK
  5
2484
330
2479
100
AcDbEntity
  8
0
100
AcDbBlockEnd
  0
ENDSEC
  0
SECTION
  2
ENTITIES
  0
DIMENSION
  5
CC6
330
1F
100
AcDbEntity
  8
AM_5
100
AcDbDimension
  2
*D6
 10
-2.722503324328134
 20
-42.64239330363704
 30
0.0
 11
-95.22466549726265
 21
-39.24239330363704
 31
0.0
 70
    32
  1
<>
  3
AM_JIS$0
100
AcDbAlignedDimension
 13
-187.7268276701971
 23
-6.721770960471756
 33
0.0
 14
-2.722503324328132
 24
-7.480016040400029
 34
0.0
 50
0.0000000000001132
100
AcDbRotatedDimension
1001
GENIUS_GENDTOL_13
1000

1000
h7
1000

1040
0.0
  0
DIMENSION
  5
11B2
330
1F
100
AcDbEntity
  8
AM_5
100
AcDbDimension
  2
*D7
 10
-0.667290687560822
 20
-1.833337148030858
 30
0.0
 11
39.16070809756497
 21
-0.0000108573295921
 31
0.0
 70
    34
  1
<>
  3
AM_JIS$2
100
AcDb2LineAngularDimension
 13
-0.000006357829155
 23
-0.0000000000000221
 33
0.0
 14
-0.6672795613608193
 24
1.833318074544154
 34
0.0
 15
-0.0000079472858279
 25
0.0000031789141527
 35
0.0
 16
38.80446994251619
 26
16.73860033386792
 36
0.0
1001
ACAD
1000
DSTYLE
1002
{
1070
   179
1070
     3
1002
}
1001
GENIUS_GENDTOL_13
1000

1000
h7
1000

1040
0.0
  0
TEXT
  5
19BD
330
1F
100
AcDbEntity
  8
AM_6
100
AcDbText
 10
-120.700855973453
 20
-65.14239330363711
 30
0.0
 40
5.0
  1
MDW1500LDLH
 50
0.0000000000001527
 72
     4
 11
-95.2246654972626
 21
-62.64239330363704
 31
0.0
100
AcDbText
  0
DIMENSION
  5
2069
330
1F
100
AcDbEntity
  8
AM_0
100
AcDbDimension
  2
*D8
 10
-2.722503324328133
 20
-29.68267856533349
 30
0.0
 11
-62.72448338711341
 21
-26.28267856533349
 31
0.0
 70
    32
  1
<>
 51
359.9999999999998
  3
AM_JIS$0
100
AcDbAlignedDimension
 13
-122.7264634498986
 23
-7.481428268007615
 33
0.0
 14
-2.722503324328132
 24
-7.480016040400029
 34
0.0
 50
0.0000000000001527
100
AcDbRotatedDimension
1001
GENIUS_GENDTOL_13
1000

1000
h7
1000

1040
0.0
1001
ACAD
1000
DSTYLE
1002
{
1070
   174
1070
     1
1002
}
  0
DIMENSION
  5
23DF
330
1F
100
AcDbEntity
  8
AM_5
100
AcDbDimension
  2
*D9
 10
23.11896561863502
 20
7.499999194025167
 30
0.0
 11
23.11896561863502
 21
-0.0000079585317003
 31
0.0
 70
   160
  1
%%c<>
  3
AM_JIS$0
100
AcDbAlignedDimension
 13
-2.967130697817721
 23
-7.500015111088557
 33
0.0
 14
-2.96714546940356
 24
7.499999194025175
 34
0.0
 50
89.99999999999925
100
AcDbRotatedDimension
1001
GENIUS_GENDTOL_13
1000

1000
h7
1000

1040
0.0
1001
ACAD
1000
DSTYLE
1002
{
1070
   271
1070
     3
1002
}
  0
LINE
  5
23EE
330
1F
100
AcDbEntity
  8
AM_0
 48
0.5
100
AcDbLine
 10
-0.000001190089941
 20
0.0000039623963692
 30
0.0
 11
-3.776720582660812
 21
2.917838473590501
 31
0.0
  0
LINE
  5
23EF
330
1F
100
AcDbEntity
  8
AM_7
100
AcDbLine
 10
-194.9069601373062
 20
-0.000000056672096
 30
0.0
 11
2.575000114683452
 21
-0.000000056673012
 31
0.0
1001
GENIUS_GENODEF_13
1002
{
1000
HIER
1070
     0
1002
}
1002
{
1000
MANEDIT
1070
     0
1002
}
1002
{
1000
NOSEL
1070
     0
1002
}
1002
{
1000
BEHIND
1070
     0
1002
}
1002
{
1000
REACTOR
1002
}
1001
GENIUS_GENOBJ-N-CEN_13
1002
{
1000
OWNER
1000
GEN
1002
}
  0
ELLIPSE
  5
23F0
330
1F
100
AcDbEntity
  8
AM_0
 48
0.5
100
AcDbEllipse
 10
-13.40623461481531
 20
12.71486678588272
 30
0.0
 11
18.67296728103027
 21
0.000000000015421
 31
0.0
210
0.0
220
0.0
230
1.0
 40
0.9782030834662364
 41
-0.8976689894976418
 42
-0.7699457724871442
  0
ELLIPSE
  5
23FA
330
1F
100
AcDbEntity
  8
AM_0
 48
0.5
100
AcDbEllipse
 10
-2.307436153233379
 20
-1.954608769537348
 30
0.0
 11
-0.2290214659592934
 21
1.230135428771475
 31
0.0
210
0.0
220
0.0
230
1.0
 40
0.5152501739358818
 41
1.798162171007052
 42
4.933504060719028
  0
ELLIPSE
  5
23FB
330
1F
100
AcDbEntity
  8
AM_0
 48
0.5
100
AcDbEllipse
 10
-2.307436153233379
 20
-1.954608769537348
 30
0.0
 11
-1.123470949164083
 21
0.6151399889943875
 31
0.0
210
0.0
220
0.0
230
1.0
 40
0.4917327715137214
 41
4.465806703923373
 42
7.609247045252885
  0
DIMENSION
  5
246E
330
1F
100
AcDbEntity
  8
AM_5
100
AcDbDimension
  2
*D12
 10
-201.3859094039599
 20
7.499900897335459
 30
0.0
 11
-201.3859094039599
 21
-0.0000240675557421
 31
0.0
 70
   160
  1
%%c<>
  3
AM_JIS$0
100
AcDbAlignedDimension
 13
-187.4486075782749
 23
-7.499949032446947
 33
0.0
 14
-187.4486556010779
 24
7.499900897335455
 34
0.0
 50
270.0
100
AcDbRotatedDimension
1001
GENIUS_GENDTOL_13
1000

1000
h7
1000

1040
0.0
  0
LINE
  5
246F
330
1F
100
AcDbEntity
  8
AM_0
 48
0.5
100
AcDbLine
 10
-187.7268276701971
 20
-7.221770960471756
 30
0.0
 11
-187.7268276701972
 21
7.221770847127006
 31
0.0
  0
LINE
  5
2470
330
1F
100
AcDbEntity
  8
AM_0
 48
0.5
100
AcDbLine
 10
-187.4486556010778
 20
-7.499943575309666
 30
0.0
 11
-187.4486556010779
 21
7.4999489191022
 31
0.0
  0
LINE
  5
2471
330
1F
100
AcDbEntity
  8
AM_0
100
AcDbLine
 10
-117.5159325105153
 20
7.499943461965271
 30
0.0
 11
-187.4486075782749
 21
7.499943461964887
 31
0.0
  0
LINE
  5
2472
330
1F
100
AcDbEntity
  8
AM_0
 48
0.5
100
AcDbLine
 10
-187.7267916531029
 20
7.221770847127007
 30
0.0
 11
-187.4486075782749
 21
7.499948919102201
 31
0.0
  0
LINE
  5
2538
330
1F
100
AcDbEntity
  8
AM_0
100
AcDbLine
 10
-2.729773856678487
 20
7.499999194025165
 30
0.0
 11
0.0000020597221542
 21
0.0000015035434644
 31
0.0
  0
LINE
  5
2539
330
1F
100
AcDbEntity
  8
AM_0
100
AcDbLine
 10
-2.729782715949262
 20
-7.500015854827517
 30
0.0
 11
0.0000020597221542
 21
0.0000061763008103
 31
0.0
  0
LINE
  5
2B39
330
1F
100
AcDbEntity
  8
AM_0
 48
0.5
100
AcDbLine
 10
-187.7267916531028
 20
-7.221770960471756
 30
0.0
 11
-187.4486075782749
 21
-7.499949032446947
 31
0.0
  0
LINE
  5
2B3A
330
1F
100
AcDbEntity
  8
AM_0
100
AcDbLine
 10
-120.5234801716694
 20
-7.499943575309649
 30
0.0
 11
-187.4486075782749
 21
-7.499943575309639
 31
0.0
  0
LINE
  5
3245
330
1F
100
AcDbEntity
  8
AM_0
 48
0.5
100
AcDbLine
 10
-7.093316838139508
 20
7.499999194025294
 30
0.0
 11
-2.766843670135515
 21
7.499999194025171
 31
0.0
  0
ELLIPSE
  5
3246
330
1F
100
AcDbEntity
  8
AM_0
 48
0.5
100
AcDbEllipse
 10
-13.58828932580966
 20
12.58771815764793
 30
0.0
 11
-18.92654365893867
 21
0.0000000000317976
 31
0.0
210
0.0
220
0.0
230
1.0
 40
0.9554462217674217
 41
2.081379652024944
 42
2.169874429704457
  0
LINE
  5
3248
330
1F
100
AcDbEntity
  8
AM_0
 48
0.5
100
AcDbLine
 10
-7.093316838139919
 20
-7.500000805974707
 30
0.0
 11
-2.729782715949715
 21
-7.500016083137268
 31
0.0
  0
ELLIPSE
  5
3249
330
1F
100
AcDbEntity
  8
AM_0
 48
0.5
100
AcDbEllipse
 10
8.155783098467097
 20
-2.002987021967978
 30
0.0
 11
12.403835483684
 21
2.048222291996407
 31
0.0
210
0.0
220
0.0
230
1.0
 40
0.7683154626523108
 41
3.051887693972695
 42
3.529030335059463
  0
SPLINE
  5
332D
330
1F
100
AcDbEntity
  8
AM_0
 48
0.5
100
AcDbSpline
210
0.0
220
0.0
230
1.0
 70
     8
 71
     3
 72
    10
 73
     6
 74
     0
 42
0.0000000001
 43
0.0000000001
 40
0.0
 40
0.0
 40
0.0
 40
0.0
 40
2.69986029516136
 40
4.147722969032201
 40
6.285750005020438
 40
6.285750005020438
 40
6.285750005020438
 40
6.285750005020438
 10
-8.257439494882627
 20
1.357459215998088
 30
0.0
 10
-7.357127377892799
 20
0.6606573886621906
 30
0.0
 10
-5.974002016321644
 20
-0.4098205724694961
 30
0.0
 10
-2.703096334779613
 20
0.1084165617059398
 30
0.0
 10
-3.319103014771408
 20
1.853907802589023
 30
0.0
 10
-3.726120870630318
 20
2.917838473590511
 30
0.0
  0
SPLINE
  5
332E
330
1F
100
AcDbEntity
  8
AM_0
100
AcDbSpline
210
0.0
220
0.0
230
1.0
 70
     8
 71
     3
 72
    46
 73
    42
 74
     0
 42
0.0000000001
 43
0.0000000001
 40
0.0
 40
0.0
 40
0.0
 40
0.0
 40
1.685415058684571
 40
2.531036209541119
 40
3.379897699130121
 40
4.232934581347655
 40
5.090970612202441
 40
5.954688180526682
 40
6.824620803463246
 40
7.701151815239689
 40
8.584457046566678
 40
9.474582384070741
 40
10.37139106676737
 40
11.27458944007583
 40
12.18373345430765
 40
13.09824173870457
 40
14.01741343450111
 40
14.9404441545541
 40
15.86644439743314
 40
16.79446029130534
 40
17.7234937712985
 40
18.65252725129241
 40
19.58054314516461
 40
20.50654338804289
 40
21.42957410809586
 40
22.34874580389317
 40
23.26325408828901
 40
24.17239810252111
 40
25.07560240389441
 40
25.97241108659103
 40
26.8625364240951
 40
27.74584165542183
 40
28.62236045019041
 40
29.49229307312697
 40
30.35601064145121
 40
31.21404606334468
 40
32.06708345193547
 40
32.91595755657689
 40
33.76157841950693
 40
34.60498701064689
 40
35.44727335621125
 40
35.44727335621125
 40
35.44727335621125
 40
35.44727335621125
 10
-3.238472561114155
 20
-7.500000805974736
 30
0.0
 10
-4.081310601164393
 20
-7.482915226217824
 30
0.0
 10
-5.347024697614182
 20
-7.457257320289614
 30
0.0
 10
-7.0300999272237
 20
-7.299286307098014
 30
0.0
 10
-8.293869919046523
 20
-7.14000950364859
 30
0.0
 10
-9.557531888619635
 20
-6.935525143714464
 30
0.0
 10
-10.82108250702471
 20
-6.688552329895742
 30
0.0
 10
-12.08451528315444
 20
-6.400271802643718
 30
0.0
 10
-13.34782810094876
 20
-6.072561526594042
 30
0.0
 10
-14.61101533821941
 20
-5.707433691353189
 30
0.0
 10
-15.87407951977471
 20
-5.307152955160598
 30
0.0
 10
-17.13701724835608
 20
-4.874187589585904
 30
0.0
 10
-18.39984881373381
 20
-4.411227108421769
 30
0.0
 10
-19.6625803535218
 20
-3.92111757661067
 30
0.0
 10
-20.92522347971415
 20
-3.406881256045804
 30
0.0
 10
-22.18779222359801
 20
-2.871690657843938
 30
0.0
 10
-23.45029765038971
 20
-2.318836910987418
 30
0.0
 10
-24.71275204745253
 20
-1.751720357041812
 30
0.0
 10
-25.97516880040195
 20
-1.17383126608935
 30
0.0
 10
-27.23755944149738
 20
-0.5887232498189717
 30
0.0
 10
-28.49993947071425
 20
-0.000000806092555
 30
0.0
 10
-29.76231949965379
 20
0.5887216383492789
 30
0.0
 10
-31.02471014158105
 20
1.173829652474454
 30
0.0
 10
-32.28712689148995
 20
1.751718751266682
 30
0.0
 10
-33.54958129982719
 20
2.318835276137451
 30
0.0
 10
-34.81208668481432
 20
2.871689130800511
 30
0.0
 10
-36.07465558351476
 20
3.406879329756839
 30
0.0
 10
-37.33730088197515
 20
3.921118245062478
 30
0.0
 10
-38.6000373281287
 20
4.411223323980029
 30
0.0
 10
-39.8628711462044
 20
4.874186179046974
 30
0.0
 10
-41.12580884538096
 20
5.307151673451905
 30
0.0
 10
-42.38886783841213
 20
5.707428731406601
 30
0.0
 10
-43.65204665932597
 20
6.072562214865772
 30
0.0
 10
-44.91535432036212
 20
6.400273829647787
 30
0.0
 10
-46.17878636528334
 20
6.68853549607427
 30
0.0
 10
-47.44233791004642
 20
6.935579941741234
 30
0.0
 10
-48.70600794440771
 20
7.139772295387333
 30
0.0
 10
-49.96977142434415
 20
7.300170377861116
 30
0.0
 10
-51.23361309271205
 20
7.414605963765496
 30
0.0
 10
-52.49750063759247
 20
7.486615890749386
 30
0.0
 10
-53.34029785288566
 20
7.495540073349608
 30
0.0
 10
-53.76141591586622
 20
7.499999194027861
 30
0.0
  0
ELLIPSE
  5
332F
330
1F
100
AcDbEntity
  8
AM_0
 48
0.5
100
AcDbEllipse
 10
4.791337928331496
 20
9.004210619806046
 30
0.0
 11
-9.641844769947775
 21
12.9441669886115
 31
0.0
210
0.0
220
0.0
230
1.0
 40
0.9363375750682545
 41
1.467584104393089
 42
1.844766888079039
  0
SPLINE
  5
3330
330
1F
100
AcDbEntity
  8
AM_0
100
AcDbSpline
210
0.0
220
0.0
230
1.0
 70
     8
 71
     3
 72
    17
 73
    13
 74
     0
 42
0.0000000001
 43
0.0000000001
 40
1.580019955310467
 40
1.580019955310467
 40
1.580019955310467
 40
1.580019955310467
 40
2.030549285115227
 40
3.082371838836284
 40
4.126290986361125
 40
5.162752068350215
 40
6.192395305374981
 40
7.216039564037012
 40
8.234688489606833
 40
9.249433870634691
 40
10.26152376260694
 40
11.27226744710342
 40
11.27226744710342
 40
11.27226744710342
 40
11.27226744710352
 10
-18.6959136276
 20
-5.535221655401535
 30
0.0
 10
-18.87488724512575
 20
-5.592229831832904
 30
0.0
 10
-19.47271925603131
 20
-5.779081744617128
 30
0.0
 10
-20.49336675478149
 20
-6.072165655496627
 30
0.0
 10
-21.75758967094575
 20
-6.400380755441328
 30
0.0
 10
-23.02216062649522
 20
-6.688510035533949
 30
0.0
 10
-24.28678952424441
 20
-6.935585892893979
 30
0.0
 10
-25.55155620104551
 20
-7.139811085802976
 30
0.0
 10
-26.81641025694707
 20
-7.300020191135864
 30
0.0
 10
-28.08134307278718
 20
-7.415175000283468
 30
0.0
 10
-29.34632348389704
 20
-7.484534248366134
 30
0.0
 10
-30.18984843909573
 20
-7.500000848888586
 30
0.0
 10
-30.61133021908024
 20
-7.500000805973163
 30
0.0
  0
LINE
  5
3331
330
1F
100
AcDbEntity
  8
AM_11
 48
0.5
100
AcDbLine
 10
-30.6113302190795
 20
7.499999194026841
 30
0.0
 11
-6.782356158396377
 21
7.499999194025497
 31
0.0
  0
SPLINE
  5
3332
330
1F
100
AcDbEntity
  8
AM_0
 48
0.5
100
AcDbSpline
210
0.0
220
0.0
230
1.0
 70
     8
 71
     3
 72
    25
 73
    21
 74
     0
 42
0.0000000001
 43
0.0000000001
 40
6.846175049578289
 40
6.846175049578289
 40
6.846175049578289
 40
6.846175049578289
 40
7.604337694224321
 40
8.711974558287883
 40
9.814980593243754
 40
10.91239053451967
 40
12.0033633515982
 40
13.08720139956839
 40
14.16337181880432
 40
15.23152222380919
 40
16.29148850140128
 40
17.34331105512262
 40
18.38723020264746
 40
19.42369128463655
 40
20.45333379090873
 40
21.47697865721768
 40
22.49561244472435
 40
23.5103574802404
 40
24.52244778960836
 40
25.53320666051913
 40
25.53320666051913
 40
25.53320666051913
 40
25.53320666051913
 10
-8.257641737405085
 20
1.357548295406862
 30
0.0
 10
-8.545001991218747
 20
1.489234956705985
 30
0.0
 10
-9.252785647884618
 20
1.811991342900445
 30
0.0
 10
-10.38204454918447
 20
2.318835055955799
 30
0.0
 10
-11.64564049619386
 20
2.871689110005459
 30
0.0
 10
-12.90929999026408
 20
3.406879629122031
 30
0.0
 10
-14.17303388858523
 20
3.921115961021832
 30
0.0
 10
-15.43685627227162
 20
4.411225525575101
 30
0.0
 10
-16.70077882771055
 20
4.874185866052664
 30
0.0
 10
-17.96480740619777
 20
5.307151756066954
 30
0.0
 10
-19.22895757732267
 20
5.707428710610938
 30
0.0
 10
-20.49322762927502
 20
6.072562216360361
 30
0.0
 10
-21.75762664304132
 20
6.400273844062389
 30
0.0
 10
-23.02215015649929
 20
6.688535437547297
 30
0.0
 10
-24.28679322978101
 20
6.935580159488536
 30
0.0
 10
-25.55154882574219
 20
7.139770482880524
 30
0.0
 10
-26.81639726529356
 20
7.300171883202303
 30
0.0
 10
-28.08132460852165
 20
7.414605711473719
 30
0.0
 10
-29.34631032184404
 20
7.486616329050917
 30
0.0
 10
-30.18984199072778
 20
7.49554019693021
 30
0.0
 10
-30.61133021907949
 20
7.499999194026844
 30
0.0
  0
LINE
  5
3333
330
1F
100
AcDbEntity
  8
AM_11
 48
0.5
100
AcDbLine
 10
-30.61133021908035
 20
-7.500000805973164
 30
0.0
 11
-6.782356158397203
 21
-7.500000805974505
 31
0.0
  0
SPLINE
  5
3334
330
1F
100
AcDbEntity
  8
AM_0
 48
0.5
100
AcDbSpline
210
0.0
220
0.0
230
1.0
 70
     8
 71
     3
 72
    17
 73
    13
 74
     0
 42
0.0000000001
 43
0.0000000001
 40
0.0
 40
0.0
 40
0.0
 40
0.0
 40
1.010743614677189
 40
2.022833924044153
 40
3.037578959561199
 40
4.056212747067873
 40
5.079857613375832
 40
6.109500119648989
 40
7.14596120163808
 40
8.18989512056258
 40
9.241717674284874
 40
9.693948937866434
 40
9.693948937866434
 40
9.693948937866434
 40
9.693948937866434
 10
-6.782356158396376
 20
7.499999194025496
 30
0.0
 10
-7.203838020646149
 20
7.495540091487672
 30
0.0
 10
-8.04736331919627
 20
7.48661594519257
 30
0.0
 10
-9.312342691449169
 20
7.414605745404951
 30
0.0
 10
-10.57726998523558
 20
7.300171769214516
 30
0.0
 10
-11.84211861130922
 20
7.139770907382841
 30
0.0
 10
-13.1068735056894
 20
6.935578563773973
 30
0.0
 10
-14.37151922064535
 20
6.688541447170329
 30
0.0
 10
-15.6360387825061
 20
6.400249817189534
 30
0.0
 10
-16.90048125970659
 20
6.072644527331284
 30
0.0
 10
-17.92117219925567
 20
5.777521682490285
 30
0.0
 10
-18.52058176317074
 20
5.593027463942555
 30
0.0
 10
-18.70049235553737
 20
5.536555018703613
 30
0.0
  0
SPLINE
  5
3335
330
1F
100
AcDbEntity
  8
AM_0
 48
0.5
100
AcDbSpline
210
0.0
220
0.0
230
1.0
 70
     8
 71
     3
 72
    16
 73
    12
 74
     0
 42
0.0000000001
 43
0.0000000001
 40
0.0
 40
0.0
 40
0.0
 40
0.0
 40
1.010743614677189
 40
2.022833924044153
 40
3.037578959561199
 40
4.056212747067873
 40
5.079857613375832
 40
6.109500119648989
 40
7.14596120163808
 40
8.18989512056258
 40
8.545190612624931
 40
8.545190612624931
 40
8.545190612624931
 40
8.545190612624931
 10
-6.782356158396376
 20
7.499999194025496
 30
0.0
 10
-7.203814588998687
 20
7.499954125406028
 30
0.0
 10
-8.047374210926962
 20
7.484564781680672
 30
0.0
 10
-9.312339752896244
 20
7.415157161814266
 30
0.0
 10
-10.57727081556084
 20
7.300023358798825
 30
0.0
 10
-11.84211824139703
 20
7.139810537162548
 30
0.0
 10
-13.10687415439102
 20
6.935569400683419
 30
0.0
 10
-14.37151697838555
 20
6.688538108696369
 30
0.0
 10
-15.63604718198534
 20
6.400272654002295
 30
0.0
 10
-16.61927802439539
 20
6.145431685740164
 30
0.0
 10
-17.18127267083292
 20
5.98869818042214
 30
0.0
 10
-17.32379137448924
 20
5.948251961802641
 30
0.0
  0
SPLINE
  5
3336
330
1F
100
AcDbEntity
  8
AM_0
100
AcDbSpline
210
0.0
220
0.0
230
1.0
 70
     8
 71
     3
 72
    22
 73
    18
 74
     0
 42
0.0000000001
 43
0.0000000001
 40
17.17441611292
 40
17.17441611292
 40
17.17441611292
 40
17.17441611292
 40
17.38177636558528
 40
18.41823744757437
 40
19.46215659509824
 40
20.51397914882054
 40
21.57394542641293
 40
22.64209583141747
 40
23.71826625065247
 40
24.80210429862395
 40
25.8930771157021
 40
26.99048705697709
 40
28.09349309193389
 40
29.20112995599786
 40
30.31233024745139
 40
31.42594771747373
 40
32.5407895042663
 40
32.54078950426994
 40
32.54078950426994
 40
32.54078950426994
 10
-35.43948032140624
 20
-6.735055088340826
 30
0.0
 10
-35.52418521308304
 20
-6.7176933239541
 30
0.0
 10
-36.03194477864988
 20
-6.611940919386899
 30
0.0
 10
-36.96213169063072
 20
-6.399893584247763
 30
0.0
 10
-38.22653060823138
 20
-6.072182467514811
 30
0.0
 10
-39.49080068623647
 20
-5.707048823294956
 30
0.0
 10
-40.75495085032183
 20
-5.306771906331437
 30
0.0
 10
-42.01897943063303
 20
-4.873806005942086
 30
0.0
 10
-43.28290198589608
 20
-4.410845668996242
 30
0.0
 10
-44.54672436842787
 20
-3.920736100766945
 30
0.0
 10
-45.81045827159061
 20
-3.406499780106578
 30
0.0
 10
-47.07411774730407
 20
-2.871309219390896
 30
0.0
 10
-48.33771376337018
 20
-2.318455321562297
 30
0.0
 10
-49.60125903992557
 20
-1.751339337221308
 30
0.0
 10
-50.8647647771995
 20
-1.17344838773325
 30
0.0
 10
-52.1282496929307
 20
-0.5883483726111409
 30
0.0
 10
-52.97040763211281
 20
-0.1959342036844088
 30
0.0
 10
-53.39171794855286
 20
0.0003806637556522
 30
0.0
  0
SPLINE
  5
3337
330
1F
100
AcDbEntity
  8
AM_0
100
AcDbSpline
210
0.0
220
0.0
230
1.0
 70
     8
 71
     3
 72
    11
 73
     7
 74
     0
 42
0.0000000001
 43
0.0000000001
 40
11.27226913003534
 40
11.27226913003534
 40
11.27226913003534
 40
11.2722691300354
 40
12.28301561507924
 40
13.29510212255852
 40
14.30984805882082
 40
15.18258238371378
 40
15.18258238371378
 40
15.18258238371378
 40
15.18258238371378
 10
-75.64438435168431
 20
-7.500000805970765
 30
0.0
 10
-76.06426345044126
 20
-7.46329362648498
 30
0.0
 10
-76.90322967613211
 20
-7.374427142511563
 30
0.0
 10
-78.15734674948465
 20
-7.195161463264529
 30
0.0
 10
-79.34752596562373
 20
-6.981048265119096
 30
0.0
 10
-80.11726402050406
 20
-6.816453077287155
 30
0.0
 10
-80.47198123446403
 20
-6.73514760078108
 30
0.0
  0
SPLINE
  5
3338
330
1F
100
AcDbEntity
  8
AM_0
100
AcDbSpline
210
0.0
220
0.0
230
1.0
 70
     8
 71
     3
 72
    17
 73
    13
 74
     0
 42
0.0000000001
 43
0.0000000001
 40
1.580019955310467
 40
1.580019955310467
 40
1.580019955310467
 40
1.580019955310467
 40
2.030549285115227
 40
3.082371838836284
 40
4.126290986361125
 40
5.162752068350215
 40
6.192395305374981
 40
7.216039564037012
 40
8.234688489606833
 40
9.249433870634691
 40
10.26152376260694
 40
11.27226744710342
 40
11.27226744710342
 40
11.27226744710342
 40
11.27226744710352
 10
-63.728967760204
 20
-5.535221655399141
 30
0.0
 10
-63.90794137772978
 20
-5.592229831830509
 30
0.0
 10
-64.50577338863536
 20
-5.779081744614734
 30
0.0
 10
-65.52642088738555
 20
-6.072165655494231
 30
0.0
 10
-66.79064380354984
 20
-6.400380755438932
 30
0.0
 10
-68.05521475909931
 20
-6.688510035531558
 30
0.0
 10
-69.31984365684851
 20
-6.935585892891581
 30
0.0
 10
-70.5846103336496
 20
-7.139811085800583
 30
0.0
 10
-71.84946438955112
 20
-7.300020191133471
 30
0.0
 10
-73.11439720539123
 20
-7.41517500028107
 30
0.0
 10
-74.37937761650106
 20
-7.484534248363742
 30
0.0
 10
-75.22290257169975
 20
-7.500000848886188
 30
0.0
 10
-75.64438435168425
 20
-7.500000805970765
 30
0.0
  0
LINE
  5
3339
330
1F
100
AcDbEntity
  8
AM_11
 48
0.5
100
AcDbLine
 10
-75.64438435168137
 20
-7.500000805970765
 30
0.0
 11
-51.81541029100125
 21
-7.501066317082975
 31
0.0
  0
SPLINE
  5
333A
330
1F
100
AcDbEntity
  8
AM_0
100
AcDbSpline
210
0.0
220
0.0
230
1.0
 70
     8
 71
     3
 72
    23
 73
    19
 74
     0
 42
0.0000000001
 43
0.0000000001
 40
16.03460024169435
 40
16.03460024169435
 40
16.03460024169435
 40
16.03460024169435
 40
16.35212704903564
 40
17.38177054169784
 40
18.41822485651776
 40
19.46214173629503
 40
20.51396345435107
 40
21.57393551351153
 40
22.64208202342361
 40
23.7182574881101
 40
24.80209208578934
 40
25.89306333925047
 40
26.99048218457928
 40
28.09348763352352
 40
29.20111863782268
 40
30.31232390128032
 40
31.42594612798585
 40
32.5407912310448
 40
32.5407912310486
 40
32.5407912310486
 40
32.5407912310486
 10
-72.55565313377743
 20
7.5010647051401
 30
0.0
 10
-72.42569193977709
 20
7.47574602588721
 30
0.0
 10
-71.87485929259913
 20
7.365490303839174
 30
0.0
 10
-70.90456165253399
 20
7.149461043630539
 30
0.0
 10
-69.64802366855846
 20
6.828227896173288
 30
0.0
 10
-68.3926528161658
 20
6.467536615723578
 30
0.0
 10
-67.13837491449156
 20
6.069474699440917
 30
0.0
 10
-65.88514544699001
 20
5.636261351420008
 30
0.0
 10
-64.63289198000151
 20
5.170373001849908
 30
0.0
 10
-63.38152731135421
 20
4.67452100406365
 30
0.0
 10
-62.13098033401326
 20
4.151513339014686
 30
0.0
 10
-60.88115078709284
 20
3.604393266442427
 30
0.0
 10
-59.63193738588461
 20
3.036340884590976
 30
0.0
 10
-58.38325689886258
 20
2.450622256513162
 30
0.0
 10
-57.13500485044707
 20
1.85064325582036
 30
0.0
 10
-55.88706562606208
 20
1.239907319697758
 30
0.0
 10
-54.63933760822706
 20
0.6219534975137302
 30
0.0
 10
-53.80774235587731
 20
0.2076492491051061
 30
0.0
 10
-53.39171794854728
 20
0.0003806637529575
 30
0.0
  0
LINE
  5
333B
330
1F
100
AcDbEntity
  8
AM_11
 48
0.5
100
AcDbLine
 10
-72.55565313377738
 20
7.5010647051401
 30
0.0
 11
-57.34891545388656
 21
7.499999194028355
 31
0.0
  0
SPLINE
  5
333C
330
1F
100
AcDbEntity
  8
AM_0
100
AcDbSpline
210
0.0
220
0.0
230
1.0
 70
     8
 71
     3
 72
    55
 73
    51
 74
     0
 42
0.0000000001
 43
0.0000000001
 40
0.0
 40
0.0
 40
0.0
 40
0.0
 40
1.010743684496582
 40
2.022833576467832
 40
3.037578957496688
 40
4.056212745003489
 40
5.079857003664532
 40
6.109500240690281
 40
7.145961322679372
 40
8.189895241603872
 40
9.241717795325891
 40
10.30168407291828
 40
11.36983447792315
 40
12.44600489715814
 40
13.52984294512926
 40
14.62081576220742
 40
15.7182257034828
 40
16.82123173843959
 40
17.92886860250316
 40
19.0400688939571
 40
20.15368796660465
 40
21.26852814259644
 40
22.38336992938901
 40
23.49698739941135
 40
24.6081876908653
 40
25.71582455492886
 40
26.81883757994213
 40
27.91624752121713
 40
29.00722033829659
 40
30.09105838626677
 40
31.16722880550176
 40
32.23537921050758
 40
33.29534548809967
 40
34.347168041821
 40
35.39108718934584
 40
36.42754827133493
 40
37.45720575381954
 40
38.48085062012849
 40
39.49948440763516
 40
40.51422944315121
 40
41.52631975251916
 40
42.53706336719636
 40
43.54780698187354
 40
44.55989729124051
 40
45.57464232675757
 40
46.59327611426424
 40
47.6169209805722
 40
48.64656348684535
 40
49.68302456883444
 40
50.58557219878025
 40
50.58557219878025
 40
50.58557219878025
 40
50.58557219878025
 10
-6.782356158397203
 20
-7.500000805974505
 30
0.0
 10
-7.203837943942327
 20
-7.495538487673096
 30
0.0
 10
-8.047362885772615
 20
-7.486607907717538
 30
0.0
 10
-9.312343323713404
 20
-7.414617407441626
 30
0.0
 10
-10.57726976440885
 20
-7.300171318019738
 30
0.0
 10
-11.8421179185763
 20
-7.139770770982481
 30
0.0
 10
-13.10687516502226
 20
-6.935589501271575
 30
0.0
 10
-14.37151655291403
 20
-6.688535470454918
 30
0.0
 10
-15.63604631242101
 20
-6.400272922541625
 30
0.0
 10
-16.90045322971981
 20
-6.072567039452057
 30
0.0
 10
-18.1647286918949
 20
-5.707429915428448
 30
0.0
 10
-19.42887900066055
 20
-5.307153478453601
 30
0.0
 10
-20.69290754166338
 20
-4.874187447762934
 30
0.0
 10
-21.95683010792752
 20
-4.411227146878376
 30
0.0
 10
-23.22065248616131
 20
-3.921117566041034
 30
0.0
 10
-24.48438639545834
 20
-3.406881259508708
 30
0.0
 10
-25.74804585079871
 20
-2.871690654631196
 30
0.0
 10
-27.0116419427325
 20
-2.318836920411207
 30
0.0
 10
-28.27518693460374
 20
-1.751720322379609
 30
0.0
 10
-29.53869434688076
 20
-1.173831395820469
 30
0.0
 10
-30.80217526172627
 20
-0.588722764362733
 30
0.0
 10
-32.065647521448
 20
-0.0000023362455193
 30
0.0
 10
-33.32911410923648
 20
0.5887286892062955
 30
0.0
 10
-34.59259925899458
 20
1.173828208974992
 30
0.0
 10
-35.85610511145478
 20
1.751718884771013
 30
0.0
 10
-37.11965235621276
 20
2.318837643264074
 30
0.0
 10
-38.38325369014927
 20
2.871686659333211
 30
0.0
 10
-39.64691513987812
 20
3.406879978371747
 30
0.0
 10
-40.91064923161631
 20
3.921115867911447
 30
0.0
 10
-42.17447156386363
 20
4.411225551816992
 30
0.0
 10
-43.43839413336418
 20
4.87418585337877
 30
0.0
 10
-44.70242270656279
 20
5.307151780540733
 30
0.0
 10
-45.96657288485432
 20
5.70742862623465
 30
0.0
 10
-47.23084291363791
 20
6.072562526102126
 30
0.0
 10
-48.49524201204035
 20
6.400272701321152
 30
0.0
 10
-49.75977130247241
 20
6.688541045831637
 30
0.0
 10
-51.02442172032756
 20
6.935566859648499
 30
0.0
 10
-52.28918314517406
 20
7.139811327778708
 30
0.0
 10
-53.55403167429908
 20
7.300021740670783
 30
0.0
 10
-54.81895899390388
 20
7.415162819502932
 30
0.0
 10
-56.08393835929201
 20
7.484543830828191
 30
0.0
 10
-57.34894552183455
 20
7.507721730960175
 30
0.0
 10
-58.61395268251578
 20
7.484543830791991
 30
0.0
 10
-59.87893205349858
 20
7.41516281964899
 30
0.0
 10
-61.14385935250535
 20
7.300021740121745
 30
0.0
 10
-62.40870795885741
 20
7.139811329843833
 30
0.0
 10
-63.67346292742528
 20
6.935567847610393
 30
0.0
 10
-64.93810836303916
 20
6.688543571537874
 30
0.0
 10
-66.1451422508817
 20
6.413358259124816
 30
0.0
 10
-66.92827958340664
 20
6.212112638645038
 30
0.0
 10
-67.29160966115319
 20
6.114035830432656
 30
0.0
  0
LINE
  5
333D
330
1F
100
AcDbEntity
  8
AM_0
 48
0.5
100
AcDbLine
 10
-57.34893597764176
 20
7.499999194028355
 30
0.0
 11
-30.6113302190795
 21
7.499999194026841
 31
0.0
  0
LINE
  5
333E
330
1F
100
AcDbEntity
  8
AM_0
 48
0.5
100
AcDbLine
 10
-51.81541029100124
 20
-7.500000805972113
 30
0.0
 11
-30.61133021908035
 21
-7.500000805973164
 31
0.0
  0
SPLINE
  5
333F
330
1F
100
AcDbEntity
  8
AM_0
100
AcDbSpline
210
0.0
220
0.0
230
1.0
 70
     8
 71
     3
 72
    11
 73
     7
 74
     0
 42
0.0000000001
 43
0.0000000001
 40
11.27226913003534
 40
11.27226913003534
 40
11.27226913003534
 40
11.2722691300354
 40
12.28301561507924
 40
13.29510212255852
 40
14.30984805882082
 40
15.18258238371378
 40
15.18258238371378
 40
15.18258238371378
 40
15.18258238371378
 10
-30.61133021908031
 20
-7.500000805973163
 30
0.0
 10
-31.03120931783724
 20
-7.463293626487368
 30
0.0
 10
-31.87017554352806
 20
-7.374427142513958
 30
0.0
 10
-33.12429261688058
 20
-7.195161463266928
 30
0.0
 10
-34.31447183301964
 20
-6.98104826512149
 30
0.0
 10
-35.08420988790001
 20
-6.816453077289548
 30
0.0
 10
-35.43892710185994
 20
-6.735147600783473
 30
0.0
  0
LINE
  5
3340
330
1F
100
AcDbEntity
  8
AM_0
100
AcDbLine
 10
-115.9401727497496
 20
7.500424716237549
 30
0.0
 11
-123.0228112415094
 21
7.501427471498421
 31
0.0
  0
LINE
  5
3341
330
1F
100
AcDbEntity
  8
AM_0
100
AcDbLine
 10
-118.6148409651763
 20
-7.500803507333945
 30
0.0
 11
-123.0228112415099
 21
-7.501427584842558
 31
0.0
  0
SPLINE
  5
3344
330
1F
100
AcDbEntity
  8
AM_0
100
AcDbSpline
210
0.0
220
0.0
230
1.0
 70
     8
 71
     3
 72
    13
 73
     9
 74
     0
 42
0.0000000001
 43
0.0000000001
 40
16.03460056234195
 40
16.03460056234195
 40
16.03460056234195
 40
16.03460056234195
 40
16.35212717791071
 40
17.38177067057215
 40
18.41822498539278
 40
19.46214186516937
 40
20.5139635832251
 40
20.75741200696871
 40
20.75741200696871
 40
20.75741200696871
 40
20.75741200696871
 10
-118.614843503165
 20
-7.483211719763757
 30
0.0
 10
-118.2502343751038
 20
-7.437717400865109
 30
0.0
 10
-117.7323059438061
 20
-7.365112267333092
 30
0.0
 10
-116.7786527998059
 20
-7.14908048493223
 30
0.0
 10
-115.5436686531812
 20
-6.82784822817768
 30
0.0
 10
-114.3098318152843
 20
-6.467156706510746
 30
0.0
 10
-113.3960400278745
 20
-6.17209127857377
 30
0.0
 10
-112.892671344811
 20
-6.00068724963338
 30
0.0
 10
-112.7981543686727
 20
-5.968194741192244
 30
0.0
  0
LINE
  5
3345
330
1F
100
AcDbEntity
  8
AM_0
 48
0.5
100
AcDbLine
 10
-106.3327289800739
 20
3.800110010985995
 30
0.0
 11
-122.7297827159496
 21
-0.5208665478675405
 31
0.0
  0
LINE
  5
3346
330
1F
100
AcDbEntity
  8
AM_11
 48
0.5
100
AcDbLine
 10
-118.6148410788222
 20
-7.500000805968276
 30
0.0
 11
-102.36710015762
 21
-7.500000805969246
 31
0.0
  0
LINE
  5
3347
330
1F
100
AcDbEntity
  8
AM_11
 48
0.5
100
AcDbLine
 10
-120.7588568206328
 20
7.500527979030097
 30
0.0
 11
-102.3821638071645
 21
7.499999194030749
 31
0.0
  0
SPLINE
  5
3348
330
1F
100
AcDbEntity
  8
AM_0
100
AcDbSpline
210
0.0
220
0.0
230
1.0
 70
     8
 71
     3
 72
    23
 73
    19
 74
     0
 42
0.0000000001
 43
0.0000000001
 40
16.03460024169435
 40
16.03460024169435
 40
16.03460024169435
 40
16.03460024169435
 40
16.35212704903564
 40
17.38177054169784
 40
18.41822485651776
 40
19.46214173629503
 40
20.51396345435107
 40
21.57393551351153
 40
22.64208202342361
 40
23.7182574881101
 40
24.80209208578934
 40
25.89306333925047
 40
26.99048218457928
 40
28.09348763352352
 40
29.20111863782268
 40
30.31232390128032
 40
31.42594612798585
 40
32.5407912310448
 40
32.5407912310486
 40
32.5407912310486
 40
32.5407912310486
 10
-117.5159325105153
 20
7.500430132779738
 30
0.0
 10
-117.386465935379
 20
7.499999194031659
 30
0.0
 10
-116.837730061957
 20
7.365490303841612
 30
0.0
 10
-115.8711259114437
 20
7.149461043632977
 30
0.0
 10
-114.6193710061067
 20
6.828227896175721
 30
0.0
 10
-113.3687787896044
 20
6.467536615726004
 30
0.0
 10
-112.1192753634453
 20
6.069474699443341
 30
0.0
 10
-110.8708163805385
 20
5.636261351422434
 30
0.0
 10
-109.6233296829469
 20
5.170373001852326
 30
0.0
 10
-108.3767284004385
 20
4.67452100406607
 30
0.0
 10
-107.130941696651
 20
4.151513339017104
 30
0.0
 10
-105.8858696923471
 20
3.604393266444836
 30
0.0
 10
-104.6414114883639
 20
3.036340884593385
 30
0.0
 10
-103.3974841700006
 20
2.450622256515567
 30
0.0
 10
-102.1539836593694
 20
1.85064325582276
 30
0.0
 10
-100.9107947819875
 20
1.239907319700156
 30
0.0
 10
-99.66781630718672
 20
0.6219534975161246
 30
0.0
 10
-98.83938656637603
 20
0.2076492491074983
 30
0.0
 10
-98.42494577807006
 20
0.0003806637553485
 30
0.0
  0
SPLINE
  5
3349
330
1F
100
AcDbEntity
  8
AM_0
 48
0.5
100
AcDbSpline
210
0.0
220
0.0
230
1.0
 70
     8
 71
     3
 72
    22
 73
    18
 74
     0
 42
0.0000000001
 43
0.0000000001
 40
0.0
 40
0.0
 40
0.0
 40
0.0
 40
1.010743684496582
 40
2.022833993863546
 40
3.037578683882831
 40
4.056212471389632
 40
5.079857945358201
 40
6.109499720892564
 40
7.145961650132166
 40
8.189873411961459
 40
9.241710626092514
 40
10.30166235592959
 40
11.36982472628033
 40
12.44598212828784
 40
13.52983440361964
 40
14.62080578343036
 40
14.90544694398022
 40
14.90544694398022
 40
14.90544694398022
 40
14.90544694398022
 10
-102.3671096651734
 20
-7.500000805969245
 30
0.0
 10
-102.7869871387805
 20
-7.495539820794468
 30
0.0
 10
-103.6273014933471
 20
-7.486611907025605
 30
0.0
 10
-104.8874653975486
 20
-7.414601352967198
 30
0.0
 10
-106.1475781940382
 20
-7.30017453095193
 30
0.0
 10
-107.4076123084317
 20
-7.139773836048553
 30
0.0
 10
-108.6675517594795
 20
-6.935573517113517
 30
0.0
 10
-109.9273834031163
 20
-6.688540253298127
 30
0.0
 10
-111.1870887783368
 20
-6.400270837866971
 30
0.0
 10
-112.446676547315
 20
-6.072553576739755
 30
0.0
 10
-113.7061353656091
 20
-5.707434681708079
 30
0.0
 10
-114.9654718150272
 20
-5.307136307495352
 30
0.0
 10
-116.2246940136623
 20
-4.874205735675331
 30
0.0
 10
-117.4838010156906
 20
-4.411216720170153
 30
0.0
 10
-118.7428164089985
 20
-3.921118710628409
 30
0.0
 10
-119.689054462639
 20
-3.534623403461347
 30
0.0
 10
-120.2163313264017
 20
-3.313715109442099
 30
0.0
 10
-120.3253546485374
 20
-3.267812332259232
 30
0.0
  0
SPLINE
  5
334A
330
1F
100
AcDbEntity
  8
AM_0
 48
0.5
100
AcDbSpline
210
0.0
220
0.0
230
1.0
 70
     8
 71
     3
 72
    26
 73
    22
 74
     0
 42
0.0000000001
 43
0.0000000001
 40
0.0
 40
0.0
 40
0.0
 40
0.0
 40
0.8422864037471089
 40
1.685694647057321
 40
2.531315797913884
 40
3.380177287502886
 40
4.233214169721234
 40
5.09125020057522
 40
5.954967768899448
 40
6.824900391836836
 40
7.701419186604396
 40
8.584724417931369
 40
9.47485577056355
 40
10.37165251267315
 40
11.27486274211709
 40
12.18400675634887
 40
13.09851504074504
 40
14.01768673654235
 40
14.94071745659532
 40
15.8667176994736
 40
16.76607142455336
 40
16.76607142455336
 40
16.76607142455336
 40
16.76607142455336
 10
-98.83950360497873
 20
-7.500000805969445
 30
0.0
 10
-99.25938099774999
 20
-7.49553848786249
 30
0.0
 10
-100.0996950171454
 20
-7.486607908296068
 30
0.0
 10
-101.3598602390381
 20
-7.414617405096043
 30
0.0
 10
-102.6199716728869
 20
-7.300171326831745
 30
0.0
 10
-103.8800051044161
 20
-7.139770737853776
 30
0.0
 10
-105.1399480261334
 20
-6.935589625856894
 30
0.0
 10
-106.3997753350883
 20
-6.688535001208695
 30
0.0
 10
-107.6594861931737
 20
-6.400276060811105
 30
0.0
 10
-108.9190720091894
 20
-6.07256354428929
 30
0.0
 10
-110.1785298053524
 20
-5.707430853053596
 30
0.0
 10
-111.4378699470476
 20
-5.307150603344884
 30
0.0
 10
-112.6970872159806
 20
-4.874194396681112
 30
0.0
 10
-113.9561958794377
 20
-4.411218093795731
 30
0.0
 10
-115.2152127725694
 20
-3.92112265085779
 30
0.0
 10
-116.4741406156384
 20
-3.406881113123428
 30
0.0
 10
-117.73298879329
 20
-2.871688345554672
 30
0.0
 10
-118.9917804227902
 20
-2.318846371978525
 30
0.0
 10
-120.2504947012097
 20
-1.751684634254556
 30
0.0
 10
-121.4962792492813
 20
-1.179927919072237
 30
0.0
 10
-122.3216583836685
 20
-0.7958177471752049
 30
0.0
 10
-122.7297827159496
 20
-0.5208665478675405
 30
0.0
  0
SPLINE
  5
334B
330
1F
100
AcDbEntity
  8
AM_0
100
AcDbSpline
210
0.0
220
0.0
230
1.0
 70
     8
 71
     3
 72
    55
 73
    51
 74
     0
 42
0.0000000001
 43
0.0000000001
 40
0.0
 40
0.0
 40
0.0
 40
0.0
 40
1.010743684496582
 40
2.022833576467832
 40
3.037578957496688
 40
4.056212745003489
 40
5.079857003664532
 40
6.109500240690281
 40
7.145961322679372
 40
8.189895241603872
 40
9.241717795325891
 40
10.30168407291828
 40
11.36983447792315
 40
12.44600489715814
 40
13.52984294512926
 40
14.62081576220742
 40
15.7182257034828
 40
16.82123173843959
 40
17.92886860250316
 40
19.0400688939571
 40
20.15368796660465
 40
21.26852814259644
 40
22.38336992938901
 40
23.49698739941135
 40
24.6081876908653
 40
25.71582455492886
 40
26.81883757994213
 40
27.91624752121713
 40
29.00722033829659
 40
30.09105838626677
 40
31.16722880550176
 40
32.23537921050758
 40
33.29534548809967
 40
34.347168041821
 40
35.39108718934584
 40
36.42754827133493
 40
37.45720575381954
 40
38.48085062012849
 40
39.49948440763516
 40
40.51422944315121
 40
41.52631975251916
 40
42.53706336719636
 40
43.54780698187354
 40
44.55989729124051
 40
45.57464232675757
 40
46.59327611426424
 40
47.6169209805722
 40
48.64656348684535
 40
49.68302456883444
 40
50.58557219878025
 40
50.58557219878025
 40
50.58557219878025
 40
50.58557219878025
 10
-51.81541029100126
 20
-7.500000805972114
 30
0.0
 10
-52.23689207654636
 20
-7.495538487670701
 30
0.0
 10
-53.08041701837668
 20
-7.486607907715137
 30
0.0
 10
-54.34539745631747
 20
-7.414617407439228
 30
0.0
 10
-55.61032389701293
 20
-7.300171318017345
 30
0.0
 10
-56.87517205118036
 20
-7.139770770980083
 30
0.0
 10
-58.13992929762632
 20
-6.935589501269181
 30
0.0
 10
-59.40457068551814
 20
-6.688535470452522
 30
0.0
 10
-60.66910044502512
 20
-6.400272922539228
 30
0.0
 10
-61.93350736232385
 20
-6.072567039449659
 30
0.0
 10
-63.19778282449892
 20
-5.707429915426054
 30
0.0
 10
-64.46193313326458
 20
-5.307153478451203
 30
0.0
 10
-65.72596167426744
 20
-4.874187447760538
 30
0.0
 10
-66.98988424053155
 20
-4.411227146875981
 30
0.0
 10
-68.25370661876537
 20
-3.921117566038637
 30
0.0
 10
-69.51744052806242
 20
-3.406881259506311
 30
0.0
 10
-70.78109998340285
 20
-2.871690654628798
 30
0.0
 10
-72.04469607533662
 20
-2.318836920408811
 30
0.0
 10
-73.30824106720772
 20
-1.751720322377214
 30
0.0
 10
-74.57174847948472
 20
-1.173831395818074
 30
0.0
 10
-75.83522939433031
 20
-0.5887227643603371
 30
0.0
 10
-77.09870165405202
 20
-0.0000023362431236
 30
0.0
 10
-78.36216824184051
 20
0.5887286892086913
 30
0.0
 10
-79.62565339159874
 20
1.173828208977388
 30
0.0
 10
-80.88915924405895
 20
1.75171888477341
 30
0.0
 10
-82.15270648881675
 20
2.31883764326647
 30
0.0
 10
-83.41630782275331
 20
2.871686659335607
 30
0.0
 10
-84.67996927248211
 20
3.406879978374142
 30
0.0
 10
-85.94370336422027
 20
3.921115867913843
 30
0.0
 10
-87.20752569646766
 20
4.411225551819385
 30
0.0
 10
-88.47144826596821
 20
4.874185853381169
 30
0.0
 10
-89.73547683916681
 20
5.307151780543129
 30
0.0
 10
-90.99962701745837
 20
5.707428626237049
 30
0.0
 10
-92.26389704624194
 20
6.072562526104523
 30
0.0
 10
-93.52829614464434
 20
6.400272701323547
 30
0.0
 10
-94.79282543507633
 20
6.688541045834035
 30
0.0
 10
-96.05747585293158
 20
6.935566859650894
 30
0.0
 10
-97.32223727777805
 20
7.139811327781099
 30
0.0
 10
-98.58708580690313
 20
7.300021740673171
 30
0.0
 10
-99.85201312650788
 20
7.415162819505335
 30
0.0
 10
-101.116992491896
 20
7.484543830830584
 30
0.0
 10
-102.3819996544385
 20
7.507721730962564
 30
0.0
 10
-103.6470068151198
 20
7.484543830794387
 30
0.0
 10
-104.9119861861026
 20
7.415162819651382
 30
0.0
 10
-106.1769134851093
 20
7.300021740124142
 30
0.0
 10
-107.4417620914614
 20
7.139811329846235
 30
0.0
 10
-108.7065170600292
 20
6.935567847612787
 30
0.0
 10
-109.9711624956431
 20
6.688543571540273
 30
0.0
 10
-111.1781963834856
 20
6.413358259127206
 30
0.0
 10
-111.9613337160105
 20
6.212112638647433
 30
0.0
 10
-112.3246637937571
 20
6.114035830435054
 30
0.0
  0
LINE
  5
334C
330
1F
100
AcDbEntity
  8
AM_0
100
AcDbLine
 10
-102.3821638071645
 20
7.499999194030749
 30
0.0
 11
-72.55565313377738
 21
7.5010647051401
 31
0.0
  0
SPLINE
  5
334D
330
1F
100
AcDbEntity
  8
AM_0
100
AcDbSpline
210
0.0
220
0.0
230
1.0
 70
     8
 71
     3
 72
    46
 73
    42
 74
     0
 42
0.0000000001
 43
0.0000000001
 40
0.0
 40
0.0
 40
0.0
 40
0.0
 40
1.685415058684573
 40
2.531036209541122
 40
3.379897699130124
 40
4.232934581347651
 40
5.090970612202446
 40
5.954688180526682
 40
6.824620803463244
 40
7.701151815239691
 40
8.584457046566678
 40
9.474582384070743
 40
10.37139106676737
 40
11.27458944007583
 40
12.18373345430765
 40
13.09824173870457
 40
14.0174134345011
 40
14.94044415455409
 40
15.86644439743313
 40
16.79446029130533
 40
17.72349377129849
 40
18.65252725129241
 40
19.5805431451646
 40
20.5065433880429
 40
21.42957410809586
 40
22.34874580389317
 40
23.26325408828901
 40
24.17239810252111
 40
25.07560240389441
 40
25.97241108659103
 40
26.8625364240951
 40
27.74584165542183
 40
28.62236045019041
 40
29.49229307312697
 40
30.35601064145121
 40
31.21404606334469
 40
32.06708345193547
 40
32.91595755657689
 40
33.76157841950692
 40
34.60498701064691
 40
35.44727335621125
 40
35.44727335621125
 40
35.44727335621125
 40
35.44727335621125
 10
-48.2743246111719
 20
-7.50000080597232
 30
0.0
 10
-49.11789076628656
 20
-7.482915226215415
 30
0.0
 10
-50.3846982940447
 20
-7.457257320287191
 30
0.0
 10
-52.06922750694753
 20
-7.299286307095576
 30
0.0
 10
-53.33408925059608
 20
-7.140009503646155
 30
0.0
 10
-54.59884287867612
 20
-6.935525143712014
 30
0.0
 10
-55.86348505939353
 20
-6.688552329893288
 30
0.0
 10
-57.12800929603343
 20
-6.40027180264126
 30
0.0
 10
-58.39241347070763
 20
-6.072561526591575
 30
0.0
 10
-59.6566919563711
 20
-5.707433691350711
 30
0.0
 10
-60.92084728001326
 20
-5.307152955158117
 30
0.0
 10
-62.18487604144072
 20
-4.874187589583415
 30
0.0
 10
-63.4487985479517
 20
-4.411227108419272
 30
0.0
 10
-64.71262094246234
 20
-3.92111757660816
 30
0.0
 10
-65.97635484699823
 20
-3.406881256043301
 30
0.0
 10
-67.24001430496781
 20
-2.871690657841417
 30
0.0
 10
-68.50361039114666
 20
-2.318836910984896
 30
0.0
 10
-69.76715540351256
 20
-1.751720357039278
 30
0.0
 10
-71.03066273924497
 20
-1.173831266086814
 30
0.0
 10
-72.29414394056599
 20
-0.5887232498164256
 30
0.0
 10
-73.55761452084078
 20
-0.0000008060900026
 30
0.0
 10
-74.82108510083809
 20
0.5887216383518373
 30
0.0
 10
-76.08456630299156
 20
1.173829652477023
 30
0.0
 10
-77.34807363568086
 20
1.751718751269252
 30
0.0
 10
-78.611618659331
 20
2.31883527614003
 30
0.0
 10
-79.8752147036691
 20
2.8716891308031
 30
0.0
 10
-81.13887431658897
 20
3.406879329759434
 30
0.0
 10
-82.40261039526941
 20
3.921118245065079
 30
0.0
 10
-83.6664377003842
 20
4.411223323982642
 30
0.0
 10
-84.93036246153925
 20
4.874186179049587
 30
0.0
 10
-86.1943911935365
 20
5.307151673454528
 30
0.0
 10
-87.45854132417221
 20
5.707428731409231
 30
0.0
 10
-88.72281138620813
 20
6.072562214868406
 30
0.0
 10
-89.98721039966932
 20
6.400273829650434
 30
0.0
 10
-91.25173390446901
 20
6.688535496076922
 30
0.0
 10
-92.51637701234459
 20
6.935579941743895
 30
0.0
 10
-93.78113871217996
 20
7.139772295389994
 30
0.0
 10
-95.04599393831652
 20
7.300170377863778
 30
0.0
 10
-96.31092742043053
 20
7.414605963768178
 30
0.0
 10
-97.57590681868892
 20
7.486615890752069
 30
0.0
 10
-98.41943211377861
 20
7.495540073352293
 30
0.0
 10
-98.84091397429919
 20
7.499999194030555
 30
0.0
  0
SPLINE
  5
334E
330
1F
100
AcDbEntity
  8
AM_0
100
AcDbSpline
210
0.0
220
0.0
230
1.0
 70
     8
 71
     3
 72
    22
 73
    18
 74
     0
 42
0.0000000001
 43
0.0000000001
 40
17.17441611292
 40
17.17441611292
 40
17.17441611292
 40
17.17441611292
 40
17.38177636558528
 40
18.41823744757437
 40
19.46215659509824
 40
20.51397914882054
 40
21.57394542641293
 40
22.64209583141747
 40
23.71826625065247
 40
24.80210429862395
 40
25.8930771157021
 40
26.99048705697709
 40
28.09349309193389
 40
29.20112995599786
 40
30.31233024745139
 40
31.42594771747373
 40
32.5407895042663
 40
32.54078950426994
 40
32.54078950426994
 40
32.54078950426994
 10
-80.47253445401036
 20
-6.735055088338428
 30
0.0
 10
-80.55723934568717
 20
-6.717693323951699
 30
0.0
 10
-81.06499891125398
 20
-6.611940919384497
 30
0.0
 10
-81.99518582323486
 20
-6.399893584245363
 30
0.0
 10
-83.2595847408354
 20
-6.072182467512416
 30
0.0
 10
-84.52385481884048
 20
-5.70704882329256
 30
0.0
 10
-85.78800498292585
 20
-5.30677190632904
 30
0.0
 10
-87.05203356323702
 20
-4.873806005939689
 30
0.0
 10
-88.31595611850017
 20
-4.410845668993842
 30
0.0
 10
-89.57977850103192
 20
-3.92073610076455
 30
0.0
 10
-90.84351240419463
 20
-3.406499780104184
 30
0.0
 10
-92.10717187990807
 20
-2.871309219388503
 30
0.0
 10
-93.37076789597402
 20
-2.318455321559901
 30
0.0
 10
-94.63431317252947
 20
-1.751339337218912
 30
0.0
 10
-95.89781890980347
 20
-1.173448387730855
 30
0.0
 10
-97.16130382553467
 20
-0.5883483726087455
 30
0.0
 10
-98.00346176471679
 20
-0.1959342036820132
 30
0.0
 10
-98.42477208115683
 20
0.0003806637580479
 30
0.0
  0
LINE
  5
334F
330
1F
100
AcDbEntity
  8
AM_0
 48
0.5
100
AcDbLine
 10
-102.3821733510919
 20
-7.500000805969154
 30
0.0
 11
-75.64438084089786
 21
-7.500000805970611
 31
0.0
  0
ELLIPSE
  5
34C0
330
1F
100
AcDbEntity
  8
AM_0
 48
0.5
100
AcDbEllipse
 10
-120.9529188983011
 20
-4.998170920191552
 30
0.0
 11
-0.4403051858453387
 21
1.833518229697575
 31
0.0
210
0.0
220
0.0
230
0.9999999999999998
 40
0.9272792540829788
 41
-0.6188126523134652
 42
1.324361789213831
  0
ELLIPSE
  5
34C1
330
1F
100
AcDbEntity
  8
AM_0
 48
0.5
100
AcDbEllipse
 10
-120.3637654124629
 20
-4.922000952540327
 30
0.0
 11
-0.2475585102022338
 21
2.55621933123163
 31
0.0
210
0.0
220
0.0
230
1.0
 40
0.9127368596019868
 41
1.492310128633654
 42
3.115710458698261
  0
VIEWPORT
  5
110
330
101
100
AcDbEntity
 67
     1
  8
0
100
AcDbViewport
 10
420.5
 20
297.0
 30
0.0
 40
948.9782706766916
 41
628.452
 68
     1
 69
     1
1001
ACAD
1000
MVIEW
1002
{
1070
    16
1010
0.0
1020
0.0
1030
0.0
1010
0.0
1020
0.0
1030
1.0
1040
0.0
1040
628.452
1040
420.5
1040
297.0
1040
50.0
1040
0.0
1040
0.0
1070
     0
1070
   100
1070
     1
1070
     1
1070
     0
1070
     0
1070
     0
1070
     0
1040
0.0
1040
0.0
1040
0.0
1040
10.0
1040
10.0
1040
10.0
1040
10.0
1070
     0
1002
{
1002
}
1002
}
  0
ENDSEC
  0
SECTION
  2
OBJECTS
  0
DICTIONARY
  5
C
330
0
100
AcDbDictionary
  3
ACAD_GROUP
350
D
  3
ACAD_LAYOUT
350
1A
  3
ACAD_MLINESTYLE
350
17
  3
ACAD_PLOTSETTINGS
350
19
  3
ACAD_PLOTSTYLENAME
350
E
  3
ACDBVARIABLEDICTIONARY
350
34
  3
ACMDICTIONARY
350
43
  3
AMG
350
2B
  3
AMGSNAPSETTINGS
350
6E
  3
DWGPROPS
350
34D2
  3
ACDBHEADERROUNDTRIPXREC
350
34E1
  0
DICTIONARY
  5
74
330
1F
100
AcDbDictionary
280
     1
  3
ACAD_INDEX
360
34D4
  3
ACAD_LAYOUTSELFREF
360
3504
  0
DICTIONARY
  5
3509
330
101
100
AcDbDictionary
280
     1
  3
ACAD_LAYOUTSELFREF
360
350A
  0
DICTIONARY
  5
D
102
{ACAD_REACTORS
330
C
102
}
330
C
100
AcDbDictionary
  0
DICTIONARY
  5
1A
102
{ACAD_REACTORS
330
C
102
}
330
C
100
AcDbDictionary
  0
DICTIONARY
  5
17
102
{ACAD_REACTORS
330
C
102
}
330
C
100
AcDbDictionary
  3
STANDARD
350
18
  0
DICTIONARY
  5
19
102
{ACAD_REACTORS
330
C
102
}
330
C
100
AcDbDictionary
  0
ACDBDICTIONARYWDFLT
  5
E
102
{ACAD_REACTORS
330
C
102
}
330
C
100
AcDbDictionary
281
     1
  3
Normal
350
F
100
AcDbDictionaryWithDefault
340
F
  0
DICTIONARY
  5
34
102
{ACAD_REACTORS
330
C
102
}
330
C
100
AcDbDictionary
  3
INDEXCTL
350
35
  3
SORTENTS
350
B5E
  0
DICTIONARY
  5
43
102
{ACAD_REACTORS
330
C
102
}
330
C
100
AcDbDictionary
  3
ACMSTDDICTIONARY
350
260
  0
DICTIONARY
  5
2B
102
{ACAD_REACTORS
330
C
102
}
330
C
100
AcDbDictionary
  3
ACMGSETTINGS
350
2C
  0
DICTIONARY
  5
6E
102
{ACAD_REACTORS
330
C
102
}
330
C
100
AcDbDictionary
  0
XRECORD
  5
34D2
102
{ACAD_REACTORS
330
C
102
}
330
C
100
AcDbXrecord
  1
DWGPROPS COOKIE
  2

  3

  4

  6

  7

  8

  9

300
AmdtFileType=82
301
=
302
=
303
=
304
=
305
=
306
=
307
=
308
=
309
=
 40
0.1961828819444444
 41
2452800.443498622
 42
2452983.669796539
  1

 90
        1
  0
DICTIONARY
  5
34E1
102
{ACAD_REACTORS
330
C
102
}
330
C
100
AcDbDictionary
  3
TSTACKALIGN
350
34E2
  3
TSTACKSIZE
350
34E3
  3
HYPERLINKBASE
350
34E4
  3
STYLESHEET
350
34E5
  3
LAYOUTDICT
350
34E6
  3
PLOTSETDICT
350
34E7
  3
PLOTSTYLNAMDICT
350
34E8
  3
LWETCUNION
350
34E9
  3
INSUNITS
350
34EA
  3
CEPSNTYPE
350
34EB
  3
FINGERPRINTGUID
350
34EC
  3
VERSIONGUID
350
34ED
  3
PSVPSCALE
350
34EE
  3
DIMSTYLEDATA
350
34EF
  3
PUCSORTHOREF
350
34F0
  3
PUCSORTHOVIEW
350
34F1
  3
PUCSBASE
350
34F2
  3
PUCSORGTOP
350
34F3
  3
PUCSORGBOTTOM
350
34F4
  3
PUCSORGLEFT
350
34F5
  3
PUCSORGRIGHT
350
34F6
  3
PUCSORGFRONT
350
34F7
  3
PUCSORGBACK
350
34F8
  3
UCSORTHOREF
350
34F9
  3
UCSORTHOVIEW
350
34FA
  3
UCSBASE
350
34FB
  3
UCSORGTOP
350
34FC
  3
UCSORGBOTTOM
350
34FD
  3
UCSORGLEFT
350
34FE
  3
UCSORGRIGHT
350
34FF
  3
UCSORGFRONT
350
3500
  3
UCSORGBACK
350
3501
  0
DICTIONARY
  5
34D4
102
{ACAD_REACTORS
330
74
102
}
330
74
100
AcDbDictionary
  3
*A1
350
34D5
  0
XRECORD
  5
3504
102
{ACAD_REACTORS
330
74
102
}
330
74
100
AcDbXrecord
340
1F
  0
XRECORD
  5
350A
102
{ACAD_REACTORS
330
3509
102
}
330
3509
100
AcDbXrecord
340
101
  0
MLINESTYLE
  5
18
102
{ACAD_REACTORS
330
17
102
}
330
17
100
AcDbMlineStyle
  2
STANDARD
 70
     0
  3

 62
   256
 51
90.0
 52
90.0
 71
     2
 49
0.5
 62
   256
  6
BYLAYER
 49
-0.5
 62
   256
  6
BYLAYER
  0
ACDBPLACEHOLDER
  5
F
102
{ACAD_REACTORS
330
E
102
}
330
E
100
AcDbPlaceHolder
280
     0
  0
DICTIONARYVAR
  5
35
102
{ACAD_REACTORS
330
34
102
}
330
34
100
DictionaryVariables
280
     0
  1
1
  0
DICTIONARYVAR
  5
B5E
102
{ACAD_REACTORS
330
34
102
}
330
34
100
DictionaryVariables
280
     0
  1
96
  0
DICTIONARY
  5
260
102
{ACAD_REACTORS
330
43
102
}
330
43
100
AcDbDictionary
  0
DICTIONARY
  5
2C
102
{ACAD_REACTORS
330
2B
102
}
330
2B
100
AcDbDictionary
  3
DWGSETTINGS
350
2D
  0
XRECORD
  5
34E2
102
{ACAD_REACTORS
330
34E1
102
}
330
34E1
100
AcDbXrecord
 90
        1
  0
XRECORD
  5
34E3
102
{ACAD_REACTORS
330
34E1
102
}
330
34E1
100
AcDbXrecord
 90
       70
  0
XRECORD
  5
34E4
102
{ACAD_REACTORS
330
34E1
102
}
330
34E1
100
AcDbXrecord
  1

  0
XRECORD
  5
34E5
102
{ACAD_REACTORS
330
34E1
102
}
330
34E1
100
AcDbXrecord
  1
ASAMI.ctb
  0
XRECORD
  5
34E6
102
{ACAD_REACTORS
330
34E1
102
}
330
34E1
100
AcDbXrecord
340
1A
  0
XRECORD
  5
34E7
102
{ACAD_REACTORS
330
34E1
102
}
330
34E1
100
AcDbXrecord
340
19
  0
XRECORD
  5
34E8
102
{ACAD_REACTORS
330
34E1
102
}
330
34E1
100
AcDbXrecord
340
E
  0
XRECORD
  5
34E9
102
{ACAD_REACTORS
330
34E1
102
}
330
34E1
100
AcDbXrecord
 90
    10781
  0
XRECORD
  5
34EA
102
{ACAD_REACTORS
330
34E1
102
}
330
34E1
100
AcDbXrecord
 90
        4
  0
XRECORD
  5
34EB
102
{ACAD_REACTORS
330
34E1
102
}
330
34E1
100
AcDbXrecord
 90
        0
  0
XRECORD
  5
34EC
102
{ACAD_REACTORS
330
34E1
102
}
330
34E1
100
AcDbXrecord
  1
{AFB28963-8C59-40AE-9337-C84526B81ACE}
  0
XRECORD
  5
34ED
102
{ACAD_REACTORS
330
34E1
102
}
330
34E1
100
AcDbXrecord
  1
{1AB92DA8-4D50-464B-AFC4-E97C133F4C74}
  0
XRECORD
  5
34EE
102
{ACAD_REACTORS
330
34E1
102
}
330
34E1
100
AcDbXrecord
 40
0.0
  0
XRECORD
  5
34EF
102
{ACAD_REACTORS
330
34E1
102
}
330
34E1
100
AcDbXrecord
1000
DSTYLE
1002
{
1070
    79
 70
     2
1070
   341
340
59
1070
   342
340
59
1070
   371
 70
    -1
1070
   372
 70
    -1
1002
}
  0
XRECORD
  5
34F0
102
{ACAD_REACTORS
330
34E1
102
}
330
34E1
100
AcDbXrecord
340
0
  0
XRECORD
  5
34F1
102
{ACAD_REACTORS
330
34E1
102
}
330
34E1
100
AcDbXrecord
 70
     0
  0
XRECORD
  5
34F2
102
{ACAD_REACTORS
330
34E1
102
}
330
34E1
100
AcDbXrecord
340
0
  0
XRECORD
  5
34F3
102
{ACAD_REACTORS
330
34E1
102
}
330
34E1
100
AcDbXrecord
 10
0.0
 20
0.0
 30
0.0
  0
XRECORD
  5
34F4
102
{ACAD_REACTORS
330
34E1
102
}
330
34E1
100
AcDbXrecord
 10
0.0
 20
0.0
 30
0.0
  0
XRECORD
  5
34F5
102
{ACAD_REACTORS
330
34E1
102
}
330
34E1
100
AcDbXrecord
 10
0.0
 20
0.0
 30
0.0
  0
XRECORD
  5
34F6
102
{ACAD_REACTORS
330
34E1
102
}
330
34E1
100
AcDbXrecord
 10
0.0
 20
0.0
 30
0.0
  0
XRECORD
  5
34F7
102
{ACAD_REACTORS
330
34E1
102
}
330
34E1
100
AcDbXrecord
 10
0.0
 20
0.0
 30
0.0
  0
XRECORD
  5
34F8
102
{ACAD_REACTORS
330
34E1
102
}
330
34E1
100
AcDbXrecord
 10
0.0
 20
0.0
 30
0.0
  0
XRECORD
  5
34F9
102
{ACAD_REACTORS
330
34E1
102
}
330
34E1
100
AcDbXrecord
340
0
  0
XRECORD
  5
34FA
102
{ACAD_REACTORS
330
34E1
102
}
330
34E1
100
AcDbXrecord
 70
     0
  0
XRECORD
  5
34FB
102
{ACAD_REACTORS
330
34E1
102
}
330
34E1
100
AcDbXrecord
340
0
  0
XRECORD
  5
34FC
102
{ACAD_REACTORS
330
34E1
102
}
330
34E1
100
AcDbXrecord
 10
0.0
 20
0.0
 30
0.0
  0
XRECORD
  5
34FD
102
{ACAD_REACTORS
330
34E1
102
}
330
34E1
100
AcDbXrecord
 10
0.0
 20
0.0
 30
0.0
  0
XRECORD
  5
34FE
102
{ACAD_REACTORS
330
34E1
102
}
330
34E1
100
AcDbXrecord
 10
0.0
 20
0.0
 30
0.0
  0
XRECORD
  5
34FF
102
{ACAD_REACTORS
330
34E1
102
}
330
34E1
100
AcDbXrecord
 10
0.0
 20
0.0
 30
0.0
  0
XRECORD
  5
3500
102
{ACAD_REACTORS
330
34E1
102
}
330
34E1
100
AcDbXrecord
 10
0.0
 20
0.0
 30
0.0
  0
XRECORD
  5
3501
102
{ACAD_REACTORS
330
34E1
102
}
330
34E1
100
AcDbXrecord
 10
0.0
 20
0.0
 30
0.0
  0
LAYER_INDEX
  5
34D5
102
{ACAD_REACTORS
330
34D4
102
}
330
34D4
100
AcDbIndex
 40
2453151.587485336
100
AcDbLayerIndex
  8
0
360
34D6
 90
        0
  8
AM_0
360
34D7
 90
       46
  8
PV0001_1
360
34D8
 90
        0
  8
AM_CL
360
34D9
 90
        0
  8
AM_7
360
34DA
 90
        1
  8
AM_11
360
34DB
 90
        6
  8
AM_5
360
34DC
 90
        4
  8
Defpoints
360
34DD
 90
        0
  8
AM_6
360
34DE
 90
        1
  8
AM_4
360
34DF
 90
        0
  0
XRECORD
  5
2D
102
{ACAD_REACTORS
330
2C
102
}
330
2C
100
AcDbXrecord
  1
VERSION
140
15.0
  1
PRODUCT
  2
AutoCAD Mechanical 2000
  0
IDBUFFER
  5
34D6
330
0
100
AcDbIdBuffer
  0
IDBUFFER
  5
34D7
330
0
100
AcDbIdBuffer
330
3249
330
332D
330
332E
330
332F
330
3330
330
3332
330
3334
330
3335
330
3336
330
3337
330
3338
330
333A
330
333C
330
333D
330
333E
330
333F
330
3340
330
3341
330
3344
330
3345
330
3348
330
3349
330
334A
330
334B
330
334C
330
334D
330
334E
330
334F
330
34C0
330
34C1
330
2069
330
23EE
330
23F0
330
23FA
330
23FB
330
246F
330
2470
330
2471
330
2472
330
2538
330
2539
330
2B39
330
2B3A
330
3245
330
3246
330
3248
  0
IDBUFFER
  5
34D8
330
0
100
AcDbIdBuffer
  0
IDBUFFER
  5
34D9
330
0
100
AcDbIdBuffer
  0
IDBUFFER
  5
34DA
330
0
100
AcDbIdBuffer
330
23EF
  0
IDBUFFER
  5
34DB
330
0
100
AcDbIdBuffer
330
3331
330
3333
330
3339
330
333B
330
3346
330
3347
  0
IDBUFFER
  5
34DC
330
0
100
AcDbIdBuffer
330
CC6
330
11B2
330
23DF
330
246E
  0
IDBUFFER
  5
34DD
330
0
100
AcDbIdBuffer
  0
IDBUFFER
  5
34DE
330
0
100
AcDbIdBuffer
330
19BD
  0
IDBUFFER
  5
34DF
330
0
100
AcDbIdBuffer
  0
ENDSEC
  0
EOF
