  0
SECTION
  2
HEADER
  9
$ACADVER
  1
AC1014
  9
$ACADMAINTVER
 70
     9
  9
$DWGCODEPAGE
  3
ANSI_932
  9
$INSBASE
 10
0.0
 20
0.0
 30
0.0
  9
$EXTMIN
 10
-209.3000009999988
 20
-54.00000305448101
 30
-0.00000001
  9
$EXTMAX
 10
24.05225755689067
 20
23.54140078966568
 30
0.00000001
  9
$LIMMIN
 10
-212.4283160478946
 20
-92.01098889734623
  9
$LIMMAX
 10
49.45840178964954
 20
64.30738472477009
  9
$ORTHOMODE
 70
     0
  9
$REGENMODE
 70
     1
  9
$FILLMODE
 70
     1
  9
$QTEXTMODE
 70
     0
  9
$MIRRTEXT
 70
     0
  9
$DRAGMODE
 70
     2
  9
$LTSCALE
 40
1.0
  9
$OSMODE
 70
    55
  9
$ATTMODE
 70
     1
  9
$TEXTSIZE
 40
2.5
  9
$TRACEWID
 40
1.0
  9
$TEXTSTYLE
  7
STANDARD
  9
$CLAYER
  8
AM_0
  9
$CELTYPE
  6
BYLAYER
  9
$CECOLOR
 62
   256
  9
$CELTSCALE
 40
1.0
  9
$DELOBJ
 70
     1
  9
$DISPSILH
 70
     0
  9
$DIMSCALE
 40
1.0
  9
$DIMASZ
 40
2.5
  9
$DIMEXO
 40
1.0
  9
$DIMDLI
 40
12.0
  9
$DIMRND
 40
0.0
  9
$DIMDLE
 40
0.0
  9
$DIMEXE
 40
1.0
  9
$DIMTP
 40
0.1
  9
$DIMTM
 40
0.1
  9
$DIMTXT
 40
3.2
  9
$DIMCEN
 40
0.0
  9
$DIMTSZ
 40
0.0
  9
$DIMTOL
 70
     0
  9
$DIMLIM
 70
     0
  9
$DIMTIH
 70
     0
  9
$DIMTOH
 70
     0
  9
$DIMSE1
 70
     0
  9
$DIMSE2
 70
     0
  9
$DIMTAD
 70
     3
  9
$DIMZIN
 70
     8
  9
$DIMBLK
  1
OPEN30
  9
$DIMASO
 70
     1
  9
$DIMSHO
 70
     1
  9
$DIMPOST
  1

  9
$DIMAPOST
  1
"
  9
$DIMALT
 70
     0
  9
$DIMALTD
 70
     2
  9
$DIMALTF
 40
0.0393701
  9
$DIMLFAC
 40
1.0
  9
$DIMTOFL
 70
     1
  9
$DIMTVP
 40
0.0
  9
$DIMTIX
 70
     0
  9
$DIMSOXD
 70
     0
  9
$DIMSAH
 70
     0
  9
$DIMBLK1
  1

  9
$DIMBLK2
  1

  9
$DIMSTYLE
  2
AM_JIS
  9
$DIMCLRD
 70
   256
  9
$DIMCLRE
 70
   256
  9
$DIMCLRT
 70
     2
  9
$DIMTFAC
 40
0.71
  9
$DIMGAP
 40
1.5
  9
$DIMJUST
 70
     0
  9
$DIMSD1
 70
     0
  9
$DIMSD2
 70
     0
  9
$DIMTOLJ
 70
     0
  9
$DIMTZIN
 70
     0
  9
$DIMALTZ
 70
     0
  9
$DIMALTTZ
 70
     0
  9
$DIMFIT
 70
     3
  9
$DIMUPT
 70
     0
  9
$DIMUNIT
 70
     2
  9
$DIMDEC
 70
     3
  9
$DIMTDEC
 70
     3
  9
$DIMALTU
 70
     2
  9
$DIMALTTD
 70
     2
  9
$DIMTXSTY
  7
ASAMI
  9
$DIMAUNIT
 70
     0
  9
$LUNITS
 70
     2
  9
$LUPREC
 70
     2
  9
$SKETCHINC
 40
1.0
  9
$FILLETRAD
 40
2.5
  9
$AUNITS
 70
     0
  9
$AUPREC
 70
     0
  9
$MENU
  1
.
  9
$ELEVATION
 40
0.0
  9
$PELEVATION
 40
0.0
  9
$THICKNESS
 40
0.0
  9
$LIMCHECK
 70
     0
  9
$BLIPMODE
 70
     0
  9
$CHAMFERA
 40
0.5
  9
$CHAMFERB
 40
0.5
  9
$CHAMFERC
 40
20.0
  9
$CHAMFERD
 40
0.0
  9
$SKPOLY
 70
     0
  9
$TDCREATE
 40
2452800.443498622
  9
$TDUPDATE
 40
2453151.670687558
  9
$TDINDWG
 40
0.2494323380
  9
$TDUSRTIMER
 40
0.2494323380
  9
$USRTIMER
 70
     1
  9
$ANGBASE
 50
0.0
  9
$ANGDIR
 70
     0
  9
$PDMODE
 70
     3
  9
$PDSIZE
 40
0.0
  9
$PLINEWID
 40
0.0
  9
$COORDS
 70
     1
  9
$SPLFRAME
 70
     0
  9
$SPLINETYPE
 70
     6
  9
$SPLINESEGS
 70
     8
  9
$ATTDIA
 70
     1
  9
$ATTREQ
 70
     1
  9
$HANDLING
 70
 12289
  9
$HANDSEED
  5
4CF7
  9
$SURFTAB1
 70
     6
  9
$SURFTAB2
 70
     6
  9
$SURFTYPE
 70
     6
  9
$SURFU
 70
     6
  9
$SURFV
 70
     6
  9
$UCSNAME
  2

  9
$UCSORG
 10
0.0
 20
0.0
 30
0.0
  9
$UCSXDIR
 10
1.0
 20
0.0000000000000027
 30
0.0
  9
$UCSYDIR
 10
-0.0000000000000027
 20
1.0
 30
0.0
  9
$PUCSNAME
  2

  9
$PUCSORG
 10
0.0
 20
0.0
 30
0.0
  9
$PUCSXDIR
 10
1.0
 20
0.0
 30
0.0
  9
$PUCSYDIR
 10
0.0
 20
1.0
 30
0.0
  9
$USERI1
 70
     0
  9
$USERI2
 70
     0
  9
$USERI3
 70
     0
  9
$USERI4
 70
     0
  9
$USERI5
 70
     0
  9
$USERR1
 40
0.0
  9
$USERR2
 40
0.0
  9
$USERR3
 40
0.0
  9
$USERR4
 40
0.0
  9
$USERR5
 40
0.0
  9
$WORLDVIEW
 70
     1
  9
$SHADEDGE
 70
     3
  9
$SHADEDIF
 70
    70
  9
$TILEMODE
 70
     1
  9
$MAXACTVP
 70
    64
  9
$PINSBASE
 10
0.0
 20
0.0
 30
0.0
  9
$PLIMCHECK
 70
     0
  9
$PEXTMIN
 10
1.000000000000000E+20
 20
1.000000000000000E+20
 30
1.000000000000000E+20
  9
$PEXTMAX
 10
-1.000000000000000E+20
 20
-1.000000000000000E+20
 30
-1.000000000000000E+20
  9
$PLIMMIN
 10
0.0
 20
0.0
  9
$PLIMMAX
 10
841.0
 20
594.0
  9
$UNITMODE
 70
     0
  9
$VISRETAIN
 70
     1
  9
$PLINEGEN
 70
     0
  9
$PSLTSCALE
 70
     0
  9
$TREEDEPTH
 70
  3020
  9
$PICKSTYLE
 70
     0
  9
$CMLSTYLE
  2
STANDARD
  9
$CMLJUST
 70
     0
  9
$CMLSCALE
 40
20.0
  9
$PROXYGRAPHICS
 70
     1
  9
$MEASUREMENT
 70
     1
  0
ENDSEC
  0
SECTION
  2
CLASSES
  0
CLASS
  1
ACDBDICTIONARYWDFLT
  2
AcDbDictionaryWithDefault
  3
AutoCAD 2000
 90
        0
280
     0
281
     0
  0
CLASS
  1
ACDBPLACEHOLDER
  2
AcDbPlaceHolder
  3
AutoCAD 2000
 90
        0
280
     0
281
     0
  0
CLASS
  1
LAYOUT
  2
AcDbLayout
  3
AutoCAD 2000
 90
        0
280
     0
281
     0
  0
CLASS
  1
AMGSETTINGSOBJ
  2
AmgSettingsObj
  3
"AcadM|Product Description: AutoCAD Mechanical 2000|Company: Autodesk"
 90
        0
280
     0
281
     0
  0
CLASS
  1
ACME_DOCUMENT
  2
AcMeDbDoc
  3
AcMeServices
 90
        0
280
     0
281
     0
  0
CLASS
  1
ACMESCOPE
  2
AcMeScope
  3
AcMeServices
 90
        0
280
     0
281
     0
  0
CLASS
  1
ACMECOMMANDHISTORY
  2
AcMeCommandHistory
  3
AcMeServices
 90
        0
280
     0
281
     0
  0
CLASS
  1
DICTIONARYVAR
  2
AcDbDictionaryVar
  3
AutoCAD 2000
 90
        0
280
     0
281
     0
  0
CLASS
  1
ACIMSYSVARMAN
  2
AcImSysVarManager
  3
AcMeServices
 90
        0
280
     0
281
     0
  0
CLASS
  1
ACIMREALSYSVAR
  2
AcImRealSysVar
  3
AcMeServices
 90
        0
280
     0
281
     0
  0
CLASS
  1
ACIMINTSYSVAR
  2
AcImIntSysVar
  3
AcMeServices
 90
        0
280
     0
281
     0
  0
CLASS
  1
ACMEDRAWINGMAN
  2
AcMeDrawingMan
  3
AcMeServices
 90
        0
280
     0
281
     0
  0
CLASS
  1
ACMEVIEW
  2
AcMeView
  3
AcMeServices
 90
        0
280
     0
281
     0
  0
CLASS
  1
ACDBENTITYCACHE
  2
AcMeEntityCache
  3
AcMeServices
 90
        0
280
     0
281
     0
  0
CLASS
  1
GSMANAGER
  2
AcMeGSManager
  3
AcMeServices
 90
        0
280
     0
281
     0
  0
CLASS
  1
AmdtInternalReactor
  2
AmdtInternalReactor
  3
AcMeServices
 90
        0
280
     0
281
     0
  0
CLASS
  1
ACMESTATEMGR
  2
AcMeStateMgr
  3
AcMeServices
 90
        0
280
     0
281
     0
  0
CLASS
  1
ACME_DATABASE
  2
AcMeDbDatabase
  3
AcMeServices
 90
        0
280
     0
281
     0
  0
CLASS
  1
ACRFINSADJUSTERMGR
  2
AcRfInsAdjusterMgr
  3
AcMeServices
 90
        0
280
     0
281
     0
  0
CLASS
  1
ACMDATADICTIONARY
  2
AcmDataDictionary
  3
"AcmSymBB|Product Description: AutoCAD Mechanical 2000|Company: Autodesk"
 90
        0
280
     0
281
     0
  0
CLASS
  1
ACMDATAENTRYBLOCK
  2
AcmDataEntryBlock
  3
"AcmSymBB|Product Description: AutoCAD Mechanical 2000|Company: Autodesk"
 90
        0
280
     0
281
     0
  0
CLASS
  1
AMGOBJPROPCFG
  2
AmgObjPropCfg
  3
"AmgLay|Product Description: AutoCAD Mechanical 2000|Company: Autodesk"
 90
        1
280
     0
281
     0
  0
CLASS
  1
ACAMGFILTERDAT
  2
AcAmgFilterDat
  3
"AcadM|Product Description: AutoCAD Mechanical 2000|Company: Autodesk"
 90
        0
280
     0
281
     0
  0
CLASS
  1
LAYER_INDEX
  2
AcDbLayerIndex
  3
AutoCAD 2000
 90
        0
280
     0
281
     0
  0
CLASS
  1
IDBUFFER
  2
AcDbIdBuffer
  3
AutoCAD 2000
 90
        0
280
     0
281
     0
  0
CLASS
  1
ACIMSTRSYSVAR
  2
AcImStrSysVar
  3
AcMeServices
 90
        0
280
     0
281
     0
  0
CLASS
  1
ACMSTANDARDJIS
  2
AcmStandardJIS
  3
"AcmSymBB|Product Description: AutoCAD Mechanical 2000|Company: Autodesk"
 90
        0
280
     0
281
     0
  0
CLASS
  1
ACMSURFSTANDARDJIS
  2
AcmSurfTextStdJIS
  3
"AcmSymBB|Product Description: AutoCAD Mechanical 2000|Company: Autodesk"
 90
        0
280
     0
281
     0
  0
CLASS
  1
ACMFCFSTANDARDJIS
  2
AcmFCFStdJIS
  3
"AcmSymBB|Product Description: AutoCAD Mechanical 2000|Company: Autodesk"
 90
        0
280
     0
281
     0
  0
CLASS
  1
ACMWELDSTANDARDJIS
  2
AcmWeldingStdJIS
  3
"AcmSymBB|Product Description: AutoCAD Mechanical 2000|Company: Autodesk"
 90
        0
280
     0
281
     0
  0
CLASS
  1
ACMIDSTANDARDJIS
  2
AcmIdStdJIS
  3
"AcmSymBB|Product Description: AutoCAD Mechanical 2000|Company: Autodesk"
 90
        0
280
     0
281
     0
  0
CLASS
  1
ACMDATUMSTANDARDJIS
  2
AcmDatumStdJIS
  3
"AcmSymBB|Product Description: AutoCAD Mechanical 2000|Company: Autodesk"
 90
        0
280
     0
281
     0
  0
CLASS
  1
ACMBOMSTANDARDJIS
  2
AcmBOMStdJIS
  3
"AcmSymBB|Product Description: AutoCAD Mechanical 2000|Company: Autodesk"
 90
        0
280
     0
281
     0
  0
CLASS
  1
ACMSTANDARDANSI
  2
AcmStandardANSI
  3
"AcmSymBB|Product Description: AutoCAD Mechanical 2000|Company: Autodesk"
 90
        0
280
     0
281
     0
  0
CLASS
  1
ACMSURFSTANDARDANSI
  2
AcmSurfTextStdANSI
  3
"AcmSymBB|Product Description: AutoCAD Mechanical 2000|Company: Autodesk"
 90
        0
280
     0
281
     0
  0
CLASS
  1
ACMFCFSTANDARDANSI
  2
AcmFCFStdANSI
  3
"AcmSymBB|Product Description: AutoCAD Mechanical 2000|Company: Autodesk"
 90
        0
280
     0
281
     0
  0
CLASS
  1
ACMWELDSTANDARDANSI
  2
AcmWeldingStdANSI
  3
"AcmSymBB|Product Description: AutoCAD Mechanical 2000|Company: Autodesk"
 90
        0
280
     0
281
     0
  0
CLASS
  1
ACMIDSTANDARDANSI
  2
AcmIdStdANSI
  3
"AcmSymBB|Product Description: AutoCAD Mechanical 2000|Company: Autodesk"
 90
        0
280
     0
281
     0
  0
CLASS
  1
ACMDATUMSTANDARDANSI
  2
AcmDatumStdANSI
  3
"AcmSymBB|Product Description: AutoCAD Mechanical 2000|Company: Autodesk"
 90
        0
280
     0
281
     0
  0
CLASS
  1
ACMBOMSTANDARDANSI
  2
AcmBOMStdANSI
  3
"AcmSymBB|Product Description: AutoCAD Mechanical 2000|Company: Autodesk"
 90
        0
280
     0
281
     0
  0
CLASS
  1
ACMSTANDARDBSI
  2
AcmStandardBSI
  3
"AcmSymBB|Product Description: AutoCAD Mechanical 2000|Company: Autodesk"
 90
        0
280
     0
281
     0
  0
CLASS
  1
ACMSURFSTANDARDBSI
  2
AcmSurfTextStdBSI
  3
"AcmSymBB|Product Description: AutoCAD Mechanical 2000|Company: Autodesk"
 90
        0
280
     0
281
     0
  0
CLASS
  1
ACMFCFSTANDARDBSI
  2
AcmFCFStdBSI
  3
"AcmSymBB|Product Description: AutoCAD Mechanical 2000|Company: Autodesk"
 90
        0
280
     0
281
     0
  0
CLASS
  1
ACMWELDSTANDARDBSI
  2
AcmWeldingStdBSI
  3
"AcmSymBB|Product Description: AutoCAD Mechanical 2000|Company: Autodesk"
 90
        0
280
     0
281
     0
  0
CLASS
  1
ACMIDSTANDARDBSI
  2
AcmIdStdBSI
  3
"AcmSymBB|Product Description: AutoCAD Mechanical 2000|Company: Autodesk"
 90
        0
280
     0
281
     0
  0
CLASS
  1
ACMDATUMSTANDARDBSI
  2
AcmDatumStdBSI
  3
"AcmSymBB|Product Description: AutoCAD Mechanical 2000|Company: Autodesk"
 90
        0
280
     0
281
     0
  0
CLASS
  1
ACMBOMSTANDARDBSI
  2
AcmBOMStdBSI
  3
"AcmSymBB|Product Description: AutoCAD Mechanical 2000|Company: Autodesk"
 90
        0
280
     0
281
     0
  0
CLASS
  1
LONG_TRANSACTION
  2
AcDbLongTransaction
  3
AutoCAD 2000
 90
        0
280
     0
281
     0
  0
CLASS
  1
LWPOLYLINE
  2
AcDbPolyline
  3
AutoCAD 2000
 90
        0
280
     0
281
     1
  0
CLASS
  1
HATCH
  2
AcDbHatch
  3
AutoCAD 2000
 90
        0
280
     0
281
     1
  0
CLASS
  1
XRECORD
  2
AcDbXrecord
  3
AutoCAD 2000
 90
        0
280
     0
281
     0
  0
ENDSEC
  0
SECTION
  2
TABLES
  0
TABLE
  2
VPORT
  5
8
330
0
100
AcDbSymbolTable
 70
     3
  0
VPORT
  5
4CC1
330
8
100
AcDbSymbolTableRecord
100
AcDbViewportTableRecord
  2
*ACTIVE
 70
     0
 10
0.0
 20
0.0
 11
1.0
 21
1.0
 12
-88.29938064163213
 22
-15.22927152323228
 13
0.0
 23
0.0
 14
2.5
 24
2.5
 15
10.0
 25
10.0
 16
0.0
 26
0.0
 36
1.0
 17
0.0
 27
0.0
 37
0.0
 40
155.3294548295128
 41
1.56570841889117
 42
50.0
 43
0.0
 44
0.0
 50
0.0
 51
0.0
 71
     0
 72
   100
 73
     1
 74
     1
 75
     0
 76
     0
 77
     0
 78
     0
  0
ENDTAB
  0
TABLE
  2
LTYPE
  5
5
330
0
100
AcDbSymbolTable
 70
    10
  0
LTYPE
  5
14
330
5
100
AcDbSymbolTableRecord
100
AcDbLinetypeTableRecord
  2
BYBLOCK
 70
     0
  3

 72
    65
 73
     0
 40
0.0
  0
LTYPE
  5
15
330
5
100
AcDbSymbolTableRecord
100
AcDbLinetypeTableRecord
  2
BYLAYER
 70
     0
  3

 72
    65
 73
     0
 40
0.0
  0
LTYPE
  5
16
330
5
100
AcDbSymbolTableRecord
100
AcDbLinetypeTableRecord
  2
CONTINUOUS
 70
     0
  3
Solid line
 72
    65
 73
     0
 40
0.0
  0
LTYPE
  5
4B
330
5
100
AcDbSymbolTableRecord
100
AcDbLinetypeTableRecord
  2
AM_ISO02W050
 70
     0
  3
__ __ __ __ __ __ __ __ __ __ __ __ __ __ __
 72
    65
 73
     2
 40
7.5
 49
6.0
 74
     0
 49
-1.5
 74
     0
  0
LTYPE
  5
4C
330
5
100
AcDbSymbolTableRecord
100
AcDbLinetypeTableRecord
  2
AM_ISO08W050
 70
     0
  3
____ . ____ . ____ . ____ . ____ . ____ . ____
 72
    65
 73
     4
 40
18.0
 49
12.0
 74
     0
 49
-1.5
 74
     0
 49
3.0
 74
     0
 49
-1.5
 74
     0
  0
LTYPE
  5
4D
330
5
100
AcDbSymbolTableRecord
100
AcDbLinetypeTableRecord
  2
AM_ISO09W050
 70
     0
  3
_____ . . _____ . . _____ . . ____ .. ____
 72
    65
 73
     6
 40
22.5
 49
12.0
 74
     0
 49
-1.5
 74
     0
 49
3.0
 74
     0
 49
-1.5
 74
     0
 49
3.0
 74
     0
 49
-1.5
 74
     0
  0
LTYPE
  5
4E
330
5
100
AcDbSymbolTableRecord
100
AcDbLinetypeTableRecord
  2
AMCONSTR
 70
     0
  3
_______________________
 72
    65
 73
     2
 40
9999.0
 49
9999.0
 74
     0
 49
0.0
 74
     0
  0
LTYPE
  5
4F
330
5
100
AcDbSymbolTableRecord
100
AcDbLinetypeTableRecord
  2
AM_ISO02W050X2
 70
     0
  3
 _ _ _ _ _ _ _ _ _ _ _ _
 72
    65
 73
     2
 40
3.75
 49
3.0
 74
     0
 49
-0.75
 74
     0
  0
LTYPE
  5
50
330
5
100
AcDbSymbolTableRecord
100
AcDbLinetypeTableRecord
  2
AM_ISO08W050X2
 70
     0
  3
__ . __ . __ . __ . __ . __
 72
    65
 73
     4
 40
9.0
 49
6.0
 74
     0
 49
-0.75
 74
     0
 49
1.5
 74
     0
 49
-0.75
 74
     0
  0
LTYPE
  5
53
330
5
100
AcDbSymbolTableRecord
100
AcDbLinetypeTableRecord
  2
AMZIGZAG
 70
     0
  3
/\/-/\/-/\/-/\/-/\/-/\/
 72
    65
 73
     2
 40
11.00009999999999
 49
0.0001
 74
     4
 75
   135
340
52
 46
0.04
 50
0.0
 44
0.0
 45
0.0
 49
-11.0
 74
     0
  0
LTYPE
  5
166
330
5
100
AcDbSymbolTableRecord
100
AcDbLinetypeTableRecord
  2
ACJISTGL
 70
     0
  3
_ _ _ _ _
 72
    65
 73
     2
 40
3.0
 49
2.0
 74
     0
 49
-1.0
 74
     0
  0
LTYPE
  5
26A
330
5
100
AcDbSymbolTableRecord
100
AcDbLinetypeTableRecord
  2
ACJISTGB
 70
     0
  3
__ . . __ . .
 72
    65
 73
     6
 40
9.0
 49
4.0
 74
     0
 49
-1.0
 74
     0
 49
1.0
 74
     0
 49
-1.0
 74
     0
 49
1.0
 74
     0
 49
-1.0
 74
     0
  0
ENDTAB
  0
TABLE
  2
LAYER
  5
2
330
0
100
AcDbSymbolTable
 70
     8
  0
LAYER
  5
10
330
2
100
AcDbSymbolTableRecord
100
AcDbLayerTableRecord
  2
0
 70
     0
 62
     7
  6
CONTINUOUS
  0
LAYER
  5
3F9
330
2
100
AcDbSymbolTableRecord
100
AcDbLayerTableRecord
  2
AM_0
 70
     0
 62
     7
  6
CONTINUOUS
  0
LAYER
  5
C7C
330
2
100
AcDbSymbolTableRecord
100
AcDbLayerTableRecord
  2
AM_7
 70
     0
 62
     4
  6
AM_ISO08W050
  0
LAYER
  5
C97
330
2
100
AcDbSymbolTableRecord
100
AcDbLayerTableRecord
  2
AM_11
 70
     0
 62
     3
  6
AM_ISO09W050
  0
LAYER
  5
CC5
330
2
100
AcDbSymbolTableRecord
100
AcDbLayerTableRecord
  2
AM_5
 70
     0
 62
     3
  6
CONTINUOUS
  0
LAYER
  5
CC7
330
2
100
AcDbSymbolTableRecord
100
AcDbLayerTableRecord
  2
DEFPOINTS
 70
     0
 62
     7
  6
CONTINUOUS
  0
LAYER
  5
19BC
330
2
100
AcDbSymbolTableRecord
100
AcDbLayerTableRecord
  2
AM_6
 70
     0
 62
     2
  6
CONTINUOUS
  0
LAYER
  5
4B21
330
2
100
AcDbSymbolTableRecord
100
AcDbLayerTableRecord
  2
AM_CL
 70
     0
 62
     1
  6
AMCONSTR
  0
ENDTAB
  0
TABLE
  2
STYLE
  5
3
330
0
100
AcDbSymbolTable
 70
     5
  0
STYLE
  5
11
330
3
100
AcDbSymbolTableRecord
100
AcDbTextStyleTableRecord
  2
STANDARD
 70
     0
 40
0.0
 41
1.0
 50
0.0
 71
     0
 42
2.5
  3
simplex.shx
  4
EXTFONT.SHX
  0
STYLE
  5
52
330
3
100
AcDbSymbolTableRecord
100
AcDbTextStyleTableRecord
  2

 70
     1
 40
0.0
 41
1.0
 50
0.0
 71
     0
 42
2.5
  3
ltypeshp.shx
  4

  0
STYLE
  5
6B
330
3
100
AcDbSymbolTableRecord
100
AcDbTextStyleTableRecord
  2
ASAMI
 70
     0
 40
0.0
 41
1.0
 50
0.0
 71
     0
 42
2.5
  3
simplex.shx
  4
EXTFONT.SHX
  0
STYLE
  5
262
330
3
100
AcDbSymbolTableRecord
100
AcDbTextStyleTableRecord
  2
ACJISTS
 70
     0
 40
1.0
 41
1.0
 50
0.0
 71
     0
 42
2.5
  3
simplex.shx
  4
bigfont.shx
  0
STYLE
  5
269
330
3
100
AcDbSymbolTableRecord
100
AcDbTextStyleTableRecord
  2
ACJISGDT
 70
     0
 40
0.0
 41
1.0
 50
0.0
 71
     0
 42
2.5
  3
amgdtans.shx
  4

  0
ENDTAB
  0
TABLE
  2
VIEW
  5
6
330
0
100
AcDbSymbolTable
 70
     0
  0
ENDTAB
  0
TABLE
  2
UCS
  5
7
330
0
100
AcDbSymbolTable
 70
     0
  0
ENDTAB
  0
TABLE
  2
APPID
  5
9
330
0
100
AcDbSymbolTable
 70
    16
  0
APPID
  5
12
330
9
100
AcDbSymbolTableRecord
100
AcDbRegAppTableRecord
  2
ACAD
 70
     0
  0
APPID
  5
30
330
9
100
AcDbSymbolTableRecord
100
AcDbRegAppTableRecord
  2
MCAD_NO_VIS
 70
     0
  0
APPID
  5
31
330
9
100
AcDbSymbolTableRecord
100
AcDbRegAppTableRecord
  2
ACAD_TEMP_GRAPHIC
 70
     0
  0
APPID
  5
2C2
330
9
100
AcDbSymbolTableRecord
100
AcDbRegAppTableRecord
  2
GENIUS_GENDTOL_13
 70
     0
  0
APPID
  5
339
330
9
100
AcDbSymbolTableRecord
100
AcDbRegAppTableRecord
  2
GENIUS_GENODEF_13
 70
     0
  0
APPID
  5
33A
330
9
100
AcDbSymbolTableRecord
100
AcDbRegAppTableRecord
  2
GENIUS_GENOBJ-N-RSBK_13
 70
     0
  0
APPID
  5
33B
330
9
100
AcDbSymbolTableRecord
100
AcDbRegAppTableRecord
  2
GENIUS_GENOBJ-N-LIB_13
 70
     0
  0
APPID
  5
33C
330
9
100
AcDbSymbolTableRecord
100
AcDbRegAppTableRecord
  2
GENIUS_GENSCALE_13
 70
     0
  0
APPID
  5
378
330
9
100
AcDbSymbolTableRecord
100
AcDbRegAppTableRecord
  2
GENIUS_GENDIMSH_14
 70
     0
  0
APPID
  5
C82
330
9
100
AcDbSymbolTableRecord
100
AcDbRegAppTableRecord
  2
GENIUS_GENOBJ-N-CRS_13
 70
     0
  0
APPID
  5
C83
330
9
100
AcDbSymbolTableRecord
100
AcDbRegAppTableRecord
  2
GENIUS_GENOENT_13
 70
     0
  0
APPID
  5
C84
330
9
100
AcDbSymbolTableRecord
100
AcDbRegAppTableRecord
  2
GENIUS_GENOREF_13
 70
     0
  0
APPID
  5
C85
330
9
100
AcDbSymbolTableRecord
100
AcDbRegAppTableRecord
  2
GENIUS_GENOLIS_13
 70
     0
  0
APPID
  5
CA0
330
9
100
AcDbSymbolTableRecord
100
AcDbRegAppTableRecord
  2
GENIUS_GENOBJ-N-CEN_13
 70
     0
  0
APPID
  5
1E1E
330
9
100
AcDbSymbolTableRecord
100
AcDbRegAppTableRecord
  2
GENIUS_GENFIL_13
 70
     0
  0
APPID
  5
1E1F
330
9
100
AcDbSymbolTableRecord
100
AcDbRegAppTableRecord
  2
GENIUS_GENOBJ-N-CHA_13
 70
     0
  0
ENDTAB
  0
TABLE
  2
DIMSTYLE
  5
A
330
0
100
AcDbSymbolTable
 70
     9
  0
DIMSTYLE
105
58
330
A
100
AcDbSymbolTableRecord
100
AcDbDimStyleTableRecord
  2
AM_JIS
 70
     0
  3

  4
"
  5
OPEN30
  6

  7

 40
1.0
 41
2.5
 42
1.0
 43
12.0
 44
1.0
 45
0.0
 46
0.0
 47
0.1
 48
0.1
140
3.2
141
0.0
142
0.0
143
0.0393701
144
1.0
145
0.0
146
0.71
147
1.5
 71
     0
 72
     0
 73
     0
 74
     0
 75
     0
 76
     0
 77
     3
 78
     8
170
     0
171
     2
172
     1
173
     0
174
     0
175
     0
176
   256
177
   256
178
     2
270
     2
271
     3
272
     3
273
     2
274
     2
340
6B
275
     0
280
     0
281
     0
282
     0
283
     0
284
     0
285
     0
286
     0
287
     3
288
     0
  0
DIMSTYLE
105
5F
330
A
100
AcDbSymbolTableRecord
100
AcDbDimStyleTableRecord
  2
AM_JIS$3
 70
     0
  3

  4
"
  5
OPEN30
  6

  7

 40
1.0
 41
2.5
 42
1.0
 43
10.0
 44
1.0
 45
0.0
 46
0.0
 47
0.1
 48
0.1
140
3.2
141
0.0
142
0.0
143
0.0393701
144
1.0
145
0.0
146
0.71
147
1.5
 71
     0
 72
     0
 73
     0
 74
     1
 75
     0
 76
     0
 77
     3
 78
     8
170
     0
171
     2
172
     0
173
     0
174
     0
175
     0
176
   256
177
   256
178
     2
270
     2
271
     2
272
     3
273
     2
274
     2
340
6B
275
     0
280
     0
281
     0
282
     0
283
     0
284
     0
285
     0
286
     0
287
     0
288
     1
  0
DIMSTYLE
105
60
330
A
100
AcDbSymbolTableRecord
100
AcDbDimStyleTableRecord
  2
AM_JIS$4
 70
     0
  3

  4
"
  5
OPEN30
  6

  7

 40
1.0
 41
2.5
 42
1.0
 43
10.0
 44
1.0
 45
0.0
 46
0.0
 47
0.1
 48
0.1
140
3.2
141
0.0
142
0.0
143
0.0393701
144
1.0
145
0.0
146
0.71
147
1.5
 71
     0
 72
     0
 73
     0
 74
     1
 75
     0
 76
     0
 77
     3
 78
     8
170
     0
171
     2
172
     0
173
     0
174
     0
175
     0
176
   256
177
   256
178
     2
270
     2
271
     2
272
     3
273
     2
274
     2
340
6B
275
     0
280
     0
281
     0
282
     0
283
     0
284
     0
285
     0
286
     0
287
     0
288
     1
  0
DIMSTYLE
105
61
330
A
100
AcDbSymbolTableRecord
100
AcDbDimStyleTableRecord
  2
AM_JIS$6
 70
     0
  3

  4
"
  5
OPEN30
  6

  7

 40
1.0
 41
2.5
 42
1.0
 43
10.0
 44
1.0
 45
0.0
 46
0.0
 47
0.1
 48
0.1
140
3.2
141
0.0
142
0.0
143
0.0393701
144
1.0
145
0.0
146
0.71
147
1.5
 71
     0
 72
     0
 73
     0
 74
     0
 75
     0
 76
     0
 77
     0
 78
     8
170
     0
171
     2
172
     1
173
     0
174
     0
175
     0
176
   256
177
   256
178
     2
270
     2
271
     2
272
     2
273
     2
274
     2
340
6B
275
     0
280
     0
281
     0
282
     0
283
     0
284
     0
285
     0
286
     0
287
     3
288
     0
  0
DIMSTYLE
105
62
330
A
100
AcDbSymbolTableRecord
100
AcDbDimStyleTableRecord
  2
AM_JIS$7
 70
     0
  3

  4
"
  5
OPEN30
  6

  7

 40
1.0
 41
2.5
 42
1.0
 43
10.0
 44
1.0
 45
0.0
 46
0.0
 47
0.1
 48
0.1
140
3.2
141
0.0
142
0.0
143
0.0393701
144
1.0
145
0.0
146
0.71
147
1.5
 71
     0
 72
     0
 73
     0
 74
     0
 75
     0
 76
     0
 77
     3
 78
     8
170
     0
171
     2
172
     1
173
     0
174
     0
175
     0
176
   256
177
   256
178
     2
270
     2
271
     2
272
     3
273
     2
274
     2
340
6B
275
     0
280
     0
281
     0
282
     0
283
     0
284
     0
285
     0
286
     0
287
     3
288
     0
  0
DIMSTYLE
105
63
330
A
100
AcDbSymbolTableRecord
100
AcDbDimStyleTableRecord
  2
AM_JIS$SF
 70
     0
  3

  4
"
  5
OPEN30
  6

  7

 40
1.0
 41
2.5
 42
1.0
 43
10.0
 44
1.0
 45
0.0
 46
0.0
 47
0.1
 48
0.1
140
3.2
141
0.0
142
0.0
143
0.0393701
144
1.0
145
0.0
146
0.71
147
1.5
 71
     0
 72
     0
 73
     0
 74
     0
 75
     1
 76
     1
 77
     3
 78
     8
170
     0
171
     2
172
     1
173
     0
174
     0
175
     0
176
   256
177
   256
178
     2
270
     2
271
     2
272
     2
273
     2
274
     2
340
6B
275
     0
280
     0
281
     0
282
     0
283
     0
284
     0
285
     0
286
     0
287
     3
288
     0
  0
DIMSTYLE
105
68
330
A
100
AcDbSymbolTableRecord
100
AcDbDimStyleTableRecord
  2
AM_JIS$SH
 70
     0
  3

  4
"
  5

  6
GENAXEH
  7
OPEN30
 40
1.0
 41
2.5
 42
1.0
 43
10.0
 44
1.0
 45
0.0
 46
0.0
 47
0.1
 48
0.1
140
3.2
141
0.0
142
0.0
143
0.0393701
144
2.0
145
0.0
146
0.71
147
1.5
 71
     0
 72
     0
 73
     0
 74
     0
 75
     1
 76
     1
 77
     3
 78
     8
170
     0
171
     2
172
     1
173
     1
174
     0
175
     0
176
   256
177
   256
178
     2
270
     2
271
     2
272
     2
273
     2
274
     2
340
6B
275
     0
280
     0
281
     0
282
     0
283
     0
284
     0
285
     0
286
     0
287
     3
288
     0
  0
DIMSTYLE
105
B34
102
{ACAD_REACTORS
330
4B7E
102
}
330
A
100
AcDbSymbolTableRecord
100
AcDbDimStyleTableRecord
  2
AM_JIS$2
 70
     0
  3

  4
"
  5
OPEN30
  6

  7

 40
1.0
 41
2.5
 42
1.0
 43
12.0
 44
1.0
 45
0.0
 46
0.0
 47
0.1
 48
0.1
140
3.2
141
0.0
142
0.0
143
0.0393701
144
1.0
145
0.0
146
0.71
147
1.5
 71
     0
 72
     0
 73
     0
 74
     0
 75
     0
 76
     0
 77
     3
 78
     8
170
     0
171
     2
172
     1
173
     0
174
     0
175
     0
176
   256
177
   256
178
     2
270
     2
271
     3
272
     3
273
     2
274
     2
340
6B
275
     0
280
     0
281
     0
282
     0
283
     0
284
     0
285
     0
286
     0
287
     3
288
     0
  0
DIMSTYLE
105
BA5
102
{ACAD_REACTORS
330
CC6
330
DF5
330
2216
330
4A46
102
}
330
A
100
AcDbSymbolTableRecord
100
AcDbDimStyleTableRecord
  2
AM_JIS$0
 70
     0
  3

  4
"
  5
OPEN30
  6

  7

 40
1.0
 41
2.5
 42
0.0
 43
10.0
 44
1.0
 45
0.0
 46
0.0
 47
0.1
 48
0.1000000001
140
3.799999999999999
141
0.0
142
0.0
143
0.0393701
144
1.0
145
0.0
146
0.71
147
1.5
 71
     0
 72
     0
 73
     0
 74
     0
 75
     0
 76
     0
 77
     3
 78
     1
170
     0
171
     2
172
     1
173
     0
174
     0
175
     0
176
     3
177
     3
178
     2
270
     2
271
     2
272
     2
273
     2
274
     2
340
11
275
     1
280
     0
281
     0
282
     0
283
     0
284
     8
285
     0
286
     0
287
     0
288
     0
  0
ENDTAB
  0
TABLE
  2
BLOCK_RECORD
  5
1
330
0
100
AcDbSymbolTable
 70
    10
  0
BLOCK_RECORD
  5
1F
102
{ACAD_XDICTIONARY
360
74
102
}
330
1
100
AcDbSymbolTableRecord
100
AcDbBlockTableRecord
  2
*MODEL_SPACE
  0
BLOCK_RECORD
  5
101
102
{ACAD_XDICTIONARY
360
4CEA
102
}
330
1
100
AcDbSymbolTableRecord
100
AcDbBlockTableRecord
  2
*PAPER_SPACE
  0
BLOCK_RECORD
  5
59
330
1
100
AcDbSymbolTableRecord
100
AcDbBlockTableRecord
  2
_OPEN30
  0
BLOCK_RECORD
  5
64
330
1
100
AcDbSymbolTableRecord
100
AcDbBlockTableRecord
  2
GENAXEH
  0
BLOCK_RECORD
  5
CC8
330
1
100
AcDbSymbolTableRecord
100
AcDbBlockTableRecord
  2
*D5
  0
BLOCK_RECORD
  5
DF6
330
1
100
AcDbSymbolTableRecord
100
AcDbBlockTableRecord
  2
*D6
  0
BLOCK_RECORD
  5
2217
330
1
100
AcDbSymbolTableRecord
100
AcDbBlockTableRecord
  2
*D7
  0
BLOCK_RECORD
  5
4A47
330
1
100
AcDbSymbolTableRecord
100
AcDbBlockTableRecord
  2
*D8
  0
BLOCK_RECORD
  5
4B7F
330
1
100
AcDbSymbolTableRecord
100
AcDbBlockTableRecord
  2
*D9
  0
ENDTAB
  0
ENDSEC
  0
SECTION
  2
BLOCKS
  0
BLOCK
  5
20
330
1F
100
AcDbEntity
  8
0
100
AcDbBlockBegin
  2
*MODEL_SPACE
 70
     0
 10
0.0
 20
0.0
 30
0.0
  3
*MODEL_SPACE
  1

  0
ENDBLK
  5
21
330
1F
100
AcDbEntity
  8
0
100
AcDbBlockEnd
  0
BLOCK
  5
103
330
101
100
AcDbEntity
 67
     1
  8
0
100
AcDbBlockBegin
  2
*PAPER_SPACE
 70
     0
 10
0.0
 20
0.0
 30
0.0
  3
*PAPER_SPACE
  1

  0
ENDBLK
  5
104
330
101
100
AcDbEntity
 67
     1
  8
0
100
AcDbBlockEnd
  0
BLOCK
  5
5D
330
59
100
AcDbEntity
  8
0
100
AcDbBlockBegin
  2
_OPEN30
 70
     0
 10
0.0
 20
0.0
 30
0.0
  3
_OPEN30
  1

  0
LINE
  5
5A
330
59
100
AcDbEntity
  8
0
 62
     0
100
AcDbLine
 10
-1.0
 20
0.26794919
 30
0.0
 11
0.0
 21
0.0
 31
0.0
  0
LINE
  5
5B
330
59
100
AcDbEntity
  8
0
 62
     0
100
AcDbLine
 10
0.0
 20
0.0
 30
0.0
 11
-1.0
 21
-0.26794919
 31
0.0
  0
LINE
  5
5C
330
59
100
AcDbEntity
  8
0
 62
     0
100
AcDbLine
 10
0.0
 20
0.0
 30
0.0
 11
-1.0
 21
0.0
 31
0.0
  0
ENDBLK
  5
5E
330
59
100
AcDbEntity
  8
0
100
AcDbBlockEnd
  0
BLOCK
  5
66
330
64
100
AcDbEntity
  8
0
100
AcDbBlockBegin
  2
GENAXEH
 70
     0
 10
0.0
 20
0.0
 30
0.0
  3
GENAXEH
  1

  0
LINE
  5
65
330
64
100
AcDbEntity
  8
0
100
AcDbLine
 10
-1.0
 20
0.0
 30
0.0
 11
1.0
 21
0.0
 31
0.0
  0
ENDBLK
  5
67
330
64
100
AcDbEntity
  8
0
100
AcDbBlockEnd
  0
BLOCK
  5
CD2
330
CC8
100
AcDbEntity
  8
0
100
AcDbBlockBegin
  2
*D5
 70
     1
 10
0.0
 20
0.0
 30
0.0
  3
*D5
  1

  0
LINE
  5
4B43
330
CC8
100
AcDbEntity
  8
AM_5
 62
     3
100
AcDbLine
 10
-187.9999999999988
 20
-7.000002054481135
 30
0.0
 11
-187.9999999999988
 21
-32.50106716549036
 31
0.0
  0
LINE
  5
4B44
330
CC8
100
AcDbEntity
  8
AM_5
 62
     3
100
AcDbLine
 10
-2.999999999997689
 20
-7.500000654380798
 30
0.0
 11
-2.99999999999769
 21
-32.50106716549036
 31
0.0
  0
LINE
  5
4B45
330
CC8
100
AcDbEntity
  8
AM_5
 62
     3
100
AcDbLine
 10
-185.4999999999988
 20
-31.50106716549036
 30
0.0
 11
-5.49999999999769
 21
-31.50106716549036
 31
0.0
  0
INSERT
  5
4B46
330
CC8
100
AcDbEntity
  8
AM_5
 62
     3
100
AcDbBlockReference
  2
_OPEN30
 10
-187.9999999999988
 20
-31.50106716549036
 30
0.0
 41
2.5
 42
2.5
 43
2.5
 50
180.0
  0
INSERT
  5
4B47
330
CC8
100
AcDbEntity
  8
AM_5
 62
     3
100
AcDbBlockReference
  2
_OPEN30
 10
-2.99999999999769
 20
-31.50106716549036
 30
0.0
 41
2.5
 42
2.5
 43
2.5
  0
MTEXT
  5
4B48
330
CC8
100
AcDbEntity
  8
AM_5
 62
     2
100
AcDbMText
 10
-95.49999999999826
 20
-28.10106716549036
 30
0.0
 40
3.799999999999999
 41
0.0
 71
     5
 72
     1
  1
185
1001
ACAD
1000
MTEXTBEGIN
1070
    73
1070
     1
1070
    44
1040
1.0
1070
    74
1070
     0
1000
MTEXTEND
  0
POINT
  5
4B49
330
CC8
100
AcDbEntity
  8
DEFPOINTS
 62
     0
100
AcDbPoint
 10
-187.9999999999988
 20
-7.000002054481135
 30
0.0
  0
POINT
  5
4B4A
330
CC8
100
AcDbEntity
  8
DEFPOINTS
 62
     0
100
AcDbPoint
 10
-2.999999999997689
 20
-7.500000654380798
 30
0.0
  0
POINT
  5
4B4B
330
CC8
100
AcDbEntity
  8
DEFPOINTS
 62
     0
100
AcDbPoint
 10
-2.99999999999769
 20
-31.50106716549036
 30
0.0
  0
ENDBLK
  5
CD3
330
CC8
100
AcDbEntity
  8
0
100
AcDbBlockEnd
  0
BLOCK
  5
E00
330
DF6
100
AcDbEntity
  8
0
100
AcDbBlockBegin
  2
*D6
 70
     1
 10
0.0
 20
0.0
 30
0.0
  3
*D6
  1

  0
LINE
  5
4B3A
330
DF6
100
AcDbEntity
  8
AM_5
 62
     3
100
AcDbLine
 10
-122.9999807595518
 20
-7.500002054481145
 30
0.0
 11
-122.9999807595518
 21
-22.50106716549023
 31
0.0
  0
LINE
  5
4B3B
330
DF6
100
AcDbEntity
  8
AM_5
 62
     3
100
AcDbLine
 10
-2.999999999997678
 20
-7.500000654380782
 30
0.0
 11
-2.999999999997679
 21
-22.50106716549023
 31
0.0
  0
LINE
  5
4B3C
330
DF6
100
AcDbEntity
  8
AM_5
 62
     3
100
AcDbLine
 10
-120.4999807595518
 20
-21.50106716549023
 30
0.0
 11
-5.499999999997679
 21
-21.50106716549023
 31
0.0
  0
INSERT
  5
4B3D
330
DF6
100
AcDbEntity
  8
AM_5
 62
     3
100
AcDbBlockReference
  2
_OPEN30
 10
-122.9999807595518
 20
-21.50106716549023
 30
0.0
 41
2.5
 42
2.5
 43
2.5
 50
180.0
  0
INSERT
  5
4B3E
330
DF6
100
AcDbEntity
  8
AM_5
 62
     3
100
AcDbBlockReference
  2
_OPEN30
 10
-2.999999999997679
 20
-21.50106716549023
 30
0.0
 41
2.5
 42
2.5
 43
2.5
  0
MTEXT
  5
4B3F
330
DF6
100
AcDbEntity
  8
AM_5
 62
     2
100
AcDbMText
 10
-62.99999037977476
 20
-18.10106716549023
 30
0.0
 40
3.799999999999999
 41
0.0
 71
     5
 72
     1
  1
120
1001
ACAD
1000
MTEXTBEGIN
1070
    73
1070
     1
1070
    44
1040
1.0
1070
    74
1070
     0
1000
MTEXTEND
  0
POINT
  5
4B40
330
DF6
100
AcDbEntity
  8
DEFPOINTS
 62
     0
100
AcDbPoint
 10
-122.9999807595518
 20
-7.500002054481145
 30
0.0
  0
POINT
  5
4B41
330
DF6
100
AcDbEntity
  8
DEFPOINTS
 62
     0
100
AcDbPoint
 10
-2.999999999997678
 20
-7.500000654380782
 30
0.0
  0
POINT
  5
4B42
330
DF6
100
AcDbEntity
  8
DEFPOINTS
 62
     0
100
AcDbPoint
 10
-2.999999999997679
 20
-21.50106716549023
 30
0.0
  0
ENDBLK
  5
E01
330
DF6
100
AcDbEntity
  8
0
100
AcDbBlockEnd
  0
BLOCK
  5
2221
330
2217
100
AcDbEntity
  8
0
100
AcDbBlockBegin
  2
*D7
 70
     1
 10
0.0
 20
0.0
 30
0.0
  3
*D7
  1

  0
LINE
  5
4B4C
330
2217
100
AcDbEntity
  8
AM_5
 62
     3
100
AcDbLine
 10
-187.4999999999993
 20
7.499999999998578
 30
0.0
 11
-205.0000009999988
 21
7.499999999998528
 31
0.0
  0
LINE
  5
4B4D
330
2217
100
AcDbEntity
  8
AM_5
 62
     3
100
AcDbLine
 10
-187.4999999999993
 20
-7.500002054481229
 30
0.0
 11
-205.0000009999988
 21
-7.500002054481279
 31
0.0
  0
LINE
  5
4B4E
330
2217
100
AcDbEntity
  8
AM_5
 62
     3
100
AcDbLine
 10
-204.0000009999988
 20
4.99999999999853
 30
0.0
 11
-204.0000009999987
 21
-5.000002054481276
 31
0.0
  0
INSERT
  5
4B4F
330
2217
100
AcDbEntity
  8
AM_5
 62
     3
100
AcDbBlockReference
  2
_OPEN30
 10
-204.0000009999988
 20
7.49999999999853
 30
0.0
 41
2.5
 42
2.5
 43
2.5
 50
90.00000000000017
  0
INSERT
  5
4B50
330
2217
100
AcDbEntity
  8
AM_5
 62
     3
100
AcDbBlockReference
  2
_OPEN30
 10
-204.0000009999987
 20
-7.500002054481276
 30
0.0
 41
2.5
 42
2.5
 43
2.5
 50
270.0000000000001
  0
MTEXT
  5
4B51
330
2217
100
AcDbEntity
  8
AM_5
 62
     2
100
AcDbMText
 10
-207.4000009999988
 20
-0.0000010272413745
 30
0.0
 40
3.799999999999999
 41
0.0
 71
     5
 72
     1
  1
%%c15
 11
-0.0000000000000028
 21
1.0
 31
0.0
1001
ACAD
1000
MTEXTBEGIN
1070
    73
1070
     1
1070
    44
1040
1.0
1070
    74
1070
     0
1000
MTEXTEND
  0
POINT
  5
4B52
330
2217
100
AcDbEntity
  8
DEFPOINTS
 62
     0
100
AcDbPoint
 10
-187.4999999999993
 20
7.49999999999916
 30
0.0
  0
POINT
  5
4B53
330
2217
100
AcDbEntity
  8
DEFPOINTS
 62
     0
100
AcDbPoint
 10
-187.4999999999993
 20
-7.500002054480646
 30
0.0
  0
POINT
  5
4B54
330
2217
100
AcDbEntity
  8
DEFPOINTS
 62
     0
100
AcDbPoint
 10
-204.0000009999988
 20
-7.500002054480642
 30
0.0
  0
ENDBLK
  5
2222
330
2217
100
AcDbEntity
  8
0
100
AcDbBlockEnd
  0
BLOCK
  5
4A51
330
4A47
100
AcDbEntity
  8
0
100
AcDbBlockBegin
  2
*D8
 70
     1
 10
0.0
 20
0.0
 30
0.0
  3
*D8
  1

  0
LINE
  5
4B60
330
4A47
100
AcDbEntity
  8
AM_5
 62
     3
100
AcDbLine
 10
-2.999999999998326
 20
-7.500000654382006
 30
0.0
 11
15.55592102485919
 21
-7.500000654381953
 31
0.0
  0
LINE
  5
4B61
330
4A47
100
AcDbEntity
  8
AM_5
 62
     3
100
AcDbLine
 10
-2.999999999998418
 20
7.499999345617403
 30
0.0
 11
15.55592102485914
 21
7.499999345617457
 31
0.0
  0
LINE
  5
4B62
330
4A47
100
AcDbEntity
  8
AM_5
 62
     3
100
AcDbLine
 10
14.55592102485918
 20
-5.000000654381956
 30
0.0
 11
14.55592102485915
 21
4.999999345617453
 31
0.0
  0
INSERT
  5
4B63
330
4A47
100
AcDbEntity
  8
AM_5
 62
     3
100
AcDbBlockReference
  2
_OPEN30
 10
14.55592102485919
 20
-7.500000654381956
 30
0.0
 41
2.5
 42
2.5
 43
2.5
 50
270.0000000000001
  0
INSERT
  5
4B64
330
4A47
100
AcDbEntity
  8
AM_5
 62
     3
100
AcDbBlockReference
  2
_OPEN30
 10
14.55592102485915
 20
7.499999345617453
 30
0.0
 41
2.5
 42
2.5
 43
2.5
 50
90.00000000000015
  0
MTEXT
  5
4B65
330
4A47
100
AcDbEntity
  8
AM_5
 62
     2
100
AcDbMText
 10
11.15592102485917
 20
-0.0000006543822613
 30
0.0
 40
3.799999999999999
 41
0.0
 71
     5
 72
     1
  1
%%c15
 11
-0.0000000000000028
 21
1.0
 31
0.0
1001
ACAD
1000
MTEXTBEGIN
1070
    73
1070
     1
1070
    44
1040
1.0
1070
    74
1070
     0
1000
MTEXTEND
  0
POINT
  5
4B66
330
4A47
100
AcDbEntity
  8
DEFPOINTS
 62
     0
100
AcDbPoint
 10
-2.999999999998349
 20
-7.500000654381996
 30
0.0
  0
POINT
  5
4B67
330
4A47
100
AcDbEntity
  8
DEFPOINTS
 62
     0
100
AcDbPoint
 10
-2.999999999998395
 20
7.499999345617413
 30
0.0
  0
POINT
  5
4B68
330
4A47
100
AcDbEntity
  8
DEFPOINTS
 62
     0
100
AcDbPoint
 10
14.55592102485917
 20
7.499999345617408
 30
0.0
  0
ENDBLK
  5
4A52
330
4A47
100
AcDbEntity
  8
0
100
AcDbBlockEnd
  0
BLOCK
  5
4B8D
330
4B7F
100
AcDbEntity
  8
0
100
AcDbBlockBegin
  2
*D9
 70
     1
 10
0.0
 20
0.0
 30
0.0
  3
*D9
  1

  0
LINE
  5
4CEC
330
4B7F
100
AcDbEntity
  8
AM_5
100
AcDbLine
 10
0.342020140817306
 20
-0.9396926216993904
 30
0.0
 11
8.568376657376786
 21
-23.54142158313634
 31
0.0
  0
LINE
  5
4CED
330
4B7F
100
AcDbEntity
  8
AM_5
100
AcDbLine
 10
0.3420224212255793
 20
0.9396917916953528
 30
0.0
 11
8.568433786752184
 21
23.54140078966568
 31
0.0
  0
ARC
  5
4CEE
330
4B7F
100
AcDbEntity
  8
AM_5
100
AcDbCircle
 10
0.0000000000011653
 20
-0.0000000000000887
 30
0.0
 40
24.05225755690718
100
AcDbArc
 50
295.9580271195116
 51
64.04183383733296
  0
INSERT
  5
4CEF
330
4B7F
100
AcDbEntity
  8
AM_5
100
AcDbBlockReference
  2
_OPEN30
 10
8.226356516560645
 20
-22.60172896143704
 30
0.0
 41
2.5
 42
2.5
 43
2.5
 50
202.9790134832492
  0
INSERT
  5
4CF0
330
4B7F
100
AcDbEntity
  8
AM_5
100
AcDbBlockReference
  2
_OPEN30
 10
8.22641136552777
 20
22.60170899797024
 30
0.0
 41
2.5
 42
2.5
 43
2.5
 50
157.0208474735953
  0
MTEXT
  5
4CF1
330
4B7F
100
AcDbEntity
  8
AM_5
 62
     2
100
AcDbMText
 10
20.95225755689292
 20
-0.0000254230594241
 30
0.0
 40
3.2
 41
0.0
 71
     5
 72
     1
  1
140°
  7
ASAMI
 11
0.0000012133804333
 21
0.999999999999264
 31
0.0
  0
POINT
  5
4CF2
330
4B7F
100
AcDbEntity
  8
DEFPOINTS
 62
     0
100
AcDbPoint
 10
22.08516258082815
 20
-9.526630430652803
 30
0.0
  0
POINT
  5
4CF3
330
4B7F
100
AcDbEntity
  8
DEFPOINTS
 62
     0
100
AcDbPoint
 10
0.0000000000011653
 20
-0.0000000000000887
 30
0.0
  0
POINT
  5
4CF4
330
4B7F
100
AcDbEntity
  8
DEFPOINTS
 62
     0
100
AcDbPoint
 10
0.0000000000011369
 20
-0.0000000000000106
 30
0.0
  0
POINT
  5
4CF5
330
4B7F
100
AcDbEntity
  8
DEFPOINTS
 62
     0
100
AcDbPoint
 10
-0.6133936239349119
 20
1.685285145005416
 30
0.0
  0
POINT
  5
4CF6
330
4B7F
100
AcDbEntity
  8
DEFPOINTS
 62
     0
100
AcDbPoint
 10
-0.6134061199808666
 20
-1.68530675228652
 30
0.0
  0
ENDBLK
  5
4B8E
330
4B7F
100
AcDbEntity
  8
0
100
AcDbBlockEnd
  0
ENDSEC
  0
SECTION
  2
ENTITIES
  0
LINE
  5
C9F
330
1F
100
AcDbEntity
  8
AM_7
100
AcDbLine
 10
-189.9999999999988
 20
-0.0000000000003277
 30
0.0
 11
0.5559200248591907
 21
0.000000000000001
 31
0.0
1001
GENIUS_GENODEF_13
1002
{
1000
HIER
1070
     0
1002
}
1002
{
1000
MANEDIT
1070
     0
1002
}
1002
{
1000
NOSEL
1070
     0
1002
}
1002
{
1000
BEHIND
1070
     0
1002
}
1002
{
1000
REACTOR
1002
}
1001
GENIUS_GENOBJ-N-CEN_13
1002
{
1000
OWNER
1000
GEN
1002
}
  0
DIMENSION
  5
CC6
330
1F
100
AcDbEntity
  8
AM_5
100
AcDbDimension
  2
*D5
 10
-2.99999999999769
 20
-31.50106716549036
 30
0.0
 11
-95.49999999999826
 21
-28.10106716549036
 31
0.0
 70
    32
  1
<>
  3
AM_JIS$0
100
AcDbAlignedDimension
 13
-187.9999999999988
 23
-7.000002054481135
 33
0.0
 14
-2.999999999997689
 24
-7.500000654380798
 34
0.0
 50
0.0000000000001132
100
AcDbRotatedDimension
1001
GENIUS_GENDTOL_13
1000

1000
h7
1000

1040
0.0
1001
ACAD
1000
DSTYLE
1002
{
1070
   271
1070
     0
1002
}
  0
DIMENSION
  5
DF5
330
1F
100
AcDbEntity
  8
AM_5
100
AcDbDimension
  2
*D6
 10
-2.999999999997679
 20
-21.50106716549023
 30
0.0
 11
-62.99999037977476
 21
-18.10106716549023
 31
0.0
 70
    32
  1
<>
  3
AM_JIS$0
100
AcDbAlignedDimension
 13
-122.9999807595518
 23
-7.500002054481145
 33
0.0
 14
-2.999999999997678
 24
-7.500000654380782
 34
0.0
 50
0.0000000000001527
100
AcDbRotatedDimension
1001
GENIUS_GENDTOL_13
1000

1000
h7
1000

1040
0.0
1001
ACAD
1000
DSTYLE
1002
{
1070
   271
1070
     0
1002
}
  0
TEXT
  5
19BD
330
1F
100
AcDbEntity
  8
AM_6
100
AcDbText
 10
-116.6904761904746
 20
-54.00000305448101
 30
0.0
 40
5.0
  1
MDW150LHK
 50
0.0000000000001527
 72
     4
 11
-95.49999999999847
 21
-51.50000305448095
 31
0.0
100
AcDbText
  0
LINE
  5
21D8
330
1F
100
AcDbEntity
  8
AM_0
 48
0.5
100
AcDbLine
 10
-187.4999999999988
 20
7.499999999999672
 30
0.0
 11
-121.5114826446883
 21
7.499999345624492
 31
0.0
1001
GENIUS_GENODEF_13
1002
{
1000
HIER
1070
     0
1002
}
1002
{
1000
MANEDIT
1070
     0
1002
}
1002
{
1000
NOSEL
1070
     0
1002
}
1002
{
1000
BEHIND
1070
     0
1002
}
1002
{
1000
REACTOR
1002
}
1001
GENIUS_GENOBJ-N-CEN_13
1002
{
1000
OWNER
1000
GEN
1002
}
  0
LINE
  5
21D9
330
1F
100
AcDbEntity
  8
AM_0
 48
0.5
100
AcDbLine
 10
-187.4999999999988
 20
-7.500002054481158
 30
0.0
 11
-69.69255695716467
 21
-7.500002054481003
 31
0.0
1001
GENIUS_GENODEF_13
1002
{
1000
HIER
1070
     0
1002
}
1002
{
1000
MANEDIT
1070
     0
1002
}
1002
{
1000
NOSEL
1070
     0
1002
}
1002
{
1000
BEHIND
1070
     0
1002
}
1002
{
1000
REACTOR
1002
}
1001
GENIUS_GENOBJ-N-CEN_13
1002
{
1000
OWNER
1000
GEN
1002
}
  0
LINE
  5
21DC
330
1F
100
AcDbEntity
  8
AM_0
100
AcDbLine
 10
-187.4999999999993
 20
-7.500002054480652
 30
0.0
 11
-187.4999999999993
 21
7.499999999999184
 31
0.0
  0
LINE
  5
21DD
330
1F
100
AcDbEntity
  8
AM_0
 48
0.5
100
AcDbLine
 10
-187.9999999999988
 20
-7.000002054481135
 30
0.0
 11
-187.9999999999988
 21
6.999999999999697
 31
0.0
  0
DIMENSION
  5
2216
330
1F
100
AcDbEntity
  8
AM_5
100
AcDbDimension
  2
*D7
 10
-204.0000009999988
 20
-7.500002054480642
 30
0.0
 11
-207.4000009999988
 21
-0.0000010272407711
 31
0.0
 70
    32
  1
%%c<>
 51
359.9999999999998
  3
AM_JIS$0
100
AcDbAlignedDimension
 13
-187.4999999999993
 23
7.49999999999916
 33
0.0
 14
-187.4999999999993
 24
-7.500002054480646
 34
0.0
 50
269.9999999999999
100
AcDbRotatedDimension
1001
ACAD
1000
DSTYLE
1002
{
1070
   271
1070
     0
1002
}
1001
GENIUS_GENDTOL_13
1000

1000
h7
1000

1040
0.0
  0
ELLIPSE
  5
2694
330
1F
100
AcDbEntity
  8
AM_0
 48
0.5
100
AcDbEllipse
 10
8.606834868097031
 20
6.91148191245487
 30
0.0
 11
10.62451473362349
 21
0.0000000000010481
 31
0.0
210
0.0
220
0.0
230
1.0
 40
0.9899999999999973
 41
3.323896559076802
 42
3.661579236128986
  0
LINE
  5
2695
330
1F
100
AcDbEntity
  8
AM_0
 48
0.5
100
AcDbLine
 10
-1.841616939589135
 20
5.004564032390694
 30
0.0
 11
-2.999999999998707
 21
7.499999345618086
 31
0.0
  0
LINE
  5
2696
330
1F
100
AcDbEntity
  8
AM_0
 48
0.5
100
AcDbLine
 10
0.0000000000011369
 20
-0.0000000000000106
 30
0.0
 11
-0.6133936239349119
 21
1.685285145005416
 31
0.0
  0
LINE
  5
2699
330
1F
100
AcDbEntity
  8
AM_0
 48
0.5
100
AcDbLine
 10
0.0000000000011653
 20
-0.0000000000000887
 30
0.0
 11
-0.6134061199808666
 21
-1.68530675228652
 31
0.0
  0
LINE
  5
2CB4
330
1F
100
AcDbEntity
  8
AM_0
 48
0.5
100
AcDbLine
 10
-187.9999999999988
 20
6.999999999999672
 30
0.0
 11
-187.4999999999988
 21
7.499999999999672
 31
0.0
1001
GENIUS_GENFIL_13
1070
     0
1040
0.5
1040
0.5
1040
20.0
1040
0.0
1002
{
1002
}
1001
GENIUS_GENODEF_13
1002
{
1000
HIER
1070
     0
1002
}
1002
{
1000
MANEDIT
1070
     0
1002
}
1002
{
1000
NOSEL
1070
     0
1002
}
1002
{
1000
BEHIND
1070
     0
1002
}
1002
{
1000
REACTOR
1002
}
1001
GENIUS_GENOBJ-N-CHA_13
1002
{
1000
OWNER
1000
GEN
1002
}
  0
LINE
  5
2CB7
330
1F
100
AcDbEntity
  8
AM_0
 48
0.5
100
AcDbLine
 10
-187.4999999999988
 20
-7.500002054481158
 30
0.0
 11
-187.9999999999988
 21
-7.000002054481158
 31
0.0
1001
GENIUS_GENFIL_13
1070
     0
1040
0.5
1040
0.5
1040
20.0
1040
0.0
1002
{
1002
}
1001
GENIUS_GENODEF_13
1002
{
1000
HIER
1070
     0
1002
}
1002
{
1000
MANEDIT
1070
     0
1002
}
1002
{
1000
NOSEL
1070
     0
1002
}
1002
{
1000
BEHIND
1070
     0
1002
}
1002
{
1000
REACTOR
1002
}
1001
GENIUS_GENOBJ-N-CHA_13
1002
{
1000
OWNER
1000
GEN
1002
}
  0
ELLIPSE
  5
3366
330
1F
100
AcDbEntity
  8
AM_0
 48
0.5
100
AcDbEllipse
 10
8.606834868097054
 20
-6.911481912454847
 30
0.0
 11
10.62451473362349
 21
-0.0000000000010127
 31
0.0
210
0.0
220
0.0
230
-1.0
 40
0.9899999999999973
 41
3.323896559076802
 42
3.661579236128986
  0
LINE
  5
3367
330
1F
100
AcDbEntity
  8
AM_0
 48
0.5
100
AcDbLine
 10
-1.84161693958912
 20
-5.004564032390716
 30
0.0
 11
-2.999999999998349
 21
-7.500000654381996
 31
0.0
  0
LINE
  5
49C9
330
1F
100
AcDbEntity
  8
AM_0
 48
0.5
100
AcDbLine
 10
-8.142623058691677
 20
7.499999345618371
 30
0.0
 11
-2.999999999998707
 21
7.499999345618086
 31
0.0
  0
LINE
  5
49CA
330
1F
100
AcDbEntity
  8
AM_0
 48
0.5
100
AcDbLine
 10
-8.14262305869242
 20
-7.500000654381641
 30
0.0
 11
-2.999999999999019
 21
-7.500000654381572
 31
0.0
  0
LINE
  5
49CB
330
1F
100
AcDbEntity
  8
AM_11
 48
0.5
100
AcDbLine
 10
-29.45101346883099
 20
7.499999345619582
 30
0.0
 11
-8.142623058691677
 21
7.499999345618371
 31
0.0
  0
LINE
  5
49CC
330
1F
100
AcDbEntity
  8
AM_11
 48
0.5
100
AcDbLine
 10
-29.45101346883175
 20
-7.50000065438041
 30
0.0
 11
-8.14262305869242
 21
-7.500000654381641
 31
0.0
  0
LINE
  5
49CD
330
1F
100
AcDbEntity
  8
AM_11
 48
0.5
100
AcDbLine
 10
-66.95854551277307
 20
7.501064856732615
 30
0.0
 11
-53.36034768342003
 21
7.499999345620946
 31
0.0
  0
LINE
  5
49CE
330
1F
100
AcDbEntity
  8
AM_11
 48
0.5
100
AcDbLine
 10
-69.72055660462586
 20
-7.500000654378276
 30
0.0
 11
-48.41216619448932
 21
-7.501066165490355
 31
0.0
  0
LINE
  5
49CF
330
1F
100
AcDbEntity
  8
AM_0
 48
0.5
100
AcDbLine
 10
-53.36036603621135
 20
7.499999345620946
 30
0.0
 11
-29.45101346883099
 21
7.499999345619582
 31
0.0
  0
LINE
  5
49D0
330
1F
100
AcDbEntity
  8
AM_0
 48
0.5
100
AcDbLine
 10
-48.41216619448931
 20
-7.500000654379489
 30
0.0
 11
-29.45101346883175
 21
-7.50000065438041
 31
0.0
  0
LINE
  5
49D1
330
1F
100
AcDbEntity
  8
AM_0
 48
0.5
100
AcDbLine
 10
0.0000000000010063
 20
-0.0000000000005257
 30
0.0
 11
-5.376201221752386
 21
2.879771531896972
 31
0.0
  0
SPLINE
  5
49D2
330
1F
100
AcDbEntity
  8
AM_0
 48
0.5
100
AcDbSpline
210
0.0
220
0.0
230
1.0
 70
     8
 71
     3
 72
    25
 73
    21
 74
     0
 42
0.0000000001
 43
0.0000000001
 40
6.846175049578289
 40
6.846175049578289
 40
6.846175049578289
 40
6.846175049578289
 40
7.604337694224321
 40
8.711974558287883
 40
9.814980593243754
 40
10.91239053451967
 40
12.0033633515982
 40
13.08720139956839
 40
14.16337181880432
 40
15.23152222380919
 40
16.29148850140128
 40
17.34331105512262
 40
18.38723020264746
 40
19.42369128463655
 40
20.45333379090873
 40
21.47697865721768
 40
22.49561244472435
 40
23.5103574802404
 40
24.52244778960836
 40
25.53320666051913
 40
25.53320666051913
 40
25.53320666051913
 40
25.53320666051913
 10
-9.461855729133596
 20
1.357548446999732
 30
0.0
 10
-9.718819560686929
 20
1.489235108298853
 30
0.0
 10
-10.35173520547066
 20
1.811991494493311
 30
0.0
 10
-11.36154324343924
 20
2.318835207548664
 30
0.0
 10
-12.49147840938375
 20
2.871689261598312
 30
0.0
 10
-13.62147040050163
 20
3.406879780714877
 30
0.0
 10
-14.75152892552998
 20
3.921116112614672
 30
0.0
 10
-15.88166657610958
 20
4.411225677167929
 30
0.0
 10
-17.01189380246383
 20
4.874186017645488
 30
0.0
 10
-18.14221583694957
 20
5.307151907659767
 30
0.0
 10
-19.27264660223454
 20
5.707428862203737
 30
0.0
 10
-20.40318456758057
 20
6.072562367953165
 30
0.0
 10
-21.53383785340461
 20
6.400273995655184
 30
0.0
 10
-22.66460246957925
 20
6.688535589140091
 30
0.0
 10
-23.79547399876638
 20
6.935580311081308
 30
0.0
 10
-24.92644614819751
 20
7.139770634473285
 30
0.0
 10
-26.05750132040007
 20
7.300172034795068
 30
0.0
 10
-27.18862704999818
 20
7.414605863066477
 30
0.0
 10
-28.31980497541277
 20
7.486616480643667
 30
0.0
 10
-29.07410946532148
 20
7.495540348522951
 30
0.0
 10
-29.45101346883099
 20
7.499999345619585
 30
0.0
  0
SPLINE
  5
49D3
330
1F
100
AcDbEntity
  8
AM_0
100
AcDbSpline
210
0.0
220
0.0
230
1.0
 70
     8
 71
     3
 72
    23
 73
    19
 74
     0
 42
0.0000000001
 43
0.0000000001
 40
16.03460024169435
 40
16.03460024169435
 40
16.03460024169435
 40
16.03460024169435
 40
16.35212704903564
 40
17.38177054169784
 40
18.41822485651776
 40
19.46214173629503
 40
20.51396345435107
 40
21.57393551351153
 40
22.64208202342361
 40
23.7182574881101
 40
24.80209208578934
 40
25.89306333925047
 40
26.99048218457928
 40
28.09348763352352
 40
29.20111863782268
 40
30.31232390128032
 40
31.42594612798585
 40
32.5407912310448
 40
32.5407912310486
 40
32.5407912310486
 40
32.5407912310486
 10
-66.95854551277307
 20
7.501064856732611
 30
0.0
 10
-66.8423313672176
 20
7.475746177479717
 30
0.0
 10
-66.34976475201928
 20
7.365490455431684
 30
0.0
 10
-65.48210335476851
 20
7.149461195223054
 30
0.0
 10
-64.35847957392354
 20
6.828228047765814
 30
0.0
 10
-63.23589946769788
 20
6.4675367673161
 30
0.0
 10
-62.1142967019378
 20
6.069474851033454
 30
0.0
 10
-60.99363146897353
 20
5.636261503012558
 30
0.0
 10
-59.87383899704043
 20
5.170373153442455
 30
0.0
 10
-58.7548413080469
 20
4.674521155656208
 30
0.0
 10
-57.63657481652529
 20
4.15151349060726
 30
0.0
 10
-56.51894986699596
 20
3.604393418035002
 30
0.0
 10
-55.40187588845473
 20
3.036341036183562
 30
0.0
 10
-54.28527845344852
 20
2.450622408105755
 30
0.0
 10
-53.16906413762606
 20
1.850643407412956
 30
0.0
 10
-52.05312955590208
 20
1.23990747129036
 30
0.0
 10
-50.93738383970002
 20
0.6219536491063425
 30
0.0
 10
-50.19375315483876
 20
0.2076494006977223
 30
0.0
 10
-49.82173501973314
 20
0.000380815345576
 30
0.0
  0
SPLINE
  5
49D4
330
1F
100
AcDbEntity
  8
AM_0
100
AcDbSpline
210
0.0
220
0.0
230
1.0
 70
     8
 71
     3
 72
    11
 73
     7
 74
     0
 42
0.0000000001
 43
0.0000000001
 40
11.27226913003534
 40
11.27226913003534
 40
11.27226913003534
 40
11.2722691300354
 40
12.28301561507924
 40
13.29510212255852
 40
14.30984805882082
 40
15.18258238371378
 40
15.18258238371378
 40
15.18258238371378
 40
15.18258238371378
 10
-69.72055660462854
 20
-7.500000654378276
 30
0.0
 10
-70.0960216892178
 20
-7.463293474892486
 30
0.0
 10
-70.84624365984963
 20
-7.374426990919083
 30
0.0
 10
-71.96770260940256
 20
-7.195161311672048
 30
0.0
 10
-73.03198692692884
 20
-6.981048113526626
 30
0.0
 10
-73.72030355126873
 20
-6.816452925694688
 30
0.0
 10
-74.03749945156249
 20
-6.735147449188619
 30
0.0
  0
SPLINE
  5
49D5
330
1F
100
AcDbEntity
  8
AM_0
100
AcDbSpline
210
0.0
220
0.0
230
1.0
 70
     8
 71
     3
 72
    17
 73
    13
 74
     0
 42
0.0000000001
 43
0.0000000001
 40
1.580019955310467
 40
1.580019955310467
 40
1.580019955310467
 40
1.580019955310467
 40
2.030549285115227
 40
3.082371838836284
 40
4.126290986361125
 40
5.162752068350215
 40
6.192395305374981
 40
7.216039564037012
 40
8.234688489606833
 40
9.249433870634691
 40
10.26152376260694
 40
11.27226744710342
 40
11.27226744710342
 40
11.27226744710342
 40
11.27226744710352
 10
-59.06553016563323
 20
-5.535221503806583
 30
0.0
 10
-59.22557229357554
 20
-5.592229680237958
 30
0.0
 10
-59.76016676900755
 20
-5.779081593022182
 30
0.0
 10
-60.67285211245188
 20
-6.072165503901679
 30
0.0
 10
-61.80334792794401
 20
-6.400380603846394
 30
0.0
 10
-62.93415496787573
 20
-6.688509883939027
 30
0.0
 10
-64.06501382099128
 20
-6.935585741299063
 30
0.0
 10
-65.19599587915208
 20
-7.139810934208069
 30
0.0
 10
-66.32705607361791
 20
-7.300020039540954
 30
0.0
 10
-67.45818669694552
 20
-7.415174848688566
 30
0.0
 10
-68.58935988100559
 20
-7.484534096771249
 30
0.0
 10
-69.34365836739009
 20
-7.500000697293688
 30
0.0
 10
-69.72055660462847
 20
-7.500000654378276
 30
0.0
  0
SPLINE
  5
49D6
330
1F
100
AcDbEntity
  8
AM_0
 48
0.5
100
AcDbSpline
210
0.0
220
0.0
230
1.0
 70
     8
 71
     3
 72
    17
 73
    13
 74
     0
 42
0.0000000001
 43
0.0000000001
 40
0.0
 40
0.0
 40
0.0
 40
0.0
 40
1.010743614677189
 40
2.022833924044153
 40
3.037578959561199
 40
4.056212747067873
 40
5.079857613375832
 40
6.109500119648989
 40
7.14596120163808
 40
8.18989512056258
 40
9.241717674284874
 40
9.693948937866434
 40
9.693948937866434
 40
9.693948937866434
 40
9.693948937866434
 10
-8.142623058691677
 20
7.499999345618368
 30
0.0
 10
-8.519521369493451
 20
7.495540243080541
 30
0.0
 10
-9.273820162910324
 20
7.48661609678543
 30
0.0
 10
-10.40499241800173
 20
7.414605896997817
 30
0.0
 10
-11.536118103388
 20
7.300171920807368
 30
0.0
 10
-12.66717344238286
 20
7.139771058975695
 30
0.0
 10
-13.7981449644449
 20
6.935578715366818
 30
0.0
 10
-14.92901885587496
 20
6.688541598763163
 30
0.0
 10
-16.05977993844483
 20
6.400249968782366
 30
0.0
 10
-17.1904720902235
 20
6.0726446789241
 30
0.0
 10
-18.10319627938148
 20
5.777521834083093
 30
0.0
 10
-18.63920143725975
 20
5.593027615535373
 30
0.0
 10
-18.80008142862258
 20
5.53655517029642
 30
0.0
  0
SPLINE
  5
49D8
330
1F
100
AcDbEntity
  8
AM_0
 48
0.5
100
AcDbSpline
210
0.0
220
0.0
230
1.0
 70
     8
 71
     3
 72
    10
 73
     6
 74
     0
 42
0.0000000001
 43
0.0000000001
 40
0.0
 40
0.0
 40
0.0
 40
0.0
 40
2.69986029516136
 40
4.147722969032201
 40
6.285750005020438
 40
6.285750005020438
 40
6.285750005020438
 40
6.285750005020438
 10
-9.461674879441325
 20
1.357459367590959
 30
0.0
 10
-8.656596069462182
 20
0.6606575402550689
 30
0.0
 10
-7.419775083570427
 20
-0.4098204208766109
 30
0.0
 10
-4.494859597089673
 20
0.1084167132988434
 30
0.0
 10
-5.045706259606145
 20
1.853907954181922
 30
0.0
 10
-5.409670539161484
 20
2.91783862518341
 30
0.0
  0
SPLINE
  5
49D9
330
1F
100
AcDbEntity
  8
AM_0
100
AcDbSpline
210
0.0
220
0.0
230
1.0
 70
     8
 71
     3
 72
    55
 73
    51
 74
     0
 42
0.0000000001
 43
0.0000000001
 40
0.0
 40
0.0
 40
0.0
 40
0.0
 40
1.010743684496582
 40
2.022833576467832
 40
3.037578957496688
 40
4.056212745003489
 40
5.079857003664532
 40
6.109500240690281
 40
7.145961322679372
 40
8.189895241603872
 40
9.241717795325891
 40
10.30168407291828
 40
11.36983447792315
 40
12.44600489715814
 40
13.52984294512926
 40
14.62081576220742
 40
15.7182257034828
 40
16.82123173843959
 40
17.92886860250316
 40
19.0400688939571
 40
20.15368796660465
 40
21.26852814259644
 40
22.38336992938901
 40
23.49698739941135
 40
24.6081876908653
 40
25.71582455492886
 40
26.81883757994213
 40
27.91624752121713
 40
29.00722033829659
 40
30.09105838626677
 40
31.16722880550176
 40
32.23537921050758
 40
33.29534548809967
 40
34.347168041821
 40
35.39108718934584
 40
36.42754827133493
 40
37.45720575381954
 40
38.48085062012849
 40
39.49948440763516
 40
40.51422944315121
 40
41.52631975251916
 40
42.53706336719636
 40
43.54780698187354
 40
44.55989729124051
 40
45.57464232675757
 40
46.59327611426424
 40
47.6169209805722
 40
48.64656348684535
 40
49.68302456883444
 40
50.58557219878025
 40
50.58557219878025
 40
50.58557219878025
 40
50.58557219878025
 10
-8.14262305869242
 20
-7.500000654381634
 30
0.0
 10
-8.519521300903225
 20
-7.495538336080222
 30
0.0
 10
-9.273819775333411
 20
-7.486607756124672
 30
0.0
 10
-10.40499298338627
 20
-7.41461725584876
 30
0.0
 10
-11.53611790591993
 20
-7.30017116642689
 30
0.0
 10
-12.66717282292591
 20
-7.139770619389626
 30
0.0
 10
-13.79814644825666
 20
-6.935589349678727
 30
0.0
 10
-14.92901647033122
 20
-6.688535318862088
 30
0.0
 10
-16.05978667185964
 20
-6.40027277094879
 30
0.0
 10
-17.19044702519551
 20
-6.072566887859242
 30
0.0
 10
-18.32098982848119
 20
-5.707429763835636
 30
0.0
 10
-19.45142071684754
 20
-5.307153326860793
 30
0.0
 10
-20.58174271781391
 20
-4.874187296170141
 30
0.0
 10
-21.71196995384832
 20
-4.411226995285578
 30
0.0
 10
-22.84210759955206
 20
-3.921117414448245
 30
0.0
 10
-23.97216613439529
 20
-3.406881107915927
 30
0.0
 10
-25.1021580908801
 20
-2.871690503038417
 30
0.0
 10
-26.23209338641919
 20
-2.318836768818439
 30
0.0
 10
-27.36198298716333
 20
-1.751720170786851
 30
0.0
 10
-28.49183898341145
 20
-1.173831244227717
 30
0.0
 10
-29.62167128507608
 20
-0.5887226127699873
 30
0.0
 10
-30.75149584713949
 20
-0.0000021846527809
 30
0.0
 10
-31.88131533723597
 20
0.588728840799027
 30
0.0
 10
-33.01115142585224
 20
1.173828360567716
 30
0.0
 10
-34.1410060272779
 20
1.751719036363729
 30
0.0
 10
-35.27089764260274
 20
2.318837794856784
 30
0.0
 10
-36.40083762565547
 20
2.871686810925917
 30
0.0
 10
-37.53083136556614
 20
3.406880129964446
 30
0.0
 10
-38.66089006355225
 20
3.921116019504135
 30
0.0
 10
-39.79102766813386
 20
4.411225703409671
 30
0.0
 10
-40.92125490706232
 20
4.874186004971439
 30
0.0
 10
-42.05157693681888
 20
5.307151932133393
 30
0.0
 10
-43.18200770851244
 20
5.707428777827301
 30
0.0
 10
-44.31254565314044
 20
6.072562677694779
 30
0.0
 10
-45.44319901464798
 20
6.40027285291379
 30
0.0
 10
-46.57396879671934
 20
6.688541197424273
 30
0.0
 10
-47.70484689358485
 20
6.935567011241133
 30
0.0
 10
-48.83582425533285
 20
7.139811479371328
 30
0.0
 10
-49.96687950763412
 20
7.300021892263395
 30
0.0
 10
-51.09800521610776
 20
7.415162971095537
 30
0.0
 10
-52.22917746506054
 20
7.484543982420792
 30
0.0
 10
-53.36037457083751
 20
7.507721882552768
 30
0.0
 10
-54.49157167495005
 20
7.484543982384577
 30
0.0
 10
-55.62274392890574
 20
7.41516297124156
 30
0.0
 10
-56.75386961896015
 20
7.300021891714316
 30
0.0
 10
-57.88492494031952
 20
7.139811481436391
 30
0.0
 10
-59.01589652872186
 20
6.935567999202958
 30
0.0
 10
-60.14677017035817
 20
6.688543723130423
 30
0.0
 10
-61.226126304404
 20
6.413358410717358
 30
0.0
 10
-61.92642485622998
 20
6.212112790237573
 30
0.0
 10
-62.25132256792555
 20
6.114035982025186
 30
0.0
  0
SPLINE
  5
49DA
330
1F
100
AcDbEntity
  8
AM_0
100
AcDbSpline
210
0.0
220
0.0
230
1.0
 70
     8
 71
     3
 72
    11
 73
     7
 74
     0
 42
0.0000000001
 43
0.0000000001
 40
11.27226913003534
 40
11.27226913003534
 40
11.27226913003534
 40
11.2722691300354
 40
12.28301561507924
 40
13.29510212255852
 40
14.30984805882082
 40
15.18258238371378
 40
15.18258238371378
 40
15.18258238371378
 40
15.18258238371378
 10
-29.45101346883171
 20
-7.500000654380415
 30
0.0
 10
-29.826478553421
 20
-7.463293474894629
 30
0.0
 10
-30.57670052405283
 20
-7.37442699092123
 30
0.0
 10
-31.69815947360575
 20
-7.195161311674191
 30
0.0
 10
-32.76244379113202
 20
-6.981048113528766
 30
0.0
 10
-33.45076041547187
 20
-6.816452925696832
 30
0.0
 10
-33.76795631576563
 20
-6.735147449190761
 30
0.0
  0
SPLINE
  5
49DB
330
1F
100
AcDbEntity
  8
AM_0
100
AcDbSpline
210
0.0
220
0.0
230
1.0
 70
     8
 71
     3
 72
    22
 73
    18
 74
     0
 42
0.0000000001
 43
0.0000000001
 40
17.17441611292
 40
17.17441611292
 40
17.17441611292
 40
17.17441611292
 40
17.38177636558528
 40
18.41823744757437
 40
19.46215659509824
 40
20.51397914882054
 40
21.57394542641293
 40
22.64209583141747
 40
23.71826625065247
 40
24.80210429862395
 40
25.8930771157021
 40
26.99048705697709
 40
28.09349309193389
 40
29.20112995599786
 40
30.31233024745139
 40
31.42594771747373
 40
32.5407895042663
 40
32.54078950426994
 40
32.54078950426994
 40
32.54078950426994
 10
-33.76845101679831
 20
-6.735054936748112
 30
0.0
 10
-33.84419598579705
 20
-6.717693172361381
 30
0.0
 10
-34.29824570820755
 20
-6.611940767794184
 30
0.0
 10
-35.13003921406364
 20
-6.399893432655051
 30
0.0
 10
-36.26069241389426
 20
-6.072182315922116
 30
0.0
 10
-37.39123040253721
 20
-5.707048671702266
 30
0.0
 10
-38.5216611615273
 20
-5.306771754738756
 30
0.0
 10
-39.65198319764407
 20
-4.873805854349403
 30
0.0
 10
-40.78221042384111
 20
-4.410845517403565
 30
0.0
 10
-41.91234807338815
 20
-3.920735949174277
 30
0.0
 10
-43.04240660274595
 20
-3.406499628513913
 30
0.0
 10
-44.17239857744884
 20
-2.87130906779824
 30
0.0
 10
-45.30233380514537
 20
-2.318455169969649
 30
0.0
 10
-46.43222366046043
 20
-1.75133918562867
 30
0.0
 10
-47.56207815888403
 20
-1.173448236140619
 30
0.0
 10
-48.69191403822826
 20
-0.5883482210185152
 30
0.0
 10
-49.44499010895588
 20
-0.1959340520917881
 30
0.0
 10
-49.82173501973815
 20
0.0003808153482706
 30
0.0
  0
SPLINE
  5
49DC
330
1F
100
AcDbEntity
  8
AM_0
100
AcDbSpline
210
0.0
220
0.0
230
1.0
 70
     8
 71
     3
 72
    17
 73
    13
 74
     0
 42
0.0000000001
 43
0.0000000001
 40
1.580019955310467
 40
1.580019955310467
 40
1.580019955310467
 40
1.580019955310467
 40
2.030549285115227
 40
3.082371838836284
 40
4.126290986361125
 40
5.162752068350215
 40
6.192395305374981
 40
7.216039564037012
 40
8.234688489606833
 40
9.249433870634691
 40
10.26152376260694
 40
11.27226744710342
 40
11.27226744710342
 40
11.27226744710342
 40
11.27226744710352
 10
-18.79598702983634
 20
-5.535221503808727
 30
0.0
 10
-18.95602915777864
 20
-5.592229680240095
 30
0.0
 10
-19.49062363321067
 20
-5.779081593024323
 30
0.0
 10
-20.40330897665501
 20
-6.072165503903825
 30
0.0
 10
-21.53380479214717
 20
-6.400380603848533
 30
0.0
 10
-22.66461183207888
 20
-6.688509883941159
 30
0.0
 10
-23.79547068519442
 20
-6.935585741301204
 30
0.0
 10
-24.92645274335525
 20
-7.139810934210214
 30
0.0
 10
-26.0575129378211
 20
-7.300020039543101
 30
0.0
 10
-27.18864356114872
 20
-7.415174848690711
 30
0.0
 10
-28.31981674520878
 20
-7.484534096773387
 30
0.0
 10
-29.07411523159326
 20
-7.500000697295837
 30
0.0
 10
-29.45101346883165
 20
-7.500000654380415
 30
0.0
  0
SPLINE
  5
49DD
330
1F
100
AcDbEntity
  8
AM_0
100
AcDbSpline
210
0.0
220
0.0
230
1.0
 70
     8
 71
     3
 72
    46
 73
    42
 74
     0
 42
0.0000000001
 43
0.0000000001
 40
0.0
 40
0.0
 40
0.0
 40
0.0
 40
1.348332046947657
 40
2.024828967632895
 40
2.703918159304097
 40
3.386347665078124
 40
4.072776489761952
 40
4.763750544421347
 40
5.459696642770596
 40
6.160921452191754
 40
6.867565637253344
 40
7.579665907256596
 40
8.297112853413899
 40
9.019671552060676
 40
9.746986763446127
 40
10.47859339096366
 40
11.21393074760089
 40
11.95235532364328
 40
12.69315551794651
 40
13.43556823304427
 40
14.1787950170388
 40
14.92202180103393
 40
15.66443451613169
 40
16.40523471043432
 40
17.14365928647669
 40
17.87899664311455
 40
18.61060327063121
 40
19.3379184820169
 40
20.06048192311554
 40
20.77792886927283
 40
21.49002913927608
 40
22.19667332433747
 40
22.89788836015233
 40
23.59383445850158
 40
24.28480851316097
 40
24.97123685067576
 40
25.65366676154838
 40
26.33276604526152
 40
27.00926273560555
 40
27.68398960851751
 40
28.357818684969
 40
28.357818684969
 40
28.357818684969
 40
28.357818684969
 10
-4.976106701361908
 20
-7.500000654381812
 30
0.0
 10
-5.73044202961346
 20
-7.48291507462491
 30
0.0
 10
-6.863249061390476
 20
-7.457257168696705
 30
0.0
 10
-8.36959197126184
 20
-7.299286155505092
 30
0.0
 10
-9.500659040279392
 20
-7.140009352055676
 30
0.0
 10
-10.63162942998809
 20
-6.935524992121548
 30
0.0
 10
-11.76250016102468
 20
-6.688552178302832
 30
0.0
 10
-12.8932654238844
 20
-6.400271651050808
 30
0.0
 10
-14.02392332470539
 20
-6.07256137500113
 30
0.0
 10
-15.15446883166058
 20
-5.70743353976028
 30
0.0
 10
-16.28490420443933
 20
-5.307152803567686
 30
0.0
 10
-17.4152264025142
 20
-4.874187437992989
 30
0.0
 10
-18.54545358511603
 20
-4.411226956828853
 30
0.0
 10
-19.6755912453749
 20
-3.921117425017757
 30
0.0
 10
-20.80564977596057
 20
-3.406881104452887
 30
0.0
 10
-21.93564173479646
 20
-2.871690506251025
 30
0.0
 10
-23.06557702518932
 20
-2.318836759394498
 30
0.0
 10
-24.19546664426036
 20
-1.751720205448902
 30
0.0
 10
-25.32532257206067
 20
-1.173831114496434
 30
0.0
 10
-26.45515512989782
 20
-0.5887230982260557
 30
0.0
 10
-27.58497819016306
 20
-0.0000006544996401
 30
0.0
 10
-28.71480125018008
 20
0.5887217899421925
 30
0.0
 10
-29.84463380876174
 20
1.173829804067371
 30
0.0
 10
-30.97448973384078
 20
1.751718902859593
 30
0.0
 10
-32.1043793630024
 20
2.31883542773037
 30
0.0
 10
-33.23431461598038
 20
2.871689282393425
 30
0.0
 10
-34.36430671337629
 20
3.406879481349758
 30
0.0
 10
-35.49436718812968
 20
3.921118396655392
 30
0.0
 10
-36.62450923955823
 20
4.411223475572951
 30
0.0
 10
-37.75473843831214
 20
4.874186330639888
 30
0.0
 10
-38.88506061006987
 20
5.307151825044806
 30
0.0
 10
-40.01549133914856
 20
5.707428882999511
 30
0.0
 10
-41.14602931351154
 20
6.072562366458684
 30
0.0
 10
-42.27668259906281
 20
6.400273981240693
 30
0.0
 10
-43.407447207495
 20
6.688535647667181
 30
0.0
 10
-44.53831876761678
 20
6.935580093334143
 30
0.0
 10
-45.66929637526575
 20
7.139772446980248
 30
0.0
 10
-46.80035761618145
 20
7.300170529454021
 30
0.0
 10
-47.93148883530572
 20
7.414606115358399
 30
0.0
 10
-49.06266111365183
 20
7.486616042342296
 30
0.0
 10
-49.81695990397431
 20
7.495540224942511
 30
0.0
 10
-50.19385821322978
 20
7.499999345620766
 30
0.0
  0
ELLIPSE
  5
49DE
330
1F
100
AcDbEntity
  8
AM_0
 48
0.5
100
AcDbEllipse
 10
-20.78707180991418
 20
51.48176494004083
 30
0.0
 11
0.001998838200775
 21
56.23063997801677
 31
0.0
210
0.0
220
0.0
230
0.9999999999999998
 40
0.9191174625124675
 41
3.48049089552992
 42
3.555557121760455
  0
ELLIPSE
  5
49DF
330
1F
100
AcDbEntity
  8
AM_0
 48
0.5
100
AcDbEllipse
 10
-13.69595770308865
 20
12.58771830924117
 30
0.0
 11
-0.0000000000046376
 21
18.08329463004978
 31
0.0
210
0.0
220
0.0
230
1.0
 40
0.8948912912912488
 41
3.652175978817881
 42
3.740670756497385
  0
ELLIPSE
  5
49E0
330
1F
100
AcDbEntity
  8
AM_0
 48
0.5
100
AcDbEllipse
 10
2.206827633540443
 20
9.004210771398991
 30
0.0
 11
0.0000000000005901
 21
15.11583566665616
 31
0.0
210
0.0
220
0.0
230
1.0
 40
0.8948912912912934
 41
2.10116388002897
 42
2.509284810223867
  0
ELLIPSE
  5
49E1
330
1F
100
AcDbEntity
  8
AM_0
 48
0.5
100
AcDbEllipse
 10
-4.077388608245405
 20
-1.954608617944369
 30
0.0
 11
-0.9468609828727711
 21
0.6612667404469712
 31
0.0
210
0.0
220
0.0
230
1.0
 40
0.5241615241724274
 41
4.553714780032339
 42
7.697155121361848
  0
ELLIPSE
  5
49E2
330
1F
100
AcDbEntity
  8
AM_0
 48
0.5
100
AcDbEllipse
 10
-4.077388608245405
 20
-1.954608617944369
 30
0.0
 11
-0.1823658932575143
 21
1.233054704592884
 31
0.0
210
0.0
220
0.0
230
1.0
 40
0.4499816961959449
 41
1.827343422708362
 42
4.962685312420338
  0
ELLIPSE
  5
49E3
330
1F
100
AcDbEntity
  8
AM_0
 48
0.5
100
AcDbEllipse
 10
4.864201833735999
 20
-1.667147337121168
 30
0.0
 11
10.57013474982972
 21
2.113522419054113
 31
0.0
210
0.0
220
0.0
230
1.0
 40
0.6796816684610034
 41
3.060153552258951
 42
3.748358764659823
  0
LINE
  5
49E4
330
1F
100
AcDbEntity
  8
AM_11
 48
0.5
100
AcDbLine
 10
-121.5114826446876
 20
7.499999345624188
 30
0.0
 11
-93.63006449559669
 21
7.499999345623094
 31
0.0
  0
POLYLINE
  5
49E5
330
1F
100
AcDbEntity
  8
AM_0
100
AcDb2dPolyline
 66
     1
 10
0.0
 20
0.0
 30
0.0
 70
     2
  0
VERTEX
  5
49E6
330
49E5
100
AcDbEntity
  8
AM_0
100
AcDbVertex
100
AcDb2dVertex
 10
-118.3994179232005
 20
6.648547892630208
 30
0.0
 42
0.0862297278188617
  0
VERTEX
  5
49E7
330
49E5
100
AcDbEntity
  8
AM_0
100
AcDbVertex
100
AcDb2dVertex
 10
-121.2118900968992
 20
6.407540017109685
 30
0.0
 42
0.0414024687830266
 70
     1
  0
VERTEX
  5
49E8
330
49E5
100
AcDbEntity
  8
AM_0
100
AcDbVertex
100
AcDb2dVertex
 10
-121.5518746206513
 20
6.277977847132365
 30
0.0
 42
0.0280074108471844
  0
VERTEX
  5
49E9
330
49E5
100
AcDbEntity
  8
AM_0
100
AcDbVertex
100
AcDb2dVertex
 10
-122.3270518676938
 20
5.847673020313929
 30
0.0
 42
0.0512701366748525
 70
     1
  0
VERTEX
  5
49EA
330
49E5
100
AcDbEntity
  8
AM_0
100
AcDbVertex
100
AcDb2dVertex
 10
-122.7103595317716
 20
5.545286326026865
 30
0.0
 42
0.0658714570033076
  0
VERTEX
  5
49EB
330
49E5
100
AcDbEntity
  8
AM_0
100
AcDbVertex
100
AcDb2dVertex
 10
-122.9509277963693
 20
5.240795156990681
 30
0.0
 42
0.1411961588081283
 70
     1
  0
VERTEX
  5
49EC
330
49E5
100
AcDbEntity
  8
AM_0
100
AcDbVertex
100
AcDb2dVertex
 10
-122.9999807595517
 20
5.060985544227019
 30
0.0
 42
0.1226739033459629
  0
VERTEX
  5
49ED
330
49E5
100
AcDbEntity
  8
AM_0
100
AcDbVertex
100
AcDb2dVertex
 10
-122.9521264277811
 20
4.86328677807374
 30
0.0
 42
0.0555312784770531
 70
     1
  0
VERTEX
  5
49EE
330
49E5
100
AcDbEntity
  8
AM_0
100
AcDbVertex
100
AcDb2dVertex
 10
-122.7103595317716
 20
4.49651549997414
 30
0.0
 42
0.0351528005485752
  0
VERTEX
  5
49EF
330
49E5
100
AcDbEntity
  8
AM_0
100
AcDbVertex
100
AcDb2dVertex
 10
-122.3196301468822
 20
4.087447957211883
 30
0.0
 42
0.0198940146009696
 70
     1
  0
VERTEX
  5
49F0
330
49E5
100
AcDbEntity
  8
AM_0
100
AcDbVertex
100
AcDb2dVertex
 10
-121.5207204285312
 20
3.498585946475402
 30
0.0
 42
0.0358460074876439
  0
VERTEX
  5
49F1
330
49E5
100
AcDbEntity
  8
AM_0
100
AcDbVertex
100
AcDb2dVertex
 10
-121.2058257384573
 20
3.289728961467463
 30
0.0
 42
0.021710998496176
 70
     1
  0
VERTEX
  5
49F2
330
49E5
100
AcDbEntity
  8
AM_0
100
AcDbVertex
100
AcDb2dVertex
 10
-120.6518567451909
 20
3.009687419810738
 30
0.0
  0
SEQEND
  5
49F3
330
49E5
100
AcDbEntity
  8
AM_0
  0
SPLINE
  5
49F4
330
1F
100
AcDbEntity
  8
AM_0
100
AcDbSpline
210
0.0
220
0.0
230
1.0
 70
     8
 71
     3
 72
    21
 73
    17
 74
     0
 42
0.0000000001
 43
0.0000000001
 40
17.46072332543636
 40
17.46072332543636
 40
17.46072332543636
 40
17.46072332543636
 40
18.41823744757437
 40
19.46215659509824
 40
20.51397914882054
 40
21.57394542641293
 40
22.64209583141747
 40
23.71826625065247
 40
24.80210429862395
 40
25.8930771157021
 40
26.99048705697709
 40
28.09349309193389
 40
29.20112995599786
 40
30.31233024745139
 40
31.42594771747373
 40
32.5407895042663
 40
32.54078950426994
 40
32.54078950426994
 40
32.54078950426994
 10
-91.33208035500373
 20
-7.500000654376821
 30
0.0
 10
-94.44927298574567
 20
-6.71640408875097
 30
0.0
 10
-96.20364242458393
 20
-6.167168282487656
 30
0.0
 10
-97.47190832712215
 20
-5.872004673909746
 30
0.0
 10
-98.77283475898089
 20
-5.534631795860605
 30
0.0
 10
-100.0736378001255
 20
-5.164787554908354
 30
0.0
 10
-101.3743157322857
 20
-4.764739643071631
 30
0.0
 10
-102.6748845652986
 20
-4.336977743365723
 30
0.0
 10
-103.9753503211635
 20
-3.884130742793586
 30
0.0
 10
-105.275725032281
 20
-3.408991323994573
 30
0.0
 10
-106.5760231579934
 20
-2.914490796224342
 30
0.0
 10
-107.876255984104
 20
-2.403669858182226
 30
0.0
 10
-109.1764365995584
 20
-1.879671166597438
 30
0.0
 10
-110.4765765293261
 20
-1.345716720290805
 30
0.0
 10
-111.7766950338494
 20
-0.805101306802692
 30
0.0
 10
-112.6432705717363
 20
-0.4425220165788696
 30
0.0
 10
-113.076796395219
 20
-0.2611327831281951
 30
0.0
  0
ELLIPSE
  5
49F5
330
1F
100
AcDbEntity
  8
AM_0
100
AcDbEllipse
 10
-121.5431896402141
 20
-2.213230793064408
 30
0.0
 11
-0.0000000000040855
 21
3.799486982772264
 31
0.0
210
0.0
220
0.0
230
1.0
 40
0.940000000000267
 41
2.827283645644525
 42
2.960363693370068
  0
ELLIPSE
  5
49F6
330
1F
100
AcDbEntity
  8
AM_0
100
AcDbEllipse
 10
-122.4668072739135
 20
-5.071453313931561
 30
0.0
 11
0.0000000000048637
 21
0.7791738540075255
 31
0.0
210
0.0
220
0.0
230
1.0
 40
0.9399999999992619
 41
2.598176912244099
 42
2.892513815375346
  0
ELLIPSE
  5
49F7
330
1F
100
AcDbEntity
  8
AM_0
100
AcDbEllipse
 10
-122.5996357829003
 20
-5.302746996862555
 30
0.0
 11
0.0000000000015294
 21
0.508135873422663
 31
0.0
210
0.0
220
0.0
230
1.0
 40
0.9399999999998794
 41
2.250206732579163
 42
2.600849383085201
  0
ELLIPSE
  5
49F8
330
1F
100
AcDbEntity
  8
AM_0
100
AcDbEllipse
 10
-122.869120025948
 20
-5.534945387713468
 30
0.0
 11
-0.0000000000000426
 21
0.1392135671199757
 31
0.0
210
0.0
220
0.0
230
1.0
 40
0.9400000000000249
 41
1.570250563378496
 42
2.246594350020507
  0
ELLIPSE
  5
49F9
330
1F
100
AcDbEntity
  8
AM_0
100
AcDbEllipse
 10
-122.8726273072801
 20
-5.536616790577816
 30
0.0
 11
0.0000000000006675
 21
0.1354936639618188
 31
0.0
210
0.0
220
0.0
230
1.0
 40
0.9399999999992804
 41
0.8708229448574424
 42
1.557899568961397
  0
ELLIPSE
  5
49FA
330
1F
100
AcDbEntity
  8
AM_0
100
AcDbEllipse
 10
-122.6318159210352
 20
-5.754380366489875
 30
0.0
 11
-0.0000000000008298
 21
0.4717222910930139
 31
0.0
210
0.0
220
0.0
230
1.0
 40
0.9399999999999476
 41
0.5028645116645199
 42
0.86758685306695
  0
ELLIPSE
  5
49FB
330
1F
100
AcDbEntity
  8
AM_0
100
AcDbEllipse
 10
-122.525184649989
 20
-5.955883597530259
 30
0.0
 11
-0.0000000000006272
 21
0.7029540515751939
 31
0.0
210
0.0
220
0.0
230
1.0
 40
0.9399999999998779
 41
0.1926332863322313
 42
0.5061117441969239
  0
ELLIPSE
  5
49FC
330
1F
100
AcDbEntity
  8
AM_0
100
AcDbEllipse
 10
-121.8510660136628
 20
-8.881564921470722
 30
0.0
 11
0.0000000000004296
 21
3.714597827831116
 31
0.0
210
0.0
220
0.0
230
1.0
 40
0.9400000000000293
 41
0.0952766170361401
 42
0.231349232187777
  0
ELLIPSE
  5
49FD
330
1F
100
AcDbEntity
  8
AM_0
100
AcDbEllipse
 10
-121.974600828085
 20
-3.498261105809102
 30
0.0
 11
0.0000000000003718
 21
2.456067157664109
 31
0.0
210
0.0
220
0.0
230
1.0
 40
0.9400000000002748
 41
3.13728034172792
 42
3.227451753246015
  0
ELLIPSE
  5
49FE
330
1F
100
AcDbEntity
  8
AM_0
100
AcDbEllipse
 10
-122.0658392522282
 20
-4.757105163968616
 30
0.0
 11
0.0000000000000302
 21
1.200318990555007
 31
0.0
210
0.0
220
0.0
230
1.0
 40
0.9400000000002565
 41
3.034077686512225
 42
3.213695009857833
  0
ELLIPSE
  5
49FF
330
1F
100
AcDbEntity
  8
AM_0
100
AcDbEllipse
 10
-122.1273215417342
 20
-6.409028924779222
 30
0.0
 11
-0.0000000000000822
 21
1.226658124907378
 31
0.0
210
0.0
220
0.0
230
1.0
 40
0.9400000000000508
 41
-0.130509439197044
 42
0.048516853496821
  0
ELLIPSE
  5
4A00
330
1F
100
AcDbEntity
  8
AM_0
100
AcDbEllipse
 10
-122.215273337884
 20
-7.167422910853509
 30
0.0
 11
0.0000000000045937
 21
1.990787918699813
 31
0.0
210
0.0
220
0.0
230
1.0
 40
0.9399999999992937
 41
-0.2679377313977851
 42
-0.1275323195038533
  0
SPLINE
  5
4A01
330
1F
100
AcDbEntity
  8
AM_0
100
AcDbSpline
210
0.0
220
0.0
230
1.0
 70
     8
 71
     3
 72
    14
 73
    10
 74
     0
 42
0.0000000001
 43
0.0000000001
 40
4.563347739497467
 40
4.563347739497467
 40
4.563347739497467
 40
4.563347739497467
 40
5.079857003664532
 40
6.109500240690281
 40
7.145961322679372
 40
8.189895241603872
 40
9.241717795325891
 40
10.30168407291828
 40
10.55450228288433
 40
10.55450228288433
 40
10.55450228288433
 40
10.55450228288433
 10
-109.5243434496497
 20
-7.500000654375943
 30
0.0
 10
-110.2479018114982
 20
-7.500000654375905
 30
0.0
 10
-112.1280815971355
 20
-7.304544461669349
 30
0.0
 10
-116.0800744406227
 20
-6.647065634527593
 30
0.0
 10
-117.3812680832107
 20
-6.380719415922971
 30
0.0
 10
-118.6823353218932
 20
-6.077928701668805
 30
0.0
 10
-119.9832672940309
 20
-5.740552608382108
 30
0.0
 10
-120.9505462744939
 20
-5.465536269185574
 30
0.0
 10
-121.4850121732536
 20
-5.305934580894475
 30
0.0
 10
-121.7198484097091
 20
-5.247668458313849
 30
0.0
  0
SPLINE
  5
4A02
330
1F
100
AcDbEntity
  8
AM_0
100
AcDbSpline
210
0.0
220
0.0
230
1.0
 70
     8
 71
     3
 72
    17
 73
    13
 74
     0
 42
0.0000000001
 43
0.0000000001
 40
3.731426397987522
 40
3.731426397987522
 40
3.731426397987522
 40
3.731426397987522
 40
4.232934581347659
 40
5.09097061220244
 40
5.954688180526682
 40
6.824620803463244
 40
7.701151815239697
 40
8.58445704656667
 40
9.47458238407075
 40
10.37139106676736
 40
11.27458944007584
 40
12.17321262433756
 40
12.17321262433756
 40
12.17321262433756
 40
12.17321262433756
 10
-106.4108250319115
 20
-7.500185826578495
 30
0.0
 10
-107.1956196491032
 20
-7.374991963365647
 30
0.0
 10
-107.8859554227811
 20
-7.269322917217913
 30
0.0
 10
-109.0096007472324
 20
-7.070043012754728
 30
0.0
 10
-110.3107887068229
 20
-6.800653331411322
 30
0.0
 10
-111.611853123361
 20
-6.494417708493939
 30
0.0
 10
-116.3395057370269
 20
-5.594902545259347
 30
0.0
 10
-117.640314087325
 20
-5.220851959884378
 30
0.0
 10
-118.9409922058527
 20
-4.816258548818099
 30
0.0
 10
-120.2415609887
 20
-4.383635583665958
 30
0.0
 10
-121.536976474026
 20
-3.927421217377899
 30
0.0
 10
-122.3962582218603
 20
-3.609970567563876
 30
0.0
 10
-122.9999807595958
 20
-3.448935856843245
 30
0.0
  0
SPLINE
  5
4A03
330
1F
100
AcDbEntity
  8
AM_0
100
AcDbSpline
210
0.0
220
0.0
230
1.0
 70
     8
 71
     3
 72
    15
 73
    11
 74
     0
 42
0.0000000001
 43
0.0000000001
 40
5.241236682593577
 40
5.241236682593577
 40
5.241236682593577
 40
5.241236682593577
 40
5.954688180526682
 40
6.824620803463244
 40
7.701151815239697
 40
8.58445704656667
 40
9.47458238407075
 40
10.37139106676736
 40
11.27458944007584
 40
12.17321262433756
 40
12.17321262433756
 40
12.17321262433756
 40
12.17321262433756
 10
-112.6589703696641
 20
-0.4359345458558477
 30
0.0
 10
-113.0179447342245
 20
-0.5067428592681492
 30
0.0
 10
-113.8124074881053
 20
-0.6731620560525091
 30
0.0
 10
-115.0385706537373
 20
-0.9617679360170999
 30
0.0
 10
-116.3395057370268
 20
-1.302969168451071
 30
0.0
 10
-117.6403140873249
 20
-1.677019753825945
 30
0.0
 10
-118.9409922058526
 20
-2.081613164892146
 30
0.0
 10
-120.2415609886999
 20
-2.514236130044193
 30
0.0
 10
-121.536976474026
 20
-2.970450496332149
 30
0.0
 10
-122.3962582218603
 20
-3.287901146146116
 30
0.0
 10
-122.9999807595958
 20
-3.448935856866708
 30
0.0
  0
SPLINE
  5
4A04
330
1F
100
AcDbEntity
  8
AM_0
100
AcDbSpline
210
0.0
220
0.0
230
1.0
 70
     8
 71
     3
 72
     9
 73
     5
 74
     0
 42
0.0000000001
 43
0.0000000001
 40
1.580019955310467
 40
1.580019955310467
 40
1.580019955310467
 40
1.580019955310467
 40
2.030549285115227
 40
2.43907978603305
 40
2.43907978603305
 40
2.43907978603305
 40
2.43907978603305
 10
-120.5304263230316
 20
-5.582421681054482
 30
0.0
 10
-120.7145891168011
 20
-5.63509557966518
 30
0.0
 10
-121.0663469602941
 20
-5.733816139306682
 30
0.0
 10
-121.4195753612023
 20
-5.828329419250689
 30
0.0
 10
-121.587846928769
 20
-5.872398966910001
 30
0.0
  0
ELLIPSE
  5
4A05
330
1F
100
AcDbEntity
  8
AM_0
100
AcDbEllipse
 10
-118.5508854443597
 20
24.9555325495454
 30
0.0
 11
-6.837389024464022
 21
17.63516285954892
 31
0.0
210
0.0
220
0.0
230
0.9999999999999998
 40
0.8062667412849306
 41
2.504592320502414
 42
2.702962444869941
  0
SPLINE
  5
4A06
330
1F
100
AcDbEntity
  8
AM_0
100
AcDbSpline
210
0.0
220
0.0
230
1.0
 70
     8
 71
     3
 72
    22
 73
    18
 74
     0
 42
0.0000000001
 43
0.0000000001
 40
30.51371389116273
 40
30.51371389116273
 40
30.51371389116273
 40
30.51371389116273
 40
31.16722880550176
 40
32.23537921050758
 40
33.29534548809967
 40
34.347168041821
 40
35.39108718934584
 40
36.42754827133493
 40
37.45720575381954
 40
38.48085062012849
 40
39.49948440763516
 40
40.51422944315121
 40
41.52631975251916
 40
42.53706336719636
 40
43.54780698187354
 40
44.55989729124051
 40
45.14939243453665
 40
45.14939243453665
 40
45.14939243453665
 40
45.14939243453665
 10
-90.09054733852485
 20
0.0000000000020949
 30
0.0
 10
-99.81180881047398
 20
4.069352112914073
 30
0.0
 10
-100.5064677978261
 20
4.294889176136849
 30
0.0
 10
-101.6355822305209
 20
4.642169536884418
 30
0.0
 10
-102.9363852862836
 20
5.0120137119856
 30
0.0
 10
-104.2373116674937
 20
5.349386826245714
 30
0.0
 10
-105.5383708605781
 20
5.652181506302788
 30
0.0
 10
-106.8395640204909
 20
5.918533080794822
 30
0.0
 10
-108.1408818198056
 20
6.146777755256101
 30
0.0
 10
-109.4423138446577
 20
6.335493709344444
 30
0.0
 10
-110.7438354992972
 20
6.483523475832616
 30
0.0
 10
-112.0454382288742
 20
6.589910487169999
 30
0.0
 10
-113.3470945132545
 20
6.654016525721376
 30
0.0
 10
-114.6487794007422
 20
6.675432231993438
 30
0.0
 10
-115.9504642863147
 20
6.654016525687909
 30
0.0
 10
-117.0698934789975
 20
6.598885097109634
 30
0.0
 10
-117.5609563366254
 20
6.662550268615674
 30
0.0
 10
-118.3994179231914
 20
6.648547892628762
 30
0.0
  0
SPLINE
  5
4A07
330
1F
100
AcDbEntity
  8
AM_0
100
AcDbSpline
210
0.0
220
0.0
230
1.0
 70
     8
 71
     3
 72
    13
 73
     9
 74
     0
 42
0.0000000001
 43
0.0000000001
 40
26.13201924531566
 40
26.13201924531566
 40
26.13201924531566
 40
26.13201924531566
 40
26.99048218457928
 40
28.09348763352352
 40
29.20111863782268
 40
30.31232390128032
 40
31.42594612798585
 40
32.5407912310448
 40
32.5407912310486
 40
32.5407912310486
 40
32.5407912310486
 10
-120.6518567451909
 20
3.009687419810738
 30
0.0
 10
-120.1707167104865
 20
2.818580285200421
 30
0.0
 10
-119.4051321983969
 20
2.504913846730973
 30
0.0
 10
-118.2130604491439
 20
2.002819255119417
 30
0.0
 10
-116.9286164749829
 20
1.448456091283162
 30
0.0
 10
-115.644494394899
 20
0.884153831659969
 30
0.0
 10
-114.3605896451057
 20
0.3131824550366549
 30
0.0
 10
-113.5048830494888
 20
-0.0696226325970535
 30
0.0
 10
-113.0767963952131
 20
-0.2611327831306744
 30
0.0
  0
ELLIPSE
  5
4A08
330
1F
100
AcDbEntity
  8
AM_0
100
AcDbEllipse
 10
-121.1181419661681
 20
-7.594257340606517
 30
0.0
 11
1.564741898475257
 21
1.296363440978834
 31
0.0
210
0.0
220
0.0
230
0.9999999999999998
 40
0.8584195919976757
 41
1.199734688206647
 42
2.323425472110756
  0
LINE
  5
4A09
330
1F
100
AcDbEntity
  8
AM_0
100
AcDbLine
 10
-93.63006449559669
 20
7.499999345623094
 30
0.0
 11
-66.95854551277307
 21
7.501064856732615
 31
0.0
  0
SPLINE
  5
4A0A
330
1F
100
AcDbEntity
  8
AM_0
100
AcDbSpline
210
0.0
220
0.0
230
1.0
 70
     8
 71
     3
 72
    22
 73
    18
 74
     0
 42
0.0000000001
 43
0.0000000001
 40
17.17441611292
 40
17.17441611292
 40
17.17441611292
 40
17.17441611292
 40
17.38177636558528
 40
18.41823744757437
 40
19.46215659509824
 40
20.51397914882054
 40
21.57394542641293
 40
22.64209583141747
 40
23.71826625065247
 40
24.80210429862395
 40
25.8930771157021
 40
26.99048705697709
 40
28.09349309193389
 40
29.20112995599786
 40
30.31233024745139
 40
31.42594771747373
 40
32.5407895042663
 40
32.54078950426994
 40
32.54078950426994
 40
32.54078950426994
 10
-74.03799415259519
 20
-6.735054936745965
 30
0.0
 10
-74.1137391215939
 20
-6.717693172359237
 30
0.0
 10
-74.56778884400444
 20
-6.611940767792042
 30
0.0
 10
-75.39958234986055
 20
-6.399893432652913
 30
0.0
 10
-76.53023554969118
 20
-6.072182315919972
 30
0.0
 10
-77.66077353833411
 20
-5.707048671700118
 30
0.0
 10
-78.79120429732417
 20
-5.306771754736607
 30
0.0
 10
-79.92152633344099
 20
-4.873805854347265
 30
0.0
 10
-81.05175355963806
 20
-4.410845517401422
 30
0.0
 10
-82.18189120918516
 20
-3.920735949172137
 30
0.0
 10
-83.311949738543
 20
-3.406499628511774
 30
0.0
 10
-84.44194171324575
 20
-2.871309067796098
 30
0.0
 10
-85.5718769409421
 20
-2.318455169967506
 30
0.0
 10
-86.70176679625717
 20
-1.751339185626527
 30
0.0
 10
-87.83162129468093
 20
-1.173448236138475
 30
0.0
 10
-88.96145717402516
 20
-0.5883482210163727
 30
0.0
 10
-89.71453324475278
 20
-0.1959340520896457
 30
0.0
 10
-90.09127815553505
 20
0.000380815350413
 30
0.0
  0
SPLINE
  5
4A0B
330
1F
100
AcDbEntity
  8
AM_0
100
AcDbSpline
210
0.0
220
0.0
230
1.0
 70
     8
 71
     3
 72
    46
 73
    42
 74
     0
 42
0.0000000001
 43
0.0000000001
 40
0.0
 40
0.0
 40
0.0
 40
0.0
 40
1.348332046947654
 40
2.024828967632893
 40
2.703918159304094
 40
3.386347665078122
 40
4.072776489761951
 40
4.763750544421345
 40
5.459696642770595
 40
6.160921452191748
 40
6.867565637253344
 40
7.579665907256597
 40
8.297112853413899
 40
9.019671552060666
 40
9.746986763446125
 40
10.47859339096365
 40
11.21393074760088
 40
11.95235532364327
 40
12.69315551794651
 40
13.43556823304427
 40
14.1787950170388
 40
14.92202180103393
 40
15.66443451613169
 40
16.40523471043432
 40
17.14365928647669
 40
17.87899664311455
 40
18.61060327063121
 40
19.33791848201689
 40
20.06048192311554
 40
20.77792886927282
 40
21.49002913927608
 40
22.19667332433747
 40
22.89788836015233
 40
23.59383445850157
 40
24.28480851316097
 40
24.97123685067575
 40
25.65366676154837
 40
26.33276604526151
 40
27.00926273560554
 40
27.68398960851752
 40
28.35781868496899
 40
28.35781868496899
 40
28.35781868496899
 40
28.35781868496899
 10
-45.24564983715879
 20
-7.500000654379674
 30
0.0
 10
-45.99998516541034
 20
-7.482915074622767
 30
0.0
 10
-47.13279219718735
 20
-7.457257168694562
 30
0.0
 10
-48.63913510705871
 20
-7.299286155502952
 30
0.0
 10
-49.77020217607629
 20
-7.140009352053535
 30
0.0
 10
-50.90117256578497
 20
-6.935524992119408
 30
0.0
 10
-52.03204329682153
 20
-6.688552178300689
 30
0.0
 10
-53.16280855968127
 20
-6.400271651048666
 30
0.0
 10
-54.29346646050223
 20
-6.072561374998983
 30
0.0
 10
-55.42401196745747
 20
-5.707433539758127
 30
0.0
 10
-56.55444734023625
 20
-5.307152803565548
 30
0.0
 10
-57.68476953831109
 20
-4.874187437990847
 30
0.0
 10
-58.81499672091294
 20
-4.411226956826715
 30
0.0
 10
-59.94513438117173
 20
-3.921117425015602
 30
0.0
 10
-61.07519291175745
 20
-3.406881104450758
 30
0.0
 10
-62.20518487059337
 20
-2.871690506248867
 30
0.0
 10
-63.33512016098619
 20
-2.318836759392368
 30
0.0
 10
-64.46500978005722
 20
-1.751720205446752
 30
0.0
 10
-65.59486570785748
 20
-1.173831114494297
 30
0.0
 10
-66.72469826569471
 20
-0.588723098223912
 30
0.0
 10
-67.85452132595996
 20
-0.000000654497496
 30
0.0
 10
-68.98434438597698
 20
0.5887217899443346
 30
0.0
 10
-70.11417694455871
 20
1.173829804069512
 30
0.0
 10
-71.24403286963776
 20
1.751718902861736
 30
0.0
 10
-72.37392249879943
 20
2.318835427732512
 30
0.0
 10
-73.50385775177726
 20
2.871689282395568
 30
0.0
 10
-74.63384984917304
 20
3.406879481351898
 30
0.0
 10
-75.76391032392645
 20
3.921118396657537
 30
0.0
 10
-76.89405237535507
 20
4.411223475575086
 30
0.0
 10
-78.02428157410901
 20
4.874186330642029
 30
0.0
 10
-79.15460374586678
 20
5.307151825046955
 30
0.0
 10
-80.28503447494545
 20
5.707428883001655
 30
0.0
 10
-81.41557244930845
 20
6.072562366460827
 30
0.0
 10
-82.54622573485972
 20
6.400273981242838
 30
0.0
 10
-83.67699034329191
 20
6.688535647669321
 30
0.0
 10
-84.80786190341374
 20
6.935580093336286
 30
0.0
 10
-85.93883951106269
 20
7.139772446982381
 30
0.0
 10
-87.06990075197841
 20
7.300170529456166
 30
0.0
 10
-88.2010319711027
 20
7.414606115360547
 30
0.0
 10
-89.33220424944883
 20
7.486616042344437
 30
0.0
 10
-90.0865030397713
 20
7.495540224944656
 30
0.0
 10
-90.46340134902676
 20
7.499999345622912
 30
0.0
  0
SPLINE
  5
4A0C
330
1F
100
AcDbEntity
  8
AM_0
100
AcDbSpline
210
0.0
220
0.0
230
1.0
 70
     8
 71
     3
 72
    55
 73
    51
 74
     0
 42
0.0000000001
 43
0.0000000001
 40
0.0
 40
0.0
 40
0.0
 40
0.0
 40
1.010743684496582
 40
2.022833576467832
 40
3.037578957496688
 40
4.056212745003489
 40
5.079857003664532
 40
6.109500240690281
 40
7.145961322679372
 40
8.189895241603872
 40
9.241717795325891
 40
10.30168407291828
 40
11.36983447792315
 40
12.44600489715814
 40
13.52984294512926
 40
14.62081576220742
 40
15.7182257034828
 40
16.82123173843959
 40
17.92886860250316
 40
19.0400688939571
 40
20.15368796660465
 40
21.26852814259644
 40
22.38336992938901
 40
23.49698739941135
 40
24.6081876908653
 40
25.71582455492886
 40
26.81883757994213
 40
27.91624752121713
 40
29.00722033829659
 40
30.09105838626677
 40
31.16722880550176
 40
32.23537921050758
 40
33.29534548809967
 40
34.347168041821
 40
35.39108718934584
 40
36.42754827133493
 40
37.45720575381954
 40
38.48085062012849
 40
39.49948440763516
 40
40.51422944315121
 40
41.52631975251916
 40
42.53706336719636
 40
43.54780698187354
 40
44.55989729124051
 40
45.57464232675757
 40
46.59327611426424
 40
47.6169209805722
 40
48.64656348684535
 40
49.68302456883444
 40
50.58557219878025
 40
50.58557219878025
 40
50.58557219878025
 40
50.58557219878025
 10
-48.41216619448931
 20
-7.500000654379492
 30
0.0
 10
-48.78906443670011
 20
-7.495538336078072
 30
0.0
 10
-49.5433629111303
 20
-7.486607756122522
 30
0.0
 10
-50.67453611918316
 20
-7.414617255846616
 30
0.0
 10
-51.8056610417168
 20
-7.300171166424745
 30
0.0
 10
-52.93671595872281
 20
-7.13977061938749
 30
0.0
 10
-54.06768958405354
 20
-6.935589349676585
 30
0.0
 10
-55.19855960612806
 20
-6.688535318859945
 30
0.0
 10
-56.32932980765648
 20
-6.400272770946653
 30
0.0
 10
-57.45999016099236
 20
-6.072566887857094
 30
0.0
 10
-58.59053296427808
 20
-5.707429763833501
 30
0.0
 10
-59.72096385264444
 20
-5.307153326858654
 30
0.0
 10
-60.85128585361082
 20
-4.874187296167997
 30
0.0
 10
-61.98151308964519
 20
-4.411226995283437
 30
0.0
 10
-63.1116507353489
 20
-3.921117414446102
 30
0.0
 10
-64.24170927019218
 20
-3.406881107913783
 30
0.0
 10
-65.37170122667707
 20
-2.871690503036274
 30
0.0
 10
-66.50163652221602
 20
-2.3188367688163
 30
0.0
 10
-67.63152612296018
 20
-1.751720170784709
 30
0.0
 10
-68.76138211920829
 20
-1.173831244225574
 30
0.0
 10
-69.89121442087297
 20
-0.5887226127678446
 30
0.0
 10
-71.0210389829364
 20
-0.0000021846506385
 30
0.0
 10
-72.15085847303284
 20
0.5887288408011698
 30
0.0
 10
-73.28069456164917
 20
1.173828360569859
 30
0.0
 10
-74.41054916307492
 20
1.751719036365873
 30
0.0
 10
-75.54044077839975
 20
2.318837794858926
 30
0.0
 10
-76.67038076145233
 20
2.871686810928058
 30
0.0
 10
-77.8003745013629
 20
3.406880129966586
 30
0.0
 10
-78.930433199349
 20
3.921116019506279
 30
0.0
 10
-80.0605708039307
 20
4.411225703411814
 30
0.0
 10
-81.19079804285918
 20
4.874186004973585
 30
0.0
 10
-82.3211200726158
 20
5.307151932135538
 30
0.0
 10
-83.45155084430931
 20
5.707428777829446
 30
0.0
 10
-84.58208878893733
 20
6.072562677696919
 30
0.0
 10
-85.71274215044489
 20
6.40027285291594
 30
0.0
 10
-86.84351193251627
 20
6.688541197426423
 30
0.0
 10
-87.97439002938181
 20
6.935567011243274
 30
0.0
 10
-89.10536739112982
 20
7.139811479373471
 30
0.0
 10
-90.23642264343113
 20
7.300021892265529
 30
0.0
 10
-91.36754835190474
 20
7.415162971097679
 30
0.0
 10
-92.49872060085751
 20
7.484543982422932
 30
0.0
 10
-93.62991770663446
 20
7.507721882554908
 30
0.0
 10
-94.76111481074704
 20
7.48454398238672
 30
0.0
 10
-95.89228706470271
 20
7.415162971243702
 30
0.0
 10
-97.02341275475713
 20
7.300021891716459
 30
0.0
 10
-98.1544680761165
 20
7.13981148143854
 30
0.0
 10
-99.28543966451881
 20
6.935567999205098
 30
0.0
 10
-100.416313306155
 20
6.688543723132564
 30
0.0
 10
-101.4956694402008
 20
6.413358410719497
 30
0.0
 10
-102.1959679920268
 20
6.212112790239712
 30
0.0
 10
-104.2000949753871
 20
5.334448241891404
 30
0.0
  0
DIMENSION
  5
4A46
330
1F
100
AcDbEntity
  8
AM_5
100
AcDbDimension
  2
*D8
 10
14.55592102485917
 20
7.499999345617408
 30
0.0
 11
11.15592102485917
 21
-0.0000006543822937
 31
0.0
 70
    32
  1
%%c<>
 51
359.9999999999998
  3
AM_JIS$0
100
AcDbAlignedDimension
 13
-2.999999999998349
 23
-7.500000654381996
 33
0.0
 14
-2.999999999998395
 24
7.499999345617413
 34
0.0
 50
90.00000000000076
100
AcDbRotatedDimension
1001
ACAD
1000
DSTYLE
1002
{
1070
   271
1070
     0
1002
}
1001
GENIUS_GENDTOL_13
1000

1000
h7
1000

1040
0.0
  0
DIMENSION
  5
4B7E
330
1F
100
AcDbEntity
  8
AM_5
100
AcDbDimension
  2
*D9
 10
-0.6134061199808666
 20
-1.68530675228652
 30
0.0
 11
20.95225755689292
 21
-0.0000254230594861
 31
0.0
 70
    34
  1
<>
 51
359.9999999999998
  3
AM_JIS$2
100
AcDb2LineAngularDimension
 13
0.0000000000011369
 23
-0.0000000000000106
 33
0.0
 14
-0.6133936239349119
 24
1.685285145005416
 34
0.0
 15
0.0000000000011653
 25
-0.0000000000000887
 35
0.0
 16
22.08516258082815
 26
-9.526630430652803
 36
0.0
1001
GENIUS_GENDTOL_13
1000

1000
h7
1000

1040
0.0
1001
ACAD
1000
DSTYLE
1002
{
1070
   271
1070
     0
1002
}
  0
ELLIPSE
  5
4C80
330
1F
100
AcDbEntity
  8
AM_11
 48
0.5
100
AcDbEllipse
 10
-195.3165719824535
 20
29.81452229293923
 30
0.0
 11
-33.29749107360793
 21
0.000000000000904
 31
0.0
210
0.0
220
0.0
230
1.0
 40
0.9899999999999995
 41
1.792337542479572
 42
2.011520147323624
  0
ELLIPSE
  5
4C81
330
1F
100
AcDbEntity
  8
AM_11
 48
0.5
100
AcDbEllipse
 10
-195.3165719824534
 20
-29.81452033248773
 30
0.0
 11
-33.29749107360789
 21
0.0000000000016878
 31
0.0
210
0.0
220
0.0
230
1.0
 40
0.9900000000000011
 41
4.271664206181739
 42
4.490847764700085
  0
ELLIPSE
  5
4C82
330
1F
100
AcDbEntity
  8
AM_11
 48
0.5
100
AcDbEllipse
 10
-166.9075763918487
 20
-29.81448459473963
 30
0.0
 11
-33.29749107360783
 21
0.0000000000013772
 31
0.0
210
0.0
220
0.0
230
1.0
 40
0.9900000000000032
 41
4.271664206181728
 42
5.153113667165039
  0
ELLIPSE
  5
4C83
330
1F
100
AcDbEntity
  8
AM_11
 48
0.5
100
AcDbEllipse
 10
-138.4984854827578
 20
-29.81448459473952
 30
0.0
 11
-33.29749107360789
 21
0.0000000000016878
 31
0.0
210
0.0
220
0.0
230
1.0
 40
0.9900000000000011
 41
4.271664206181739
 42
5.153113667165048
  0
ELLIPSE
  5
4C84
330
1F
100
AcDbEntity
  8
AM_11
 48
0.5
100
AcDbEllipse
 10
-166.9075763918489
 20
29.81455803068735
 30
0.0
 11
-33.29749107360793
 21
-0.0000000000000349
 31
0.0
210
0.0
220
0.0
230
1.0
 40
0.99
 41
1.130070686340306
 42
2.011520147323597
  0
ELLIPSE
  5
4C85
330
1F
100
AcDbEntity
  8
AM_11
 48
0.5
100
AcDbEllipse
 10
-138.4984854827579
 20
29.81455803068744
 30
0.0
 11
-33.29749107360793
 21
0.000000000000904
 31
0.0
210
0.0
220
0.0
230
1.0
 40
0.9899999999999995
 41
1.130070686340335
 42
2.011520147323624
  0
ELLIPSE
  5
4C86
330
1F
100
AcDbEntity
  8
AM_11
 48
0.5
100
AcDbEllipse
 10
-81.68028609531541
 20
29.81454105568775
 30
0.0
 11
-33.29749107360793
 21
0.000000000000904
 31
0.0
210
0.0
220
0.0
230
1.0
 40
0.9899999999999995
 41
1.130070686340335
 42
2.011520147323624
  0
ELLIPSE
  5
4C87
330
1F
100
AcDbEntity
  8
AM_11
 48
0.5
100
AcDbEllipse
 10
-81.6802860953153
 20
-29.81450156973922
 30
0.0
 11
-33.29749107360789
 21
0.0000000000016878
 31
0.0
210
0.0
220
0.0
230
1.0
 40
0.9900000000000011
 41
4.271664206181739
 42
5.153113667165048
  0
ELLIPSE
  5
4C88
330
1F
100
AcDbEntity
  8
AM_11
 48
0.5
100
AcDbEllipse
 10
-110.0893770044061
 20
-29.81450156973932
 30
0.0
 11
-33.29749107360783
 21
0.0000000000013772
 31
0.0
210
0.0
220
0.0
230
1.0
 40
0.9900000000000032
 41
4.271664206181728
 42
5.153113667165039
  0
ELLIPSE
  5
4C89
330
1F
100
AcDbEntity
  8
AM_11
 48
0.5
100
AcDbEllipse
 10
-110.0893770044063
 20
29.81454105568766
 30
0.0
 11
-33.29749107360793
 21
-0.0000000000000349
 31
0.0
210
0.0
220
0.0
230
1.0
 40
0.99
 41
1.130070686340306
 42
2.011520147323597
  0
ELLIPSE
  5
4C8A
330
1F
100
AcDbEntity
  8
AM_11
 48
0.5
100
AcDbEllipse
 10
-24.86214030075524
 20
29.81453300552681
 30
0.0
 11
-33.29749107360793
 21
0.000000000000904
 31
0.0
210
0.0
220
0.0
230
1.0
 40
0.9899999999999995
 41
1.130070686340335
 42
2.011520147323624
  0
ELLIPSE
  5
4C8B
330
1F
100
AcDbEntity
  8
AM_11
 48
0.5
100
AcDbEllipse
 10
-53.27123120984601
 20
-29.81450961990026
 30
0.0
 11
-33.29749107360783
 21
0.0000000000013772
 31
0.0
210
0.0
220
0.0
230
1.0
 40
0.9900000000000032
 41
4.271664206181728
 42
5.153113667165039
  0
ELLIPSE
  5
4C8C
330
1F
100
AcDbEntity
  8
AM_11
 48
0.5
100
AcDbEllipse
 10
-24.86214030075513
 20
-29.81450961990015
 30
0.0
 11
-33.29749107360789
 21
0.0000000000016878
 31
0.0
210
0.0
220
0.0
230
1.0
 40
0.9900000000000011
 41
4.271664206181739
 42
5.153113667165048
  0
ELLIPSE
  5
4C8D
330
1F
100
AcDbEntity
  8
AM_11
 48
0.5
100
AcDbEllipse
 10
-53.2712312098462
 20
29.81453300552673
 30
0.0
 11
-33.29749107360793
 21
-0.0000000000000349
 31
0.0
210
0.0
220
0.0
230
1.0
 40
0.99
 41
1.130070686340306
 42
2.011520147323597
  0
ELLIPSE
  5
4C8E
330
1F
100
AcDbEntity
  8
AM_11
 48
0.5
100
AcDbEllipse
 10
3.546950608335635
 20
29.81453300552687
 30
0.0
 11
-33.29749107360851
 21
0.0000000000307517
 31
0.0
210
0.0
220
0.0
230
1.0
 40
0.9899999999999861
 41
1.130070686341231
 42
1.291800737381917
  0
VIEWPORT
  5
110
330
101
100
AcDbEntity
 67
     1
  8
0
100
AcDbViewport
 10
420.5
 20
297.0
 30
0.0
 40
948.9782706766916
 41
628.452
 68
     1
 69
     1
1001
ACAD
1000
MVIEW
1002
{
1070
    16
1010
0.0
1020
0.0
1030
0.0
1010
0.0
1020
0.0
1030
1.0
1040
0.0
1040
628.452
1040
420.5
1040
297.0
1040
50.0
1040
0.0
1040
0.0
1070
     0
1070
   100
1070
     1
1070
     1
1070
     0
1070
     0
1070
     0
1070
     0
1040
0.0
1040
0.0
1040
0.0
1040
10.0
1040
10.0
1040
10.0
1040
10.0
1070
     0
1002
{
1002
}
1002
}
  0
ENDSEC
  0
SECTION
  2
OBJECTS
  0
DICTIONARY
  5
C
330
0
100
AcDbDictionary
  3
ACAD_GROUP
350
D
  3
ACAD_LAYOUT
350
1A
  3
ACAD_MLINESTYLE
350
17
  3
ACAD_PLOTSETTINGS
350
19
  3
ACAD_PLOTSTYLENAME
350
E
  3
ACDBVARIABLEDICTIONARY
350
34
  3
ACMDICTIONARY
350
43
  3
AMG
350
2B
  3
AMGSNAPSETTINGS
350
6E
  3
DWGPROPS
350
4CB5
  3
ACDBHEADERROUNDTRIPXREC
350
4CC2
  0
DICTIONARY
  5
74
330
1F
100
AcDbDictionary
280
     1
  3
ACAD_INDEX
360
4CB7
  3
ACAD_LAYOUTSELFREF
360
4CE5
  0
DICTIONARY
  5
4CEA
330
101
100
AcDbDictionary
280
     1
  3
ACAD_LAYOUTSELFREF
360
4CEB
  0
DICTIONARY
  5
D
102
{ACAD_REACTORS
330
C
102
}
330
C
100
AcDbDictionary
  0
DICTIONARY
  5
1A
102
{ACAD_REACTORS
330
C
102
}
330
C
100
AcDbDictionary
  0
DICTIONARY
  5
17
102
{ACAD_REACTORS
330
C
102
}
330
C
100
AcDbDictionary
  3
STANDARD
350
18
  0
DICTIONARY
  5
19
102
{ACAD_REACTORS
330
C
102
}
330
C
100
AcDbDictionary
  0
ACDBDICTIONARYWDFLT
  5
E
102
{ACAD_REACTORS
330
C
102
}
330
C
100
AcDbDictionary
281
     1
  3
Normal
350
F
100
AcDbDictionaryWithDefault
340
F
  0
DICTIONARY
  5
34
102
{ACAD_REACTORS
330
C
102
}
330
C
100
AcDbDictionary
  3
INDEXCTL
350
35
  3
SORTENTS
350
B5E
  0
DICTIONARY
  5
43
102
{ACAD_REACTORS
330
C
102
}
330
C
100
AcDbDictionary
  3
ACMSTDDICTIONARY
350
260
  0
DICTIONARY
  5
2B
102
{ACAD_REACTORS
330
C
102
}
330
C
100
AcDbDictionary
  3
ACMGSETTINGS
350
2C
  0
DICTIONARY
  5
6E
102
{ACAD_REACTORS
330
C
102
}
330
C
100
AcDbDictionary
  0
XRECORD
  5
4CB5
102
{ACAD_REACTORS
330
C
102
}
330
C
100
AcDbXrecord
  1
DWGPROPS COOKIE
  2

  3

  4

  6

  7

  8

  9

300
AmdtFileType=82
301
=
302
=
303
=
304
=
305
=
306
=
307
=
308
=
309
=
 40
0.2492778935185185
 41
2452800.443498622
 42
2452948.667533275
  1

 90
        1
  0
DICTIONARY
  5
4CC2
102
{ACAD_REACTORS
330
C
102
}
330
C
100
AcDbDictionary
  3
TSTACKALIGN
350
4CC3
  3
TSTACKSIZE
350
4CC4
  3
HYPERLINKBASE
350
4CC5
  3
STYLESHEET
350
4CC6
  3
LAYOUTDICT
350
4CC7
  3
PLOTSETDICT
350
4CC8
  3
PLOTSTYLNAMDICT
350
4CC9
  3
LWETCUNION
350
4CCA
  3
INSUNITS
350
4CCB
  3
CEPSNTYPE
350
4CCC
  3
FINGERPRINTGUID
350
4CCD
  3
VERSIONGUID
350
4CCE
  3
PSVPSCALE
350
4CCF
  3
DIMSTYLEDATA
350
4CD0
  3
PUCSORTHOREF
350
4CD1
  3
PUCSORTHOVIEW
350
4CD2
  3
PUCSBASE
350
4CD3
  3
PUCSORGTOP
350
4CD4
  3
PUCSORGBOTTOM
350
4CD5
  3
PUCSORGLEFT
350
4CD6
  3
PUCSORGRIGHT
350
4CD7
  3
PUCSORGFRONT
350
4CD8
  3
PUCSORGBACK
350
4CD9
  3
UCSORTHOREF
350
4CDA
  3
UCSORTHOVIEW
350
4CDB
  3
UCSBASE
350
4CDC
  3
UCSORGTOP
350
4CDD
  3
UCSORGBOTTOM
350
4CDE
  3
UCSORGLEFT
350
4CDF
  3
UCSORGRIGHT
350
4CE0
  3
UCSORGFRONT
350
4CE1
  3
UCSORGBACK
350
4CE2
  0
DICTIONARY
  5
4CB7
102
{ACAD_REACTORS
330
74
102
}
330
74
100
AcDbDictionary
  3
*A1
350
4CB8
  0
XRECORD
  5
4CE5
102
{ACAD_REACTORS
330
74
102
}
330
74
100
AcDbXrecord
340
1F
  0
XRECORD
  5
4CEB
102
{ACAD_REACTORS
330
4CEA
102
}
330
4CEA
100
AcDbXrecord
340
101
  0
MLINESTYLE
  5
18
102
{ACAD_REACTORS
330
17
102
}
330
17
100
AcDbMlineStyle
  2
STANDARD
 70
     0
  3

 62
   256
 51
90.0
 52
90.0
 71
     2
 49
0.5
 62
   256
  6
BYLAYER
 49
-0.5
 62
   256
  6
BYLAYER
  0
ACDBPLACEHOLDER
  5
F
102
{ACAD_REACTORS
330
E
102
}
330
E
100
AcDbPlaceHolder
280
     0
  0
DICTIONARYVAR
  5
35
102
{ACAD_REACTORS
330
34
102
}
330
34
100
DictionaryVariables
280
     0
  1
1
  0
DICTIONARYVAR
  5
B5E
102
{ACAD_REACTORS
330
34
102
}
330
34
100
DictionaryVariables
280
     0
  1
96
  0
DICTIONARY
  5
260
102
{ACAD_REACTORS
330
43
102
}
330
43
100
AcDbDictionary
  0
DICTIONARY
  5
2C
102
{ACAD_REACTORS
330
2B
102
}
330
2B
100
AcDbDictionary
  3
DWGSETTINGS
350
2D
  0
XRECORD
  5
4CC3
102
{ACAD_REACTORS
330
4CC2
102
}
330
4CC2
100
AcDbXrecord
 90
        1
  0
XRECORD
  5
4CC4
102
{ACAD_REACTORS
330
4CC2
102
}
330
4CC2
100
AcDbXrecord
 90
       70
  0
XRECORD
  5
4CC5
102
{ACAD_REACTORS
330
4CC2
102
}
330
4CC2
100
AcDbXrecord
  1

  0
XRECORD
  5
4CC6
102
{ACAD_REACTORS
330
4CC2
102
}
330
4CC2
100
AcDbXrecord
  1
ASAMI.ctb
  0
XRECORD
  5
4CC7
102
{ACAD_REACTORS
330
4CC2
102
}
330
4CC2
100
AcDbXrecord
340
1A
  0
XRECORD
  5
4CC8
102
{ACAD_REACTORS
330
4CC2
102
}
330
4CC2
100
AcDbXrecord
340
19
  0
XRECORD
  5
4CC9
102
{ACAD_REACTORS
330
4CC2
102
}
330
4CC2
100
AcDbXrecord
340
E
  0
XRECORD
  5
4CCA
102
{ACAD_REACTORS
330
4CC2
102
}
330
4CC2
100
AcDbXrecord
 90
    10781
  0
XRECORD
  5
4CCB
102
{ACAD_REACTORS
330
4CC2
102
}
330
4CC2
100
AcDbXrecord
 90
        4
  0
XRECORD
  5
4CCC
102
{ACAD_REACTORS
330
4CC2
102
}
330
4CC2
100
AcDbXrecord
 90
        0
  0
XRECORD
  5
4CCD
102
{ACAD_REACTORS
330
4CC2
102
}
330
4CC2
100
AcDbXrecord
  1
{AFB28963-8C59-40AE-9337-C84526B81ACE}
  0
XRECORD
  5
4CCE
102
{ACAD_REACTORS
330
4CC2
102
}
330
4CC2
100
AcDbXrecord
  1
{B8D324E9-3DF1-466F-B21D-419C4707B4BA}
  0
XRECORD
  5
4CCF
102
{ACAD_REACTORS
330
4CC2
102
}
330
4CC2
100
AcDbXrecord
 40
0.0
  0
XRECORD
  5
4CD0
102
{ACAD_REACTORS
330
4CC2
102
}
330
4CC2
100
AcDbXrecord
1000
DSTYLE
1002
{
1070
    79
 70
     2
1070
   341
340
59
1070
   342
340
59
1070
   371
 70
    -1
1070
   372
 70
    -1
1002
}
  0
XRECORD
  5
4CD1
102
{ACAD_REACTORS
330
4CC2
102
}
330
4CC2
100
AcDbXrecord
340
0
  0
XRECORD
  5
4CD2
102
{ACAD_REACTORS
330
4CC2
102
}
330
4CC2
100
AcDbXrecord
 70
     0
  0
XRECORD
  5
4CD3
102
{ACAD_REACTORS
330
4CC2
102
}
330
4CC2
100
AcDbXrecord
340
0
  0
XRECORD
  5
4CD4
102
{ACAD_REACTORS
330
4CC2
102
}
330
4CC2
100
AcDbXrecord
 10
0.0
 20
0.0
 30
0.0
  0
XRECORD
  5
4CD5
102
{ACAD_REACTORS
330
4CC2
102
}
330
4CC2
100
AcDbXrecord
 10
0.0
 20
0.0
 30
0.0
  0
XRECORD
  5
4CD6
102
{ACAD_REACTORS
330
4CC2
102
}
330
4CC2
100
AcDbXrecord
 10
0.0
 20
0.0
 30
0.0
  0
XRECORD
  5
4CD7
102
{ACAD_REACTORS
330
4CC2
102
}
330
4CC2
100
AcDbXrecord
 10
0.0
 20
0.0
 30
0.0
  0
XRECORD
  5
4CD8
102
{ACAD_REACTORS
330
4CC2
102
}
330
4CC2
100
AcDbXrecord
 10
0.0
 20
0.0
 30
0.0
  0
XRECORD
  5
4CD9
102
{ACAD_REACTORS
330
4CC2
102
}
330
4CC2
100
AcDbXrecord
 10
0.0
 20
0.0
 30
0.0
  0
XRECORD
  5
4CDA
102
{ACAD_REACTORS
330
4CC2
102
}
330
4CC2
100
AcDbXrecord
340
0
  0
XRECORD
  5
4CDB
102
{ACAD_REACTORS
330
4CC2
102
}
330
4CC2
100
AcDbXrecord
 70
     0
  0
XRECORD
  5
4CDC
102
{ACAD_REACTORS
330
4CC2
102
}
330
4CC2
100
AcDbXrecord
340
0
  0
XRECORD
  5
4CDD
102
{ACAD_REACTORS
330
4CC2
102
}
330
4CC2
100
AcDbXrecord
 10
0.0
 20
0.0
 30
0.0
  0
XRECORD
  5
4CDE
102
{ACAD_REACTORS
330
4CC2
102
}
330
4CC2
100
AcDbXrecord
 10
0.0
 20
0.0
 30
0.0
  0
XRECORD
  5
4CDF
102
{ACAD_REACTORS
330
4CC2
102
}
330
4CC2
100
AcDbXrecord
 10
0.0
 20
0.0
 30
0.0
  0
XRECORD
  5
4CE0
102
{ACAD_REACTORS
330
4CC2
102
}
330
4CC2
100
AcDbXrecord
 10
0.0
 20
0.0
 30
0.0
  0
XRECORD
  5
4CE1
102
{ACAD_REACTORS
330
4CC2
102
}
330
4CC2
100
AcDbXrecord
 10
0.0
 20
0.0
 30
0.0
  0
XRECORD
  5
4CE2
102
{ACAD_REACTORS
330
4CC2
102
}
330
4CC2
100
AcDbXrecord
 10
0.0
 20
0.0
 30
0.0
  0
LAYER_INDEX
  5
4CB8
102
{ACAD_REACTORS
330
4CB7
102
}
330
4CB7
100
AcDbIndex
 40
2453151.670687558
100
AcDbLayerIndex
  8
0
360
4CB9
 90
        0
  8
AM_0
360
4CBA
 90
       60
  8
AM_7
360
4CBB
 90
        1
  8
AM_11
360
4CBC
 90
       20
  8
AM_5
360
4CBD
 90
        5
  8
Defpoints
360
4CBE
 90
        0
  8
AM_6
360
4CBF
 90
        1
  8
AM_CL
360
4CC0
 90
        0
  0
XRECORD
  5
2D
102
{ACAD_REACTORS
330
2C
102
}
330
2C
100
AcDbXrecord
  1
VERSION
140
15.0
  1
PRODUCT
  2
AutoCAD Mechanical 2000
  0
IDBUFFER
  5
4CB9
330
0
100
AcDbIdBuffer
  0
IDBUFFER
  5
4CBA
330
0
100
AcDbIdBuffer
330
4A01
330
4A02
330
4A03
330
4A04
330
4A05
330
4A06
330
4A07
330
4A08
330
4A09
330
4A0A
330
4A0B
330
4A0C
330
21D8
330
21D9
330
21DC
330
21DD
330
2694
330
2695
330
2696
330
2699
330
2CB4
330
2CB7
330
3366
330
3367
330
49C9
330
49CA
330
49CF
330
49D0
330
49D1
330
49D2
330
49D3
330
49D4
330
49D5
330
49D6
330
49D8
330
49D9
330
49DA
330
49DB
330
49DC
330
49DD
330
49DE
330
49DF
330
49E0
330
49E1
330
49E2
330
49E3
330
49E5
330
49F4
330
49F5
330
49F6
330
49F7
330
49F8
330
49F9
330
49FA
330
49FB
330
49FC
330
49FD
330
49FE
330
49FF
330
4A00
  0
IDBUFFER
  5
4CBB
330
0
100
AcDbIdBuffer
330
C9F
  0
IDBUFFER
  5
4CBC
330
0
100
AcDbIdBuffer
330
4C8B
330
4C8C
330
4C8D
330
4C8E
330
49CB
330
49CC
330
49CD
330
49CE
330
49E4
330
4C80
330
4C81
330
4C82
330
4C83
330
4C84
330
4C85
330
4C86
330
4C87
330
4C88
330
4C89
330
4C8A
  0
IDBUFFER
  5
4CBD
330
0
100
AcDbIdBuffer
330
CC6
330
DF5
330
2216
330
4A46
330
4B7E
  0
IDBUFFER
  5
4CBE
330
0
100
AcDbIdBuffer
  0
IDBUFFER
  5
4CBF
330
0
100
AcDbIdBuffer
330
19BD
  0
IDBUFFER
  5
4CC0
330
0
100
AcDbIdBuffer
  0
ENDSEC
  0
EOF
