  0
SECTION
  2
HEADER
  9
$ACADVER
  1
AC1014
  9
$ACADMAINTVER
 70
     9
  9
$DWGCODEPAGE
  3
ANSI_932
  9
$INSBASE
 10
0.0
 20
0.0
 30
0.0
  9
$EXTMIN
 10
-218.3000009999999
 20
-54.50000305448121
 30
-0.00000001
  9
$EXTMAX
 10
24.39085025525296
 20
23.85957356904657
 30
0.00000001
  9
$LIMMIN
 10
-235.3243199069245
 20
-84.95978435839356
  9
$LIMMAX
 10
43.00602480537361
 20
55.45771548967673
  9
$ORTHOMODE
 70
     0
  9
$REGENMODE
 70
     1
  9
$FILLMODE
 70
     1
  9
$QTEXTMODE
 70
     0
  9
$MIRRTEXT
 70
     0
  9
$DRAGMODE
 70
     2
  9
$LTSCALE
 40
1.0
  9
$OSMODE
 70
    55
  9
$ATTMODE
 70
     1
  9
$TEXTSIZE
 40
2.5
  9
$TRACEWID
 40
1.0
  9
$TEXTSTYLE
  7
STANDARD
  9
$CLAYER
  8
AM_0
  9
$CELTYPE
  6
BYLAYER
  9
$CECOLOR
 62
   256
  9
$CELTSCALE
 40
1.0
  9
$DELOBJ
 70
     1
  9
$DISPSILH
 70
     0
  9
$DIMSCALE
 40
1.0
  9
$DIMASZ
 40
2.5
  9
$DIMEXO
 40
1.0
  9
$DIMDLI
 40
12.0
  9
$DIMRND
 40
0.0
  9
$DIMDLE
 40
0.0
  9
$DIMEXE
 40
1.0
  9
$DIMTP
 40
0.1
  9
$DIMTM
 40
0.1
  9
$DIMTXT
 40
3.2
  9
$DIMCEN
 40
0.0
  9
$DIMTSZ
 40
0.0
  9
$DIMTOL
 70
     0
  9
$DIMLIM
 70
     0
  9
$DIMTIH
 70
     0
  9
$DIMTOH
 70
     0
  9
$DIMSE1
 70
     0
  9
$DIMSE2
 70
     0
  9
$DIMTAD
 70
     3
  9
$DIMZIN
 70
     8
  9
$DIMBLK
  1
OPEN30
  9
$DIMASO
 70
     1
  9
$DIMSHO
 70
     1
  9
$DIMPOST
  1

  9
$DIMAPOST
  1
"
  9
$DIMALT
 70
     0
  9
$DIMALTD
 70
     2
  9
$DIMALTF
 40
0.0393701
  9
$DIMLFAC
 40
1.0
  9
$DIMTOFL
 70
     1
  9
$DIMTVP
 40
0.0
  9
$DIMTIX
 70
     0
  9
$DIMSOXD
 70
     0
  9
$DIMSAH
 70
     0
  9
$DIMBLK1
  1

  9
$DIMBLK2
  1

  9
$DIMSTYLE
  2
AM_JIS
  9
$DIMCLRD
 70
   256
  9
$DIMCLRE
 70
   256
  9
$DIMCLRT
 70
     2
  9
$DIMTFAC
 40
0.71
  9
$DIMGAP
 40
1.5
  9
$DIMJUST
 70
     0
  9
$DIMSD1
 70
     0
  9
$DIMSD2
 70
     0
  9
$DIMTOLJ
 70
     0
  9
$DIMTZIN
 70
     0
  9
$DIMALTZ
 70
     0
  9
$DIMALTTZ
 70
     0
  9
$DIMFIT
 70
     3
  9
$DIMUPT
 70
     0
  9
$DIMUNIT
 70
     2
  9
$DIMDEC
 70
     3
  9
$DIMTDEC
 70
     3
  9
$DIMALTU
 70
     2
  9
$DIMALTTD
 70
     2
  9
$DIMTXSTY
  7
ASAMI
  9
$DIMAUNIT
 70
     0
  9
$LUNITS
 70
     2
  9
$LUPREC
 70
     2
  9
$SKETCHINC
 40
1.0
  9
$FILLETRAD
 40
2.5
  9
$AUNITS
 70
     0
  9
$AUPREC
 70
     0
  9
$MENU
  1
.
  9
$ELEVATION
 40
0.0
  9
$PELEVATION
 40
0.0
  9
$THICKNESS
 40
0.0
  9
$LIMCHECK
 70
     0
  9
$BLIPMODE
 70
     0
  9
$CHAMFERA
 40
0.5
  9
$CHAMFERB
 40
0.5
  9
$CHAMFERC
 40
20.0
  9
$CHAMFERD
 40
0.0
  9
$SKPOLY
 70
     0
  9
$TDCREATE
 40
2452800.443498622
  9
$TDUPDATE
 40
2453151.671057384
  9
$TDINDWG
 40
0.0931219329
  9
$TDUSRTIMER
 40
0.0931219329
  9
$USRTIMER
 70
     1
  9
$ANGBASE
 50
0.0
  9
$ANGDIR
 70
     0
  9
$PDMODE
 70
     3
  9
$PDSIZE
 40
0.0
  9
$PLINEWID
 40
0.0
  9
$COORDS
 70
     1
  9
$SPLFRAME
 70
     0
  9
$SPLINETYPE
 70
     6
  9
$SPLINESEGS
 70
     8
  9
$ATTDIA
 70
     1
  9
$ATTREQ
 70
     1
  9
$HANDLING
 70
 12289
  9
$HANDSEED
  5
42E0
  9
$SURFTAB1
 70
     6
  9
$SURFTAB2
 70
     6
  9
$SURFTYPE
 70
     6
  9
$SURFU
 70
     6
  9
$SURFV
 70
     6
  9
$UCSNAME
  2

  9
$UCSORG
 10
0.0
 20
0.0
 30
0.0
  9
$UCSXDIR
 10
1.0
 20
0.0000000000000027
 30
0.0
  9
$UCSYDIR
 10
-0.0000000000000027
 20
1.0
 30
0.0
  9
$PUCSNAME
  2

  9
$PUCSORG
 10
0.0
 20
0.0
 30
0.0
  9
$PUCSXDIR
 10
1.0
 20
0.0
 30
0.0
  9
$PUCSYDIR
 10
0.0
 20
1.0
 30
0.0
  9
$USERI1
 70
     0
  9
$USERI2
 70
     0
  9
$USERI3
 70
     0
  9
$USERI4
 70
     0
  9
$USERI5
 70
     0
  9
$USERR1
 40
0.0
  9
$USERR2
 40
0.0
  9
$USERR3
 40
0.0
  9
$USERR4
 40
0.0
  9
$USERR5
 40
0.0
  9
$WORLDVIEW
 70
     1
  9
$SHADEDGE
 70
     3
  9
$SHADEDIF
 70
    70
  9
$TILEMODE
 70
     1
  9
$MAXACTVP
 70
    64
  9
$PINSBASE
 10
0.0
 20
0.0
 30
0.0
  9
$PLIMCHECK
 70
     0
  9
$PEXTMIN
 10
1.000000000000000E+20
 20
1.000000000000000E+20
 30
1.000000000000000E+20
  9
$PEXTMAX
 10
-1.000000000000000E+20
 20
-1.000000000000000E+20
 30
-1.000000000000000E+20
  9
$PLIMMIN
 10
0.0
 20
0.0
  9
$PLIMMAX
 10
841.0
 20
594.0
  9
$UNITMODE
 70
     0
  9
$VISRETAIN
 70
     1
  9
$PLINEGEN
 70
     0
  9
$PSLTSCALE
 70
     0
  9
$TREEDEPTH
 70
  3020
  9
$PICKSTYLE
 70
     0
  9
$CMLSTYLE
  2
STANDARD
  9
$CMLJUST
 70
     0
  9
$CMLSCALE
 40
20.0
  9
$PROXYGRAPHICS
 70
     1
  9
$MEASUREMENT
 70
     1
  0
ENDSEC
  0
SECTION
  2
CLASSES
  0
CLASS
  1
ACDBDICTIONARYWDFLT
  2
AcDbDictionaryWithDefault
  3
AutoCAD 2000
 90
        0
280
     0
281
     0
  0
CLASS
  1
ACDBPLACEHOLDER
  2
AcDbPlaceHolder
  3
AutoCAD 2000
 90
        0
280
     0
281
     0
  0
CLASS
  1
LAYOUT
  2
AcDbLayout
  3
AutoCAD 2000
 90
        0
280
     0
281
     0
  0
CLASS
  1
AMGSETTINGSOBJ
  2
AmgSettingsObj
  3
"AcadM|Product Description: AutoCAD Mechanical 2000|Company: Autodesk"
 90
        0
280
     0
281
     0
  0
CLASS
  1
ACME_DOCUMENT
  2
AcMeDbDoc
  3
AcMeServices
 90
        0
280
     0
281
     0
  0
CLASS
  1
ACMESCOPE
  2
AcMeScope
  3
AcMeServices
 90
        0
280
     0
281
     0
  0
CLASS
  1
ACMECOMMANDHISTORY
  2
AcMeCommandHistory
  3
AcMeServices
 90
        0
280
     0
281
     0
  0
CLASS
  1
DICTIONARYVAR
  2
AcDbDictionaryVar
  3
AutoCAD 2000
 90
        0
280
     0
281
     0
  0
CLASS
  1
ACIMSYSVARMAN
  2
AcImSysVarManager
  3
AcMeServices
 90
        0
280
     0
281
     0
  0
CLASS
  1
ACIMREALSYSVAR
  2
AcImRealSysVar
  3
AcMeServices
 90
        0
280
     0
281
     0
  0
CLASS
  1
ACIMINTSYSVAR
  2
AcImIntSysVar
  3
AcMeServices
 90
        0
280
     0
281
     0
  0
CLASS
  1
ACMEDRAWINGMAN
  2
AcMeDrawingMan
  3
AcMeServices
 90
        0
280
     0
281
     0
  0
CLASS
  1
ACMEVIEW
  2
AcMeView
  3
AcMeServices
 90
        0
280
     0
281
     0
  0
CLASS
  1
ACDBENTITYCACHE
  2
AcMeEntityCache
  3
AcMeServices
 90
        0
280
     0
281
     0
  0
CLASS
  1
GSMANAGER
  2
AcMeGSManager
  3
AcMeServices
 90
        0
280
     0
281
     0
  0
CLASS
  1
AmdtInternalReactor
  2
AmdtInternalReactor
  3
AcMeServices
 90
        0
280
     0
281
     0
  0
CLASS
  1
ACMESTATEMGR
  2
AcMeStateMgr
  3
AcMeServices
 90
        0
280
     0
281
     0
  0
CLASS
  1
ACME_DATABASE
  2
AcMeDbDatabase
  3
AcMeServices
 90
        0
280
     0
281
     0
  0
CLASS
  1
ACRFINSADJUSTERMGR
  2
AcRfInsAdjusterMgr
  3
AcMeServices
 90
        0
280
     0
281
     0
  0
CLASS
  1
ACMDATADICTIONARY
  2
AcmDataDictionary
  3
"AcmSymBB|Product Description: AutoCAD Mechanical 2000|Company: Autodesk"
 90
        0
280
     0
281
     0
  0
CLASS
  1
ACMDATAENTRYBLOCK
  2
AcmDataEntryBlock
  3
"AcmSymBB|Product Description: AutoCAD Mechanical 2000|Company: Autodesk"
 90
        0
280
     0
281
     0
  0
CLASS
  1
AMGOBJPROPCFG
  2
AmgObjPropCfg
  3
"AmgLay|Product Description: AutoCAD Mechanical 2000|Company: Autodesk"
 90
        1
280
     0
281
     0
  0
CLASS
  1
ACAMGFILTERDAT
  2
AcAmgFilterDat
  3
"AcadM|Product Description: AutoCAD Mechanical 2000|Company: Autodesk"
 90
        0
280
     0
281
     0
  0
CLASS
  1
LAYER_INDEX
  2
AcDbLayerIndex
  3
AutoCAD 2000
 90
        0
280
     0
281
     0
  0
CLASS
  1
IDBUFFER
  2
AcDbIdBuffer
  3
AutoCAD 2000
 90
        0
280
     0
281
     0
  0
CLASS
  1
ACIMSTRSYSVAR
  2
AcImStrSysVar
  3
AcMeServices
 90
        0
280
     0
281
     0
  0
CLASS
  1
ACMSTANDARDJIS
  2
AcmStandardJIS
  3
"AcmSymBB|Product Description: AutoCAD Mechanical 2000|Company: Autodesk"
 90
        0
280
     0
281
     0
  0
CLASS
  1
ACMSURFSTANDARDJIS
  2
AcmSurfTextStdJIS
  3
"AcmSymBB|Product Description: AutoCAD Mechanical 2000|Company: Autodesk"
 90
        0
280
     0
281
     0
  0
CLASS
  1
ACMFCFSTANDARDJIS
  2
AcmFCFStdJIS
  3
"AcmSymBB|Product Description: AutoCAD Mechanical 2000|Company: Autodesk"
 90
        0
280
     0
281
     0
  0
CLASS
  1
ACMWELDSTANDARDJIS
  2
AcmWeldingStdJIS
  3
"AcmSymBB|Product Description: AutoCAD Mechanical 2000|Company: Autodesk"
 90
        0
280
     0
281
     0
  0
CLASS
  1
ACMIDSTANDARDJIS
  2
AcmIdStdJIS
  3
"AcmSymBB|Product Description: AutoCAD Mechanical 2000|Company: Autodesk"
 90
        0
280
     0
281
     0
  0
CLASS
  1
ACMDATUMSTANDARDJIS
  2
AcmDatumStdJIS
  3
"AcmSymBB|Product Description: AutoCAD Mechanical 2000|Company: Autodesk"
 90
        0
280
     0
281
     0
  0
CLASS
  1
ACMBOMSTANDARDJIS
  2
AcmBOMStdJIS
  3
"AcmSymBB|Product Description: AutoCAD Mechanical 2000|Company: Autodesk"
 90
        0
280
     0
281
     0
  0
CLASS
  1
ACMSTANDARDANSI
  2
AcmStandardANSI
  3
"AcmSymBB|Product Description: AutoCAD Mechanical 2000|Company: Autodesk"
 90
        0
280
     0
281
     0
  0
CLASS
  1
ACMSURFSTANDARDANSI
  2
AcmSurfTextStdANSI
  3
"AcmSymBB|Product Description: AutoCAD Mechanical 2000|Company: Autodesk"
 90
        0
280
     0
281
     0
  0
CLASS
  1
ACMFCFSTANDARDANSI
  2
AcmFCFStdANSI
  3
"AcmSymBB|Product Description: AutoCAD Mechanical 2000|Company: Autodesk"
 90
        0
280
     0
281
     0
  0
CLASS
  1
ACMWELDSTANDARDANSI
  2
AcmWeldingStdANSI
  3
"AcmSymBB|Product Description: AutoCAD Mechanical 2000|Company: Autodesk"
 90
        0
280
     0
281
     0
  0
CLASS
  1
ACMIDSTANDARDANSI
  2
AcmIdStdANSI
  3
"AcmSymBB|Product Description: AutoCAD Mechanical 2000|Company: Autodesk"
 90
        0
280
     0
281
     0
  0
CLASS
  1
ACMDATUMSTANDARDANSI
  2
AcmDatumStdANSI
  3
"AcmSymBB|Product Description: AutoCAD Mechanical 2000|Company: Autodesk"
 90
        0
280
     0
281
     0
  0
CLASS
  1
ACMBOMSTANDARDANSI
  2
AcmBOMStdANSI
  3
"AcmSymBB|Product Description: AutoCAD Mechanical 2000|Company: Autodesk"
 90
        0
280
     0
281
     0
  0
CLASS
  1
ACMSTANDARDBSI
  2
AcmStandardBSI
  3
"AcmSymBB|Product Description: AutoCAD Mechanical 2000|Company: Autodesk"
 90
        0
280
     0
281
     0
  0
CLASS
  1
ACMSURFSTANDARDBSI
  2
AcmSurfTextStdBSI
  3
"AcmSymBB|Product Description: AutoCAD Mechanical 2000|Company: Autodesk"
 90
        0
280
     0
281
     0
  0
CLASS
  1
ACMFCFSTANDARDBSI
  2
AcmFCFStdBSI
  3
"AcmSymBB|Product Description: AutoCAD Mechanical 2000|Company: Autodesk"
 90
        0
280
     0
281
     0
  0
CLASS
  1
ACMWELDSTANDARDBSI
  2
AcmWeldingStdBSI
  3
"AcmSymBB|Product Description: AutoCAD Mechanical 2000|Company: Autodesk"
 90
        0
280
     0
281
     0
  0
CLASS
  1
ACMIDSTANDARDBSI
  2
AcmIdStdBSI
  3
"AcmSymBB|Product Description: AutoCAD Mechanical 2000|Company: Autodesk"
 90
        0
280
     0
281
     0
  0
CLASS
  1
ACMDATUMSTANDARDBSI
  2
AcmDatumStdBSI
  3
"AcmSymBB|Product Description: AutoCAD Mechanical 2000|Company: Autodesk"
 90
        0
280
     0
281
     0
  0
CLASS
  1
ACMBOMSTANDARDBSI
  2
AcmBOMStdBSI
  3
"AcmSymBB|Product Description: AutoCAD Mechanical 2000|Company: Autodesk"
 90
        0
280
     0
281
     0
  0
CLASS
  1
LONG_TRANSACTION
  2
AcDbLongTransaction
  3
AutoCAD 2000
 90
        0
280
     0
281
     0
  0
CLASS
  1
LWPOLYLINE
  2
AcDbPolyline
  3
AutoCAD 2000
 90
        0
280
     0
281
     1
  0
CLASS
  1
HATCH
  2
AcDbHatch
  3
AutoCAD 2000
 90
        0
280
     0
281
     1
  0
CLASS
  1
XRECORD
  2
AcDbXrecord
  3
AutoCAD 2000
 90
        0
280
     0
281
     0
  0
ENDSEC
  0
SECTION
  2
TABLES
  0
TABLE
  2
VPORT
  5
8
330
0
100
AcDbSymbolTable
 70
     3
  0
VPORT
  5
42AA
330
8
100
AcDbSymbolTableRecord
100
AcDbViewportTableRecord
  2
*ACTIVE
 70
     0
 10
0.0
 20
0.0
 11
1.0
 21
1.0
 12
-92.45843950759308
 22
-15.31882337596374
 13
0.0
 23
0.0
 14
2.5
 24
2.5
 15
10.0
 25
10.0
 16
0.0
 26
0.0
 36
1.0
 17
0.0
 27
0.0
 37
0.0
 40
161.5210434089613
 41
1.56570841889117
 42
50.0
 43
0.0
 44
0.0
 50
0.0
 51
0.0
 71
     0
 72
   100
 73
     1
 74
     1
 75
     0
 76
     0
 77
     0
 78
     0
  0
ENDTAB
  0
TABLE
  2
LTYPE
  5
5
330
0
100
AcDbSymbolTable
 70
    10
  0
LTYPE
  5
14
330
5
100
AcDbSymbolTableRecord
100
AcDbLinetypeTableRecord
  2
BYBLOCK
 70
     0
  3

 72
    65
 73
     0
 40
0.0
  0
LTYPE
  5
15
330
5
100
AcDbSymbolTableRecord
100
AcDbLinetypeTableRecord
  2
BYLAYER
 70
     0
  3

 72
    65
 73
     0
 40
0.0
  0
LTYPE
  5
16
330
5
100
AcDbSymbolTableRecord
100
AcDbLinetypeTableRecord
  2
CONTINUOUS
 70
     0
  3
Solid line
 72
    65
 73
     0
 40
0.0
  0
LTYPE
  5
4B
330
5
100
AcDbSymbolTableRecord
100
AcDbLinetypeTableRecord
  2
AM_ISO02W050
 70
     0
  3
__ __ __ __ __ __ __ __ __ __ __ __ __ __ __
 72
    65
 73
     2
 40
7.5
 49
6.0
 74
     0
 49
-1.5
 74
     0
  0
LTYPE
  5
4C
330
5
100
AcDbSymbolTableRecord
100
AcDbLinetypeTableRecord
  2
AM_ISO08W050
 70
     0
  3
____ . ____ . ____ . ____ . ____ . ____ . ____
 72
    65
 73
     4
 40
18.0
 49
12.0
 74
     0
 49
-1.5
 74
     0
 49
3.0
 74
     0
 49
-1.5
 74
     0
  0
LTYPE
  5
4D
330
5
100
AcDbSymbolTableRecord
100
AcDbLinetypeTableRecord
  2
AM_ISO09W050
 70
     0
  3
_____ . . _____ . . _____ . . ____ .. ____
 72
    65
 73
     6
 40
22.5
 49
12.0
 74
     0
 49
-1.5
 74
     0
 49
3.0
 74
     0
 49
-1.5
 74
     0
 49
3.0
 74
     0
 49
-1.5
 74
     0
  0
LTYPE
  5
4E
330
5
100
AcDbSymbolTableRecord
100
AcDbLinetypeTableRecord
  2
AMCONSTR
 70
     0
  3
_______________________
 72
    65
 73
     2
 40
9999.0
 49
9999.0
 74
     0
 49
0.0
 74
     0
  0
LTYPE
  5
4F
330
5
100
AcDbSymbolTableRecord
100
AcDbLinetypeTableRecord
  2
AM_ISO02W050X2
 70
     0
  3
 _ _ _ _ _ _ _ _ _ _ _ _
 72
    65
 73
     2
 40
3.75
 49
3.0
 74
     0
 49
-0.75
 74
     0
  0
LTYPE
  5
50
330
5
100
AcDbSymbolTableRecord
100
AcDbLinetypeTableRecord
  2
AM_ISO08W050X2
 70
     0
  3
__ . __ . __ . __ . __ . __
 72
    65
 73
     4
 40
9.0
 49
6.0
 74
     0
 49
-0.75
 74
     0
 49
1.5
 74
     0
 49
-0.75
 74
     0
  0
LTYPE
  5
53
330
5
100
AcDbSymbolTableRecord
100
AcDbLinetypeTableRecord
  2
AMZIGZAG
 70
     0
  3
/\/-/\/-/\/-/\/-/\/-/\/
 72
    65
 73
     2
 40
11.00009999999999
 49
0.0001
 74
     4
 75
   135
340
52
 46
0.04
 50
0.0
 44
0.0
 45
0.0
 49
-11.0
 74
     0
  0
LTYPE
  5
166
330
5
100
AcDbSymbolTableRecord
100
AcDbLinetypeTableRecord
  2
ACJISTGL
 70
     0
  3
_ _ _ _ _
 72
    65
 73
     2
 40
3.0
 49
2.0
 74
     0
 49
-1.0
 74
     0
  0
LTYPE
  5
26A
330
5
100
AcDbSymbolTableRecord
100
AcDbLinetypeTableRecord
  2
ACJISTGB
 70
     0
  3
__ . . __ . .
 72
    65
 73
     6
 40
9.0
 49
4.0
 74
     0
 49
-1.0
 74
     0
 49
1.0
 74
     0
 49
-1.0
 74
     0
 49
1.0
 74
     0
 49
-1.0
 74
     0
  0
ENDTAB
  0
TABLE
  2
LAYER
  5
2
330
0
100
AcDbSymbolTable
 70
     8
  0
LAYER
  5
10
330
2
100
AcDbSymbolTableRecord
100
AcDbLayerTableRecord
  2
0
 70
     0
 62
     7
  6
CONTINUOUS
  0
LAYER
  5
3F9
330
2
100
AcDbSymbolTableRecord
100
AcDbLayerTableRecord
  2
AM_0
 70
     0
 62
     7
  6
CONTINUOUS
  0
LAYER
  5
C7C
330
2
100
AcDbSymbolTableRecord
100
AcDbLayerTableRecord
  2
AM_7
 70
     0
 62
     4
  6
AM_ISO08W050
  0
LAYER
  5
C97
330
2
100
AcDbSymbolTableRecord
100
AcDbLayerTableRecord
  2
AM_11
 70
     0
 62
     3
  6
AM_ISO09W050
  0
LAYER
  5
CC5
330
2
100
AcDbSymbolTableRecord
100
AcDbLayerTableRecord
  2
AM_5
 70
     0
 62
     3
  6
CONTINUOUS
  0
LAYER
  5
CC7
330
2
100
AcDbSymbolTableRecord
100
AcDbLayerTableRecord
  2
DEFPOINTS
 70
     0
 62
     7
  6
CONTINUOUS
  0
LAYER
  5
19BC
330
2
100
AcDbSymbolTableRecord
100
AcDbLayerTableRecord
  2
AM_6
 70
     0
 62
     2
  6
CONTINUOUS
  0
LAYER
  5
412C
330
2
100
AcDbSymbolTableRecord
100
AcDbLayerTableRecord
  2
AM_CL
 70
     0
 62
     1
  6
AMCONSTR
  0
ENDTAB
  0
TABLE
  2
STYLE
  5
3
330
0
100
AcDbSymbolTable
 70
     5
  0
STYLE
  5
11
330
3
100
AcDbSymbolTableRecord
100
AcDbTextStyleTableRecord
  2
STANDARD
 70
     0
 40
0.0
 41
1.0
 50
0.0
 71
     0
 42
2.5
  3
simplex.shx
  4
EXTFONT.SHX
  0
STYLE
  5
52
330
3
100
AcDbSymbolTableRecord
100
AcDbTextStyleTableRecord
  2

 70
     1
 40
0.0
 41
1.0
 50
0.0
 71
     0
 42
2.5
  3
ltypeshp.shx
  4

  0
STYLE
  5
6B
330
3
100
AcDbSymbolTableRecord
100
AcDbTextStyleTableRecord
  2
ASAMI
 70
     0
 40
0.0
 41
1.0
 50
0.0
 71
     0
 42
2.5
  3
simplex.shx
  4
EXTFONT.SHX
  0
STYLE
  5
262
330
3
100
AcDbSymbolTableRecord
100
AcDbTextStyleTableRecord
  2
ACJISTS
 70
     0
 40
1.0
 41
1.0
 50
0.0
 71
     0
 42
2.5
  3
simplex.shx
  4
bigfont.shx
  0
STYLE
  5
269
330
3
100
AcDbSymbolTableRecord
100
AcDbTextStyleTableRecord
  2
ACJISGDT
 70
     0
 40
0.0
 41
1.0
 50
0.0
 71
     0
 42
2.5
  3
amgdtans.shx
  4

  0
ENDTAB
  0
TABLE
  2
VIEW
  5
6
330
0
100
AcDbSymbolTable
 70
     0
  0
ENDTAB
  0
TABLE
  2
UCS
  5
7
330
0
100
AcDbSymbolTable
 70
     0
  0
ENDTAB
  0
TABLE
  2
APPID
  5
9
330
0
100
AcDbSymbolTable
 70
    16
  0
APPID
  5
12
330
9
100
AcDbSymbolTableRecord
100
AcDbRegAppTableRecord
  2
ACAD
 70
     0
  0
APPID
  5
30
330
9
100
AcDbSymbolTableRecord
100
AcDbRegAppTableRecord
  2
MCAD_NO_VIS
 70
     0
  0
APPID
  5
31
330
9
100
AcDbSymbolTableRecord
100
AcDbRegAppTableRecord
  2
ACAD_TEMP_GRAPHIC
 70
     0
  0
APPID
  5
2C2
330
9
100
AcDbSymbolTableRecord
100
AcDbRegAppTableRecord
  2
GENIUS_GENDTOL_13
 70
     0
  0
APPID
  5
339
330
9
100
AcDbSymbolTableRecord
100
AcDbRegAppTableRecord
  2
GENIUS_GENODEF_13
 70
     0
  0
APPID
  5
33A
330
9
100
AcDbSymbolTableRecord
100
AcDbRegAppTableRecord
  2
GENIUS_GENOBJ-N-RSBK_13
 70
     0
  0
APPID
  5
33B
330
9
100
AcDbSymbolTableRecord
100
AcDbRegAppTableRecord
  2
GENIUS_GENOBJ-N-LIB_13
 70
     0
  0
APPID
  5
33C
330
9
100
AcDbSymbolTableRecord
100
AcDbRegAppTableRecord
  2
GENIUS_GENSCALE_13
 70
     0
  0
APPID
  5
378
330
9
100
AcDbSymbolTableRecord
100
AcDbRegAppTableRecord
  2
GENIUS_GENDIMSH_14
 70
     0
  0
APPID
  5
C82
330
9
100
AcDbSymbolTableRecord
100
AcDbRegAppTableRecord
  2
GENIUS_GENOBJ-N-CRS_13
 70
     0
  0
APPID
  5
C83
330
9
100
AcDbSymbolTableRecord
100
AcDbRegAppTableRecord
  2
GENIUS_GENOENT_13
 70
     0
  0
APPID
  5
C84
330
9
100
AcDbSymbolTableRecord
100
AcDbRegAppTableRecord
  2
GENIUS_GENOREF_13
 70
     0
  0
APPID
  5
C85
330
9
100
AcDbSymbolTableRecord
100
AcDbRegAppTableRecord
  2
GENIUS_GENOLIS_13
 70
     0
  0
APPID
  5
CA0
330
9
100
AcDbSymbolTableRecord
100
AcDbRegAppTableRecord
  2
GENIUS_GENOBJ-N-CEN_13
 70
     0
  0
APPID
  5
1E1E
330
9
100
AcDbSymbolTableRecord
100
AcDbRegAppTableRecord
  2
GENIUS_GENFIL_13
 70
     0
  0
APPID
  5
1E1F
330
9
100
AcDbSymbolTableRecord
100
AcDbRegAppTableRecord
  2
GENIUS_GENOBJ-N-CHA_13
 70
     0
  0
ENDTAB
  0
TABLE
  2
DIMSTYLE
  5
A
330
0
100
AcDbSymbolTable
 70
     9
  0
DIMSTYLE
105
58
330
A
100
AcDbSymbolTableRecord
100
AcDbDimStyleTableRecord
  2
AM_JIS
 70
     0
  3

  4
"
  5
OPEN30
  6

  7

 40
1.0
 41
2.5
 42
1.0
 43
12.0
 44
1.0
 45
0.0
 46
0.0
 47
0.1
 48
0.1
140
3.2
141
0.0
142
0.0
143
0.0393701
144
1.0
145
0.0
146
0.71
147
1.5
 71
     0
 72
     0
 73
     0
 74
     0
 75
     0
 76
     0
 77
     3
 78
     8
170
     0
171
     2
172
     1
173
     0
174
     0
175
     0
176
   256
177
   256
178
     2
270
     2
271
     3
272
     3
273
     2
274
     2
340
6B
275
     0
280
     0
281
     0
282
     0
283
     0
284
     0
285
     0
286
     0
287
     3
288
     0
  0
DIMSTYLE
105
5F
330
A
100
AcDbSymbolTableRecord
100
AcDbDimStyleTableRecord
  2
AM_JIS$3
 70
     0
  3

  4
"
  5
OPEN30
  6

  7

 40
1.0
 41
2.5
 42
1.0
 43
10.0
 44
1.0
 45
0.0
 46
0.0
 47
0.1
 48
0.1
140
3.2
141
0.0
142
0.0
143
0.0393701
144
1.0
145
0.0
146
0.71
147
1.5
 71
     0
 72
     0
 73
     0
 74
     1
 75
     0
 76
     0
 77
     3
 78
     8
170
     0
171
     2
172
     0
173
     0
174
     0
175
     0
176
   256
177
   256
178
     2
270
     2
271
     2
272
     3
273
     2
274
     2
340
6B
275
     0
280
     0
281
     0
282
     0
283
     0
284
     0
285
     0
286
     0
287
     0
288
     1
  0
DIMSTYLE
105
60
330
A
100
AcDbSymbolTableRecord
100
AcDbDimStyleTableRecord
  2
AM_JIS$4
 70
     0
  3

  4
"
  5
OPEN30
  6

  7

 40
1.0
 41
2.5
 42
1.0
 43
10.0
 44
1.0
 45
0.0
 46
0.0
 47
0.1
 48
0.1
140
3.2
141
0.0
142
0.0
143
0.0393701
144
1.0
145
0.0
146
0.71
147
1.5
 71
     0
 72
     0
 73
     0
 74
     1
 75
     0
 76
     0
 77
     3
 78
     8
170
     0
171
     2
172
     0
173
     0
174
     0
175
     0
176
   256
177
   256
178
     2
270
     2
271
     2
272
     3
273
     2
274
     2
340
6B
275
     0
280
     0
281
     0
282
     0
283
     0
284
     0
285
     0
286
     0
287
     0
288
     1
  0
DIMSTYLE
105
61
330
A
100
AcDbSymbolTableRecord
100
AcDbDimStyleTableRecord
  2
AM_JIS$6
 70
     0
  3

  4
"
  5
OPEN30
  6

  7

 40
1.0
 41
2.5
 42
1.0
 43
10.0
 44
1.0
 45
0.0
 46
0.0
 47
0.1
 48
0.1
140
3.2
141
0.0
142
0.0
143
0.0393701
144
1.0
145
0.0
146
0.71
147
1.5
 71
     0
 72
     0
 73
     0
 74
     0
 75
     0
 76
     0
 77
     0
 78
     8
170
     0
171
     2
172
     1
173
     0
174
     0
175
     0
176
   256
177
   256
178
     2
270
     2
271
     2
272
     2
273
     2
274
     2
340
6B
275
     0
280
     0
281
     0
282
     0
283
     0
284
     0
285
     0
286
     0
287
     3
288
     0
  0
DIMSTYLE
105
62
330
A
100
AcDbSymbolTableRecord
100
AcDbDimStyleTableRecord
  2
AM_JIS$7
 70
     0
  3

  4
"
  5
OPEN30
  6

  7

 40
1.0
 41
2.5
 42
1.0
 43
10.0
 44
1.0
 45
0.0
 46
0.0
 47
0.1
 48
0.1
140
3.2
141
0.0
142
0.0
143
0.0393701
144
1.0
145
0.0
146
0.71
147
1.5
 71
     0
 72
     0
 73
     0
 74
     0
 75
     0
 76
     0
 77
     3
 78
     8
170
     0
171
     2
172
     1
173
     0
174
     0
175
     0
176
   256
177
   256
178
     2
270
     2
271
     2
272
     3
273
     2
274
     2
340
6B
275
     0
280
     0
281
     0
282
     0
283
     0
284
     0
285
     0
286
     0
287
     3
288
     0
  0
DIMSTYLE
105
63
330
A
100
AcDbSymbolTableRecord
100
AcDbDimStyleTableRecord
  2
AM_JIS$SF
 70
     0
  3

  4
"
  5
OPEN30
  6

  7

 40
1.0
 41
2.5
 42
1.0
 43
10.0
 44
1.0
 45
0.0
 46
0.0
 47
0.1
 48
0.1
140
3.2
141
0.0
142
0.0
143
0.0393701
144
1.0
145
0.0
146
0.71
147
1.5
 71
     0
 72
     0
 73
     0
 74
     0
 75
     1
 76
     1
 77
     3
 78
     8
170
     0
171
     2
172
     1
173
     0
174
     0
175
     0
176
   256
177
   256
178
     2
270
     2
271
     2
272
     2
273
     2
274
     2
340
6B
275
     0
280
     0
281
     0
282
     0
283
     0
284
     0
285
     0
286
     0
287
     3
288
     0
  0
DIMSTYLE
105
68
330
A
100
AcDbSymbolTableRecord
100
AcDbDimStyleTableRecord
  2
AM_JIS$SH
 70
     0
  3

  4
"
  5

  6
GENAXEH
  7
OPEN30
 40
1.0
 41
2.5
 42
1.0
 43
10.0
 44
1.0
 45
0.0
 46
0.0
 47
0.1
 48
0.1
140
3.2
141
0.0
142
0.0
143
0.0393701
144
2.0
145
0.0
146
0.71
147
1.5
 71
     0
 72
     0
 73
     0
 74
     0
 75
     1
 76
     1
 77
     3
 78
     8
170
     0
171
     2
172
     1
173
     1
174
     0
175
     0
176
   256
177
   256
178
     2
270
     2
271
     2
272
     2
273
     2
274
     2
340
6B
275
     0
280
     0
281
     0
282
     0
283
     0
284
     0
285
     0
286
     0
287
     3
288
     0
  0
DIMSTYLE
105
B34
102
{ACAD_REACTORS
330
4176
102
}
330
A
100
AcDbSymbolTableRecord
100
AcDbDimStyleTableRecord
  2
AM_JIS$2
 70
     0
  3

  4
"
  5
OPEN30
  6

  7

 40
1.0
 41
2.5
 42
1.0
 43
12.0
 44
1.0
 45
0.0
 46
0.0
 47
0.1
 48
0.1
140
3.2
141
0.0
142
0.0
143
0.0393701
144
1.0
145
0.0
146
0.71
147
1.5
 71
     0
 72
     0
 73
     0
 74
     0
 75
     0
 76
     0
 77
     3
 78
     8
170
     0
171
     2
172
     1
173
     0
174
     0
175
     0
176
   256
177
   256
178
     2
270
     2
271
     3
272
     3
273
     2
274
     2
340
6B
275
     0
280
     0
281
     0
282
     0
283
     0
284
     0
285
     0
286
     0
287
     3
288
     0
  0
DIMSTYLE
105
BA5
102
{ACAD_REACTORS
330
CC6
330
DF5
330
1FB6
330
2216
102
}
330
A
100
AcDbSymbolTableRecord
100
AcDbDimStyleTableRecord
  2
AM_JIS$0
 70
     0
  3

  4
"
  5
OPEN30
  6

  7

 40
1.0
 41
2.5
 42
0.0
 43
10.0
 44
1.0
 45
0.0
 46
0.0
 47
0.1
 48
0.1000000001
140
3.799999999999999
141
0.0
142
0.0
143
0.0393701
144
1.0
145
0.0
146
0.71
147
1.5
 71
     0
 72
     0
 73
     0
 74
     0
 75
     0
 76
     0
 77
     3
 78
     1
170
     0
171
     2
172
     1
173
     0
174
     0
175
     0
176
     3
177
     3
178
     2
270
     2
271
     2
272
     2
273
     2
274
     2
340
11
275
     1
280
     0
281
     0
282
     0
283
     0
284
     8
285
     0
286
     0
287
     0
288
     0
  0
ENDTAB
  0
TABLE
  2
BLOCK_RECORD
  5
1
330
0
100
AcDbSymbolTable
 70
    10
  0
BLOCK_RECORD
  5
1F
102
{ACAD_XDICTIONARY
360
74
102
}
330
1
100
AcDbSymbolTableRecord
100
AcDbBlockTableRecord
  2
*MODEL_SPACE
  0
BLOCK_RECORD
  5
101
102
{ACAD_XDICTIONARY
360
42D3
102
}
330
1
100
AcDbSymbolTableRecord
100
AcDbBlockTableRecord
  2
*PAPER_SPACE
  0
BLOCK_RECORD
  5
59
330
1
100
AcDbSymbolTableRecord
100
AcDbBlockTableRecord
  2
_OPEN30
  0
BLOCK_RECORD
  5
64
330
1
100
AcDbSymbolTableRecord
100
AcDbBlockTableRecord
  2
GENAXEH
  0
BLOCK_RECORD
  5
CC8
330
1
100
AcDbSymbolTableRecord
100
AcDbBlockTableRecord
  2
*D5
  0
BLOCK_RECORD
  5
DF6
330
1
100
AcDbSymbolTableRecord
100
AcDbBlockTableRecord
  2
*D6
  0
BLOCK_RECORD
  5
1FB7
330
1
100
AcDbSymbolTableRecord
100
AcDbBlockTableRecord
  2
*D7
  0
BLOCK_RECORD
  5
2217
330
1
100
AcDbSymbolTableRecord
100
AcDbBlockTableRecord
  2
*D8
  0
BLOCK_RECORD
  5
4177
330
1
100
AcDbSymbolTableRecord
100
AcDbBlockTableRecord
  2
*D9
  0
ENDTAB
  0
ENDSEC
  0
SECTION
  2
BLOCKS
  0
BLOCK
  5
20
330
1F
100
AcDbEntity
  8
0
100
AcDbBlockBegin
  2
*MODEL_SPACE
 70
     0
 10
0.0
 20
0.0
 30
0.0
  3
*MODEL_SPACE
  1

  0
ENDBLK
  5
21
330
1F
100
AcDbEntity
  8
0
100
AcDbBlockEnd
  0
BLOCK
  5
103
330
101
100
AcDbEntity
 67
     1
  8
0
100
AcDbBlockBegin
  2
*PAPER_SPACE
 70
     0
 10
0.0
 20
0.0
 30
0.0
  3
*PAPER_SPACE
  1

  0
ENDBLK
  5
104
330
101
100
AcDbEntity
 67
     1
  8
0
100
AcDbBlockEnd
  0
BLOCK
  5
5D
330
59
100
AcDbEntity
  8
0
100
AcDbBlockBegin
  2
_OPEN30
 70
     0
 10
0.0
 20
0.0
 30
0.0
  3
_OPEN30
  1

  0
LINE
  5
5A
330
59
100
AcDbEntity
  8
0
 62
     0
100
AcDbLine
 10
-1.0
 20
0.26794919
 30
0.0
 11
0.0
 21
0.0
 31
0.0
  0
LINE
  5
5B
330
59
100
AcDbEntity
  8
0
 62
     0
100
AcDbLine
 10
0.0
 20
0.0
 30
0.0
 11
-1.0
 21
-0.26794919
 31
0.0
  0
LINE
  5
5C
330
59
100
AcDbEntity
  8
0
 62
     0
100
AcDbLine
 10
0.0
 20
0.0
 30
0.0
 11
-1.0
 21
0.0
 31
0.0
  0
ENDBLK
  5
5E
330
59
100
AcDbEntity
  8
0
100
AcDbBlockEnd
  0
BLOCK
  5
66
330
64
100
AcDbEntity
  8
0
100
AcDbBlockBegin
  2
GENAXEH
 70
     0
 10
0.0
 20
0.0
 30
0.0
  3
GENAXEH
  1

  0
LINE
  5
65
330
64
100
AcDbEntity
  8
0
100
AcDbLine
 10
-1.0
 20
0.0
 30
0.0
 11
1.0
 21
0.0
 31
0.0
  0
ENDBLK
  5
67
330
64
100
AcDbEntity
  8
0
100
AcDbBlockEnd
  0
BLOCK
  5
CD2
330
CC8
100
AcDbEntity
  8
0
100
AcDbBlockBegin
  2
*D5
 70
     1
 10
0.0
 20
0.0
 30
0.0
  3
*D5
  1

  0
LINE
  5
4143
330
CC8
100
AcDbEntity
  8
AM_5
 62
     3
100
AcDbLine
 10
-196.9999999999999
 20
-7.500002054481325
 30
0.0
 11
-196.9999999999999
 21
-33.00000305448115
 31
0.0
  0
LINE
  5
4144
330
CC8
100
AcDbEntity
  8
AM_5
 62
     3
100
AcDbLine
 10
-2.999999999999327
 20
-7.600000663106886
 30
0.0
 11
-2.999999999999328
 21
-33.00000305448115
 31
0.0
  0
LINE
  5
4145
330
CC8
100
AcDbEntity
  8
AM_5
 62
     3
100
AcDbLine
 10
-194.4999999999999
 20
-32.00000305448114
 30
0.0
 11
-5.499999999999328
 21
-32.00000305448114
 31
0.0
  0
INSERT
  5
4146
330
CC8
100
AcDbEntity
  8
AM_5
 62
     3
100
AcDbBlockReference
  2
_OPEN30
 10
-196.9999999999999
 20
-32.00000305448114
 30
0.0
 41
2.5
 42
2.5
 43
2.5
 50
180.0
  0
INSERT
  5
4147
330
CC8
100
AcDbEntity
  8
AM_5
 62
     3
100
AcDbBlockReference
  2
_OPEN30
 10
-2.999999999999328
 20
-32.00000305448114
 30
0.0
 41
2.5
 42
2.5
 43
2.5
  0
MTEXT
  5
4148
330
CC8
100
AcDbEntity
  8
AM_5
 62
     2
100
AcDbMText
 10
-99.99999999999962
 20
-28.60000305448115
 30
0.0
 40
3.799999999999999
 41
0.0
 71
     5
 72
     1
  1
194
1001
ACAD
1000
MTEXTBEGIN
1070
    73
1070
     1
1070
    44
1040
1.0
1070
    74
1070
     0
1000
MTEXTEND
  0
POINT
  5
4149
330
CC8
100
AcDbEntity
  8
DEFPOINTS
 62
     0
100
AcDbPoint
 10
-196.9999999999999
 20
-7.500002054481325
 30
0.0
  0
POINT
  5
414A
330
CC8
100
AcDbEntity
  8
DEFPOINTS
 62
     0
100
AcDbPoint
 10
-2.999999999999327
 20
-7.600000663106886
 30
0.0
  0
POINT
  5
414B
330
CC8
100
AcDbEntity
  8
DEFPOINTS
 62
     0
100
AcDbPoint
 10
-2.999999999999328
 20
-32.00000305448114
 30
0.0
  0
ENDBLK
  5
CD3
330
CC8
100
AcDbEntity
  8
0
100
AcDbBlockEnd
  0
BLOCK
  5
E00
330
DF6
100
AcDbEntity
  8
0
100
AcDbBlockBegin
  2
*D6
 70
     1
 10
0.0
 20
0.0
 30
0.0
  3
*D6
  1

  0
LINE
  5
413A
330
DF6
100
AcDbEntity
  8
AM_5
 62
     3
100
AcDbLine
 10
-130.9999807595528
 20
-8.000002054481299
 30
0.0
 11
-130.9999807595528
 21
-23.00000305448101
 31
0.0
  0
LINE
  5
413B
330
DF6
100
AcDbEntity
  8
AM_5
 62
     3
100
AcDbLine
 10
-2.999999999999316
 20
-7.60000066310687
 30
0.0
 11
-2.999999999999316
 21
-23.00000305448101
 31
0.0
  0
LINE
  5
413C
330
DF6
100
AcDbEntity
  8
AM_5
 62
     3
100
AcDbLine
 10
-128.4999807595528
 20
-22.00000305448101
 30
0.0
 11
-5.499999999999316
 21
-22.00000305448101
 31
0.0
  0
INSERT
  5
413D
330
DF6
100
AcDbEntity
  8
AM_5
 62
     3
100
AcDbBlockReference
  2
_OPEN30
 10
-130.9999807595528
 20
-22.00000305448101
 30
0.0
 41
2.5
 42
2.5
 43
2.5
 50
180.0
  0
INSERT
  5
413E
330
DF6
100
AcDbEntity
  8
AM_5
 62
     3
100
AcDbBlockReference
  2
_OPEN30
 10
-2.999999999999316
 20
-22.00000305448101
 30
0.0
 41
2.5
 42
2.5
 43
2.5
  0
MTEXT
  5
413F
330
DF6
100
AcDbEntity
  8
AM_5
 62
     2
100
AcDbMText
 10
-66.99999037977608
 20
-18.60000305448101
 30
0.0
 40
3.799999999999999
 41
0.0
 71
     5
 72
     1
  1
128
1001
ACAD
1000
MTEXTBEGIN
1070
    73
1070
     1
1070
    44
1040
1.0
1070
    74
1070
     0
1000
MTEXTEND
  0
POINT
  5
4140
330
DF6
100
AcDbEntity
  8
DEFPOINTS
 62
     0
100
AcDbPoint
 10
-130.9999807595528
 20
-8.000002054481299
 30
0.0
  0
POINT
  5
4141
330
DF6
100
AcDbEntity
  8
DEFPOINTS
 62
     0
100
AcDbPoint
 10
-2.999999999999316
 20
-7.60000066310687
 30
0.0
  0
POINT
  5
4142
330
DF6
100
AcDbEntity
  8
DEFPOINTS
 62
     0
100
AcDbPoint
 10
-2.999999999999316
 20
-22.00000305448101
 30
0.0
  0
ENDBLK
  5
E01
330
DF6
100
AcDbEntity
  8
0
100
AcDbBlockEnd
  0
BLOCK
  5
1FC3
330
1FB7
100
AcDbEntity
  8
0
100
AcDbBlockBegin
  2
*D7
 70
     1
 10
0.0
 20
0.0
 30
0.0
  3
*D7
  1

  0
LINE
  5
4160
330
1FB7
100
AcDbEntity
  8
AM_5
 62
     3
100
AcDbLine
 10
-2.999999999999316
 20
-7.60000066310687
 30
0.0
 11
15.55592102485809
 21
-7.600000663106875
 31
0.0
  0
LINE
  5
4161
330
1FB7
100
AcDbEntity
  8
AM_5
 62
     3
100
AcDbLine
 10
-2.999999999999278
 20
7.599999336892753
 30
0.0
 11
15.55592102485809
 21
7.599999336892747
 31
0.0
  0
LINE
  5
4162
330
1FB7
100
AcDbEntity
  8
AM_5
 62
     3
100
AcDbLine
 10
14.55592102485808
 20
-5.100000663106875
 30
0.0
 11
14.55592102485809
 21
5.099999336892747
 31
0.0
  0
INSERT
  5
4163
330
1FB7
100
AcDbEntity
  8
AM_5
 62
     3
100
AcDbBlockReference
  2
_OPEN30
 10
14.55592102485808
 20
-7.600000663106875
 30
0.0
 41
2.5
 42
2.5
 43
2.5
 50
270.0
  0
INSERT
  5
4164
330
1FB7
100
AcDbEntity
  8
AM_5
 62
     3
100
AcDbBlockReference
  2
_OPEN30
 10
14.55592102485809
 20
7.599999336892747
 30
0.0
 41
2.5
 42
2.5
 43
2.5
 50
90.0
  0
MTEXT
  5
4165
330
1FB7
100
AcDbEntity
  8
AM_5
 62
     2
100
AcDbMText
 10
11.15592102485808
 20
-0.0000006631070608
 30
0.0
 40
3.799999999999999
 41
0.0
 71
     5
 72
     1
  1
%%c15.2
 11
0.0000000000000001
 21
1.0
 31
0.0
1001
ACAD
1000
MTEXTBEGIN
1070
    73
1070
     1
1070
    44
1040
1.0
1070
    74
1070
     0
1000
MTEXTEND
  0
POINT
  5
4166
330
1FB7
100
AcDbEntity
  8
DEFPOINTS
 62
     0
100
AcDbPoint
 10
-2.999999999999316
 20
-7.60000066310687
 30
0.0
  0
POINT
  5
4167
330
1FB7
100
AcDbEntity
  8
DEFPOINTS
 62
     0
100
AcDbPoint
 10
-2.999999999999278
 20
7.599999336892753
 30
0.0
  0
POINT
  5
4168
330
1FB7
100
AcDbEntity
  8
DEFPOINTS
 62
     0
100
AcDbPoint
 10
14.55592102485809
 20
7.599999336892747
 30
0.0
  0
ENDBLK
  5
1FC4
330
1FB7
100
AcDbEntity
  8
0
100
AcDbBlockEnd
  0
BLOCK
  5
2221
330
2217
100
AcDbEntity
  8
0
100
AcDbBlockBegin
  2
*D8
 70
     1
 10
0.0
 20
0.0
 30
0.0
  3
*D8
  1

  0
LINE
  5
414C
330
2217
100
AcDbEntity
  8
AM_5
 62
     3
100
AcDbLine
 10
-196.5000000000004
 20
7.999999999998412
 30
0.0
 11
-214.0000009999999
 21
7.999999999998363
 31
0.0
  0
LINE
  5
414D
330
2217
100
AcDbEntity
  8
AM_5
 62
     3
100
AcDbLine
 10
-196.5000000000004
 20
-8.000002054481424
 30
0.0
 11
-214.0000009999998
 21
-8.000002054481473
 31
0.0
  0
LINE
  5
414E
330
2217
100
AcDbEntity
  8
AM_5
 62
     3
100
AcDbLine
 10
-213.0000009999999
 20
5.499999999998366
 30
0.0
 11
-213.0000009999998
 21
-5.50000205448147
 31
0.0
  0
INSERT
  5
414F
330
2217
100
AcDbEntity
  8
AM_5
 62
     3
100
AcDbBlockReference
  2
_OPEN30
 10
-213.0000009999999
 20
7.999999999998366
 30
0.0
 41
2.5
 42
2.5
 43
2.5
 50
90.00000000000017
  0
INSERT
  5
4150
330
2217
100
AcDbEntity
  8
AM_5
 62
     3
100
AcDbBlockReference
  2
_OPEN30
 10
-213.0000009999998
 20
-8.00000205448147
 30
0.0
 41
2.5
 42
2.5
 43
2.5
 50
270.0000000000001
  0
MTEXT
  5
4151
330
2217
100
AcDbEntity
  8
AM_5
 62
     2
100
AcDbMText
 10
-216.4000009999999
 20
-0.0000010272415533
 30
0.0
 40
3.799999999999999
 41
0.0
 71
     5
 72
     1
  1
%%c16
 11
-0.0000000000000028
 21
1.0
 31
0.0
1001
ACAD
1000
MTEXTBEGIN
1070
    73
1070
     1
1070
    44
1040
1.0
1070
    74
1070
     0
1000
MTEXTEND
  0
POINT
  5
4152
330
2217
100
AcDbEntity
  8
DEFPOINTS
 62
     0
100
AcDbPoint
 10
-196.5000000000004
 20
7.999999999999023
 30
0.0
  0
POINT
  5
4153
330
2217
100
AcDbEntity
  8
DEFPOINTS
 62
     0
100
AcDbPoint
 10
-196.5000000000004
 20
-8.000002054480813
 30
0.0
  0
POINT
  5
4154
330
2217
100
AcDbEntity
  8
DEFPOINTS
 62
     0
100
AcDbPoint
 10
-213.0000009999998
 20
-8.000002054480807
 30
0.0
  0
ENDBLK
  5
2222
330
2217
100
AcDbEntity
  8
0
100
AcDbBlockEnd
  0
BLOCK
  5
4185
330
4177
100
AcDbEntity
  8
0
100
AcDbBlockBegin
  2
*D9
 70
     1
 10
0.0
 20
0.0
 30
0.0
  3
*D9
  1

  0
LINE
  5
42D5
330
4177
100
AcDbEntity
  8
AM_5
100
AcDbLine
 10
0.342020140816198
 20
-0.9396926216994581
 30
0.0
 11
8.684182179749319
 21
-23.85959464354993
 31
0.0
  0
LINE
  5
42D6
330
4177
100
AcDbEntity
  8
AM_5
100
AcDbLine
 10
0.3420224212243852
 20
0.939691791695389
 30
0.0
 11
8.684240081252889
 21
23.85957356904657
 31
0.0
  0
ARC
  5
42D7
330
4177
100
AcDbEntity
  8
AM_5
100
AcDbCircle
 10
0.0000000000000265
 20
-0.0000000000000728
 30
0.0
 40
24.39085025527086
100
AcDbArc
 50
295.8752449880393
 51
64.12461596880854
  0
INSERT
  5
42D8
330
4177
100
AcDbEntity
  8
AM_5
100
AcDbBlockReference
  2
_OPEN30
 10
8.342162038933178
 20
-22.91990202185063
 30
0.0
 41
2.5
 42
2.5
 43
2.5
 50
202.937622417513
  0
INSERT
  5
42D9
330
4177
100
AcDbEntity
  8
AM_5
100
AcDbBlockReference
  2
_OPEN30
 10
8.342217660028531
 20
22.91988177735111
 30
0.0
 41
2.5
 42
2.5
 43
2.5
 50
157.0622385393347
  0
MTEXT
  5
42DA
330
4177
100
AcDbEntity
  8
AM_5
 62
     2
100
AcDbMText
 10
21.2908502552552
 20
-0.0000258339005418
 30
0.0
 40
3.2
 41
0.0
 71
     5
 72
     1
  1
140°
  7
ASAMI
 11
0.0000012133804031
 21
0.999999999999264
 31
0.0
  0
POINT
  5
42DB
330
4177
100
AcDbEntity
  8
DEFPOINTS
 62
     0
100
AcDbPoint
 10
22.39606374153322
 20
-9.660740399173864
 30
0.0
  0
POINT
  5
42DC
330
4177
100
AcDbEntity
  8
DEFPOINTS
 62
     0
100
AcDbPoint
 10
0.0
 20
-0.0000000000001457
 30
0.0
  0
POINT
  5
42DD
330
4177
100
AcDbEntity
  8
DEFPOINTS
 62
     0
100
AcDbPoint
 10
0.0000000000000568
 20
-0.0000000000001562
 30
0.0
  0
POINT
  5
42DE
330
4177
100
AcDbEntity
  8
DEFPOINTS
 62
     0
100
AcDbPoint
 10
-0.6568967178321655
 20
1.804808914154591
 30
0.0
  0
POINT
  5
42DF
330
4177
100
AcDbEntity
  8
DEFPOINTS
 62
     0
100
AcDbPoint
 10
-0.6569101001225143
 20
-1.804832053867269
 30
0.0
  0
ENDBLK
  5
4186
330
4177
100
AcDbEntity
  8
0
100
AcDbBlockEnd
  0
ENDSEC
  0
SECTION
  2
ENTITIES
  0
LINE
  5
C9F
330
1F
100
AcDbEntity
  8
AM_7
100
AcDbLine
 10
-198.9999999999999
 20
-0.0000000000005212
 30
0.0
 11
0.5559200248581107
 21
-0.0000000000001446
 31
0.0
1001
GENIUS_GENODEF_13
1002
{
1000
HIER
1070
     0
1002
}
1002
{
1000
MANEDIT
1070
     0
1002
}
1002
{
1000
NOSEL
1070
     0
1002
}
1002
{
1000
BEHIND
1070
     0
1002
}
1002
{
1000
REACTOR
1002
}
1001
GENIUS_GENOBJ-N-CEN_13
1002
{
1000
OWNER
1000
GEN
1002
}
  0
DIMENSION
  5
CC6
330
1F
100
AcDbEntity
  8
AM_5
100
AcDbDimension
  2
*D5
 10
-2.999999999999328
 20
-32.00000305448114
 30
0.0
 11
-99.99999999999962
 21
-28.60000305448115
 31
0.0
 70
    32
  1
<>
  3
AM_JIS$0
100
AcDbAlignedDimension
 13
-196.9999999999999
 23
-7.500002054481325
 33
0.0
 14
-2.999999999999327
 24
-7.600000663106886
 34
0.0
 50
0.0000000000001132
100
AcDbRotatedDimension
1001
GENIUS_GENDTOL_13
1000

1000
h7
1000

1040
0.0
1001
ACAD
1000
DSTYLE
1002
{
1070
   271
1070
     0
1002
}
  0
DIMENSION
  5
DF5
330
1F
100
AcDbEntity
  8
AM_5
100
AcDbDimension
  2
*D6
 10
-2.999999999999316
 20
-22.00000305448101
 30
0.0
 11
-66.99999037977608
 21
-18.60000305448101
 31
0.0
 70
    32
  1
<>
  3
AM_JIS$0
100
AcDbAlignedDimension
 13
-130.9999807595528
 23
-8.000002054481299
 33
0.0
 14
-2.999999999999316
 24
-7.60000066310687
 34
0.0
 50
0.0000000000001527
100
AcDbRotatedDimension
1001
GENIUS_GENDTOL_13
1000

1000
h7
1000

1040
0.0
1001
ACAD
1000
DSTYLE
1002
{
1070
   271
1070
     0
1002
}
  0
TEXT
  5
19BD
330
1F
100
AcDbEntity
  8
AM_6
100
AcDbText
 10
-121.1904761904757
 20
-54.50000305448121
 30
0.0
 40
5.0
  1
MDW152LHK
 50
0.0000000000001527
 72
     4
 11
-99.99999999999953
 21
-52.00000305448115
 31
0.0
100
AcDbText
  0
LINE
  5
1E25
330
1F
100
AcDbEntity
  8
AM_0
100
AcDbLine
 10
-130.9999807595529
 20
-8.000002054481358
 30
0.0
 11
-130.3068107391258
 21
-7.599800156593518
 31
0.0
  0
LINE
  5
1E26
330
1F
100
AcDbEntity
  8
AM_0
100
AcDbLine
 10
-130.3071592879976
 20
7.599999336896703
 30
0.0
 11
-130.9999999999999
 21
8.00001110847671
 31
0.0
  0
DIMENSION
  5
1FB6
330
1F
100
AcDbEntity
  8
AM_5
100
AcDbDimension
  2
*D7
 10
14.55592102485809
 20
7.599999336892747
 30
0.0
 11
14.55592102485808
 21
-0.0000006631070613
 31
0.0
 70
   160
  1
%%c<>
  3
AM_JIS$0
100
AcDbAlignedDimension
 13
-2.999999999999316
 23
-7.60000066310687
 33
0.0
 14
-2.999999999999278
 24
7.599999336892753
 34
0.0
 50
89.99999999999969
100
AcDbRotatedDimension
1001
ACAD
1000
DSTYLE
1002
{
1070
   271
1070
     1
1002
}
1001
GENIUS_GENDTOL_13
1000

1000
h7
1000

1040
0.0
  0
LINE
  5
1FD9
330
1F
100
AcDbEntity
  8
AM_0
100
AcDbLine
 10
-130.3071538291078
 20
-7.599998239686955
 30
0.0
 11
-130.3071592879976
 21
7.599999336896704
 31
0.0
  0
LINE
  5
21D7
330
1F
100
AcDbEntity
  8
AM_0
 48
0.5
100
AcDbLine
 10
-130.9999807595529
 20
-8.000002054481299
 30
0.0
 11
-130.9999807595529
 21
7.99999999999953
 31
0.0
  0
LINE
  5
21D8
330
1F
100
AcDbEntity
  8
AM_0
 48
0.5
100
AcDbLine
 10
-196.4999999999999
 20
7.999999999999478
 30
0.0
 11
-130.999980759553
 21
7.999999999999531
 31
0.0
1001
GENIUS_GENODEF_13
1002
{
1000
HIER
1070
     0
1002
}
1002
{
1000
MANEDIT
1070
     0
1002
}
1002
{
1000
NOSEL
1070
     0
1002
}
1002
{
1000
BEHIND
1070
     0
1002
}
1002
{
1000
REACTOR
1002
}
1001
GENIUS_GENOBJ-N-CEN_13
1002
{
1000
OWNER
1000
GEN
1002
}
  0
LINE
  5
21D9
330
1F
100
AcDbEntity
  8
AM_0
 48
0.5
100
AcDbLine
 10
-196.4999999999998
 20
-8.000002054481353
 30
0.0
 11
-130.9999807595529
 21
-8.000002054481299
 31
0.0
1001
GENIUS_GENODEF_13
1002
{
1000
HIER
1070
     0
1002
}
1002
{
1000
MANEDIT
1070
     0
1002
}
1002
{
1000
NOSEL
1070
     0
1002
}
1002
{
1000
BEHIND
1070
     0
1002
}
1002
{
1000
REACTOR
1002
}
1001
GENIUS_GENOBJ-N-CEN_13
1002
{
1000
OWNER
1000
GEN
1002
}
  0
LINE
  5
21DC
330
1F
100
AcDbEntity
  8
AM_0
100
AcDbLine
 10
-196.5000000000004
 20
-8.000002054481353
 30
0.0
 11
-196.5000000000003
 21
7.999999999999479
 31
0.0
  0
LINE
  5
21DD
330
1F
100
AcDbEntity
  8
AM_0
 48
0.5
100
AcDbLine
 10
-196.9999999999998
 20
-7.500002054481353
 30
0.0
 11
-196.9999999999999
 21
7.499999999999478
 31
0.0
  0
DIMENSION
  5
2216
330
1F
100
AcDbEntity
  8
AM_5
100
AcDbDimension
  2
*D8
 10
-213.0000009999998
 20
-8.000002054480807
 30
0.0
 11
-216.4000009999999
 21
-0.0000010272409237
 31
0.0
 70
    32
  1
%%c<>
 51
359.9999999999998
  3
AM_JIS$0
100
AcDbAlignedDimension
 13
-196.5000000000004
 23
7.999999999999023
 33
0.0
 14
-196.5000000000004
 24
-8.000002054480813
 34
0.0
 50
269.9999999999999
100
AcDbRotatedDimension
1001
ACAD
1000
DSTYLE
1002
{
1070
   271
1070
     0
1002
}
1001
GENIUS_GENDTOL_13
1000

1000
h7
1000

1040
0.0
  0
ELLIPSE
  5
2694
330
1F
100
AcDbEntity
  8
AM_0
 48
0.5
100
AcDbEllipse
 10
9.217248688528284
 20
7.401657934614643
 30
0.0
 11
11.3780264168592
 21
0.0000000000011224
 31
0.0
210
0.0
220
0.0
230
1.0
 40
0.9899999999999971
 41
3.323896559076802
 42
3.661579236128986
  0
LINE
  5
2695
330
1F
100
AcDbEntity
  8
AM_0
 48
0.5
100
AcDbLine
 10
-1.97222807005761
 20
5.359497651709038
 30
0.0
 11
-2.999999999999278
 21
7.599999336892753
 31
0.0
  0
LINE
  5
2696
330
1F
100
AcDbEntity
  8
AM_0
 48
0.5
100
AcDbLine
 10
0.0000000000000568
 20
-0.0000000000001562
 30
0.0
 11
-0.6568967178321654
 21
1.804808914154591
 31
0.0
  0
LINE
  5
2699
330
1F
100
AcDbEntity
  8
AM_0
 48
0.5
100
AcDbLine
 10
0.0
 20
-0.0000000000001457
 30
0.0
 11
-0.6569101001225142
 21
-1.804832053867269
 31
0.0
  0
ELLIPSE
  5
3366
330
1F
100
AcDbEntity
  8
AM_0
 48
0.5
100
AcDbEllipse
 10
9.217248688528307
 20
-7.40165793461491
 30
0.0
 11
11.3780264168592
 21
-0.0000000000010845
 31
0.0
210
0.0
220
0.0
230
-1.0
 40
0.9899999999999971
 41
3.323896559076802
 42
3.661579236128986
  0
LINE
  5
3367
330
1F
100
AcDbEntity
  8
AM_0
 48
0.5
100
AcDbLine
 10
-1.972228070057594
 20
-5.35949765170935
 30
0.0
 11
-2.999999999999316
 21
-7.60000066310687
 31
0.0
  0
LINE
  5
3F18
330
1F
100
AcDbEntity
  8
AM_0
 48
0.5
100
AcDbLine
 10
-196.4999999999999
 20
7.999999999999478
 30
0.0
 11
-196.9999999999999
 21
7.499999999999478
 31
0.0
1001
GENIUS_GENFIL_13
1070
     0
1040
0.5
1040
0.5
1040
20.0
1040
0.0
1002
{
1002
}
1001
GENIUS_GENODEF_13
1002
{
1000
HIER
1070
     0
1002
}
1002
{
1000
MANEDIT
1070
     0
1002
}
1002
{
1000
NOSEL
1070
     0
1002
}
1002
{
1000
BEHIND
1070
     0
1002
}
1002
{
1000
REACTOR
1002
}
1001
GENIUS_GENOBJ-N-CHA_13
1002
{
1000
OWNER
1000
GEN
1002
}
  0
LINE
  5
3F1B
330
1F
100
AcDbEntity
  8
AM_0
 48
0.5
100
AcDbLine
 10
-196.9999999999998
 20
-7.500002054481353
 30
0.0
 11
-196.4999999999998
 21
-8.000002054481353
 31
0.0
1001
GENIUS_GENFIL_13
1070
     0
1040
0.5
1040
0.5
1040
20.0
1040
0.0
1002
{
1002
}
1001
GENIUS_GENODEF_13
1002
{
1000
HIER
1070
     0
1002
}
1002
{
1000
MANEDIT
1070
     0
1002
}
1002
{
1000
NOSEL
1070
     0
1002
}
1002
{
1000
BEHIND
1070
     0
1002
}
1002
{
1000
REACTOR
1002
}
1001
GENIUS_GENOBJ-N-CHA_13
1002
{
1000
OWNER
1000
GEN
1002
}
  0
LINE
  5
40C3
330
1F
100
AcDbEntity
  8
AM_0
100
AcDbLine
 10
-125.1130662011779
 20
-7.600212064216635
 30
0.0
 11
-130.3068107391258
 21
-7.599800156593518
 31
0.0
  0
LINE
  5
40C4
330
1F
100
AcDbEntity
  8
AM_0
100
AcDbLine
 10
-121.6265596992923
 20
7.599999336896351
 30
0.0
 11
-130.3071592879976
 21
7.599999336896697
 31
0.0
  0
LINE
  5
40C5
330
1F
100
AcDbEntity
  8
AM_0
 48
0.5
100
AcDbLine
 10
-8.720114055763334
 20
7.599999336892936
 30
0.0
 11
-2.999999999999278
 21
7.599999336892753
 31
0.0
  0
LINE
  5
40C6
330
1F
100
AcDbEntity
  8
AM_0
 48
0.5
100
AcDbLine
 10
-8.720114055763801
 20
-7.600000663107072
 30
0.0
 11
-2.999999999999278
 21
-7.600000663106884
 31
0.0
  0
LINE
  5
40C7
330
1F
100
AcDbEntity
  8
AM_11
 48
0.5
100
AcDbLine
 10
-31.53973782832387
 20
7.599999336893689
 30
0.0
 11
-8.720114055763334
 21
7.599999336892936
 31
0.0
  0
LINE
  5
40C8
330
1F
100
AcDbEntity
  8
AM_11
 48
0.5
100
AcDbLine
 10
-31.53973782832435
 20
-7.600000663106301
 30
0.0
 11
-8.720114055763801
 21
-7.600000663107072
 31
0.0
  0
LINE
  5
40C9
330
1F
100
AcDbEntity
  8
AM_11
 48
0.5
100
AcDbLine
 10
-71.70737852786463
 20
7.601079054820723
 30
0.0
 11
-57.14476950494051
 21
7.599999336894533
 31
0.0
  0
LINE
  5
40CA
330
1F
100
AcDbEntity
  8
AM_11
 48
0.5
100
AcDbLine
 10
-74.6652769311961
 20
-7.600000663105035
 30
0.0
 11
-51.84565315863847
 21
-7.601080381031468
 31
0.0
  0
LINE
  5
40CB
330
1F
100
AcDbEntity
  8
AM_0
 48
0.5
100
AcDbLine
 10
-57.14478915934825
 20
7.599999336894533
 30
0.0
 11
-31.53973782832387
 21
7.599999336893689
 31
0.0
  0
LINE
  5
40CC
330
1F
100
AcDbEntity
  8
AM_0
 48
0.5
100
AcDbLine
 10
-51.84565315863846
 20
-7.600000663105791
 30
0.0
 11
-31.53973782832435
 21
-7.600000663106301
 31
0.0
  0
LINE
  5
40CD
330
1F
100
AcDbEntity
  8
AM_0
 48
0.5
100
AcDbLine
 10
0.0
 20
-0.0000000000001457
 30
0.0
 11
-5.757492088544556
 21
2.918168485655311
 31
0.0
  0
SPLINE
  5
40CE
330
1F
100
AcDbEntity
  8
AM_0
100
AcDbSpline
210
0.0
220
0.0
230
1.0
 70
     8
 71
     3
 72
    23
 73
    19
 74
     0
 42
0.0000000001
 43
0.0000000001
 40
16.03460024169435
 40
16.03460024169435
 40
16.03460024169435
 40
16.03460024169435
 40
16.35212704903564
 40
17.38177054169784
 40
18.41822485651776
 40
19.46214173629503
 40
20.51396345435107
 40
21.57393551351153
 40
22.64208202342361
 40
23.7182574881101
 40
24.80209208578934
 40
25.89306333925047
 40
26.99048218457928
 40
28.09348763352352
 40
29.20111863782268
 40
30.31232390128032
 40
31.42594612798585
 40
32.5407912310448
 40
32.5407912310486
 40
32.5407912310486
 40
32.5407912310486
 10
-71.70737852786463
 20
7.601079054820719
 30
0.0
 10
-71.58292224432649
 20
7.575422793177794
 30
0.0
 10
-71.05542182663184
 20
7.463696994835793
 30
0.0
 10
-70.12622416007251
 20
7.244787344491069
 30
0.0
 10
-68.92291074938039
 20
6.91927108840109
 30
0.0
 10
-67.72071503278411
 20
6.553770590878744
 30
0.0
 10
-66.51956597158005
 20
6.150401182379016
 30
0.0
 10
-65.31942093485946
 20
5.711411656384529
 30
0.0
 10
-64.1202105571155
 20
5.239311462153525
 30
0.0
 10
-62.92185132989548
 20
4.736848104396817
 30
0.0
 10
-61.72427515812408
 20
4.206867003813905
 30
0.0
 10
-60.52738602777703
 20
3.652451996940712
 30
0.0
 10
-59.33108694437471
 20
3.076825583331276
 30
0.0
 10
-58.13529820192126
 20
2.48329737354579
 30
0.0
 10
-56.93991975022488
 20
1.875318652843779
 30
0.0
 10
-55.74484087192466
 20
1.256439570906241
 30
0.0
 10
-54.54996425386429
 20
0.6302463644264604
 30
0.0
 10
-53.75359380411925
 20
0.2104180593724092
 30
0.0
 10
-53.35519140411253
 20
0.0003858928822426
 30
0.0
  0
SPLINE
  5
40CF
330
1F
100
AcDbEntity
  8
AM_0
100
AcDbSpline
210
0.0
220
0.0
230
1.0
 70
     8
 71
     3
 72
    11
 73
     7
 74
     0
 42
0.0000000001
 43
0.0000000001
 40
11.27226913003534
 40
11.27226913003534
 40
11.27226913003534
 40
11.2722691300354
 40
12.28301561507924
 40
13.29510212255852
 40
14.30984805882082
 40
15.18258238371378
 40
15.18258238371378
 40
15.18258238371378
 40
15.18258238371378
 10
-74.66527693119896
 20
-7.600000663105034
 30
0.0
 10
-75.06737074519172
 20
-7.562804054559443
 30
0.0
 10
-75.87079994778325
 20
-7.472752684133078
 30
0.0
 10
-77.07179499304915
 20
-7.291096795829445
 30
0.0
 10
-78.21156046784681
 20
-7.074128755042107
 30
0.0
 10
-78.94869387405477
 20
-6.907338964705756
 30
0.0
 10
-79.28838593748993
 20
-6.824949415179612
 30
0.0
  0
SPLINE
  5
40D0
330
1F
100
AcDbEntity
  8
AM_0
100
AcDbSpline
210
0.0
220
0.0
230
1.0
 70
     8
 71
     3
 72
    17
 73
    13
 74
     0
 42
0.0000000001
 43
0.0000000001
 40
1.580019955310467
 40
1.580019955310467
 40
1.580019955310467
 40
1.580019955310467
 40
2.030549285115227
 40
3.082371838836284
 40
4.126290986361125
 40
5.162752068350215
 40
6.192395305374981
 40
7.216039564037012
 40
8.234688489606833
 40
9.249433870634691
 40
10.26152376260694
 40
11.27226744710342
 40
11.27226744710342
 40
11.27226744710342
 40
11.27226744710352
 10
-63.25457485823237
 20
-5.609024457192151
 30
0.0
 10
-63.42596749170249
 20
-5.666792742642609
 30
0.0
 10
-63.9984764689382
 20
-5.856136014263971
 30
0.0
 10
-64.97589126936439
 20
-6.153127710621885
 30
0.0
 10
-66.18656409304745
 20
-6.485719011899217
 30
0.0
 10
-67.39757021382539
 20
-6.777690015726441
 30
0.0
 10
-68.60863182248102
 20
-7.028060217851308
 30
0.0
 10
-69.81982537412843
 20
-7.235008413332458
 30
0.0
 10
-71.03110260366276
 20
-7.39735364006981
 30
0.0
 10
-72.2424552570136
 20
-7.514043846672746
 30
0.0
 10
-73.45385348958856
 20
-7.584327884729885
 30
0.0
 10
-74.26164832252516
 20
-7.600000706592646
 30
0.0
 10
-74.66527693119889
 20
-7.600000663105034
 30
0.0
  0
SPLINE
  5
40D1
330
1F
100
AcDbEntity
  8
AM_0
 48
0.5
100
AcDbSpline
210
0.0
220
0.0
230
1.0
 70
     8
 71
     3
 72
    17
 73
    13
 74
     0
 42
0.0000000001
 43
0.0000000001
 40
0.0
 40
0.0
 40
0.0
 40
0.0
 40
1.010743614677189
 40
2.022833924044153
 40
3.037578959561199
 40
4.056212747067873
 40
5.079857613375832
 40
6.109500119648989
 40
7.14596120163808
 40
8.18989512056258
 40
9.241717674284874
 40
9.693948937866434
 40
9.693948937866434
 40
9.693948937866434
 40
9.693948937866434
 10
-8.720114055763335
 20
7.599999336892933
 30
0.0
 10
-9.123742743217718
 20
7.595480779654595
 30
0.0
 10
-9.931537904962031
 20
7.586437644742201
 30
0.0
 10
-11.14293514268404
 20
7.513467308957388
 30
0.0
 10
-12.35428250788493
 20
7.397507546417712
 30
0.0
 10
-13.56555453758863
 20
7.234968006428252
 30
0.0
 10
-14.7767368058962
 20
7.028053098237901
 30
0.0
 10
-15.9878145194135
 20
6.777722153412843
 30
0.0
 10
-17.19877142344221
 20
6.485586635032274
 30
0.0
 10
-18.40965450797113
 20
6.153613274642539
 30
0.0
 10
-19.38711090912613
 20
5.854555458536964
 30
0.0
 10
-19.96113061720853
 20
5.66760131707526
 30
0.0
 10
-20.13342053703681
 20
5.610375905899791
 30
0.0
  0
SPLINE
  5
40D3
330
1F
100
AcDbEntity
  8
AM_0
 48
0.5
100
AcDbSpline
210
0.0
220
0.0
230
1.0
 70
     8
 71
     3
 72
    25
 73
    21
 74
     0
 42
0.0000000001
 43
0.0000000001
 40
6.846175049578289
 40
6.846175049578289
 40
6.846175049578289
 40
6.846175049578289
 40
7.604337694224321
 40
8.711974558287883
 40
9.814980593243754
 40
10.91239053451967
 40
12.0033633515982
 40
13.08720139956839
 40
14.16337181880432
 40
15.23152222380919
 40
16.29148850140128
 40
17.34331105512262
 40
18.38723020264746
 40
19.42369128463655
 40
20.45333379090873
 40
21.47697865721768
 40
22.49561244472435
 40
23.5103574802404
 40
24.52244778960836
 40
25.53320666051913
 40
25.53320666051913
 40
25.53320666051913
 40
25.53320666051913
 10
-10.13290932694568
 20
1.375649092959354
 30
0.0
 10
-10.40809754371556
 20
1.509091576409124
 30
0.0
 10
-11.08590082288114
 20
1.83615138108616
 30
0.0
 10
-12.167326452195
 20
2.349753010315558
 30
0.0
 10
-13.37739886395119
 20
2.909978451752514
 30
0.0
 10
-14.58753213103489
 20
3.452304844457273
 30
0.0
 10
-15.79773665074612
 20
3.973397660782372
 30
0.0
 10
-17.00802590774981
 20
4.470042019529651
 30
0.0
 10
-18.21841109341999
 20
4.939175164546884
 30
0.0
 10
-19.42889781120259
 20
5.377913933094665
 30
0.0
 10
-20.63950097118863
 20
5.783527913699197
 30
0.0
 10
-21.85021893407693
 20
6.153529866191918
 30
0.0
 10
-23.06106039620057
 20
6.485610982263277
 30
0.0
 10
-24.27202108444434
 20
6.777716063661285
 30
0.0
 10
-25.48309626818375
 20
7.028054715228363
 30
0.0
 10
-26.69427920835467
 20
7.234967576265545
 30
0.0
 10
-27.90555105943684
 20
7.397507661924922
 30
0.0
 10
-29.11689847198518
 20
7.513467274573261
 30
0.0
 10
-30.32830178218095
 20
7.586438033718116
 30
0.0
 10
-31.13610304442361
 20
7.595480886502444
 30
0.0
 10
-31.53973782832387
 20
7.599999336893691
 30
0.0
  0
SPLINE
  5
40D4
330
1F
100
AcDbEntity
  8
AM_0
 48
0.5
100
AcDbSpline
210
0.0
220
0.0
230
1.0
 70
     8
 71
     3
 72
    10
 73
     6
 74
     0
 42
0.0000000001
 43
0.0000000001
 40
0.0
 40
0.0
 40
0.0
 40
0.0
 40
2.69986029516136
 40
4.147722969032201
 40
6.285750005020438
 40
6.285750005020438
 40
6.285750005020438
 40
6.285750005020438
 10
-10.1327156510341
 20
1.37555882582513
 30
0.0
 10
-9.270539053113157
 20
0.6694663074581121
 30
0.0
 10
-7.946000266803524
 20
-0.4152846931552955
 30
0.0
 10
-4.813643965678754
 20
0.1098622694758965
 30
0.0
 10
-5.40355776738083
 20
1.878626726904071
 30
0.0
 10
-5.793335116408205
 20
2.956743140185568
 30
0.0
  0
SPLINE
  5
40D5
330
1F
100
AcDbEntity
  8
AM_0
100
AcDbSpline
210
0.0
220
0.0
230
1.0
 70
     8
 71
     3
 72
    55
 73
    51
 74
     0
 42
0.0000000001
 43
0.0000000001
 40
0.0
 40
0.0
 40
0.0
 40
0.0
 40
1.010743684496582
 40
2.022833576467832
 40
3.037578957496688
 40
4.056212745003489
 40
5.079857003664532
 40
6.109500240690281
 40
7.145961322679372
 40
8.189895241603872
 40
9.241717795325891
 40
10.30168407291828
 40
11.36983447792315
 40
12.44600489715814
 40
13.52984294512926
 40
14.62081576220742
 40
15.7182257034828
 40
16.82123173843959
 40
17.92886860250316
 40
19.0400688939571
 40
20.15368796660465
 40
21.26852814259644
 40
22.38336992938901
 40
23.49698739941135
 40
24.6081876908653
 40
25.71582455492886
 40
26.81883757994213
 40
27.91624752121713
 40
29.00722033829659
 40
30.09105838626677
 40
31.16722880550176
 40
32.23537921050758
 40
33.29534548809967
 40
34.347168041821
 40
35.39108718934584
 40
36.42754827133493
 40
37.45720575381954
 40
38.48085062012849
 40
39.49948440763516
 40
40.51422944315121
 40
41.52631975251916
 40
42.53706336719636
 40
43.54780698187354
 40
44.55989729124051
 40
45.57464232675757
 40
46.59327611426424
 40
47.6169209805722
 40
48.64656348684535
 40
49.68302456883444
 40
50.58557219878025
 40
50.58557219878025
 40
50.58557219878025
 40
50.58557219878025
 10
-8.720114055763803
 20
-7.600000663107065
 30
0.0
 10
-9.123742669762599
 20
-7.595478847228309
 30
0.0
 10
-9.931537489897054
 20
-7.586429192873366
 30
0.0
 10
-11.14293574816643
 20
-7.513478819260472
 30
0.0
 10
-12.3542822964117
 20
-7.397506781979666
 30
0.0
 10
-13.56555387419826
 20
-7.234967560981936
 30
0.0
 10
-14.77673839494253
 20
-7.02806387434158
 30
0.0
 10
-15.98781196468196
 20
-6.77771578978074
 30
0.0
 10
-17.1987786344039
 20
-6.485609741228629
 30
0.0
 10
-18.40962766528133
 20
-6.153534446364576
 30
0.0
 10
-19.62035080922557
 20
-5.783528827354021
 30
0.0
 10
-20.83095410102216
 20
-5.377915371219533
 30
0.0
 10
-22.04144078290814
 20
-4.939176460119695
 30
0.0
 10
-23.25182597894501
 20
-4.470043355223368
 30
0.0
 10
-24.46211523072703
 20
-3.973398979974893
 30
0.0
 10
-25.67231976094923
 20
-3.452306189355503
 30
0.0
 10
-26.88245299094361
 20
-2.909979709746319
 30
0.0
 10
-28.09252554148548
 20
-2.349754592403434
 30
0.0
 10
-29.30254915646682
 20
-1.775076439731449
 30
0.0
 10
-30.51253678365453
 20
-1.189482327484886
 30
0.0
 10
-31.72249903579186
 20
-0.5965722476077449
 30
0.0
 10
-32.93245299942004
 20
-0.0000022137823343
 30
0.0
 10
-34.14240153136734
 20
0.5965785586754726
 30
0.0
 10
-35.35236783903441
 20
1.189479405374386
 30
0.0
 10
-36.56235397247614
 20
1.775075290180987
 30
0.0
 10
-37.77237974491621
 20
2.34975563212059
 30
0.0
 10
-38.98245731541948
 20
2.909975968403951
 30
0.0
 10
-40.19259245532382
 20
3.452305198362969
 30
0.0
 10
-41.4027971602593
 20
3.973397566429831
 30
0.0
 10
-42.61308636800278
 20
4.47004204612075
 30
0.0
 10
-43.82347156713893
 20
4.939175151703318
 30
0.0
 10
-45.03395827985696
 20
5.377913957894068
 30
0.0
 10
-46.24456144670609
 20
5.783527828197207
 30
0.0
 10
-47.45527938740701
 20
6.153530180062886
 30
0.0
 10
-48.66612093058175
 20
6.485609824284797
 30
0.0
 10
-49.87708715109788
 20
6.777721746722064
 30
0.0
 10
-51.0881693683085
 20
7.028041238056452
 30
0.0
 10
-52.29935789046418
 20
7.235008965761694
 30
0.0
 10
-53.51062982732583
 20
7.397355517492291
 30
0.0
 10
-54.7219772172515
 20
7.51403181070884
 30
0.0
 10
-55.9333744483995
 20
7.584337902185076
 30
0.0
 10
-57.14479829926705
 20
7.607824840985449
 30
0.0
 10
-58.35622214835211
 20
7.584337902148326
 30
0.0
 10
-59.56761938485784
 20
7.514031810856707
 30
0.0
 10
-60.77896675505796
 20
7.397355516935741
 30
0.0
 10
-61.99023876587543
 20
7.235008967854091
 30
0.0
 10
-63.20142110522827
 20
7.028042239190848
 30
0.0
 10
-64.4124985512359
 20
6.777724306103989
 30
0.0
 10
-65.56840476571053
 20
6.498869856192061
 30
0.0
 10
-66.31836988149579
 20
6.294940960772532
 30
0.0
 10
-66.66630998409177
 20
6.195556461783974
 30
0.0
  0
SPLINE
  5
40D6
330
1F
100
AcDbEntity
  8
AM_0
100
AcDbSpline
210
0.0
220
0.0
230
1.0
 70
     8
 71
     3
 72
    11
 73
     7
 74
     0
 42
0.0000000001
 43
0.0000000001
 40
11.27226913003534
 40
11.27226913003534
 40
11.27226913003534
 40
11.2722691300354
 40
12.28301561507924
 40
13.29510212255852
 40
14.30984805882082
 40
15.18258238371378
 40
15.18258238371378
 40
15.18258238371378
 40
15.18258238371378
 10
-31.53973782832432
 20
-7.600000663106307
 30
0.0
 10
-31.9418316423171
 20
-7.562804054560717
 30
0.0
 10
-32.74526084490864
 20
-7.472752684134352
 30
0.0
 10
-33.94625589017454
 20
-7.291096795830717
 30
0.0
 10
-35.08602136497216
 20
-7.074128755043375
 30
0.0
 10
-35.82315477118012
 20
-6.90733896470703
 30
0.0
 10
-36.16284683461528
 20
-6.824949415180887
 30
0.0
  0
SPLINE
  5
40D7
330
1F
100
AcDbEntity
  8
AM_0
100
AcDbSpline
210
0.0
220
0.0
230
1.0
 70
     8
 71
     3
 72
    22
 73
    18
 74
     0
 42
0.0000000001
 43
0.0000000001
 40
17.17441611292
 40
17.17441611292
 40
17.17441611292
 40
17.17441611292
 40
17.38177636558528
 40
18.41823744757437
 40
19.46215659509824
 40
20.51397914882054
 40
21.57394542641293
 40
22.64209583141747
 40
23.71826625065247
 40
24.80210429862395
 40
25.8930771157021
 40
26.99048705697709
 40
28.09349309193389
 40
29.20112995599786
 40
30.31233024745139
 40
31.42594771747373
 40
32.5407895042663
 40
32.54078950426994
 40
32.54078950426994
 40
32.54078950426994
 10
-36.16337662082759
 20
-6.824855669239001
 30
0.0
 10
-36.24449357344326
 20
-6.807262414660447
 30
0.0
 10
-36.73074540382614
 20
-6.700099978032367
 30
0.0
 10
-37.62153135690606
 20
-6.485225345091398
 30
0.0
 10
-38.83237272693745
 20
-6.153144746802043
 30
0.0
 10
-40.04309071477493
 20
-5.783142653992625
 30
0.0
 10
-41.25369386801962
 20
-5.377528711469626
 30
0.0
 10
-42.46418058754893
 20
-4.938789932408444
 30
0.0
 10
-43.67456577305073
 20
-4.469656790970016
 30
0.0
 10
-44.88485502894869
 20
-3.973012428497699
 30
0.0
 10
-46.0950595532964
 20
-3.451919623561889
 30
0.0
 10
-47.30519280280092
 20
-2.909593188703363
 30
0.0
 10
-48.51526528068868
 20
-2.349367905570417
 30
0.0
 10
-49.7252891682956
 20
-1.774690374771584
 30
0.0
 10
-50.93527519143016
 20
-1.189094212623717
 30
0.0
 10
-52.14524127498319
 20
-0.5961928639666782
 30
0.0
 10
-52.95172699611703
 20
-0.1985465061209446
 30
0.0
 10
-53.3551914041179
 20
0.0003858928849732
 30
0.0
  0
SPLINE
  5
40D8
330
1F
100
AcDbEntity
  8
AM_0
100
AcDbSpline
210
0.0
220
0.0
230
1.0
 70
     8
 71
     3
 72
    17
 73
    13
 74
     0
 42
0.0000000001
 43
0.0000000001
 40
1.580019955310467
 40
1.580019955310467
 40
1.580019955310467
 40
1.580019955310467
 40
2.030549285115227
 40
3.082371838836284
 40
4.126290986361125
 40
5.162752068350215
 40
6.192395305374981
 40
7.216039564037012
 40
8.234688489606833
 40
9.249433870634691
 40
10.26152376260694
 40
11.27226744710342
 40
11.27226744710342
 40
11.27226744710342
 40
11.27226744710352
 10
-20.12903575535768
 20
-5.609024457193424
 30
0.0
 10
-20.30042838882781
 20
-5.666792742643885
 30
0.0
 10
-20.87293736606353
 20
-5.856136014265245
 30
0.0
 10
-21.85035216648973
 20
-6.15312771062316
 30
0.0
 10
-23.0610249901728
 20
-6.485719011900486
 30
0.0
 10
-24.27203111095073
 20
-6.777690015727713
 30
0.0
 10
-25.48309271960638
 20
-7.02806021785258
 30
0.0
 10
-26.69428627125379
 20
-7.23500841333373
 30
0.0
 10
-27.90556350078814
 20
-7.397353640071086
 30
0.0
 10
-29.116916154139
 20
-7.514043846674021
 30
0.0
 10
-30.32831438671395
 20
-7.584327884731162
 30
0.0
 10
-31.13610921965052
 20
-7.600000706593926
 30
0.0
 10
-31.53973782832425
 20
-7.600000663106307
 30
0.0
  0
SPLINE
  5
40D9
330
1F
100
AcDbEntity
  8
AM_0
100
AcDbSpline
210
0.0
220
0.0
230
1.0
 70
     8
 71
     3
 72
    46
 73
    42
 74
     0
 42
0.0000000001
 43
0.0000000001
 40
0.0
 40
0.0
 40
0.0
 40
0.0
 40
1.348332046947657
 40
2.024828967632895
 40
2.703918159304097
 40
3.386347665078124
 40
4.072776489761952
 40
4.763750544421347
 40
5.459696642770596
 40
6.160921452191754
 40
6.867565637253344
 40
7.579665907256596
 40
8.297112853413899
 40
9.019671552060676
 40
9.746986763446127
 40
10.47859339096366
 40
11.21393074760089
 40
11.95235532364328
 40
12.69315551794651
 40
13.43556823304427
 40
14.1787950170388
 40
14.92202180103393
 40
15.66443451613169
 40
16.40523471043432
 40
17.14365928647669
 40
17.87899664311455
 40
18.61060327063121
 40
19.3379184820169
 40
20.06048192311554
 40
20.77792886927283
 40
21.49002913927608
 40
22.19667332433747
 40
22.89788836015233
 40
23.59383445850158
 40
24.28480851316097
 40
24.97123685067576
 40
25.65366676154838
 40
26.33276604526152
 40
27.00926273560555
 40
27.68398960851751
 40
28.357818684969
 40
28.357818684969
 40
28.357818684969
 40
28.357818684969
 10
-5.329022070253818
 20
-7.600000663107179
 30
0.0
 10
-6.136856357955835
 20
-7.5826872756202
 30
0.0
 10
-7.350004313972357
 20
-7.556687264279642
 30
0.0
 10
-8.963180054331054
 20
-7.396609970912178
 30
0.0
 10
-10.17446464597397
 20
-7.235209476750124
 30
0.0
 10
-11.38564570161946
 20
-7.027998658683572
 30
0.0
 10
-12.5967200306019
 20
-6.777732874013961
 30
0.0
 10
-13.80768141139496
 20
-6.4856086063986
 30
0.0
 10
-15.01852781582027
 20
-6.15352886000162
 30
0.0
 10
-16.22925385518365
 20
-5.783532653624249
 30
0.0
 10
-17.43986194943606
 20
-5.377914840949117
 30
0.0
 10
-18.65034884240987
 20
-4.939176603833447
 30
0.0
 10
-19.86073398122462
 20
-4.470043316253812
 30
0.0
 10
-21.07102324859404
 20
-3.973398990685261
 30
0.0
 10
-22.28122777425673
 20
-3.452306185846219
 30
0.0
 10
-23.49136100676893
 20
-2.909979713001691
 30
0.0
 10
-24.70143355179958
 20
-2.34975458285377
 30
0.0
 10
-25.91145718640762
 20
-1.77507647485559
 30
0.0
 10
-27.12144474029305
 20
-1.189482196023782
 30
0.0
 10
-28.33140726677116
 20
-0.5965727395364905
 30
0.0
 10
-29.54135962209067
 20
-0.0000006632270811
 30
0.0
 10
-30.75131197714437
 20
0.5965714138072843
 30
0.0
 10
-31.96127450441979
 20
1.189480868120772
 30
0.0
 10
-33.17126205539095
 20
1.775075154896867
 30
0.0
 10
-34.38128570080521
 20
2.349753233432561
 30
0.0
 10
-35.59135820576744
 20
2.90997847282443
 30
0.0
 10
-36.8014915866666
 20
3.452304541100155
 30
0.0
 10
-38.01169819438124
 20
3.973399975276509
 30
0.0
 10
-39.22199216435087
 20
4.470039788579604
 30
0.0
 10
-40.43237946230719
 20
4.93917548171408
 30
0.0
 10
-41.64286632709738
 20
5.377913849377708
 30
0.0
 10
-42.85346944830932
 20
5.783527934771778
 30
0.0
 10
-44.06418742085405
 20
6.15352986467705
 30
0.0
 10
-45.27502888268556
 20
6.485610967656134
 30
0.0
 10
-46.48598956263777
 20
6.777716122968276
 30
0.0
 10
-47.6970647795058
 20
7.028054494577443
 30
0.0
 10
-48.90825356500225
 20
7.234969412938798
 30
0.0
 10
-50.11953191520276
 20
7.397506136512199
 30
0.0
 10
-51.33088520660535
 20
7.513467530228615
 30
0.0
 10
-52.54228246923131
 20
7.586437589572267
 30
0.0
 10
-53.35007762766178
 20
7.595480761273804
 30
0.0
 10
-53.75370631346019
 20
7.599999336894428
 30
0.0
  0
ELLIPSE
  5
40DA
330
1F
100
AcDbEntity
  8
AM_0
 48
0.5
100
AcDbEllipse
 10
-22.26133222196712
 20
52.16818847257405
 30
0.0
 11
0.0058834125349501
 21
56.98038158819388
 31
0.0
210
0.0
220
0.0
230
1.0
 40
0.9713517412003815
 41
3.480558518809648
 42
3.555624745040422
  0
ELLIPSE
  5
40DB
330
1F
100
AcDbEntity
  8
AM_0
 48
0.5
100
AcDbEllipse
 10
-14.66730222103964
 20
12.75555455336391
 30
0.0
 11
-0.0000000000093388
 21
18.32440522511713
 31
0.0
210
0.0
220
0.0
230
1.0
 40
0.9457487750908377
 41
3.652175978817654
 42
3.740670756497157
  0
ELLIPSE
  5
40DC
330
1F
100
AcDbEntity
  8
AM_0
 48
0.5
100
AcDbEllipse
 10
2.363340231662518
 20
9.124266915017528
 30
0.0
 11
0.0000000000005957
 21
15.31738014221161
 31
0.0
210
0.0
220
0.0
230
1.0
 40
0.9457487750908814
 41
2.101163880028995
 42
2.50928481022389
  0
ELLIPSE
  5
40DD
330
1F
100
AcDbEntity
  8
AM_0
 48
0.5
100
AcDbEllipse
 10
-4.366565105285204
 20
-1.980670066183883
 30
0.0
 11
-1.026781673498811
 21
0.6514466205628394
 31
0.0
210
0.0
220
0.0
230
0.9999999999999998
 40
0.5131012162913815
 41
4.517522226075605
 42
7.660962567405114
  0
ELLIPSE
  5
40DE
330
1F
100
AcDbEntity
  8
AM_0
 48
0.5
100
AcDbEllipse
 10
-4.366565105285204
 20
-1.980670066183883
 30
0.0
 11
-0.201112289682779
 21
1.248620696393494
 31
0.0
210
0.0
220
0.0
230
1.0
 40
0.4743323445553317
 41
1.817545238394592
 42
4.952887128106569
  0
ELLIPSE
  5
40DF
330
1F
100
AcDbEntity
  8
AM_0
 48
0.5
100
AcDbEllipse
 10
5.20918068719133
 20
-1.689375968282838
 30
0.0
 11
11.34127507390478
 21
2.095773463643336
 31
0.0
210
0.0
220
0.0
230
0.9999999999999998
 40
0.614974635526257
 41
3.06309230956813
 42
3.796577602073774
  0
LINE
  5
40E0
330
1F
100
AcDbEntity
  8
AM_11
 48
0.5
100
AcDbLine
 10
-121.6265596992923
 20
7.599999336896351
 30
0.0
 11
-100.2704946016686
 21
7.599999336895814
 31
0.0
  0
LINE
  5
40E1
330
1F
100
AcDbEntity
  8
AM_11
 48
0.5
100
AcDbLine
 10
-125.1130662011779
 20
-7.600212064216635
 30
0.0
 11
-100.270494601669
 21
-7.600000663104191
 31
0.0
  0
LINE
  5
40E2
330
1F
100
AcDbEntity
  8
AM_0
 48
0.5
100
AcDbLine
 10
-106.882411539174
 20
4.277546519292136
 30
0.0
 11
-127.9999999999992
 21
-0.245476220295788
 31
0.0
  0
SPLINE
  5
40E3
330
1F
100
AcDbEntity
  8
AM_0
 48
0.5
100
AcDbSpline
210
0.0
220
0.0
230
1.0
 70
     8
 71
     3
 72
    19
 73
    15
 74
     0
 42
0.0000000001
 43
0.0000000001
 40
3.111699631838226
 40
3.111699631838226
 40
3.111699631838226
 40
3.111699631838226
 40
4.056212471389632
 40
5.079857945358201
 40
6.109499720892564
 40
7.145961650132166
 40
8.189873411961459
 40
9.241710626092514
 40
10.30166235592959
 40
11.36982472628033
 40
12.44598212828784
 40
13.52983440361964
 40
14.62080578343036
 40
14.90544694398022
 40
14.90544694398022
 40
14.90544694398022
 40
14.90544694398022
 10
-107.428759540361
 20
-7.600066671726507
 30
0.0
 10
-108.3389903748105
 20
-7.484690350357592
 30
0.0
 10
-109.2058390794228
 20
-7.340108279948616
 30
0.0
 10
-110.7745922547149
 20
-7.104687767908425
 30
0.0
 10
-112.1222516929666
 20
-6.778106529281687
 30
0.0
 10
-113.5980547090186
 20
-6.48599352164484
 30
0.0
 10
-115.073719943927
 20
-6.153906697035979
 30
0.0
 10
-116.5492341071545
 20
-5.783919550070595
 30
0.0
 10
-118.024604909593
 20
-5.378283864201746
 30
0.0
 10
-119.4998418619636
 20
-4.939580884757491
 30
0.0
 10
-120.9749438561901
 20
-4.47041868237896
 30
0.0
 10
-122.4499385265706
 20
-3.973786032710061
 30
0.0
 10
-123.5585001005192
 20
-3.582137454780808
 30
0.0
 10
-124.1762292942992
 20
-3.358283716841293
 30
0.0
 10
-124.8039958095584
 20
-3.188251093699348
 30
0.0
  0
SPLINE
  5
40E4
330
1F
100
AcDbEntity
  8
AM_0
100
AcDbSpline
210
0.0
220
0.0
230
1.0
 70
     8
 71
     3
 72
    13
 73
     9
 74
     0
 42
0.0000000001
 43
0.0000000001
 40
16.03460056234195
 40
16.03460056234195
 40
16.03460056234195
 40
16.03460056234195
 40
16.35212717791071
 40
17.38177067057215
 40
18.41822498539278
 40
19.46214186516937
 40
20.5139635832251
 40
21.34083983469381
 40
21.34083983469381
 40
21.34083983469381
 40
21.34083983469381
 10
-125.0795655690196
 20
-7.60038655598763
 30
0.0
 10
-124.6623251056737
 20
-7.575422236450123
 30
0.0
 10
-124.0194551582086
 20
-7.463699503503804
 30
0.0
 10
-122.8870343768693
 20
-7.244787297337584
 30
0.0
 10
-121.4205455165737
 20
-6.919271943826233
 30
0.0
 10
-119.9554190344701
 20
-6.553771201870382
 30
0.0
 10
-118.5996950569211
 20
-6.180196638930414
 30
0.0
 10
-117.7347670334147
 20
-5.922963966424435
 30
0.0
 10
-116.9510032752574
 20
-5.671054974971691
 30
0.0
  0
SPLINE
  5
40E5
330
1F
100
AcDbEntity
  8
AM_0
 48
0.5
100
AcDbSpline
210
0.0
220
0.0
230
1.0
 70
     8
 71
     3
 72
    26
 73
    22
 74
     0
 42
0.0000000001
 43
0.0000000001
 40
0.0
 40
0.0
 40
0.0
 40
0.0
 40
0.4211432018735474
 40
0.8428473235286537
 40
1.265657898956934
 40
1.690088643751428
 40
2.116607084860617
 40
2.545625100287603
 40
2.977483884449724
 40
3.412450195918404
 40
3.850709593302191
 40
4.292362208965671
 40
4.737427885281768
 40
5.185826256336565
 40
5.637431371058531
 40
6.092003378174421
 40
6.549257520372505
 40
7.008843368271169
 40
7.470358728297647
 40
7.933358849736796
 40
8.383035712276667
 40
8.383035712276667
 40
8.383035712276667
 40
8.383035712276667
 10
-99.12762249193567
 20
-7.600386555988237
 30
0.0
 10
-99.61952824686825
 20
-7.595864740306518
 30
0.0
 10
-100.6039949250165
 20
-7.586815086345917
 30
0.0
 10
-102.0803366749819
 20
-7.513864709769936
 30
0.0
 10
-103.55661540977
 20
-7.397892683795524
 30
0.0
 10
-105.0328027612386
 20
-7.235353420297871
 30
0.0
 10
-106.5088840762832
 20
-7.028449893474394
 30
0.0
 10
-107.9848299456377
 20
-6.778101207164269
 30
0.0
 10
-109.4606393874209
 20
-6.485998814228089
 30
0.0
 10
-110.9363023366453
 20
-6.153916797486031
 30
0.0
 10
-112.4118153047006
 20
-5.783915670367264
 30
0.0
 10
-113.8871904351135
 20
-5.378298350662475
 30
0.0
 10
-115.3624216144117
 20
-4.939569394576571
 30
0.0
 10
-116.8375255573794
 20
-4.470420074319401
 30
0.0
 10
-118.3125219871736
 20
-3.973790025475688
 30
0.0
 10
-119.7874140907068
 20
-3.452691933904911
 30
0.0
 10
-121.2622128625249
 20
-2.910363262768619
 30
0.0
 10
-122.736945385572
 20
-2.350150062878188
 30
0.0
 10
-124.2115872882561
 20
-1.77542616865127
 30
0.0
 10
-125.59082208942
 20
-1.196046030599902
 30
0.0
 10
-126.5197535819691
 20
-0.9669906228225061
 30
0.0
 10
-127.9999999999992
 20
-0.245476220295788
 30
0.0
  0
SPLINE
  5
40E6
330
1F
100
AcDbEntity
  8
AM_0
100
AcDbSpline
210
0.0
220
0.0
230
1.0
 70
     8
 71
     3
 72
    23
 73
    19
 74
     0
 42
0.0000000001
 43
0.0000000001
 40
16.03460024169435
 40
16.03460024169435
 40
16.03460024169435
 40
16.03460024169435
 40
16.35212704903564
 40
17.38177054169784
 40
18.41822485651776
 40
19.46214173629503
 40
20.51396345435107
 40
21.57393551351153
 40
22.64208202342361
 40
23.7182574881101
 40
24.80209208578934
 40
25.89306333925047
 40
26.99048218457928
 40
28.09348763352352
 40
29.20111863782268
 40
30.31232390128032
 40
31.42594612798585
 40
32.5407912310448
 40
32.5407912310486
 40
32.5407912310486
 40
32.5407912310486
 10
-121.6454727331139
 20
7.600693161937906
 30
0.0
 10
-120.9429478997759
 20
7.57503690029497
 30
0.0
 10
-118.1302955199678
 20
7.41744451964389
 30
0.0
 10
-116.9451861556274
 20
7.229155733533826
 30
0.0
 10
-115.4524648476213
 20
6.918885195518279
 30
0.0
 10
-113.9873383155376
 20
6.553384697995945
 30
0.0
 10
-112.5234873516196
 20
6.150015289496232
 30
0.0
 10
-111.0608600012025
 20
5.711025763501759
 30
0.0
 10
-109.599371727931
 20
5.238925569270767
 30
0.0
 10
-108.1389207593163
 20
4.736462211514099
 30
0.0
 10
-106.6794241072892
 20
4.206481110931163
 30
0.0
 10
-105.2207647587108
 20
3.652066104057976
 30
0.0
 10
-103.7628245055525
 20
3.076439690448561
 30
0.0
 10
-102.3055062094136
 20
2.482911480663088
 30
0.0
 10
-100.8486879382421
 20
1.874932759961064
 30
0.0
 10
-99.39223475981297
 20
1.256053678023572
 30
0.0
 10
-97.93602807772357
 20
0.6298604715437781
 30
0.0
 10
-96.96548438073524
 20
0.2100321664897299
 30
0.0
 10
-96.47994785898788
 20
-0.000000000000418
 30
0.0
  0
ELLIPSE
  5
40E7
330
1F
100
AcDbEntity
  8
AM_0
 48
0.5
100
AcDbEllipse
 10
-125.6976946691883
 20
-5.019100801784703
 30
0.0
 11
2.275637566477996
 21
0.4273752459231972
 31
0.0
210
0.0
220
0.0
230
1.0
 40
0.829561397006249
 41
1.017735525267662
 42
2.960945460933458
  0
ELLIPSE
  5
40E8
330
1F
100
AcDbEntity
  8
AM_0
 48
0.5
100
AcDbEllipse
 10
-125.0795646524146
 20
-5.067053222654426
 30
0.0
 11
-2.920697123950681
 21
0.0027567221166578
 31
0.0
210
0.0
220
0.0
230
0.9999999999999998
 40
0.8673723491797835
 41
0.0142324356139454
 42
1.571614688746851
  0
LINE
  5
40E9
330
1F
100
AcDbEntity
  8
AM_0
100
AcDbLine
 10
-100.2704946016686
 20
7.599999336895814
 30
0.0
 11
-71.70737852786463
 21
7.601079054820723
 31
0.0
  0
LINE
  5
40EA
330
1F
100
AcDbEntity
  8
AM_0
 48
0.5
100
AcDbLine
 10
-100.2705037413328
 20
-7.600000663104076
 30
0.0
 11
-74.66527356911767
 21
-7.600000663104854
 31
0.0
  0
SPLINE
  5
40EB
330
1F
100
AcDbEntity
  8
AM_0
100
AcDbSpline
210
0.0
220
0.0
230
1.0
 70
     8
 71
     3
 72
    55
 73
    51
 74
     0
 42
0.0000000001
 43
0.0000000001
 40
0.0
 40
0.0
 40
0.0
 40
0.0
 40
1.010743684496582
 40
2.022833576467832
 40
3.037578957496688
 40
4.056212745003489
 40
5.079857003664532
 40
6.109500240690281
 40
7.145961322679372
 40
8.189895241603872
 40
9.241717795325891
 40
10.30168407291828
 40
11.36983447792315
 40
12.44600489715814
 40
13.52984294512926
 40
14.62081576220742
 40
15.7182257034828
 40
16.82123173843959
 40
17.92886860250316
 40
19.0400688939571
 40
20.15368796660465
 40
21.26852814259644
 40
22.38336992938901
 40
23.49698739941135
 40
24.6081876908653
 40
25.71582455492886
 40
26.81883757994213
 40
27.91624752121713
 40
29.00722033829659
 40
30.09105838626677
 40
31.16722880550176
 40
32.23537921050758
 40
33.29534548809967
 40
34.347168041821
 40
35.39108718934584
 40
36.42754827133493
 40
37.45720575381954
 40
38.48085062012849
 40
39.49948440763516
 40
40.51422944315121
 40
41.52631975251916
 40
42.53706336719636
 40
43.54780698187354
 40
44.55989729124051
 40
45.57464232675757
 40
46.59327611426424
 40
47.6169209805722
 40
48.64656348684535
 40
49.68302456883444
 40
50.58557219878025
 40
50.58557219878025
 40
50.58557219878025
 40
50.58557219878025
 10
-51.84565315863846
 20
-7.600000663105794
 30
0.0
 10
-52.24928177263725
 20
-7.595478847227031
 30
0.0
 10
-53.05707659277171
 20
-7.586429192872086
 30
0.0
 10
-54.26847485104108
 20
-7.513478819259198
 30
0.0
 10
-55.47982139928635
 20
-7.397506781978392
 30
0.0
 10
-56.69109297707292
 20
-7.23496756098066
 30
0.0
 10
-57.9022774978172
 20
-7.028063874340308
 30
0.0
 10
-59.11335106755663
 20
-6.777715789779468
 30
0.0
 10
-60.32431773727854
 20
-6.485609741227361
 30
0.0
 10
-61.53516676815598
 20
-6.153534446363298
 30
0.0
 10
-62.74588991210025
 20
-5.783528827352744
 30
0.0
 10
-63.95649320389686
 20
-5.377915371218263
 30
0.0
 10
-65.16697988578283
 20
-4.93917646011842
 30
0.0
 10
-66.37736508181965
 20
-4.470043355222095
 30
0.0
 10
-67.58765433360171
 20
-3.97339897997362
 30
0.0
 10
-68.79785886382393
 20
-3.45230618935423
 30
0.0
 10
-70.0079920938183
 20
-2.909979709745047
 30
0.0
 10
-71.21806464436014
 20
-2.349754592402161
 30
0.0
 10
-72.42808825934147
 20
-1.775076439730175
 30
0.0
 10
-73.63807588652917
 20
-1.189482327483611
 30
0.0
 10
-74.84803813866652
 20
-0.5965722476064711
 30
0.0
 10
-76.05799210229474
 20
-0.0000022137810603
 30
0.0
 10
-77.267940634242
 20
0.5965785586767466
 30
0.0
 10
-78.47790694190912
 20
1.18947940537566
 30
0.0
 10
-79.68789307535089
 20
1.775075290182262
 30
0.0
 10
-80.89791884779096
 20
2.349755632121862
 30
0.0
 10
-82.10799641829419
 20
2.909975968405228
 30
0.0
 10
-83.31813155819842
 20
3.452305198364241
 30
0.0
 10
-84.52833626313388
 20
3.973397566431105
 30
0.0
 10
-85.7386254708774
 20
4.470042046122022
 30
0.0
 10
-86.94901067001358
 20
4.939175151704595
 30
0.0
 10
-88.15949738273166
 20
5.377913957895342
 30
0.0
 10
-89.37010054958074
 20
5.783527828198482
 30
0.0
 10
-90.58081849028168
 20
6.153530180064165
 30
0.0
 10
-91.79166003345644
 20
6.485609824286076
 30
0.0
 10
-93.00262625397257
 20
6.777721746723343
 30
0.0
 10
-94.21370847118321
 20
7.028041238057721
 30
0.0
 10
-95.4248969933389
 20
7.235008965762967
 30
0.0
 10
-96.63616893020055
 20
7.397355517493564
 30
0.0
 10
-97.84751632012621
 20
7.514031810710112
 30
0.0
 10
-99.05891355127421
 20
7.584337902186346
 30
0.0
 10
-100.2703374021417
 20
7.607824840986719
 30
0.0
 10
-101.4817612512268
 20
7.5843379021496
 30
0.0
 10
-102.6931584877325
 20
7.514031810857987
 30
0.0
 10
-103.9045058579326
 20
7.397355516937015
 30
0.0
 10
-105.1157778687501
 20
7.23500896785537
 30
0.0
 10
-106.3269602081029
 20
7.02804223919212
 30
0.0
 10
-107.5380376541105
 20
6.777724306105262
 30
0.0
 10
-108.6939438685851
 20
6.498869856193332
 30
0.0
 10
-109.4439089843704
 20
6.294940960773803
 30
0.0
 10
-111.069540384296
 20
5.708152031014639
 30
0.0
  0
SPLINE
  5
40EC
330
1F
100
AcDbEntity
  8
AM_0
100
AcDbSpline
210
0.0
220
0.0
230
1.0
 70
     8
 71
     3
 72
    22
 73
    18
 74
     0
 42
0.0000000001
 43
0.0000000001
 40
17.17441611292
 40
17.17441611292
 40
17.17441611292
 40
17.17441611292
 40
17.38177636558528
 40
18.41823744757437
 40
19.46215659509824
 40
20.51397914882054
 40
21.57394542641293
 40
22.64209583141747
 40
23.71826625065247
 40
24.80210429862395
 40
25.8930771157021
 40
26.99048705697709
 40
28.09349309193389
 40
29.20112995599786
 40
30.31233024745139
 40
31.42594771747373
 40
32.5407895042663
 40
32.54078950426994
 40
32.54078950426994
 40
32.54078950426994
 10
-79.28891572370225
 20
-6.824855669237724
 30
0.0
 10
-79.37003267631789
 20
-6.807262414659174
 30
0.0
 10
-79.85628450670081
 20
-6.700099978031091
 30
0.0
 10
-80.74707045978076
 20
-6.485225345090128
 30
0.0
 10
-81.95791182981215
 20
-6.153144746800769
 30
0.0
 10
-83.16862981764961
 20
-5.783142653991349
 30
0.0
 10
-84.3792329708943
 20
-5.377528711468348
 30
0.0
 10
-85.58971969042364
 20
-4.93878993240717
 30
0.0
 10
-86.80010487592547
 20
-4.469656790968743
 30
0.0
 10
-88.01039413182342
 20
-3.973012428496424
 30
0.0
 10
-89.22059865617118
 20
-3.451919623560617
 30
0.0
 10
-90.43073190567554
 20
-2.909593188702091
 30
0.0
 10
-91.64080438356327
 20
-2.349367905569144
 30
0.0
 10
-92.85082827117015
 20
-1.774690374770309
 30
0.0
 10
-94.06081429430484
 20
-1.189094212622442
 30
0.0
 10
-95.27078037785788
 20
-0.5961928639654037
 30
0.0
 10
-96.07726609899172
 20
-0.1985465061196706
 30
0.0
 10
-96.4807305069926
 20
0.0003858928862472
 30
0.0
  0
SPLINE
  5
40ED
330
1F
100
AcDbEntity
  8
AM_0
100
AcDbSpline
210
0.0
220
0.0
230
1.0
 70
     8
 71
     3
 72
    46
 73
    42
 74
     0
 42
0.0000000001
 43
0.0000000001
 40
0.0
 40
0.0
 40
0.0
 40
0.0
 40
1.348332046947654
 40
2.024828967632893
 40
2.703918159304094
 40
3.386347665078122
 40
4.072776489761951
 40
4.763750544421345
 40
5.459696642770595
 40
6.160921452191748
 40
6.867565637253344
 40
7.579665907256597
 40
8.297112853413899
 40
9.019671552060666
 40
9.746986763446125
 40
10.47859339096365
 40
11.21393074760088
 40
11.95235532364327
 40
12.69315551794651
 40
13.43556823304427
 40
14.1787950170388
 40
14.92202180103393
 40
15.66443451613169
 40
16.40523471043432
 40
17.14365928647669
 40
17.87899664311455
 40
18.61060327063121
 40
19.33791848201689
 40
20.06048192311554
 40
20.77792886927282
 40
21.49002913927608
 40
22.19667332433747
 40
22.89788836015233
 40
23.59383445850157
 40
24.28480851316097
 40
24.97123685067575
 40
25.65366676154837
 40
26.33276604526151
 40
27.00926273560554
 40
27.68398960851752
 40
28.35781868496899
 40
28.35781868496899
 40
28.35781868496899
 40
28.35781868496899
 10
-48.45456117312847
 20
-7.600000663105904
 30
0.0
 10
-49.26239546083048
 20
-7.582687275618929
 30
0.0
 10
-50.475543416847
 20
-7.556687264278367
 30
0.0
 10
-52.08871915720569
 20
-7.396609970910906
 30
0.0
 10
-53.30000374884862
 20
-7.235209476748854
 30
0.0
 10
-54.51118480449412
 20
-7.027998658682293
 30
0.0
 10
-55.72225913347658
 20
-6.777732874012689
 30
0.0
 10
-56.93322051426963
 20
-6.485608606397326
 30
0.0
 10
-58.1440669186949
 20
-6.153528860000345
 30
0.0
 10
-59.35479295805833
 20
-5.783532653622965
 30
0.0
 10
-60.56540105231077
 20
-5.377914840947843
 30
0.0
 10
-61.77588794528454
 20
-4.939176603832175
 30
0.0
 10
-62.98627308409929
 20
-4.470043316252543
 30
0.0
 10
-64.19656235146868
 20
-3.973398990683975
 30
0.0
 10
-65.40676687713143
 20
-3.45230618584496
 30
0.0
 10
-66.61690010964365
 20
-2.909979713000404
 30
0.0
 10
-67.82697265467423
 20
-2.349754582852506
 30
0.0
 10
-69.03699628928229
 20
-1.775076474854308
 30
0.0
 10
-70.24698384316767
 20
-1.189482196022513
 30
0.0
 10
-71.45694636964583
 20
-0.5965727395352155
 30
0.0
 10
-72.66689872496536
 20
-0.0000006632258053
 30
0.0
 10
-73.87685108001905
 20
0.5965714138085572
 30
0.0
 10
-75.08681360729451
 20
1.189480868122046
 30
0.0
 10
-76.2968011582657
 20
1.77507515489814
 30
0.0
 10
-77.50682480367996
 20
2.349753233433832
 30
0.0
 10
-78.71689730864217
 20
2.909978472825708
 30
0.0
 10
-79.9270306895412
 20
3.452304541101429
 30
0.0
 10
-81.13723729725583
 20
3.973399975277784
 30
0.0
 10
-82.3475312672255
 20
4.470039788580879
 30
0.0
 10
-83.55791856518184
 20
4.939175481715351
 30
0.0
 10
-84.76840542997207
 20
5.377913849378987
 30
0.0
 10
-85.97900855118398
 20
5.783527934773053
 30
0.0
 10
-87.18972652372876
 20
6.153529864678324
 30
0.0
 10
-88.40056798556027
 20
6.485610967657407
 30
0.0
 10
-89.61152866551246
 20
6.777716122969547
 30
0.0
 10
-90.82260388238053
 20
7.028054494578715
 30
0.0
 10
-92.03379266787692
 20
7.234969412940071
 30
0.0
 10
-93.24507101807745
 20
7.397506136513475
 30
0.0
 10
-94.45642430948005
 20
7.513467530229894
 30
0.0
 10
-95.66782157210603
 20
7.58643758957354
 30
0.0
 10
-96.47561673053649
 20
7.595480761275079
 30
0.0
 10
-96.87924541633488
 20
7.599999336895703
 30
0.0
  0
DIMENSION
  5
4176
330
1F
100
AcDbEntity
  8
AM_5
100
AcDbDimension
  2
*D9
 10
-0.6569101001225142
 20
-1.804832053867269
 30
0.0
 11
21.2908502552552
 21
-0.0000258339006048
 31
0.0
 70
    34
  1
<>
 51
359.9999999999998
  3
AM_JIS$2
100
AcDb2LineAngularDimension
 13
0.0000000000000568
 23
-0.0000000000001562
 33
0.0
 14
-0.6568967178321654
 24
1.804808914154591
 34
0.0
 15
0.0
 25
-0.0000000000001457
 35
0.0
 16
22.39606374153322
 26
-9.660740399173864
 36
0.0
1001
GENIUS_GENDTOL_13
1000

1000
h7
1000

1040
0.0
1001
ACAD
1000
DSTYLE
1002
{
1070
   271
1070
     0
1002
}
  0
ELLIPSE
  5
4276
330
1F
100
AcDbEntity
  8
AM_11
 48
0.5
100
AcDbEllipse
 10
-208.3160321091931
 20
31.8022296972429
 30
0.0
 11
-35.51732381184845
 21
0.000000000000775
 31
0.0
210
0.0
220
0.0
230
1.0
 40
0.9899999999999995
 41
1.895054800108161
 42
2.011520147323624
  0
ELLIPSE
  5
4277
330
1F
100
AcDbEntity
  8
AM_11
 48
0.5
100
AcDbEllipse
 10
-208.3160321091926
 20
-31.80208243654587
 30
0.0
 11
-35.51732381184842
 21
0.000000000001611
 31
0.0
210
0.0
220
0.0
230
1.0
 40
0.9900000000000011
 41
4.271664206181739
 42
4.388130507071504
  0
ELLIPSE
  5
4278
330
1F
100
AcDbEntity
  8
AM_11
 48
0.5
100
AcDbEllipse
 10
-178.0129363193919
 20
-31.80211301555318
 30
0.0
 11
-35.51732381184836
 21
0.0000000000012798
 31
0.0
210
0.0
220
0.0
230
1.0
 40
0.9900000000000032
 41
4.271664206181728
 42
5.153113667165039
  0
ELLIPSE
  5
4279
330
1F
100
AcDbEntity
  8
AM_11
 48
0.5
100
AcDbEllipse
 10
-178.0129363193924
 20
31.8021991182356
 30
0.0
 11
-35.51732381184845
 21
-0.0000000000002265
 31
0.0
210
0.0
220
0.0
230
1.0
 40
0.99
 41
1.130070686340306
 42
2.011520147323597
  0
ELLIPSE
  5
427A
330
1F
100
AcDbEntity
  8
AM_11
 48
0.5
100
AcDbEllipse
 10
-147.709906016362
 20
31.80219911823586
 30
0.0
 11
-35.51732381184845
 21
0.000000000000775
 31
0.0
210
0.0
220
0.0
230
1.0
 40
0.9899999999999995
 41
1.130070686340335
 42
2.011520147323624
  0
ELLIPSE
  5
427B
330
1F
100
AcDbEntity
  8
AM_11
 48
0.5
100
AcDbEllipse
 10
-147.7099060163616
 20
-31.80211301555291
 30
0.0
 11
-35.51732381184842
 21
0.000000000001611
 31
0.0
210
0.0
220
0.0
230
1.0
 40
0.9900000000000011
 41
4.271664206181739
 42
5.153113667165048
  0
ELLIPSE
  5
427C
330
1F
100
AcDbEntity
  8
AM_11
 48
0.5
100
AcDbEllipse
 10
-87.10377992353105
 20
31.80216853922882
 30
0.0
 11
-35.51732381184845
 21
0.000000000000775
 31
0.0
210
0.0
220
0.0
230
1.0
 40
0.9899999999999995
 41
1.130070686340335
 42
2.011520147323624
  0
ELLIPSE
  5
427D
330
1F
100
AcDbEntity
  8
AM_11
 48
0.5
100
AcDbEllipse
 10
-87.10377992353059
 20
-31.80214359455995
 30
0.0
 11
-35.51732381184842
 21
0.000000000001611
 31
0.0
210
0.0
220
0.0
230
1.0
 40
0.9900000000000011
 41
4.271664206181739
 42
5.153113667165048
  0
ELLIPSE
  5
427E
330
1F
100
AcDbEntity
  8
AM_11
 48
0.5
100
AcDbEllipse
 10
-117.4068102265608
 20
-31.80214359456021
 30
0.0
 11
-35.51732381184836
 21
0.0000000000012798
 31
0.0
210
0.0
220
0.0
230
1.0
 40
0.9900000000000032
 41
4.271664206181728
 42
5.153113667165039
  0
ELLIPSE
  5
427F
330
1F
100
AcDbEntity
  8
AM_11
 48
0.5
100
AcDbEllipse
 10
-117.4068102265614
 20
31.80216853922857
 30
0.0
 11
-35.51732381184845
 21
-0.0000000000002265
 31
0.0
210
0.0
220
0.0
230
1.0
 40
0.99
 41
1.130070686340306
 42
2.011520147323597
  0
ELLIPSE
  5
4280
330
1F
100
AcDbEntity
  8
AM_11
 48
0.5
100
AcDbEllipse
 10
-26.4977193174694
 20
-31.80214359455967
 30
0.0
 11
-35.51732381184842
 21
0.000000000001611
 31
0.0
210
0.0
220
0.0
230
1.0
 40
0.9900000000000011
 41
4.271664206181739
 42
5.153113667165048
  0
ELLIPSE
  5
4281
330
1F
100
AcDbEntity
  8
AM_11
 48
0.5
100
AcDbEllipse
 10
-26.49771931746986
 20
31.8021685392291
 30
0.0
 11
-35.51732381184845
 21
0.000000000000775
 31
0.0
210
0.0
220
0.0
230
1.0
 40
0.9899999999999995
 41
1.130070686340335
 42
2.011520147323624
  0
ELLIPSE
  5
4282
330
1F
100
AcDbEntity
  8
AM_11
 48
0.5
100
AcDbEllipse
 10
-56.80074962050023
 20
31.80216853922884
 30
0.0
 11
-35.51732381184845
 21
-0.0000000000002265
 31
0.0
210
0.0
220
0.0
230
1.0
 40
0.99
 41
1.130070686340306
 42
2.011520147323597
  0
ELLIPSE
  5
4283
330
1F
100
AcDbEntity
  8
AM_11
 48
0.5
100
AcDbEllipse
 10
-56.80074962049968
 20
-31.80214359455994
 30
0.0
 11
-35.51732381184836
 21
0.0000000000012798
 31
0.0
210
0.0
220
0.0
230
1.0
 40
0.9900000000000032
 41
4.271664206181728
 42
5.153113667165039
  0
ELLIPSE
  5
4284
330
1F
100
AcDbEntity
  8
AM_11
 48
0.5
100
AcDbEllipse
 10
3.805310985560396
 20
31.80216853922932
 30
0.0
 11
-35.51732381184908
 21
0.0000000000326126
 31
0.0
210
0.0
220
0.0
230
1.0
 40
0.989999999999986
 41
1.130070686341231
 42
1.291800737381917
  0
VIEWPORT
  5
110
330
101
100
AcDbEntity
 67
     1
  8
0
100
AcDbViewport
 10
420.5
 20
297.0
 30
0.0
 40
948.9782706766916
 41
628.452
 68
     1
 69
     1
1001
ACAD
1000
MVIEW
1002
{
1070
    16
1010
0.0
1020
0.0
1030
0.0
1010
0.0
1020
0.0
1030
1.0
1040
0.0
1040
628.452
1040
420.5
1040
297.0
1040
50.0
1040
0.0
1040
0.0
1070
     0
1070
   100
1070
     1
1070
     1
1070
     0
1070
     0
1070
     0
1070
     0
1040
0.0
1040
0.0
1040
0.0
1040
10.0
1040
10.0
1040
10.0
1040
10.0
1070
     0
1002
{
1002
}
1002
}
  0
ENDSEC
  0
SECTION
  2
OBJECTS
  0
DICTIONARY
  5
C
330
0
100
AcDbDictionary
  3
ACAD_GROUP
350
D
  3
ACAD_LAYOUT
350
1A
  3
ACAD_MLINESTYLE
350
17
  3
ACAD_PLOTSETTINGS
350
19
  3
ACAD_PLOTSTYLENAME
350
E
  3
ACDBVARIABLEDICTIONARY
350
34
  3
ACMDICTIONARY
350
43
  3
AMG
350
2B
  3
AMGSNAPSETTINGS
350
6E
  3
DWGPROPS
350
429E
  3
ACDBHEADERROUNDTRIPXREC
350
42AB
  0
DICTIONARY
  5
74
330
1F
100
AcDbDictionary
280
     1
  3
ACAD_INDEX
360
42A0
  3
ACAD_LAYOUTSELFREF
360
42CE
  0
DICTIONARY
  5
42D3
330
101
100
AcDbDictionary
280
     1
  3
ACAD_LAYOUTSELFREF
360
42D4
  0
DICTIONARY
  5
D
102
{ACAD_REACTORS
330
C
102
}
330
C
100
AcDbDictionary
  0
DICTIONARY
  5
1A
102
{ACAD_REACTORS
330
C
102
}
330
C
100
AcDbDictionary
  0
DICTIONARY
  5
17
102
{ACAD_REACTORS
330
C
102
}
330
C
100
AcDbDictionary
  3
STANDARD
350
18
  0
DICTIONARY
  5
19
102
{ACAD_REACTORS
330
C
102
}
330
C
100
AcDbDictionary
  0
ACDBDICTIONARYWDFLT
  5
E
102
{ACAD_REACTORS
330
C
102
}
330
C
100
AcDbDictionary
281
     1
  3
Normal
350
F
100
AcDbDictionaryWithDefault
340
F
  0
DICTIONARY
  5
34
102
{ACAD_REACTORS
330
C
102
}
330
C
100
AcDbDictionary
  3
INDEXCTL
350
35
  3
SORTENTS
350
B5E
  0
DICTIONARY
  5
43
102
{ACAD_REACTORS
330
C
102
}
330
C
100
AcDbDictionary
  3
ACMSTDDICTIONARY
350
260
  0
DICTIONARY
  5
2B
102
{ACAD_REACTORS
330
C
102
}
330
C
100
AcDbDictionary
  3
ACMGSETTINGS
350
2C
  0
DICTIONARY
  5
6E
102
{ACAD_REACTORS
330
C
102
}
330
C
100
AcDbDictionary
  0
XRECORD
  5
429E
102
{ACAD_REACTORS
330
C
102
}
330
C
100
AcDbXrecord
  1
DWGPROPS COOKIE
  2

  3

  4

  6

  7

  8

  9

300
AmdtFileType=82
301
=
302
=
303
=
304
=
305
=
306
=
307
=
308
=
309
=
 40
0.0929675
 41
2452800.443498622
 42
2452948.668655231
  1

 90
        1
  0
DICTIONARY
  5
42AB
102
{ACAD_REACTORS
330
C
102
}
330
C
100
AcDbDictionary
  3
TSTACKALIGN
350
42AC
  3
TSTACKSIZE
350
42AD
  3
HYPERLINKBASE
350
42AE
  3
STYLESHEET
350
42AF
  3
LAYOUTDICT
350
42B0
  3
PLOTSETDICT
350
42B1
  3
PLOTSTYLNAMDICT
350
42B2
  3
LWETCUNION
350
42B3
  3
INSUNITS
350
42B4
  3
CEPSNTYPE
350
42B5
  3
FINGERPRINTGUID
350
42B6
  3
VERSIONGUID
350
42B7
  3
PSVPSCALE
350
42B8
  3
DIMSTYLEDATA
350
42B9
  3
PUCSORTHOREF
350
42BA
  3
PUCSORTHOVIEW
350
42BB
  3
PUCSBASE
350
42BC
  3
PUCSORGTOP
350
42BD
  3
PUCSORGBOTTOM
350
42BE
  3
PUCSORGLEFT
350
42BF
  3
PUCSORGRIGHT
350
42C0
  3
PUCSORGFRONT
350
42C1
  3
PUCSORGBACK
350
42C2
  3
UCSORTHOREF
350
42C3
  3
UCSORTHOVIEW
350
42C4
  3
UCSBASE
350
42C5
  3
UCSORGTOP
350
42C6
  3
UCSORGBOTTOM
350
42C7
  3
UCSORGLEFT
350
42C8
  3
UCSORGRIGHT
350
42C9
  3
UCSORGFRONT
350
42CA
  3
UCSORGBACK
350
42CB
  0
DICTIONARY
  5
42A0
102
{ACAD_REACTORS
330
74
102
}
330
74
100
AcDbDictionary
  3
*A1
350
42A1
  0
XRECORD
  5
42CE
102
{ACAD_REACTORS
330
74
102
}
330
74
100
AcDbXrecord
340
1F
  0
XRECORD
  5
42D4
102
{ACAD_REACTORS
330
42D3
102
}
330
42D3
100
AcDbXrecord
340
101
  0
MLINESTYLE
  5
18
102
{ACAD_REACTORS
330
17
102
}
330
17
100
AcDbMlineStyle
  2
STANDARD
 70
     0
  3

 62
   256
 51
90.0
 52
90.0
 71
     2
 49
0.5
 62
   256
  6
BYLAYER
 49
-0.5
 62
   256
  6
BYLAYER
  0
ACDBPLACEHOLDER
  5
F
102
{ACAD_REACTORS
330
E
102
}
330
E
100
AcDbPlaceHolder
280
     0
  0
DICTIONARYVAR
  5
35
102
{ACAD_REACTORS
330
34
102
}
330
34
100
DictionaryVariables
280
     0
  1
1
  0
DICTIONARYVAR
  5
B5E
102
{ACAD_REACTORS
330
34
102
}
330
34
100
DictionaryVariables
280
     0
  1
96
  0
DICTIONARY
  5
260
102
{ACAD_REACTORS
330
43
102
}
330
43
100
AcDbDictionary
  0
DICTIONARY
  5
2C
102
{ACAD_REACTORS
330
2B
102
}
330
2B
100
AcDbDictionary
  3
DWGSETTINGS
350
2D
  0
XRECORD
  5
42AC
102
{ACAD_REACTORS
330
42AB
102
}
330
42AB
100
AcDbXrecord
 90
        1
  0
XRECORD
  5
42AD
102
{ACAD_REACTORS
330
42AB
102
}
330
42AB
100
AcDbXrecord
 90
       70
  0
XRECORD
  5
42AE
102
{ACAD_REACTORS
330
42AB
102
}
330
42AB
100
AcDbXrecord
  1

  0
XRECORD
  5
42AF
102
{ACAD_REACTORS
330
42AB
102
}
330
42AB
100
AcDbXrecord
  1
ASAMI.ctb
  0
XRECORD
  5
42B0
102
{ACAD_REACTORS
330
42AB
102
}
330
42AB
100
AcDbXrecord
340
1A
  0
XRECORD
  5
42B1
102
{ACAD_REACTORS
330
42AB
102
}
330
42AB
100
AcDbXrecord
340
19
  0
XRECORD
  5
42B2
102
{ACAD_REACTORS
330
42AB
102
}
330
42AB
100
AcDbXrecord
340
E
  0
XRECORD
  5
42B3
102
{ACAD_REACTORS
330
42AB
102
}
330
42AB
100
AcDbXrecord
 90
    10781
  0
XRECORD
  5
42B4
102
{ACAD_REACTORS
330
42AB
102
}
330
42AB
100
AcDbXrecord
 90
        4
  0
XRECORD
  5
42B5
102
{ACAD_REACTORS
330
42AB
102
}
330
42AB
100
AcDbXrecord
 90
        0
  0
XRECORD
  5
42B6
102
{ACAD_REACTORS
330
42AB
102
}
330
42AB
100
AcDbXrecord
  1
{AFB28963-8C59-40AE-9337-C84526B81ACE}
  0
XRECORD
  5
42B7
102
{ACAD_REACTORS
330
42AB
102
}
330
42AB
100
AcDbXrecord
  1
{8CFC35A1-D3C9-4240-B40F-7C63DD1EC103}
  0
XRECORD
  5
42B8
102
{ACAD_REACTORS
330
42AB
102
}
330
42AB
100
AcDbXrecord
 40
0.0
  0
XRECORD
  5
42B9
102
{ACAD_REACTORS
330
42AB
102
}
330
42AB
100
AcDbXrecord
1000
DSTYLE
1002
{
1070
    79
 70
     2
1070
   341
340
59
1070
   342
340
59
1070
   371
 70
    -1
1070
   372
 70
    -1
1002
}
  0
XRECORD
  5
42BA
102
{ACAD_REACTORS
330
42AB
102
}
330
42AB
100
AcDbXrecord
340
0
  0
XRECORD
  5
42BB
102
{ACAD_REACTORS
330
42AB
102
}
330
42AB
100
AcDbXrecord
 70
     0
  0
XRECORD
  5
42BC
102
{ACAD_REACTORS
330
42AB
102
}
330
42AB
100
AcDbXrecord
340
0
  0
XRECORD
  5
42BD
102
{ACAD_REACTORS
330
42AB
102
}
330
42AB
100
AcDbXrecord
 10
0.0
 20
0.0
 30
0.0
  0
XRECORD
  5
42BE
102
{ACAD_REACTORS
330
42AB
102
}
330
42AB
100
AcDbXrecord
 10
0.0
 20
0.0
 30
0.0
  0
XRECORD
  5
42BF
102
{ACAD_REACTORS
330
42AB
102
}
330
42AB
100
AcDbXrecord
 10
0.0
 20
0.0
 30
0.0
  0
XRECORD
  5
42C0
102
{ACAD_REACTORS
330
42AB
102
}
330
42AB
100
AcDbXrecord
 10
0.0
 20
0.0
 30
0.0
  0
XRECORD
  5
42C1
102
{ACAD_REACTORS
330
42AB
102
}
330
42AB
100
AcDbXrecord
 10
0.0
 20
0.0
 30
0.0
  0
XRECORD
  5
42C2
102
{ACAD_REACTORS
330
42AB
102
}
330
42AB
100
AcDbXrecord
 10
0.0
 20
0.0
 30
0.0
  0
XRECORD
  5
42C3
102
{ACAD_REACTORS
330
42AB
102
}
330
42AB
100
AcDbXrecord
340
0
  0
XRECORD
  5
42C4
102
{ACAD_REACTORS
330
42AB
102
}
330
42AB
100
AcDbXrecord
 70
     0
  0
XRECORD
  5
42C5
102
{ACAD_REACTORS
330
42AB
102
}
330
42AB
100
AcDbXrecord
340
0
  0
XRECORD
  5
42C6
102
{ACAD_REACTORS
330
42AB
102
}
330
42AB
100
AcDbXrecord
 10
0.0
 20
0.0
 30
0.0
  0
XRECORD
  5
42C7
102
{ACAD_REACTORS
330
42AB
102
}
330
42AB
100
AcDbXrecord
 10
0.0
 20
0.0
 30
0.0
  0
XRECORD
  5
42C8
102
{ACAD_REACTORS
330
42AB
102
}
330
42AB
100
AcDbXrecord
 10
0.0
 20
0.0
 30
0.0
  0
XRECORD
  5
42C9
102
{ACAD_REACTORS
330
42AB
102
}
330
42AB
100
AcDbXrecord
 10
0.0
 20
0.0
 30
0.0
  0
XRECORD
  5
42CA
102
{ACAD_REACTORS
330
42AB
102
}
330
42AB
100
AcDbXrecord
 10
0.0
 20
0.0
 30
0.0
  0
XRECORD
  5
42CB
102
{ACAD_REACTORS
330
42AB
102
}
330
42AB
100
AcDbXrecord
 10
0.0
 20
0.0
 30
0.0
  0
LAYER_INDEX
  5
42A1
102
{ACAD_REACTORS
330
42A0
102
}
330
42A0
100
AcDbIndex
 40
2453151.671057384
100
AcDbLayerIndex
  8
0
360
42A2
 90
        0
  8
AM_0
360
42A3
 90
       52
  8
AM_7
360
42A4
 90
        1
  8
AM_11
360
42A5
 90
       21
  8
AM_5
360
42A6
 90
        5
  8
Defpoints
360
42A7
 90
        0
  8
AM_6
360
42A8
 90
        1
  8
AM_CL
360
42A9
 90
        0
  0
XRECORD
  5
2D
102
{ACAD_REACTORS
330
2C
102
}
330
2C
100
AcDbXrecord
  1
VERSION
140
15.0
  1
PRODUCT
  2
AutoCAD Mechanical 2000
  0
IDBUFFER
  5
42A2
330
0
100
AcDbIdBuffer
  0
IDBUFFER
  5
42A3
330
0
100
AcDbIdBuffer
330
40EA
330
40EB
330
40EC
330
40ED
330
1E25
330
1E26
330
1FD9
330
21D7
330
21D8
330
21D9
330
21DC
330
21DD
330
2694
330
2695
330
2696
330
2699
330
3366
330
3367
330
3F18
330
3F1B
330
40C3
330
40C4
330
40C5
330
40C6
330
40CB
330
40CC
330
40CD
330
40CE
330
40CF
330
40D0
330
40D1
330
40D3
330
40D4
330
40D5
330
40D6
330
40D7
330
40D8
330
40D9
330
40DA
330
40DB
330
40DC
330
40DD
330
40DE
330
40DF
330
40E2
330
40E3
330
40E4
330
40E5
330
40E6
330
40E7
330
40E8
330
40E9
  0
IDBUFFER
  5
42A4
330
0
100
AcDbIdBuffer
330
C9F
  0
IDBUFFER
  5
42A5
330
0
100
AcDbIdBuffer
330
4280
330
4281
330
4282
330
4283
330
4284
330
40C7
330
40C8
330
40C9
330
40CA
330
40E0
330
40E1
330
4276
330
4277
330
4278
330
4279
330
427A
330
427B
330
427C
330
427D
330
427E
330
427F
  0
IDBUFFER
  5
42A6
330
0
100
AcDbIdBuffer
330
CC6
330
DF5
330
1FB6
330
2216
330
4176
  0
IDBUFFER
  5
42A7
330
0
100
AcDbIdBuffer
  0
IDBUFFER
  5
42A8
330
0
100
AcDbIdBuffer
330
19BD
  0
IDBUFFER
  5
42A9
330
0
100
AcDbIdBuffer
  0
ENDSEC
  0
EOF
