  0
SECTION
  2
HEADER
  9
$ACADVER
  1
AC1014
  9
$ACADMAINTVER
 70
     9
  9
$DWGCODEPAGE
  3
ANSI_932
  9
$INSBASE
 10
0.0
 20
0.0
 30
0.0
  9
$EXTMIN
 10
-218.3000009999999
 20
-54.50000305448121
 30
-0.00000001
  9
$EXTMAX
 10
25.53433162316621
 20
24.9340936244318
 30
0.00000001
  9
$LIMMIN
 10
-235.3243199069245
 20
-84.95978435839356
  9
$LIMMAX
 10
43.00602480537361
 20
55.45771548967673
  9
$ORTHOMODE
 70
     0
  9
$REGENMODE
 70
     1
  9
$FILLMODE
 70
     1
  9
$QTEXTMODE
 70
     0
  9
$MIRRTEXT
 70
     0
  9
$DRAGMODE
 70
     2
  9
$LTSCALE
 40
1.0
  9
$OSMODE
 70
    55
  9
$ATTMODE
 70
     1
  9
$TEXTSIZE
 40
2.5
  9
$TRACEWID
 40
1.0
  9
$TEXTSTYLE
  7
STANDARD
  9
$CLAYER
  8
AM_0
  9
$CELTYPE
  6
BYLAYER
  9
$CECOLOR
 62
   256
  9
$CELTSCALE
 40
1.0
  9
$DELOBJ
 70
     1
  9
$DISPSILH
 70
     0
  9
$DIMSCALE
 40
1.0
  9
$DIMASZ
 40
2.5
  9
$DIMEXO
 40
1.0
  9
$DIMDLI
 40
12.0
  9
$DIMRND
 40
0.0
  9
$DIMDLE
 40
0.0
  9
$DIMEXE
 40
1.0
  9
$DIMTP
 40
0.1
  9
$DIMTM
 40
0.1
  9
$DIMTXT
 40
3.2
  9
$DIMCEN
 40
0.0
  9
$DIMTSZ
 40
0.0
  9
$DIMTOL
 70
     0
  9
$DIMLIM
 70
     0
  9
$DIMTIH
 70
     0
  9
$DIMTOH
 70
     0
  9
$DIMSE1
 70
     0
  9
$DIMSE2
 70
     0
  9
$DIMTAD
 70
     3
  9
$DIMZIN
 70
     8
  9
$DIMBLK
  1
OPEN30
  9
$DIMASO
 70
     1
  9
$DIMSHO
 70
     1
  9
$DIMPOST
  1

  9
$DIMAPOST
  1
"
  9
$DIMALT
 70
     0
  9
$DIMALTD
 70
     2
  9
$DIMALTF
 40
0.0393701
  9
$DIMLFAC
 40
1.0
  9
$DIMTOFL
 70
     1
  9
$DIMTVP
 40
0.0
  9
$DIMTIX
 70
     0
  9
$DIMSOXD
 70
     0
  9
$DIMSAH
 70
     0
  9
$DIMBLK1
  1

  9
$DIMBLK2
  1

  9
$DIMSTYLE
  2
AM_JIS
  9
$DIMCLRD
 70
   256
  9
$DIMCLRE
 70
   256
  9
$DIMCLRT
 70
     2
  9
$DIMTFAC
 40
0.71
  9
$DIMGAP
 40
1.5
  9
$DIMJUST
 70
     0
  9
$DIMSD1
 70
     0
  9
$DIMSD2
 70
     0
  9
$DIMTOLJ
 70
     0
  9
$DIMTZIN
 70
     0
  9
$DIMALTZ
 70
     0
  9
$DIMALTTZ
 70
     0
  9
$DIMFIT
 70
     3
  9
$DIMUPT
 70
     0
  9
$DIMUNIT
 70
     2
  9
$DIMDEC
 70
     3
  9
$DIMTDEC
 70
     3
  9
$DIMALTU
 70
     2
  9
$DIMALTTD
 70
     2
  9
$DIMTXSTY
  7
ASAMI
  9
$DIMAUNIT
 70
     0
  9
$LUNITS
 70
     2
  9
$LUPREC
 70
     2
  9
$SKETCHINC
 40
1.0
  9
$FILLETRAD
 40
2.5
  9
$AUNITS
 70
     0
  9
$AUPREC
 70
     0
  9
$MENU
  1
.
  9
$ELEVATION
 40
0.0
  9
$PELEVATION
 40
0.0
  9
$THICKNESS
 40
0.0
  9
$LIMCHECK
 70
     0
  9
$BLIPMODE
 70
     0
  9
$CHAMFERA
 40
0.5
  9
$CHAMFERB
 40
0.5
  9
$CHAMFERC
 40
20.0
  9
$CHAMFERD
 40
0.0
  9
$SKPOLY
 70
     0
  9
$TDCREATE
 40
2452800.443498622
  9
$TDUPDATE
 40
2453151.671241308
  9
$TDINDWG
 40
0.0944967245
  9
$TDUSRTIMER
 40
0.0944967245
  9
$USRTIMER
 70
     1
  9
$ANGBASE
 50
0.0
  9
$ANGDIR
 70
     0
  9
$PDMODE
 70
     3
  9
$PDSIZE
 40
0.0
  9
$PLINEWID
 40
0.0
  9
$COORDS
 70
     1
  9
$SPLFRAME
 70
     0
  9
$SPLINETYPE
 70
     6
  9
$SPLINESEGS
 70
     8
  9
$ATTDIA
 70
     1
  9
$ATTREQ
 70
     1
  9
$HANDLING
 70
 12289
  9
$HANDSEED
  5
43DA
  9
$SURFTAB1
 70
     6
  9
$SURFTAB2
 70
     6
  9
$SURFTYPE
 70
     6
  9
$SURFU
 70
     6
  9
$SURFV
 70
     6
  9
$UCSNAME
  2

  9
$UCSORG
 10
0.0
 20
0.0
 30
0.0
  9
$UCSXDIR
 10
1.0
 20
0.0000000000000027
 30
0.0
  9
$UCSYDIR
 10
-0.0000000000000027
 20
1.0
 30
0.0
  9
$PUCSNAME
  2

  9
$PUCSORG
 10
0.0
 20
0.0
 30
0.0
  9
$PUCSXDIR
 10
1.0
 20
0.0
 30
0.0
  9
$PUCSYDIR
 10
0.0
 20
1.0
 30
0.0
  9
$USERI1
 70
     0
  9
$USERI2
 70
     0
  9
$USERI3
 70
     0
  9
$USERI4
 70
     0
  9
$USERI5
 70
     0
  9
$USERR1
 40
0.0
  9
$USERR2
 40
0.0
  9
$USERR3
 40
0.0
  9
$USERR4
 40
0.0
  9
$USERR5
 40
0.0
  9
$WORLDVIEW
 70
     1
  9
$SHADEDGE
 70
     3
  9
$SHADEDIF
 70
    70
  9
$TILEMODE
 70
     1
  9
$MAXACTVP
 70
    64
  9
$PINSBASE
 10
0.0
 20
0.0
 30
0.0
  9
$PLIMCHECK
 70
     0
  9
$PEXTMIN
 10
1.000000000000000E+20
 20
1.000000000000000E+20
 30
1.000000000000000E+20
  9
$PEXTMAX
 10
-1.000000000000000E+20
 20
-1.000000000000000E+20
 30
-1.000000000000000E+20
  9
$PLIMMIN
 10
0.0
 20
0.0
  9
$PLIMMAX
 10
841.0
 20
594.0
  9
$UNITMODE
 70
     0
  9
$VISRETAIN
 70
     1
  9
$PLINEGEN
 70
     0
  9
$PSLTSCALE
 70
     0
  9
$TREEDEPTH
 70
  3020
  9
$PICKSTYLE
 70
     0
  9
$CMLSTYLE
  2
STANDARD
  9
$CMLJUST
 70
     0
  9
$CMLSCALE
 40
20.0
  9
$PROXYGRAPHICS
 70
     1
  9
$MEASUREMENT
 70
     1
  0
ENDSEC
  0
SECTION
  2
CLASSES
  0
CLASS
  1
ACDBDICTIONARYWDFLT
  2
AcDbDictionaryWithDefault
  3
AutoCAD 2000
 90
        0
280
     0
281
     0
  0
CLASS
  1
ACDBPLACEHOLDER
  2
AcDbPlaceHolder
  3
AutoCAD 2000
 90
        0
280
     0
281
     0
  0
CLASS
  1
LAYOUT
  2
AcDbLayout
  3
AutoCAD 2000
 90
        0
280
     0
281
     0
  0
CLASS
  1
AMGSETTINGSOBJ
  2
AmgSettingsObj
  3
"AcadM|Product Description: AutoCAD Mechanical 2000|Company: Autodesk"
 90
        0
280
     0
281
     0
  0
CLASS
  1
ACME_DOCUMENT
  2
AcMeDbDoc
  3
AcMeServices
 90
        0
280
     0
281
     0
  0
CLASS
  1
ACMESCOPE
  2
AcMeScope
  3
AcMeServices
 90
        0
280
     0
281
     0
  0
CLASS
  1
ACMECOMMANDHISTORY
  2
AcMeCommandHistory
  3
AcMeServices
 90
        0
280
     0
281
     0
  0
CLASS
  1
DICTIONARYVAR
  2
AcDbDictionaryVar
  3
AutoCAD 2000
 90
        0
280
     0
281
     0
  0
CLASS
  1
ACIMSYSVARMAN
  2
AcImSysVarManager
  3
AcMeServices
 90
        0
280
     0
281
     0
  0
CLASS
  1
ACIMREALSYSVAR
  2
AcImRealSysVar
  3
AcMeServices
 90
        0
280
     0
281
     0
  0
CLASS
  1
ACIMINTSYSVAR
  2
AcImIntSysVar
  3
AcMeServices
 90
        0
280
     0
281
     0
  0
CLASS
  1
ACMEDRAWINGMAN
  2
AcMeDrawingMan
  3
AcMeServices
 90
        0
280
     0
281
     0
  0
CLASS
  1
ACMEVIEW
  2
AcMeView
  3
AcMeServices
 90
        0
280
     0
281
     0
  0
CLASS
  1
ACDBENTITYCACHE
  2
AcMeEntityCache
  3
AcMeServices
 90
        0
280
     0
281
     0
  0
CLASS
  1
GSMANAGER
  2
AcMeGSManager
  3
AcMeServices
 90
        0
280
     0
281
     0
  0
CLASS
  1
AmdtInternalReactor
  2
AmdtInternalReactor
  3
AcMeServices
 90
        0
280
     0
281
     0
  0
CLASS
  1
ACMESTATEMGR
  2
AcMeStateMgr
  3
AcMeServices
 90
        0
280
     0
281
     0
  0
CLASS
  1
ACME_DATABASE
  2
AcMeDbDatabase
  3
AcMeServices
 90
        0
280
     0
281
     0
  0
CLASS
  1
ACRFINSADJUSTERMGR
  2
AcRfInsAdjusterMgr
  3
AcMeServices
 90
        0
280
     0
281
     0
  0
CLASS
  1
ACMDATADICTIONARY
  2
AcmDataDictionary
  3
"AcmSymBB|Product Description: AutoCAD Mechanical 2000|Company: Autodesk"
 90
        0
280
     0
281
     0
  0
CLASS
  1
ACMDATAENTRYBLOCK
  2
AcmDataEntryBlock
  3
"AcmSymBB|Product Description: AutoCAD Mechanical 2000|Company: Autodesk"
 90
        0
280
     0
281
     0
  0
CLASS
  1
AMGOBJPROPCFG
  2
AmgObjPropCfg
  3
"AmgLay|Product Description: AutoCAD Mechanical 2000|Company: Autodesk"
 90
        1
280
     0
281
     0
  0
CLASS
  1
ACAMGFILTERDAT
  2
AcAmgFilterDat
  3
"AcadM|Product Description: AutoCAD Mechanical 2000|Company: Autodesk"
 90
        0
280
     0
281
     0
  0
CLASS
  1
LAYER_INDEX
  2
AcDbLayerIndex
  3
AutoCAD 2000
 90
        0
280
     0
281
     0
  0
CLASS
  1
IDBUFFER
  2
AcDbIdBuffer
  3
AutoCAD 2000
 90
        0
280
     0
281
     0
  0
CLASS
  1
ACIMSTRSYSVAR
  2
AcImStrSysVar
  3
AcMeServices
 90
        0
280
     0
281
     0
  0
CLASS
  1
ACMSTANDARDJIS
  2
AcmStandardJIS
  3
"AcmSymBB|Product Description: AutoCAD Mechanical 2000|Company: Autodesk"
 90
        0
280
     0
281
     0
  0
CLASS
  1
ACMSURFSTANDARDJIS
  2
AcmSurfTextStdJIS
  3
"AcmSymBB|Product Description: AutoCAD Mechanical 2000|Company: Autodesk"
 90
        0
280
     0
281
     0
  0
CLASS
  1
ACMFCFSTANDARDJIS
  2
AcmFCFStdJIS
  3
"AcmSymBB|Product Description: AutoCAD Mechanical 2000|Company: Autodesk"
 90
        0
280
     0
281
     0
  0
CLASS
  1
ACMWELDSTANDARDJIS
  2
AcmWeldingStdJIS
  3
"AcmSymBB|Product Description: AutoCAD Mechanical 2000|Company: Autodesk"
 90
        0
280
     0
281
     0
  0
CLASS
  1
ACMIDSTANDARDJIS
  2
AcmIdStdJIS
  3
"AcmSymBB|Product Description: AutoCAD Mechanical 2000|Company: Autodesk"
 90
        0
280
     0
281
     0
  0
CLASS
  1
ACMDATUMSTANDARDJIS
  2
AcmDatumStdJIS
  3
"AcmSymBB|Product Description: AutoCAD Mechanical 2000|Company: Autodesk"
 90
        0
280
     0
281
     0
  0
CLASS
  1
ACMBOMSTANDARDJIS
  2
AcmBOMStdJIS
  3
"AcmSymBB|Product Description: AutoCAD Mechanical 2000|Company: Autodesk"
 90
        0
280
     0
281
     0
  0
CLASS
  1
ACMSTANDARDANSI
  2
AcmStandardANSI
  3
"AcmSymBB|Product Description: AutoCAD Mechanical 2000|Company: Autodesk"
 90
        0
280
     0
281
     0
  0
CLASS
  1
ACMSURFSTANDARDANSI
  2
AcmSurfTextStdANSI
  3
"AcmSymBB|Product Description: AutoCAD Mechanical 2000|Company: Autodesk"
 90
        0
280
     0
281
     0
  0
CLASS
  1
ACMFCFSTANDARDANSI
  2
AcmFCFStdANSI
  3
"AcmSymBB|Product Description: AutoCAD Mechanical 2000|Company: Autodesk"
 90
        0
280
     0
281
     0
  0
CLASS
  1
ACMWELDSTANDARDANSI
  2
AcmWeldingStdANSI
  3
"AcmSymBB|Product Description: AutoCAD Mechanical 2000|Company: Autodesk"
 90
        0
280
     0
281
     0
  0
CLASS
  1
ACMIDSTANDARDANSI
  2
AcmIdStdANSI
  3
"AcmSymBB|Product Description: AutoCAD Mechanical 2000|Company: Autodesk"
 90
        0
280
     0
281
     0
  0
CLASS
  1
ACMDATUMSTANDARDANSI
  2
AcmDatumStdANSI
  3
"AcmSymBB|Product Description: AutoCAD Mechanical 2000|Company: Autodesk"
 90
        0
280
     0
281
     0
  0
CLASS
  1
ACMBOMSTANDARDANSI
  2
AcmBOMStdANSI
  3
"AcmSymBB|Product Description: AutoCAD Mechanical 2000|Company: Autodesk"
 90
        0
280
     0
281
     0
  0
CLASS
  1
ACMSTANDARDBSI
  2
AcmStandardBSI
  3
"AcmSymBB|Product Description: AutoCAD Mechanical 2000|Company: Autodesk"
 90
        0
280
     0
281
     0
  0
CLASS
  1
ACMSURFSTANDARDBSI
  2
AcmSurfTextStdBSI
  3
"AcmSymBB|Product Description: AutoCAD Mechanical 2000|Company: Autodesk"
 90
        0
280
     0
281
     0
  0
CLASS
  1
ACMFCFSTANDARDBSI
  2
AcmFCFStdBSI
  3
"AcmSymBB|Product Description: AutoCAD Mechanical 2000|Company: Autodesk"
 90
        0
280
     0
281
     0
  0
CLASS
  1
ACMWELDSTANDARDBSI
  2
AcmWeldingStdBSI
  3
"AcmSymBB|Product Description: AutoCAD Mechanical 2000|Company: Autodesk"
 90
        0
280
     0
281
     0
  0
CLASS
  1
ACMIDSTANDARDBSI
  2
AcmIdStdBSI
  3
"AcmSymBB|Product Description: AutoCAD Mechanical 2000|Company: Autodesk"
 90
        0
280
     0
281
     0
  0
CLASS
  1
ACMDATUMSTANDARDBSI
  2
AcmDatumStdBSI
  3
"AcmSymBB|Product Description: AutoCAD Mechanical 2000|Company: Autodesk"
 90
        0
280
     0
281
     0
  0
CLASS
  1
ACMBOMSTANDARDBSI
  2
AcmBOMStdBSI
  3
"AcmSymBB|Product Description: AutoCAD Mechanical 2000|Company: Autodesk"
 90
        0
280
     0
281
     0
  0
CLASS
  1
LONG_TRANSACTION
  2
AcDbLongTransaction
  3
AutoCAD 2000
 90
        0
280
     0
281
     0
  0
CLASS
  1
LWPOLYLINE
  2
AcDbPolyline
  3
AutoCAD 2000
 90
        0
280
     0
281
     1
  0
CLASS
  1
HATCH
  2
AcDbHatch
  3
AutoCAD 2000
 90
        0
280
     0
281
     1
  0
CLASS
  1
XRECORD
  2
AcDbXrecord
  3
AutoCAD 2000
 90
        0
280
     0
281
     0
  0
ENDSEC
  0
SECTION
  2
TABLES
  0
TABLE
  2
VPORT
  5
8
330
0
100
AcDbSymbolTable
 70
     3
  0
VPORT
  5
43A4
330
8
100
AcDbSymbolTableRecord
100
AcDbViewportTableRecord
  2
*ACTIVE
 70
     0
 10
0.0
 20
0.0
 11
1.0
 21
1.0
 12
-91.86384905617735
 22
-14.78317312262385
 13
0.0
 23
0.0
 14
2.5
 24
2.5
 15
10.0
 25
10.0
 16
0.0
 26
0.0
 36
1.0
 17
0.0
 27
0.0
 37
0.0
 40
162.2842017216509
 41
1.56570841889117
 42
50.0
 43
0.0
 44
0.0
 50
0.0
 51
0.0
 71
     0
 72
   100
 73
     1
 74
     1
 75
     0
 76
     0
 77
     0
 78
     0
  0
ENDTAB
  0
TABLE
  2
LTYPE
  5
5
330
0
100
AcDbSymbolTable
 70
    10
  0
LTYPE
  5
14
330
5
100
AcDbSymbolTableRecord
100
AcDbLinetypeTableRecord
  2
BYBLOCK
 70
     0
  3

 72
    65
 73
     0
 40
0.0
  0
LTYPE
  5
15
330
5
100
AcDbSymbolTableRecord
100
AcDbLinetypeTableRecord
  2
BYLAYER
 70
     0
  3

 72
    65
 73
     0
 40
0.0
  0
LTYPE
  5
16
330
5
100
AcDbSymbolTableRecord
100
AcDbLinetypeTableRecord
  2
CONTINUOUS
 70
     0
  3
Solid line
 72
    65
 73
     0
 40
0.0
  0
LTYPE
  5
4B
330
5
100
AcDbSymbolTableRecord
100
AcDbLinetypeTableRecord
  2
AM_ISO02W050
 70
     0
  3
__ __ __ __ __ __ __ __ __ __ __ __ __ __ __
 72
    65
 73
     2
 40
7.5
 49
6.0
 74
     0
 49
-1.5
 74
     0
  0
LTYPE
  5
4C
330
5
100
AcDbSymbolTableRecord
100
AcDbLinetypeTableRecord
  2
AM_ISO08W050
 70
     0
  3
____ . ____ . ____ . ____ . ____ . ____ . ____
 72
    65
 73
     4
 40
18.0
 49
12.0
 74
     0
 49
-1.5
 74
     0
 49
3.0
 74
     0
 49
-1.5
 74
     0
  0
LTYPE
  5
4D
330
5
100
AcDbSymbolTableRecord
100
AcDbLinetypeTableRecord
  2
AM_ISO09W050
 70
     0
  3
_____ . . _____ . . _____ . . ____ .. ____
 72
    65
 73
     6
 40
22.5
 49
12.0
 74
     0
 49
-1.5
 74
     0
 49
3.0
 74
     0
 49
-1.5
 74
     0
 49
3.0
 74
     0
 49
-1.5
 74
     0
  0
LTYPE
  5
4E
330
5
100
AcDbSymbolTableRecord
100
AcDbLinetypeTableRecord
  2
AMCONSTR
 70
     0
  3
_______________________
 72
    65
 73
     2
 40
9999.0
 49
9999.0
 74
     0
 49
0.0
 74
     0
  0
LTYPE
  5
4F
330
5
100
AcDbSymbolTableRecord
100
AcDbLinetypeTableRecord
  2
AM_ISO02W050X2
 70
     0
  3
 _ _ _ _ _ _ _ _ _ _ _ _
 72
    65
 73
     2
 40
3.75
 49
3.0
 74
     0
 49
-0.75
 74
     0
  0
LTYPE
  5
50
330
5
100
AcDbSymbolTableRecord
100
AcDbLinetypeTableRecord
  2
AM_ISO08W050X2
 70
     0
  3
__ . __ . __ . __ . __ . __
 72
    65
 73
     4
 40
9.0
 49
6.0
 74
     0
 49
-0.75
 74
     0
 49
1.5
 74
     0
 49
-0.75
 74
     0
  0
LTYPE
  5
53
330
5
100
AcDbSymbolTableRecord
100
AcDbLinetypeTableRecord
  2
AMZIGZAG
 70
     0
  3
/\/-/\/-/\/-/\/-/\/-/\/
 72
    65
 73
     2
 40
11.00009999999999
 49
0.0001
 74
     4
 75
   135
340
52
 46
0.04
 50
0.0
 44
0.0
 45
0.0
 49
-11.0
 74
     0
  0
LTYPE
  5
166
330
5
100
AcDbSymbolTableRecord
100
AcDbLinetypeTableRecord
  2
ACJISTGL
 70
     0
  3
_ _ _ _ _
 72
    65
 73
     2
 40
3.0
 49
2.0
 74
     0
 49
-1.0
 74
     0
  0
LTYPE
  5
26A
330
5
100
AcDbSymbolTableRecord
100
AcDbLinetypeTableRecord
  2
ACJISTGB
 70
     0
  3
__ . . __ . .
 72
    65
 73
     6
 40
9.0
 49
4.0
 74
     0
 49
-1.0
 74
     0
 49
1.0
 74
     0
 49
-1.0
 74
     0
 49
1.0
 74
     0
 49
-1.0
 74
     0
  0
ENDTAB
  0
TABLE
  2
LAYER
  5
2
330
0
100
AcDbSymbolTable
 70
     8
  0
LAYER
  5
10
330
2
100
AcDbSymbolTableRecord
100
AcDbLayerTableRecord
  2
0
 70
     0
 62
     7
  6
CONTINUOUS
  0
LAYER
  5
3F9
330
2
100
AcDbSymbolTableRecord
100
AcDbLayerTableRecord
  2
AM_0
 70
     0
 62
     7
  6
CONTINUOUS
  0
LAYER
  5
C7C
330
2
100
AcDbSymbolTableRecord
100
AcDbLayerTableRecord
  2
AM_7
 70
     0
 62
     4
  6
AM_ISO08W050
  0
LAYER
  5
C97
330
2
100
AcDbSymbolTableRecord
100
AcDbLayerTableRecord
  2
AM_11
 70
     0
 62
     3
  6
AM_ISO09W050
  0
LAYER
  5
CC5
330
2
100
AcDbSymbolTableRecord
100
AcDbLayerTableRecord
  2
AM_5
 70
     0
 62
     3
  6
CONTINUOUS
  0
LAYER
  5
CC7
330
2
100
AcDbSymbolTableRecord
100
AcDbLayerTableRecord
  2
DEFPOINTS
 70
     0
 62
     7
  6
CONTINUOUS
  0
LAYER
  5
19BC
330
2
100
AcDbSymbolTableRecord
100
AcDbLayerTableRecord
  2
AM_6
 70
     0
 62
     2
  6
CONTINUOUS
  0
LAYER
  5
4224
330
2
100
AcDbSymbolTableRecord
100
AcDbLayerTableRecord
  2
AM_CL
 70
     0
 62
     1
  6
AMCONSTR
  0
ENDTAB
  0
TABLE
  2
STYLE
  5
3
330
0
100
AcDbSymbolTable
 70
     5
  0
STYLE
  5
11
330
3
100
AcDbSymbolTableRecord
100
AcDbTextStyleTableRecord
  2
STANDARD
 70
     0
 40
0.0
 41
1.0
 50
0.0
 71
     0
 42
2.5
  3
simplex.shx
  4
EXTFONT.SHX
  0
STYLE
  5
52
330
3
100
AcDbSymbolTableRecord
100
AcDbTextStyleTableRecord
  2

 70
     1
 40
0.0
 41
1.0
 50
0.0
 71
     0
 42
2.5
  3
ltypeshp.shx
  4

  0
STYLE
  5
6B
330
3
100
AcDbSymbolTableRecord
100
AcDbTextStyleTableRecord
  2
ASAMI
 70
     0
 40
0.0
 41
1.0
 50
0.0
 71
     0
 42
2.5
  3
simplex.shx
  4
EXTFONT.SHX
  0
STYLE
  5
262
330
3
100
AcDbSymbolTableRecord
100
AcDbTextStyleTableRecord
  2
ACJISTS
 70
     0
 40
1.0
 41
1.0
 50
0.0
 71
     0
 42
2.5
  3
simplex.shx
  4
bigfont.shx
  0
STYLE
  5
269
330
3
100
AcDbSymbolTableRecord
100
AcDbTextStyleTableRecord
  2
ACJISGDT
 70
     0
 40
0.0
 41
1.0
 50
0.0
 71
     0
 42
2.5
  3
amgdtans.shx
  4

  0
ENDTAB
  0
TABLE
  2
VIEW
  5
6
330
0
100
AcDbSymbolTable
 70
     0
  0
ENDTAB
  0
TABLE
  2
UCS
  5
7
330
0
100
AcDbSymbolTable
 70
     0
  0
ENDTAB
  0
TABLE
  2
APPID
  5
9
330
0
100
AcDbSymbolTable
 70
    16
  0
APPID
  5
12
330
9
100
AcDbSymbolTableRecord
100
AcDbRegAppTableRecord
  2
ACAD
 70
     0
  0
APPID
  5
30
330
9
100
AcDbSymbolTableRecord
100
AcDbRegAppTableRecord
  2
MCAD_NO_VIS
 70
     0
  0
APPID
  5
31
330
9
100
AcDbSymbolTableRecord
100
AcDbRegAppTableRecord
  2
ACAD_TEMP_GRAPHIC
 70
     0
  0
APPID
  5
2C2
330
9
100
AcDbSymbolTableRecord
100
AcDbRegAppTableRecord
  2
GENIUS_GENDTOL_13
 70
     0
  0
APPID
  5
339
330
9
100
AcDbSymbolTableRecord
100
AcDbRegAppTableRecord
  2
GENIUS_GENODEF_13
 70
     0
  0
APPID
  5
33A
330
9
100
AcDbSymbolTableRecord
100
AcDbRegAppTableRecord
  2
GENIUS_GENOBJ-N-RSBK_13
 70
     0
  0
APPID
  5
33B
330
9
100
AcDbSymbolTableRecord
100
AcDbRegAppTableRecord
  2
GENIUS_GENOBJ-N-LIB_13
 70
     0
  0
APPID
  5
33C
330
9
100
AcDbSymbolTableRecord
100
AcDbRegAppTableRecord
  2
GENIUS_GENSCALE_13
 70
     0
  0
APPID
  5
378
330
9
100
AcDbSymbolTableRecord
100
AcDbRegAppTableRecord
  2
GENIUS_GENDIMSH_14
 70
     0
  0
APPID
  5
C82
330
9
100
AcDbSymbolTableRecord
100
AcDbRegAppTableRecord
  2
GENIUS_GENOBJ-N-CRS_13
 70
     0
  0
APPID
  5
C83
330
9
100
AcDbSymbolTableRecord
100
AcDbRegAppTableRecord
  2
GENIUS_GENOENT_13
 70
     0
  0
APPID
  5
C84
330
9
100
AcDbSymbolTableRecord
100
AcDbRegAppTableRecord
  2
GENIUS_GENOREF_13
 70
     0
  0
APPID
  5
C85
330
9
100
AcDbSymbolTableRecord
100
AcDbRegAppTableRecord
  2
GENIUS_GENOLIS_13
 70
     0
  0
APPID
  5
CA0
330
9
100
AcDbSymbolTableRecord
100
AcDbRegAppTableRecord
  2
GENIUS_GENOBJ-N-CEN_13
 70
     0
  0
APPID
  5
1E1E
330
9
100
AcDbSymbolTableRecord
100
AcDbRegAppTableRecord
  2
GENIUS_GENFIL_13
 70
     0
  0
APPID
  5
1E1F
330
9
100
AcDbSymbolTableRecord
100
AcDbRegAppTableRecord
  2
GENIUS_GENOBJ-N-CHA_13
 70
     0
  0
ENDTAB
  0
TABLE
  2
DIMSTYLE
  5
A
330
0
100
AcDbSymbolTable
 70
     9
  0
DIMSTYLE
105
58
330
A
100
AcDbSymbolTableRecord
100
AcDbDimStyleTableRecord
  2
AM_JIS
 70
     0
  3

  4
"
  5
OPEN30
  6

  7

 40
1.0
 41
2.5
 42
1.0
 43
12.0
 44
1.0
 45
0.0
 46
0.0
 47
0.1
 48
0.1
140
3.2
141
0.0
142
0.0
143
0.0393701
144
1.0
145
0.0
146
0.71
147
1.5
 71
     0
 72
     0
 73
     0
 74
     0
 75
     0
 76
     0
 77
     3
 78
     8
170
     0
171
     2
172
     1
173
     0
174
     0
175
     0
176
   256
177
   256
178
     2
270
     2
271
     3
272
     3
273
     2
274
     2
340
6B
275
     0
280
     0
281
     0
282
     0
283
     0
284
     0
285
     0
286
     0
287
     3
288
     0
  0
DIMSTYLE
105
5F
330
A
100
AcDbSymbolTableRecord
100
AcDbDimStyleTableRecord
  2
AM_JIS$3
 70
     0
  3

  4
"
  5
OPEN30
  6

  7

 40
1.0
 41
2.5
 42
1.0
 43
10.0
 44
1.0
 45
0.0
 46
0.0
 47
0.1
 48
0.1
140
3.2
141
0.0
142
0.0
143
0.0393701
144
1.0
145
0.0
146
0.71
147
1.5
 71
     0
 72
     0
 73
     0
 74
     1
 75
     0
 76
     0
 77
     3
 78
     8
170
     0
171
     2
172
     0
173
     0
174
     0
175
     0
176
   256
177
   256
178
     2
270
     2
271
     2
272
     3
273
     2
274
     2
340
6B
275
     0
280
     0
281
     0
282
     0
283
     0
284
     0
285
     0
286
     0
287
     0
288
     1
  0
DIMSTYLE
105
60
330
A
100
AcDbSymbolTableRecord
100
AcDbDimStyleTableRecord
  2
AM_JIS$4
 70
     0
  3

  4
"
  5
OPEN30
  6

  7

 40
1.0
 41
2.5
 42
1.0
 43
10.0
 44
1.0
 45
0.0
 46
0.0
 47
0.1
 48
0.1
140
3.2
141
0.0
142
0.0
143
0.0393701
144
1.0
145
0.0
146
0.71
147
1.5
 71
     0
 72
     0
 73
     0
 74
     1
 75
     0
 76
     0
 77
     3
 78
     8
170
     0
171
     2
172
     0
173
     0
174
     0
175
     0
176
   256
177
   256
178
     2
270
     2
271
     2
272
     3
273
     2
274
     2
340
6B
275
     0
280
     0
281
     0
282
     0
283
     0
284
     0
285
     0
286
     0
287
     0
288
     1
  0
DIMSTYLE
105
61
330
A
100
AcDbSymbolTableRecord
100
AcDbDimStyleTableRecord
  2
AM_JIS$6
 70
     0
  3

  4
"
  5
OPEN30
  6

  7

 40
1.0
 41
2.5
 42
1.0
 43
10.0
 44
1.0
 45
0.0
 46
0.0
 47
0.1
 48
0.1
140
3.2
141
0.0
142
0.0
143
0.0393701
144
1.0
145
0.0
146
0.71
147
1.5
 71
     0
 72
     0
 73
     0
 74
     0
 75
     0
 76
     0
 77
     0
 78
     8
170
     0
171
     2
172
     1
173
     0
174
     0
175
     0
176
   256
177
   256
178
     2
270
     2
271
     2
272
     2
273
     2
274
     2
340
6B
275
     0
280
     0
281
     0
282
     0
283
     0
284
     0
285
     0
286
     0
287
     3
288
     0
  0
DIMSTYLE
105
62
330
A
100
AcDbSymbolTableRecord
100
AcDbDimStyleTableRecord
  2
AM_JIS$7
 70
     0
  3

  4
"
  5
OPEN30
  6

  7

 40
1.0
 41
2.5
 42
1.0
 43
10.0
 44
1.0
 45
0.0
 46
0.0
 47
0.1
 48
0.1
140
3.2
141
0.0
142
0.0
143
0.0393701
144
1.0
145
0.0
146
0.71
147
1.5
 71
     0
 72
     0
 73
     0
 74
     0
 75
     0
 76
     0
 77
     3
 78
     8
170
     0
171
     2
172
     1
173
     0
174
     0
175
     0
176
   256
177
   256
178
     2
270
     2
271
     2
272
     3
273
     2
274
     2
340
6B
275
     0
280
     0
281
     0
282
     0
283
     0
284
     0
285
     0
286
     0
287
     3
288
     0
  0
DIMSTYLE
105
63
330
A
100
AcDbSymbolTableRecord
100
AcDbDimStyleTableRecord
  2
AM_JIS$SF
 70
     0
  3

  4
"
  5
OPEN30
  6

  7

 40
1.0
 41
2.5
 42
1.0
 43
10.0
 44
1.0
 45
0.0
 46
0.0
 47
0.1
 48
0.1
140
3.2
141
0.0
142
0.0
143
0.0393701
144
1.0
145
0.0
146
0.71
147
1.5
 71
     0
 72
     0
 73
     0
 74
     0
 75
     1
 76
     1
 77
     3
 78
     8
170
     0
171
     2
172
     1
173
     0
174
     0
175
     0
176
   256
177
   256
178
     2
270
     2
271
     2
272
     2
273
     2
274
     2
340
6B
275
     0
280
     0
281
     0
282
     0
283
     0
284
     0
285
     0
286
     0
287
     3
288
     0
  0
DIMSTYLE
105
68
330
A
100
AcDbSymbolTableRecord
100
AcDbDimStyleTableRecord
  2
AM_JIS$SH
 70
     0
  3

  4
"
  5

  6
GENAXEH
  7
OPEN30
 40
1.0
 41
2.5
 42
1.0
 43
10.0
 44
1.0
 45
0.0
 46
0.0
 47
0.1
 48
0.1
140
3.2
141
0.0
142
0.0
143
0.0393701
144
2.0
145
0.0
146
0.71
147
1.5
 71
     0
 72
     0
 73
     0
 74
     0
 75
     1
 76
     1
 77
     3
 78
     8
170
     0
171
     2
172
     1
173
     1
174
     0
175
     0
176
   256
177
   256
178
     2
270
     2
271
     2
272
     2
273
     2
274
     2
340
6B
275
     0
280
     0
281
     0
282
     0
283
     0
284
     0
285
     0
286
     0
287
     3
288
     0
  0
DIMSTYLE
105
B34
102
{ACAD_REACTORS
330
426E
102
}
330
A
100
AcDbSymbolTableRecord
100
AcDbDimStyleTableRecord
  2
AM_JIS$2
 70
     0
  3

  4
"
  5
OPEN30
  6

  7

 40
1.0
 41
2.5
 42
1.0
 43
12.0
 44
1.0
 45
0.0
 46
0.0
 47
0.1
 48
0.1
140
3.2
141
0.0
142
0.0
143
0.0393701
144
1.0
145
0.0
146
0.71
147
1.5
 71
     0
 72
     0
 73
     0
 74
     0
 75
     0
 76
     0
 77
     3
 78
     8
170
     0
171
     2
172
     1
173
     0
174
     0
175
     0
176
   256
177
   256
178
     2
270
     2
271
     3
272
     3
273
     2
274
     2
340
6B
275
     0
280
     0
281
     0
282
     0
283
     0
284
     0
285
     0
286
     0
287
     3
288
     0
  0
DIMSTYLE
105
BA5
102
{ACAD_REACTORS
330
CC6
330
DF5
330
1FB6
330
2216
102
}
330
A
100
AcDbSymbolTableRecord
100
AcDbDimStyleTableRecord
  2
AM_JIS$0
 70
     0
  3

  4
"
  5
OPEN30
  6

  7

 40
1.0
 41
2.5
 42
0.0
 43
10.0
 44
1.0
 45
0.0
 46
0.0
 47
0.1
 48
0.1000000001
140
3.799999999999999
141
0.0
142
0.0
143
0.0393701
144
1.0
145
0.0
146
0.71
147
1.5
 71
     0
 72
     0
 73
     0
 74
     0
 75
     0
 76
     0
 77
     3
 78
     1
170
     0
171
     2
172
     1
173
     0
174
     0
175
     0
176
     3
177
     3
178
     2
270
     2
271
     2
272
     2
273
     2
274
     2
340
11
275
     1
280
     0
281
     0
282
     0
283
     0
284
     8
285
     0
286
     0
287
     0
288
     0
  0
ENDTAB
  0
TABLE
  2
BLOCK_RECORD
  5
1
330
0
100
AcDbSymbolTable
 70
    10
  0
BLOCK_RECORD
  5
1F
102
{ACAD_XDICTIONARY
360
74
102
}
330
1
100
AcDbSymbolTableRecord
100
AcDbBlockTableRecord
  2
*MODEL_SPACE
  0
BLOCK_RECORD
  5
101
102
{ACAD_XDICTIONARY
360
43CD
102
}
330
1
100
AcDbSymbolTableRecord
100
AcDbBlockTableRecord
  2
*PAPER_SPACE
  0
BLOCK_RECORD
  5
59
330
1
100
AcDbSymbolTableRecord
100
AcDbBlockTableRecord
  2
_OPEN30
  0
BLOCK_RECORD
  5
64
330
1
100
AcDbSymbolTableRecord
100
AcDbBlockTableRecord
  2
GENAXEH
  0
BLOCK_RECORD
  5
CC8
330
1
100
AcDbSymbolTableRecord
100
AcDbBlockTableRecord
  2
*D5
  0
BLOCK_RECORD
  5
DF6
330
1
100
AcDbSymbolTableRecord
100
AcDbBlockTableRecord
  2
*D6
  0
BLOCK_RECORD
  5
1FB7
330
1
100
AcDbSymbolTableRecord
100
AcDbBlockTableRecord
  2
*D7
  0
BLOCK_RECORD
  5
2217
330
1
100
AcDbSymbolTableRecord
100
AcDbBlockTableRecord
  2
*D8
  0
BLOCK_RECORD
  5
426F
330
1
100
AcDbSymbolTableRecord
100
AcDbBlockTableRecord
  2
*D9
  0
ENDTAB
  0
ENDSEC
  0
SECTION
  2
BLOCKS
  0
BLOCK
  5
20
330
1F
100
AcDbEntity
  8
0
100
AcDbBlockBegin
  2
*MODEL_SPACE
 70
     0
 10
0.0
 20
0.0
 30
0.0
  3
*MODEL_SPACE
  1

  0
ENDBLK
  5
21
330
1F
100
AcDbEntity
  8
0
100
AcDbBlockEnd
  0
BLOCK
  5
103
330
101
100
AcDbEntity
 67
     1
  8
0
100
AcDbBlockBegin
  2
*PAPER_SPACE
 70
     0
 10
0.0
 20
0.0
 30
0.0
  3
*PAPER_SPACE
  1

  0
ENDBLK
  5
104
330
101
100
AcDbEntity
 67
     1
  8
0
100
AcDbBlockEnd
  0
BLOCK
  5
5D
330
59
100
AcDbEntity
  8
0
100
AcDbBlockBegin
  2
_OPEN30
 70
     0
 10
0.0
 20
0.0
 30
0.0
  3
_OPEN30
  1

  0
LINE
  5
5A
330
59
100
AcDbEntity
  8
0
 62
     0
100
AcDbLine
 10
-1.0
 20
0.26794919
 30
0.0
 11
0.0
 21
0.0
 31
0.0
  0
LINE
  5
5B
330
59
100
AcDbEntity
  8
0
 62
     0
100
AcDbLine
 10
0.0
 20
0.0
 30
0.0
 11
-1.0
 21
-0.26794919
 31
0.0
  0
LINE
  5
5C
330
59
100
AcDbEntity
  8
0
 62
     0
100
AcDbLine
 10
0.0
 20
0.0
 30
0.0
 11
-1.0
 21
0.0
 31
0.0
  0
ENDBLK
  5
5E
330
59
100
AcDbEntity
  8
0
100
AcDbBlockEnd
  0
BLOCK
  5
66
330
64
100
AcDbEntity
  8
0
100
AcDbBlockBegin
  2
GENAXEH
 70
     0
 10
0.0
 20
0.0
 30
0.0
  3
GENAXEH
  1

  0
LINE
  5
65
330
64
100
AcDbEntity
  8
0
100
AcDbLine
 10
-1.0
 20
0.0
 30
0.0
 11
1.0
 21
0.0
 31
0.0
  0
ENDBLK
  5
67
330
64
100
AcDbEntity
  8
0
100
AcDbBlockEnd
  0
BLOCK
  5
CD2
330
CC8
100
AcDbEntity
  8
0
100
AcDbBlockBegin
  2
*D5
 70
     1
 10
0.0
 20
0.0
 30
0.0
  3
*D5
  1

  0
LINE
  5
423B
330
CC8
100
AcDbEntity
  8
AM_5
 62
     3
100
AcDbLine
 10
-196.9999999999999
 20
-7.500002054481325
 30
0.0
 11
-196.9999999999999
 21
-33.00000305448115
 31
0.0
  0
LINE
  5
423C
330
CC8
100
AcDbEntity
  8
AM_5
 62
     3
100
AcDbLine
 10
-2.999999999999356
 20
-7.650000667469418
 30
0.0
 11
-2.999999999999358
 21
-33.00000305448115
 31
0.0
  0
LINE
  5
423D
330
CC8
100
AcDbEntity
  8
AM_5
 62
     3
100
AcDbLine
 10
-194.4999999999999
 20
-32.00000305448114
 30
0.0
 11
-5.499999999999358
 21
-32.00000305448114
 31
0.0
  0
INSERT
  5
423E
330
CC8
100
AcDbEntity
  8
AM_5
 62
     3
100
AcDbBlockReference
  2
_OPEN30
 10
-196.9999999999999
 20
-32.00000305448114
 30
0.0
 41
2.5
 42
2.5
 43
2.5
 50
180.0
  0
INSERT
  5
423F
330
CC8
100
AcDbEntity
  8
AM_5
 62
     3
100
AcDbBlockReference
  2
_OPEN30
 10
-2.999999999999358
 20
-32.00000305448114
 30
0.0
 41
2.5
 42
2.5
 43
2.5
  0
MTEXT
  5
4240
330
CC8
100
AcDbEntity
  8
AM_5
 62
     2
100
AcDbMText
 10
-99.99999999999964
 20
-28.60000305448115
 30
0.0
 40
3.799999999999999
 41
0.0
 71
     5
 72
     1
  1
194
1001
ACAD
1000
MTEXTBEGIN
1070
    73
1070
     1
1070
    44
1040
1.0
1070
    74
1070
     0
1000
MTEXTEND
  0
POINT
  5
4241
330
CC8
100
AcDbEntity
  8
DEFPOINTS
 62
     0
100
AcDbPoint
 10
-196.9999999999999
 20
-7.500002054481325
 30
0.0
  0
POINT
  5
4242
330
CC8
100
AcDbEntity
  8
DEFPOINTS
 62
     0
100
AcDbPoint
 10
-2.999999999999356
 20
-7.650000667469418
 30
0.0
  0
POINT
  5
4243
330
CC8
100
AcDbEntity
  8
DEFPOINTS
 62
     0
100
AcDbPoint
 10
-2.999999999999358
 20
-32.00000305448114
 30
0.0
  0
ENDBLK
  5
CD3
330
CC8
100
AcDbEntity
  8
0
100
AcDbBlockEnd
  0
BLOCK
  5
E00
330
DF6
100
AcDbEntity
  8
0
100
AcDbBlockBegin
  2
*D6
 70
     1
 10
0.0
 20
0.0
 30
0.0
  3
*D6
  1

  0
LINE
  5
4232
330
DF6
100
AcDbEntity
  8
AM_5
 62
     3
100
AcDbLine
 10
-130.9999807595528
 20
-8.000002054481299
 30
0.0
 11
-130.9999807595528
 21
-23.00000305448101
 31
0.0
  0
LINE
  5
4233
330
DF6
100
AcDbEntity
  8
AM_5
 62
     3
100
AcDbLine
 10
-2.999999999999345
 20
-7.650000667469402
 30
0.0
 11
-2.999999999999346
 21
-23.00000305448101
 31
0.0
  0
LINE
  5
4234
330
DF6
100
AcDbEntity
  8
AM_5
 62
     3
100
AcDbLine
 10
-128.4999807595528
 20
-22.00000305448101
 30
0.0
 11
-5.499999999999346
 21
-22.00000305448101
 31
0.0
  0
INSERT
  5
4235
330
DF6
100
AcDbEntity
  8
AM_5
 62
     3
100
AcDbBlockReference
  2
_OPEN30
 10
-130.9999807595528
 20
-22.00000305448101
 30
0.0
 41
2.5
 42
2.5
 43
2.5
 50
180.0
  0
INSERT
  5
4236
330
DF6
100
AcDbEntity
  8
AM_5
 62
     3
100
AcDbBlockReference
  2
_OPEN30
 10
-2.999999999999346
 20
-22.00000305448101
 30
0.0
 41
2.5
 42
2.5
 43
2.5
  0
MTEXT
  5
4237
330
DF6
100
AcDbEntity
  8
AM_5
 62
     2
100
AcDbMText
 10
-66.99999037977609
 20
-18.60000305448101
 30
0.0
 40
3.799999999999999
 41
0.0
 71
     5
 72
     1
  1
128
1001
ACAD
1000
MTEXTBEGIN
1070
    73
1070
     1
1070
    44
1040
1.0
1070
    74
1070
     0
1000
MTEXTEND
  0
POINT
  5
4238
330
DF6
100
AcDbEntity
  8
DEFPOINTS
 62
     0
100
AcDbPoint
 10
-130.9999807595528
 20
-8.000002054481299
 30
0.0
  0
POINT
  5
4239
330
DF6
100
AcDbEntity
  8
DEFPOINTS
 62
     0
100
AcDbPoint
 10
-2.999999999999345
 20
-7.650000667469402
 30
0.0
  0
POINT
  5
423A
330
DF6
100
AcDbEntity
  8
DEFPOINTS
 62
     0
100
AcDbPoint
 10
-2.999999999999346
 20
-22.00000305448101
 30
0.0
  0
ENDBLK
  5
E01
330
DF6
100
AcDbEntity
  8
0
100
AcDbBlockEnd
  0
BLOCK
  5
1FC3
330
1FB7
100
AcDbEntity
  8
0
100
AcDbBlockBegin
  2
*D7
 70
     1
 10
0.0
 20
0.0
 30
0.0
  3
*D7
  1

  0
LINE
  5
4258
330
1FB7
100
AcDbEntity
  8
AM_5
 62
     3
100
AcDbLine
 10
-2.999999999999345
 20
-7.650000667469402
 30
0.0
 11
15.55592102485808
 21
-7.650000667469408
 31
0.0
  0
LINE
  5
4259
330
1FB7
100
AcDbEntity
  8
AM_5
 62
     3
100
AcDbLine
 10
-2.999999999999257
 20
7.649999332530214
 30
0.0
 11
15.55592102485809
 21
7.649999332530208
 31
0.0
  0
LINE
  5
425A
330
1FB7
100
AcDbEntity
  8
AM_5
 62
     3
100
AcDbLine
 10
14.55592102485808
 20
-5.150000667469408
 30
0.0
 11
14.55592102485809
 21
5.149999332530208
 31
0.0
  0
INSERT
  5
425B
330
1FB7
100
AcDbEntity
  8
AM_5
 62
     3
100
AcDbBlockReference
  2
_OPEN30
 10
14.55592102485808
 20
-7.650000667469408
 30
0.0
 41
2.5
 42
2.5
 43
2.5
 50
270.0
  0
INSERT
  5
425C
330
1FB7
100
AcDbEntity
  8
AM_5
 62
     3
100
AcDbBlockReference
  2
_OPEN30
 10
14.55592102485809
 20
7.649999332530208
 30
0.0
 41
2.5
 42
2.5
 43
2.5
 50
90.0
  0
MTEXT
  5
425D
330
1FB7
100
AcDbEntity
  8
AM_5
 62
     2
100
AcDbMText
 10
11.15592102485808
 20
-0.0000006674695965
 30
0.0
 40
3.799999999999999
 41
0.0
 71
     5
 72
     1
  1
%%c15.3
 11
0.0000000000000001
 21
1.0
 31
0.0
1001
ACAD
1000
MTEXTBEGIN
1070
    73
1070
     1
1070
    44
1040
1.0
1070
    74
1070
     0
1000
MTEXTEND
  0
POINT
  5
425E
330
1FB7
100
AcDbEntity
  8
DEFPOINTS
 62
     0
100
AcDbPoint
 10
-2.999999999999345
 20
-7.650000667469402
 30
0.0
  0
POINT
  5
425F
330
1FB7
100
AcDbEntity
  8
DEFPOINTS
 62
     0
100
AcDbPoint
 10
-2.999999999999257
 20
7.649999332530214
 30
0.0
  0
POINT
  5
4260
330
1FB7
100
AcDbEntity
  8
DEFPOINTS
 62
     0
100
AcDbPoint
 10
14.55592102485809
 20
7.649999332530208
 30
0.0
  0
ENDBLK
  5
1FC4
330
1FB7
100
AcDbEntity
  8
0
100
AcDbBlockEnd
  0
BLOCK
  5
2221
330
2217
100
AcDbEntity
  8
0
100
AcDbBlockBegin
  2
*D8
 70
     1
 10
0.0
 20
0.0
 30
0.0
  3
*D8
  1

  0
LINE
  5
4244
330
2217
100
AcDbEntity
  8
AM_5
 62
     3
100
AcDbLine
 10
-196.5000000000004
 20
7.999999999998412
 30
0.0
 11
-214.0000009999999
 21
7.999999999998363
 31
0.0
  0
LINE
  5
4245
330
2217
100
AcDbEntity
  8
AM_5
 62
     3
100
AcDbLine
 10
-196.5000000000004
 20
-8.000002054481424
 30
0.0
 11
-214.0000009999998
 21
-8.000002054481473
 31
0.0
  0
LINE
  5
4246
330
2217
100
AcDbEntity
  8
AM_5
 62
     3
100
AcDbLine
 10
-213.0000009999999
 20
5.499999999998366
 30
0.0
 11
-213.0000009999998
 21
-5.50000205448147
 31
0.0
  0
INSERT
  5
4247
330
2217
100
AcDbEntity
  8
AM_5
 62
     3
100
AcDbBlockReference
  2
_OPEN30
 10
-213.0000009999999
 20
7.999999999998366
 30
0.0
 41
2.5
 42
2.5
 43
2.5
 50
90.00000000000017
  0
INSERT
  5
4248
330
2217
100
AcDbEntity
  8
AM_5
 62
     3
100
AcDbBlockReference
  2
_OPEN30
 10
-213.0000009999998
 20
-8.00000205448147
 30
0.0
 41
2.5
 42
2.5
 43
2.5
 50
270.0000000000001
  0
MTEXT
  5
4249
330
2217
100
AcDbEntity
  8
AM_5
 62
     2
100
AcDbMText
 10
-216.4000009999999
 20
-0.0000010272415533
 30
0.0
 40
3.799999999999999
 41
0.0
 71
     5
 72
     1
  1
%%c16
 11
-0.0000000000000028
 21
1.0
 31
0.0
1001
ACAD
1000
MTEXTBEGIN
1070
    73
1070
     1
1070
    44
1040
1.0
1070
    74
1070
     0
1000
MTEXTEND
  0
POINT
  5
424A
330
2217
100
AcDbEntity
  8
DEFPOINTS
 62
     0
100
AcDbPoint
 10
-196.5000000000004
 20
7.999999999999023
 30
0.0
  0
POINT
  5
424B
330
2217
100
AcDbEntity
  8
DEFPOINTS
 62
     0
100
AcDbPoint
 10
-196.5000000000004
 20
-8.000002054480813
 30
0.0
  0
POINT
  5
424C
330
2217
100
AcDbEntity
  8
DEFPOINTS
 62
     0
100
AcDbPoint
 10
-213.0000009999998
 20
-8.000002054480807
 30
0.0
  0
ENDBLK
  5
2222
330
2217
100
AcDbEntity
  8
0
100
AcDbBlockEnd
  0
BLOCK
  5
427D
330
426F
100
AcDbEntity
  8
0
100
AcDbBlockBegin
  2
*D9
 70
     1
 10
0.0
 20
0.0
 30
0.0
  3
*D9
  1

  0
LINE
  5
43CF
330
426F
100
AcDbEntity
  8
AM_5
100
AcDbLine
 10
0.3420201408161974
 20
-0.9396926216994582
 30
0.0
 11
9.075275838223934
 21
-24.93411564802949
 31
0.0
  0
LINE
  5
43D0
330
426F
100
AcDbEntity
  8
AM_5
100
AcDbLine
 10
0.3420224212244416
 20
0.9396917916953068
 30
0.0
 11
9.075336347332521
 21
24.9340936244318
 31
0.0
  0
ARC
  5
43D1
330
426F
100
AcDbEntity
  8
AM_5
100
AcDbCircle
 10
0.0000000000000549
 20
-0.0000000000001509
 30
0.0
 40
25.53433162318492
100
AcDbArc
 50
295.6119235919808
 51
64.38793736486537
  0
INSERT
  5
43D2
330
426F
100
AcDbEntity
  8
AM_5
100
AcDbBlockReference
  2
_OPEN30
 10
8.733255697407793
 20
-23.99442302633019
 30
0.0
 41
2.5
 42
2.5
 43
2.5
 50
202.8059617194838
  0
INSERT
  5
43D3
330
426F
100
AcDbEntity
  8
AM_5
100
AcDbBlockReference
  2
_OPEN30
 10
8.733313926108138
 20
23.99440183273634
 30
0.0
 41
2.5
 42
2.5
 43
2.5
 50
157.1938992373623
  0
MTEXT
  5
43D4
330
426F
100
AcDbEntity
  8
AM_5
 62
     2
100
AcDbMText
 10
22.43433162316846
 20
-0.000027221378822
 30
0.0
 40
3.2
 41
0.0
 71
     5
 72
     1
  1
140°
  7
ASAMI
 11
0.0000012133804173
 21
0.999999999999264
 31
0.0
  0
POINT
  5
43D5
330
426F
100
AcDbEntity
  8
DEFPOINTS
 62
     0
100
AcDbPoint
 10
23.44602638469787
 20
-10.11365108211857
 30
0.0
  0
POINT
  5
43D6
330
426F
100
AcDbEntity
  8
DEFPOINTS
 62
     0
100
AcDbPoint
 10
0.0000000000000568
 20
-0.0000000000001457
 30
0.0
  0
POINT
  5
43D7
330
426F
100
AcDbEntity
  8
DEFPOINTS
 62
     0
100
AcDbPoint
 10
0.0000000000000568
 20
-0.0000000000001562
 30
0.0
  0
POINT
  5
43D8
330
426F
100
AcDbEntity
  8
DEFPOINTS
 62
     0
100
AcDbPoint
 10
-0.6568967178321655
 20
1.804808914154591
 30
0.0
  0
POINT
  5
43D9
330
426F
100
AcDbEntity
  8
DEFPOINTS
 62
     0
100
AcDbPoint
 10
-0.6569101001225143
 20
-1.804832053867269
 30
0.0
  0
ENDBLK
  5
427E
330
426F
100
AcDbEntity
  8
0
100
AcDbBlockEnd
  0
ENDSEC
  0
SECTION
  2
ENTITIES
  0
LINE
  5
C9F
330
1F
100
AcDbEntity
  8
AM_7
100
AcDbLine
 10
-198.9999999999999
 20
-0.0000000000005212
 30
0.0
 11
0.5559200248581107
 21
-0.0000000000001446
 31
0.0
1001
GENIUS_GENODEF_13
1002
{
1000
HIER
1070
     0
1002
}
1002
{
1000
MANEDIT
1070
     0
1002
}
1002
{
1000
NOSEL
1070
     0
1002
}
1002
{
1000
BEHIND
1070
     0
1002
}
1002
{
1000
REACTOR
1002
}
1001
GENIUS_GENOBJ-N-CEN_13
1002
{
1000
OWNER
1000
GEN
1002
}
  0
DIMENSION
  5
CC6
330
1F
100
AcDbEntity
  8
AM_5
100
AcDbDimension
  2
*D5
 10
-2.999999999999358
 20
-32.00000305448114
 30
0.0
 11
-99.99999999999964
 21
-28.60000305448115
 31
0.0
 70
    32
  1
<>
  3
AM_JIS$0
100
AcDbAlignedDimension
 13
-196.9999999999999
 23
-7.500002054481325
 33
0.0
 14
-2.999999999999356
 24
-7.650000667469418
 34
0.0
 50
0.0000000000001132
100
AcDbRotatedDimension
1001
GENIUS_GENDTOL_13
1000

1000
h7
1000

1040
0.0
1001
ACAD
1000
DSTYLE
1002
{
1070
   271
1070
     0
1002
}
  0
DIMENSION
  5
DF5
330
1F
100
AcDbEntity
  8
AM_5
100
AcDbDimension
  2
*D6
 10
-2.999999999999346
 20
-22.00000305448101
 30
0.0
 11
-66.99999037977609
 21
-18.60000305448101
 31
0.0
 70
    32
  1
<>
  3
AM_JIS$0
100
AcDbAlignedDimension
 13
-130.9999807595528
 23
-8.000002054481299
 33
0.0
 14
-2.999999999999345
 24
-7.650000667469402
 34
0.0
 50
0.0000000000001527
100
AcDbRotatedDimension
1001
GENIUS_GENDTOL_13
1000

1000
h7
1000

1040
0.0
1001
ACAD
1000
DSTYLE
1002
{
1070
   271
1070
     0
1002
}
  0
TEXT
  5
19BD
330
1F
100
AcDbEntity
  8
AM_6
100
AcDbText
 10
-121.1904761904757
 20
-54.50000305448121
 30
0.0
 40
5.0
  1
MDW153LHK
 50
0.0000000000001527
 72
     4
 11
-99.99999999999953
 21
-52.00000305448115
 31
0.0
100
AcDbText
  0
LINE
  5
1E25
330
1F
100
AcDbEntity
  8
AM_0
100
AcDbLine
 10
-130.9999807595529
 20
-8.000002054481358
 30
0.0
 11
-130.3933990297177
 21
-7.649791929475417
 31
0.0
  0
LINE
  5
1E26
330
1F
100
AcDbEntity
  8
AM_0
100
AcDbLine
 10
-130.3937618208206
 20
7.649999332534533
 30
0.0
 11
-130.9999999999999
 21
8.00001110847671
 31
0.0
  0
DIMENSION
  5
1FB6
330
1F
100
AcDbEntity
  8
AM_5
100
AcDbDimension
  2
*D7
 10
14.55592102485809
 20
7.649999332530208
 30
0.0
 11
14.55592102485808
 21
-0.0000006674695969
 31
0.0
 70
   160
  1
%%c<>
  3
AM_JIS$0
100
AcDbAlignedDimension
 13
-2.999999999999345
 23
-7.650000667469402
 33
0.0
 14
-2.999999999999257
 24
7.649999332530214
 34
0.0
 50
89.99999999999969
100
AcDbRotatedDimension
1001
ACAD
1000
DSTYLE
1002
{
1070
   271
1070
     1
1002
}
1001
GENIUS_GENDTOL_13
1000

1000
h7
1000

1040
0.0
  0
LINE
  5
1FD9
330
1F
100
AcDbEntity
  8
AM_0
100
AcDbLine
 10
-130.393756326017
 20
-7.64999821459002
 30
0.0
 11
-130.3937618208206
 21
7.649999332534547
 31
0.0
  0
LINE
  5
21D7
330
1F
100
AcDbEntity
  8
AM_0
 48
0.5
100
AcDbLine
 10
-130.9999807595529
 20
-8.000002054481299
 30
0.0
 11
-130.9999807595529
 21
7.99999999999953
 31
0.0
  0
LINE
  5
21D8
330
1F
100
AcDbEntity
  8
AM_0
 48
0.5
100
AcDbLine
 10
-196.4999999999999
 20
7.999999999999478
 30
0.0
 11
-130.999980759553
 21
7.999999999999531
 31
0.0
1001
GENIUS_GENODEF_13
1002
{
1000
HIER
1070
     0
1002
}
1002
{
1000
MANEDIT
1070
     0
1002
}
1002
{
1000
NOSEL
1070
     0
1002
}
1002
{
1000
BEHIND
1070
     0
1002
}
1002
{
1000
REACTOR
1002
}
1001
GENIUS_GENOBJ-N-CEN_13
1002
{
1000
OWNER
1000
GEN
1002
}
  0
LINE
  5
21D9
330
1F
100
AcDbEntity
  8
AM_0
 48
0.5
100
AcDbLine
 10
-196.4999999999998
 20
-8.000002054481353
 30
0.0
 11
-130.9999807595529
 21
-8.000002054481299
 31
0.0
1001
GENIUS_GENODEF_13
1002
{
1000
HIER
1070
     0
1002
}
1002
{
1000
MANEDIT
1070
     0
1002
}
1002
{
1000
NOSEL
1070
     0
1002
}
1002
{
1000
BEHIND
1070
     0
1002
}
1002
{
1000
REACTOR
1002
}
1001
GENIUS_GENOBJ-N-CEN_13
1002
{
1000
OWNER
1000
GEN
1002
}
  0
LINE
  5
21DC
330
1F
100
AcDbEntity
  8
AM_0
100
AcDbLine
 10
-196.5000000000004
 20
-8.000002054481353
 30
0.0
 11
-196.5000000000003
 21
7.999999999999479
 31
0.0
  0
LINE
  5
21DD
330
1F
100
AcDbEntity
  8
AM_0
 48
0.5
100
AcDbLine
 10
-196.9999999999998
 20
-7.500002054481353
 30
0.0
 11
-196.9999999999999
 21
7.499999999999478
 31
0.0
  0
DIMENSION
  5
2216
330
1F
100
AcDbEntity
  8
AM_5
100
AcDbDimension
  2
*D8
 10
-213.0000009999998
 20
-8.000002054480807
 30
0.0
 11
-216.4000009999999
 21
-0.0000010272409237
 31
0.0
 70
    32
  1
%%c<>
 51
359.9999999999998
  3
AM_JIS$0
100
AcDbAlignedDimension
 13
-196.5000000000004
 23
7.999999999999023
 33
0.0
 14
-196.5000000000004
 24
-8.000002054480813
 34
0.0
 50
269.9999999999999
100
AcDbRotatedDimension
1001
ACAD
1000
DSTYLE
1002
{
1070
   271
1070
     0
1002
}
1001
GENIUS_GENDTOL_13
1000

1000
h7
1000

1040
0.0
  0
ELLIPSE
  5
2694
330
1F
100
AcDbEntity
  8
AM_0
 48
0.5
100
AcDbEllipse
 10
9.217248688528284
 20
7.401657934614643
 30
0.0
 11
11.3780264168592
 21
0.0000000000011224
 31
0.0
210
0.0
220
0.0
230
1.0
 40
0.9899999999999971
 41
3.323896559076802
 42
3.661579236128986
  0
LINE
  5
2695
330
1F
100
AcDbEntity
  8
AM_0
 48
0.5
100
AcDbLine
 10
-1.97222807005761
 20
5.359497651709038
 30
0.0
 11
-2.999999999999257
 21
7.649999332530214
 31
0.0
  0
LINE
  5
2696
330
1F
100
AcDbEntity
  8
AM_0
 48
0.5
100
AcDbLine
 10
0.0000000000000568
 20
-0.0000000000001562
 30
0.0
 11
-0.6568967178321654
 21
1.804808914154591
 31
0.0
  0
LINE
  5
2699
330
1F
100
AcDbEntity
  8
AM_0
 48
0.5
100
AcDbLine
 10
0.0000000000000568
 20
-0.0000000000001457
 30
0.0
 11
-0.6569101001225142
 21
-1.804832053867269
 31
0.0
  0
ELLIPSE
  5
3366
330
1F
100
AcDbEntity
  8
AM_0
 48
0.5
100
AcDbEllipse
 10
9.217248688528307
 20
-7.40165793461491
 30
0.0
 11
11.3780264168592
 21
-0.0000000000010845
 31
0.0
210
0.0
220
0.0
230
-1.0
 40
0.9899999999999971
 41
3.323896559076802
 42
3.661579236128986
  0
LINE
  5
3367
330
1F
100
AcDbEntity
  8
AM_0
 48
0.5
100
AcDbLine
 10
-1.972228070057594
 20
-5.35949765170935
 30
0.0
 11
-2.999999999999345
 21
-7.650000667469402
 31
0.0
  0
LINE
  5
3F18
330
1F
100
AcDbEntity
  8
AM_0
 48
0.5
100
AcDbLine
 10
-196.4999999999999
 20
7.999999999999478
 30
0.0
 11
-196.9999999999999
 21
7.499999999999478
 31
0.0
1001
GENIUS_GENFIL_13
1070
     0
1040
0.5
1040
0.5
1040
20.0
1040
0.0
1002
{
1002
}
1001
GENIUS_GENODEF_13
1002
{
1000
HIER
1070
     0
1002
}
1002
{
1000
MANEDIT
1070
     0
1002
}
1002
{
1000
NOSEL
1070
     0
1002
}
1002
{
1000
BEHIND
1070
     0
1002
}
1002
{
1000
REACTOR
1002
}
1001
GENIUS_GENOBJ-N-CHA_13
1002
{
1000
OWNER
1000
GEN
1002
}
  0
LINE
  5
3F1B
330
1F
100
AcDbEntity
  8
AM_0
 48
0.5
100
AcDbLine
 10
-196.9999999999998
 20
-7.500002054481353
 30
0.0
 11
-196.4999999999998
 21
-8.000002054481353
 31
0.0
1001
GENIUS_GENFIL_13
1070
     0
1040
0.5
1040
0.5
1040
20.0
1040
0.0
1002
{
1002
}
1001
GENIUS_GENODEF_13
1002
{
1000
HIER
1070
     0
1002
}
1002
{
1000
MANEDIT
1070
     0
1002
}
1002
{
1000
NOSEL
1070
     0
1002
}
1002
{
1000
BEHIND
1070
     0
1002
}
1002
{
1000
REACTOR
1002
}
1001
GENIUS_GENOBJ-N-CHA_13
1002
{
1000
OWNER
1000
GEN
1002
}
  0
LINE
  5
4151
330
1F
100
AcDbEntity
  8
AM_0
100
AcDbLine
 10
-125.1130662011779
 20
-7.650213459375619
 30
0.0
 11
-130.3933990297177
 21
-7.649791929475417
 31
0.0
  0
LINE
  5
4152
330
1F
100
AcDbEntity
  8
AM_0
100
AcDbLine
 10
-121.6265596992923
 20
7.649999332534154
 30
0.0
 11
-130.3937618208206
 21
7.649999332534529
 31
0.0
  0
LINE
  5
4153
330
1F
100
AcDbEntity
  8
AM_0
 48
0.5
100
AcDbLine
 10
-8.720114055763314
 20
7.649999332530414
 30
0.0
 11
-2.999999999999257
 21
7.649999332530214
 31
0.0
  0
LINE
  5
4154
330
1F
100
AcDbEntity
  8
AM_0
 48
0.5
100
AcDbLine
 10
-8.72011405576382
 20
-7.650000667469593
 30
0.0
 11
-2.999999999999298
 21
-7.65000066746942
 31
0.0
  0
LINE
  5
4155
330
1F
100
AcDbEntity
  8
AM_11
 48
0.5
100
AcDbLine
 10
-31.53973782832385
 20
7.649999332531232
 30
0.0
 11
-8.720114055763314
 21
7.649999332530414
 31
0.0
  0
LINE
  5
4156
330
1F
100
AcDbEntity
  8
AM_11
 48
0.5
100
AcDbLine
 10
-31.53973782832438
 20
-7.650000667468757
 30
0.0
 11
-8.72011405576382
 21
-7.650000667469593
 31
0.0
  0
LINE
  5
4157
330
1F
100
AcDbEntity
  8
AM_11
 48
0.5
100
AcDbLine
 10
-71.70737852786462
 20
7.651086153865789
 30
0.0
 11
-57.14476950494049
 21
7.649999332532151
 31
0.0
  0
LINE
  5
4158
330
1F
100
AcDbEntity
  8
AM_11
 48
0.5
100
AcDbLine
 10
-74.66527693119612
 20
-7.650000667467367
 30
0.0
 11
-51.84565315863849
 21
-7.651087488801271
 31
0.0
  0
LINE
  5
4159
330
1F
100
AcDbEntity
  8
AM_0
 48
0.5
100
AcDbLine
 10
-57.14478915934822
 20
7.649999332532151
 30
0.0
 11
-31.53973782832385
 21
7.649999332531232
 31
0.0
  0
LINE
  5
415A
330
1F
100
AcDbEntity
  8
AM_0
 48
0.5
100
AcDbLine
 10
-51.84565315863848
 20
-7.650000667468189
 30
0.0
 11
-31.53973782832438
 21
-7.650000667468757
 31
0.0
  0
LINE
  5
415B
330
1F
100
AcDbEntity
  8
AM_0
 48
0.5
100
AcDbLine
 10
0.000000000000055
 20
-0.0000000000001509
 30
0.0
 11
-5.757492088544548
 21
2.937366962534639
 31
0.0
  0
SPLINE
  5
415C
330
1F
100
AcDbEntity
  8
AM_0
100
AcDbSpline
210
0.0
220
0.0
230
1.0
 70
     8
 71
     3
 72
    23
 73
    19
 74
     0
 42
0.0000000001
 43
0.0000000001
 40
16.03460024169435
 40
16.03460024169435
 40
16.03460024169435
 40
16.03460024169435
 40
16.35212704903564
 40
17.38177054169784
 40
18.41822485651776
 40
19.46214173629503
 40
20.51396345435107
 40
21.57393551351153
 40
22.64208202342361
 40
23.7182574881101
 40
24.80209208578934
 40
25.89306333925047
 40
26.99048218457928
 40
28.09348763352352
 40
29.20111863782268
 40
30.31232390128032
 40
31.42594612798585
 40
32.5407912310448
 40
32.5407912310486
 40
32.5407912310486
 40
32.5407912310486
 10
-71.70737852786462
 20
7.651086153865786
 30
0.0
 10
-71.58292224432648
 20
7.62526110102784
 30
0.0
 10
-71.05542182663183
 20
7.512800264538852
 30
0.0
 10
-70.1262241600725
 20
7.292450419126067
 30
0.0
 10
-68.92291074938038
 20
6.964792608719703
 30
0.0
 10
-67.7207150327841
 20
6.596887502661023
 30
0.0
 10
-66.51956597158004
 20
6.190864348052741
 30
0.0
 10
-65.31942093485945
 20
5.748986733071446
 30
0.0
 10
-64.12021055711548
 20
5.273780616509971
 30
0.0
 10
-62.92185132989547
 20
4.768011578768017
 30
0.0
 10
-61.72427515812406
 20
4.234543760418111
 30
0.0
 10
-60.52738602777702
 20
3.676481286394433
 30
0.0
 10
-59.33108694437471
 20
3.097067856905984
 30
0.0
 10
-58.13529820192125
 20
2.499634856266643
 30
0.0
 10
-56.93991975022488
 20
1.88765627556001
 30
0.0
 10
-55.74484087192466
 20
1.264705620714986
 30
0.0
 10
-54.54996425386429
 20
0.6343927220873083
 30
0.0
 10
-53.75359380411925
 20
0.2118023887105307
 30
0.0
 10
-53.35519140411253
 20
0.0003884316513488
 30
0.0
  0
SPLINE
  5
415D
330
1F
100
AcDbEntity
  8
AM_0
100
AcDbSpline
210
0.0
220
0.0
230
1.0
 70
     8
 71
     3
 72
    11
 73
     7
 74
     0
 42
0.0000000001
 43
0.0000000001
 40
11.27226913003534
 40
11.27226913003534
 40
11.27226913003534
 40
11.2722691300354
 40
12.28301561507924
 40
13.29510212255852
 40
14.30984805882082
 40
15.18258238371378
 40
15.18258238371378
 40
15.18258238371378
 40
15.18258238371378
 10
-74.66527693119897
 20
-7.650000667467366
 30
0.0
 10
-75.06737074519174
 20
-7.612559344391868
 30
0.0
 10
-75.87079994778327
 20
-7.521915530739012
 30
0.0
 10
-77.07179499304917
 20
-7.339064537907063
 30
0.0
 10
-78.21156046784683
 20
-7.120669075798753
 30
0.0
 10
-78.94869387405478
 20
-6.952781984210186
 30
0.0
 10
-79.28838593748995
 20
-6.869850398174
 30
0.0
  0
SPLINE
  5
415E
330
1F
100
AcDbEntity
  8
AM_0
100
AcDbSpline
210
0.0
220
0.0
230
1.0
 70
     8
 71
     3
 72
    17
 73
    13
 74
     0
 42
0.0000000001
 43
0.0000000001
 40
1.580019955310467
 40
1.580019955310467
 40
1.580019955310467
 40
1.580019955310467
 40
2.030549285115227
 40
3.082371838836284
 40
4.126290986361125
 40
5.162752068350215
 40
6.192395305374981
 40
7.216039564037012
 40
8.234688489606833
 40
9.249433870634691
 40
10.26152376260694
 40
11.27226744710342
 40
11.27226744710342
 40
11.27226744710342
 40
11.27226744710352
 10
-63.25457485823239
 20
-5.645925933884035
 30
0.0
 10
-63.42596749170251
 20
-5.704074273844034
 30
0.0
 10
-63.99847646893821
 20
-5.894663224883956
 30
0.0
 10
-64.97589126936441
 20
-6.193608813981064
 30
0.0
 10
-66.18656409304747
 20
-6.528388215924691
 30
0.0
 10
-67.39757021382541
 20
-6.822280081619196
 30
0.0
 10
-68.60863182248102
 20
-7.074297456126461
 30
0.0
 10
-69.81982537412844
 20
-7.282607152893668
 30
0.0
 10
-71.03110260366277
 20
-7.446020440333235
 30
0.0
 10
-72.24245525701362
 20
-7.56347834566382
 30
0.0
 10
-73.45385348958858
 20
-7.634224778708174
 30
0.0
 10
-74.26164832252517
 20
-7.650000711241082
 30
0.0
 10
-74.6652769311989
 20
-7.650000667467366
 30
0.0
  0
SPLINE
  5
415F
330
1F
100
AcDbEntity
  8
AM_0
 48
0.5
100
AcDbSpline
210
0.0
220
0.0
230
1.0
 70
     8
 71
     3
 72
    17
 73
    13
 74
     0
 42
0.0000000001
 43
0.0000000001
 40
0.0
 40
0.0
 40
0.0
 40
0.0
 40
1.010743614677189
 40
2.022833924044153
 40
3.037578959561199
 40
4.056212747067873
 40
5.079857613375832
 40
6.109500119648989
 40
7.14596120163808
 40
8.18989512056258
 40
9.241717674284874
 40
9.693948937866434
 40
9.693948937866434
 40
9.693948937866434
 40
9.693948937866434
 10
-8.720114055763316
 20
7.649999332530411
 30
0.0
 10
-9.123742743217698
 20
7.645451047941821
 30
0.0
 10
-9.931537904962011
 20
7.636348418720794
 30
0.0
 10
-11.14293514268402
 20
7.562898014937401
 30
0.0
 10
-12.35428250788491
 20
7.446175359223125
 30
0.0
 10
-13.56555453758861
 20
7.28256648015479
 30
0.0
 10
-14.77673680589618
 20
7.074290289673717
 30
0.0
 10
-15.98781451941349
 20
6.822312430737971
 30
0.0
 10
-17.19877142344219
 20
6.528254968157533
 30
0.0
 10
-18.40965450797111
 20
6.19409757250208
 30
0.0
 10
-19.38711090912611
 20
5.893072270764234
 30
0.0
 10
-19.96113061720852
 20
5.704888167845546
 30
0.0
 10
-20.1334205370368
 20
5.647286273701817
 30
0.0
  0
SPLINE
  5
4161
330
1F
100
AcDbEntity
  8
AM_0
 48
0.5
100
AcDbSpline
210
0.0
220
0.0
230
1.0
 70
     8
 71
     3
 72
    25
 73
    21
 74
     0
 42
0.0000000001
 43
0.0000000001
 40
6.846175049578289
 40
6.846175049578289
 40
6.846175049578289
 40
6.846175049578289
 40
7.604337694224321
 40
8.711974558287883
 40
9.814980593243754
 40
10.91239053451967
 40
12.0033633515982
 40
13.08720139956839
 40
14.16337181880432
 40
15.23152222380919
 40
16.29148850140128
 40
17.34331105512262
 40
18.38723020264746
 40
19.42369128463655
 40
20.45333379090873
 40
21.47697865721768
 40
22.49561244472435
 40
23.5103574802404
 40
24.52244778960836
 40
25.53320666051913
 40
25.53320666051913
 40
25.53320666051913
 40
25.53320666051913
 10
-10.13290932694567
 20
1.384699415939378
 30
0.0
 10
-10.40809754371555
 20
1.519019810464476
 30
0.0
 10
-11.08590082288113
 20
1.84823132438281
 30
0.0
 10
-12.16732645219499
 20
2.365211911699247
 30
0.0
 10
-13.37739886395119
 20
2.92912304682987
 30
0.0
 10
-14.58753213103488
 20
3.475017376328743
 30
0.0
 10
-15.79773665074611
 20
3.99953843486651
 30
0.0
 10
-17.0080259077498
 20
4.499450190710814
 30
0.0
 10
-18.21841109341997
 20
4.971669737997899
 30
0.0
 10
-19.42889781120258
 20
5.413294945812445
 30
0.0
 10
-20.63950097118862
 20
5.821577439447274
 30
0.0
 10
-21.85021893407691
 20
6.194013615311661
 30
0.0
 10
-23.06106039620055
 20
6.528279475567703
 30
0.0
 10
-24.27202108444432
 20
6.82230630092228
 30
0.0
 10
-25.48309626818373
 20
7.074291917302303
 30
0.0
 10
-26.69427920835465
 20
7.282566047162101
 30
0.0
 10
-27.90555105943682
 20
7.446175475490292
 30
0.0
 10
-29.11689847198515
 20
7.562897980327111
 30
0.0
 10
-30.32830178218093
 20
7.636348810255817
 30
0.0
 10
-31.13610304442359
 20
7.645451155492676
 30
0.0
 10
-31.53973782832384
 20
7.649999332531234
 30
0.0
  0
SPLINE
  5
4162
330
1F
100
AcDbEntity
  8
AM_0
 48
0.5
100
AcDbSpline
210
0.0
220
0.0
230
1.0
 70
     8
 71
     3
 72
    10
 73
     6
 74
     0
 42
0.0000000001
 43
0.0000000001
 40
0.0
 40
0.0
 40
0.0
 40
0.0
 40
2.69986029516136
 40
4.147722969032201
 40
6.285750005020438
 40
6.285750005020438
 40
6.285750005020438
 40
6.285750005020438
 10
-10.13271565103409
 20
1.384608554942429
 30
0.0
 10
-9.270539053113155
 20
0.673870691059836
 30
0.0
 10
-7.946000266803525
 20
-0.4180168292944528
 30
0.0
 10
-4.813643965678754
 20
0.1105850475645676
 30
0.0
 10
-5.403557767380824
 20
1.890986113265298
 30
0.0
 10
-5.793335116408197
 20
2.976195397686805
 30
0.0
  0
SPLINE
  5
4163
330
1F
100
AcDbEntity
  8
AM_0
100
AcDbSpline
210
0.0
220
0.0
230
1.0
 70
     8
 71
     3
 72
    55
 73
    51
 74
     0
 42
0.0000000001
 43
0.0000000001
 40
0.0
 40
0.0
 40
0.0
 40
0.0
 40
1.010743684496582
 40
2.022833576467832
 40
3.037578957496688
 40
4.056212745003489
 40
5.079857003664532
 40
6.109500240690281
 40
7.145961322679372
 40
8.189895241603872
 40
9.241717795325891
 40
10.30168407291828
 40
11.36983447792315
 40
12.44600489715814
 40
13.52984294512926
 40
14.62081576220742
 40
15.7182257034828
 40
16.82123173843959
 40
17.92886860250316
 40
19.0400688939571
 40
20.15368796660465
 40
21.26852814259644
 40
22.38336992938901
 40
23.49698739941135
 40
24.6081876908653
 40
25.71582455492886
 40
26.81883757994213
 40
27.91624752121713
 40
29.00722033829659
 40
30.09105838626677
 40
31.16722880550176
 40
32.23537921050758
 40
33.29534548809967
 40
34.347168041821
 40
35.39108718934584
 40
36.42754827133493
 40
37.45720575381954
 40
38.48085062012849
 40
39.49948440763516
 40
40.51422944315121
 40
41.52631975251916
 40
42.53706336719636
 40
43.54780698187354
 40
44.55989729124051
 40
45.57464232675757
 40
46.59327611426424
 40
47.6169209805722
 40
48.64656348684535
 40
49.68302456883444
 40
50.58557219878025
 40
50.58557219878025
 40
50.58557219878025
 40
50.58557219878025
 10
-8.720114055763822
 20
-7.650000667469587
 30
0.0
 10
-9.123742669762618
 20
-7.645449102802154
 30
0.0
 10
-9.931537489897074
 20
-7.636339911247505
 30
0.0
 10
-11.14293574816645
 20
-7.562909600966102
 30
0.0
 10
-12.35428229641172
 20
-7.446174589755814
 30
0.0
 10
-13.56555387419828
 20
-7.282566031777833
 30
0.0
 10
-14.77673839494255
 20
-7.074301136672734
 30
0.0
 10
-15.98781196468197
 20
-6.82230602523978
 30
0.0
 10
-17.19877863440392
 20
-6.528278226368245
 30
0.0
 10
-18.40962766528135
 20
-6.194018225616924
 30
0.0
 10
-19.62035080922559
 20
-5.821578359112875
 30
0.0
 10
-20.83095410102217
 20
-5.413296393398552
 30
0.0
 10
-22.04144078290816
 20
-4.971671042094106
 30
0.0
 10
-23.25182597894502
 20
-4.49945153519188
 30
0.0
 10
-24.46211523072705
 20
-3.999539762737819
 30
0.0
 10
-25.67231976094924
 20
-3.475018730074877
 30
0.0
 10
-26.88245299094361
 20
-2.92912431309984
 30
0.0
 10
-28.09252554148549
 20
-2.365213504195486
 30
0.0
 10
-29.30254915646683
 20
-1.786754574203287
 30
0.0
 10
-30.51253678365453
 20
-1.197307869112993
 30
0.0
 10
-31.72249903579186
 20
-0.6004970650261307
 30
0.0
 10
-32.93245299942004
 20
-0.0000022283466024
 30
0.0
 10
-34.14240153136734
 20
0.6005034176142197
 30
0.0
 10
-35.35236783903441
 20
1.19730492777826
 30
0.0
 10
-36.56235397247613
 20
1.786753417090172
 30
0.0
 10
-37.7723797449162
 20
2.365214550753064
 30
0.0
 10
-38.98245731541947
 20
2.929120547143557
 30
0.0
 10
-40.19259245532381
 20
3.475017732562834
 30
0.0
 10
-41.40279716025929
 20
3.999538339893298
 30
0.0
 10
-42.61308636800277
 20
4.499450217476923
 30
0.0
 10
-43.82347156713892
 20
4.971669725069904
 30
0.0
 10
-45.03395827985694
 20
5.413294970775072
 30
0.0
 10
-46.24456144670607
 20
5.821577353382838
 30
0.0
 10
-47.45527938740699
 20
6.194013931247638
 30
0.0
 10
-48.66612093058173
 20
6.528278309971013
 30
0.0
 10
-49.87708715109786
 20
6.822312021371685
 30
0.0
 10
-51.08816936830848
 20
7.074278351464856
 30
0.0
 10
-52.29935789046415
 20
7.282607708957636
 30
0.0
 10
-53.51062982732581
 20
7.446022330107516
 30
0.0
 10
-54.72197721725148
 20
7.563466230516283
 30
0.0
 10
-55.93337444839948
 20
7.634234862068023
 30
0.0
 10
-57.14479829926702
 20
7.657876320202612
 30
0.0
 10
-58.35622214835209
 20
7.634234862031038
 30
0.0
 10
-59.56761938485782
 20
7.563466230665135
 30
0.0
 10
-60.77896675505794
 20
7.446022329547324
 30
0.0
 10
-61.99023876587541
 20
7.282607711063825
 30
0.0
 10
-63.20142110522824
 20
7.074279359185695
 30
0.0
 10
-64.41249855123587
 20
6.822314597591688
 30
0.0
 10
-65.56840476571051
 20
6.541625578930342
 30
0.0
 10
-66.31836988149578
 20
6.336355046040951
 30
0.0
 10
-66.66630998409175
 20
6.236316701664311
 30
0.0
  0
SPLINE
  5
4164
330
1F
100
AcDbEntity
  8
AM_0
100
AcDbSpline
210
0.0
220
0.0
230
1.0
 70
     8
 71
     3
 72
    11
 73
     7
 74
     0
 42
0.0000000001
 43
0.0000000001
 40
11.27226913003534
 40
11.27226913003534
 40
11.27226913003534
 40
11.2722691300354
 40
12.28301561507924
 40
13.29510212255852
 40
14.30984805882082
 40
15.18258238371378
 40
15.18258238371378
 40
15.18258238371378
 40
15.18258238371378
 10
-31.53973782832434
 20
-7.650000667468763
 30
0.0
 10
-31.94183164231712
 20
-7.612559344393267
 30
0.0
 10
-32.74526084490866
 20
-7.52191553074041
 30
0.0
 10
-33.94625589017456
 20
-7.339064537908458
 30
0.0
 10
-35.08602136497219
 20
-7.120669075800144
 30
0.0
 10
-35.82315477118014
 20
-6.952781984211584
 30
0.0
 10
-36.16284683461531
 20
-6.8698503981754
 30
0.0
  0
SPLINE
  5
4165
330
1F
100
AcDbEntity
  8
AM_0
100
AcDbSpline
210
0.0
220
0.0
230
1.0
 70
     8
 71
     3
 72
    22
 73
    18
 74
     0
 42
0.0000000001
 43
0.0000000001
 40
17.17441611292
 40
17.17441611292
 40
17.17441611292
 40
17.17441611292
 40
17.38177636558528
 40
18.41823744757437
 40
19.46215659509824
 40
20.51397914882054
 40
21.57394542641293
 40
22.64209583141747
 40
23.71826625065247
 40
24.80210429862395
 40
25.8930771157021
 40
26.99048705697709
 40
28.09349309193389
 40
29.20112995599786
 40
30.31233024745139
 40
31.42594771747373
 40
32.5407895042663
 40
32.54078950426994
 40
32.54078950426994
 40
32.54078950426994
 10
-36.16337662082761
 20
-6.869756035483897
 30
0.0
 10
-36.24449357344328
 20
-6.852047035809431
 30
0.0
 10
-36.73074540382616
 20
-6.744179583150902
 30
0.0
 10
-37.62153135690608
 20
-6.527891301309002
 30
0.0
 10
-38.83237272693746
 20
-6.193625962241426
 30
0.0
 10
-40.04309071477495
 20
-5.821189645137205
 30
0.0
 10
-41.25369386801964
 20
-5.412907189834446
 30
0.0
 10
-42.46418058754895
 20
-4.971281971437332
 30
0.0
 10
-43.67456577305075
 20
-4.499062427752595
 30
0.0
 10
-44.8848550289487
 20
-3.999150668158746
 30
0.0
 10
-46.0950595532964
 20
-3.474629621085198
 30
0.0
 10
-47.30519280280093
 20
-2.928735249155231
 30
0.0
 10
-48.51526528068869
 20
-2.364824273370091
 30
0.0
 10
-49.72528916829561
 20
-1.786365969342315
 30
0.0
 10
-50.93527519143016
 20
-1.196917200864525
 30
0.0
 10
-52.14524127498319
 20
-0.6001151854400022
 30
0.0
 10
-52.95172699611703
 20
-0.1998527331347551
 30
0.0
 10
-53.3551914041179
 20
0.0003884316540974
 30
0.0
  0
SPLINE
  5
4166
330
1F
100
AcDbEntity
  8
AM_0
100
AcDbSpline
210
0.0
220
0.0
230
1.0
 70
     8
 71
     3
 72
    17
 73
    13
 74
     0
 42
0.0000000001
 43
0.0000000001
 40
1.580019955310467
 40
1.580019955310467
 40
1.580019955310467
 40
1.580019955310467
 40
2.030549285115227
 40
3.082371838836284
 40
4.126290986361125
 40
5.162752068350215
 40
6.192395305374981
 40
7.216039564037012
 40
8.234688489606833
 40
9.249433870634691
 40
10.26152376260694
 40
11.27226744710342
 40
11.27226744710342
 40
11.27226744710342
 40
11.27226744710352
 10
-20.12903575535769
 20
-5.645925933885431
 30
0.0
 10
-20.30042838882783
 20
-5.704074273845433
 30
0.0
 10
-20.87293736606354
 20
-5.894663224885354
 30
0.0
 10
-21.85035216648974
 20
-6.193608813982463
 30
0.0
 10
-23.06102499017282
 20
-6.528388215926084
 30
0.0
 10
-24.27203111095075
 20
-6.822280081620593
 30
0.0
 10
-25.4830927196064
 20
-7.074297456127856
 30
0.0
 10
-26.6942862712538
 20
-7.282607152895064
 30
0.0
 10
-27.90556350078816
 20
-7.446020440334637
 30
0.0
 10
-29.11691615413902
 20
-7.563478345665219
 30
0.0
 10
-30.32831438671397
 20
-7.634224778709573
 30
0.0
 10
-31.13610921965054
 20
-7.650000711242485
 30
0.0
 10
-31.53973782832427
 20
-7.650000667468763
 30
0.0
  0
SPLINE
  5
4167
330
1F
100
AcDbEntity
  8
AM_0
100
AcDbSpline
210
0.0
220
0.0
230
1.0
 70
     8
 71
     3
 72
    46
 73
    42
 74
     0
 42
0.0000000001
 43
0.0000000001
 40
0.0
 40
0.0
 40
0.0
 40
0.0
 40
1.348332046947657
 40
2.024828967632895
 40
2.703918159304097
 40
3.386347665078124
 40
4.072776489761952
 40
4.763750544421347
 40
5.459696642770596
 40
6.160921452191754
 40
6.867565637253344
 40
7.579665907256596
 40
8.297112853413899
 40
9.019671552060676
 40
9.746986763446127
 40
10.47859339096366
 40
11.21393074760089
 40
11.95235532364328
 40
12.69315551794651
 40
13.43556823304427
 40
14.1787950170388
 40
14.92202180103393
 40
15.66443451613169
 40
16.40523471043432
 40
17.14365928647669
 40
17.87899664311455
 40
18.61060327063121
 40
19.3379184820169
 40
20.06048192311554
 40
20.77792886927283
 40
21.49002913927608
 40
22.19667332433747
 40
22.89788836015233
 40
23.59383445850158
 40
24.28480851316097
 40
24.97123685067576
 40
25.65366676154838
 40
26.33276604526152
 40
27.00926273560555
 40
27.68398960851751
 40
28.357818684969
 40
28.357818684969
 40
28.357818684969
 40
28.357818684969
 10
-5.329022070253839
 20
-7.65000066746971
 30
0.0
 10
-6.136856357955855
 20
-7.632573376117684
 30
0.0
 10
-7.350004313972378
 20
-7.606402312070935
 30
0.0
 10
-8.963180054331074
 20
-7.445271878615523
 30
0.0
 10
-10.17446464597399
 20
-7.282809539097137
 30
0.0
 10
-11.38564570161948
 20
-7.074235491964354
 30
0.0
 10
-12.59672003060192
 20
-6.822323221869282
 30
0.0
 10
-13.80768141139498
 20
-6.528277084072238
 30
0.0
 10
-15.01852781582028
 20
-6.194012602501589
 30
0.0
 10
-16.22925385518366
 20
-5.821582210555944
 30
0.0
 10
-17.43986194943607
 20
-5.413295859639524
 30
0.0
 10
-18.65034884240989
 20
-4.971671186753352
 30
0.0
 10
-19.86073398122463
 20
-4.499451495965955
 30
0.0
 10
-21.07102324859405
 20
-3.999539773518659
 30
0.0
 10
-22.28122777425674
 20
-3.475018726542515
 30
0.0
 10
-23.49136100676894
 20
-2.929124316376638
 30
0.0
 10
-24.70143355179959
 20
-2.365213494583004
 30
0.0
 10
-25.91145718640762
 20
-1.786754609558516
 30
0.0
 10
-27.12144474029306
 20
-1.197307736787022
 30
0.0
 10
-28.33140726677116
 20
-0.6004975601912588
 30
0.0
 10
-29.54135962209067
 20
-0.0000006675903369
 30
0.0
 10
-30.75131197714437
 20
0.6004962257403104
 30
0.0
 10
-31.96127450441979
 20
1.197306400147969
 30
0.0
 10
-33.17126205539095
 20
1.786753280916015
 30
0.0
 10
-34.3812857008052
 20
2.365212136284185
 30
0.0
 10
-35.59135820576743
 20
2.929123068040477
 30
0.0
 10
-36.8014915866666
 20
3.475017070975914
 30
0.0
 10
-38.01169819438123
 20
3.999540764587641
 30
0.0
 10
-39.22199216435086
 20
4.499447945083522
 30
0.0
 10
-40.43237946230717
 20
4.971670057251782
 30
0.0
 10
-41.64286632709737
 20
5.413294861544779
 30
0.0
 10
-42.8534694483093
 20
5.821577460658549
 30
0.0
 10
-44.06418742085405
 20
6.194013613786887
 30
0.0
 10
-45.27502888268555
 20
6.528279460864519
 30
0.0
 10
-46.48598956263774
 20
6.822306360619508
 30
0.0
 10
-47.69706477950578
 20
7.074291695199791
 30
0.0
 10
-48.90825356500222
 20
7.28256789591879
 30
0.0
 10
-50.11953191520273
 20
7.44617394004202
 30
0.0
 10
-51.33088520660533
 20
7.562898237664468
 30
0.0
 10
-52.54228246923129
 20
7.636348363188015
 30
0.0
 10
-53.35007762766175
 20
7.645451029440223
 30
0.0
 10
-53.75370631346016
 20
7.649999332532036
 30
0.0
  0
ELLIPSE
  5
4168
330
1F
100
AcDbEntity
  8
AM_0
 48
0.5
100
AcDbEllipse
 10
-22.26133222196699
 20
52.51140023884104
 30
0.0
 11
0.0048316790583876
 21
57.35525261865079
 31
0.0
210
0.0
220
0.0
230
1.0
 40
0.9650030371197521
 41
3.480539516612379
 42
3.555605742843139
  0
ELLIPSE
  5
4169
330
1F
100
AcDbEntity
  8
AM_0
 48
0.5
100
AcDbEllipse
 10
-14.66730222103961
 20
12.83947267542555
 30
0.0
 11
-0.0000000000102178
 21
18.44496052265072
 31
0.0
210
0.0
220
0.0
230
1.0
 40
0.9395674105477533
 41
3.652175978817606
 42
3.74067075649711
  0
ELLIPSE
  5
416A
330
1F
100
AcDbEntity
  8
AM_0
 48
0.5
100
AcDbEllipse
 10
2.363340231662542
 20
9.18429498682685
 30
0.0
 11
0.0000000000007343
 21
15.41815237998931
 31
0.0
210
0.0
220
0.0
230
1.0
 40
0.9395674105478036
 41
2.101163880029
 42
2.509284810223897
  0
ELLIPSE
  5
416B
330
1F
100
AcDbEntity
  8
AM_0
 48
0.5
100
AcDbEllipse
 10
-4.366565105285209
 20
-1.993700790303501
 30
0.0
 11
-1.025385125655208
 21
0.6579284230512718
 31
0.0
210
0.0
220
0.0
230
1.0
 40
0.5145209229845481
 41
4.521673818440948
 42
7.665114159770457
  0
ELLIPSE
  5
416C
330
1F
100
AcDbEntity
  8
AM_0
 48
0.5
100
AcDbEllipse
 10
-4.366565105285209
 20
-1.993700790303501
 30
0.0
 11
-0.2003730793363452
 21
1.256954148437793
 31
0.0
210
0.0
220
0.0
230
1.0
 40
0.4713868681637816
 41
1.818793089817107
 42
4.954134979529085
  0
ELLIPSE
  5
416D
330
1F
100
AcDbEntity
  8
AM_0
 48
0.5
100
AcDbEllipse
 10
5.209180687191325
 20
-1.700490283863659
 30
0.0
 11
11.33821552516881
 21
2.126050773079101
 31
0.0
210
0.0
220
0.0
230
1.0
 40
0.6187486947622009
 41
3.060742732401251
 42
3.794228024906894
  0
LINE
  5
416E
330
1F
100
AcDbEntity
  8
AM_11
 48
0.5
100
AcDbLine
 10
-121.6265596992923
 20
7.649999332534154
 30
0.0
 11
-100.2704946016686
 21
7.649999332533556
 31
0.0
  0
LINE
  5
416F
330
1F
100
AcDbEntity
  8
AM_0
 48
0.5
100
AcDbLine
 10
-106.8824115391739
 20
4.305688272708819
 30
0.0
 11
-127.9999999999992
 21
-0.2470911954289686
 31
0.0
  0
LINE
  5
4170
330
1F
100
AcDbEntity
  8
AM_11
 48
0.5
100
AcDbLine
 10
-125.1130662011779
 20
-7.650213459375619
 30
0.0
 11
-100.270494601669
 21
-7.650000667466449
 31
0.0
  0
SPLINE
  5
4171
330
1F
100
AcDbEntity
  8
AM_0
 48
0.5
100
AcDbSpline
210
0.0
220
0.0
230
1.0
 70
     8
 71
     3
 72
    19
 73
    15
 74
     0
 42
0.0000000001
 43
0.0000000001
 40
3.111699631838226
 40
3.111699631838226
 40
3.111699631838226
 40
3.111699631838226
 40
4.056212471389632
 40
5.079857945358201
 40
6.109499720892564
 40
7.145961650132166
 40
8.189873411961459
 40
9.241710626092514
 40
10.30166235592959
 40
11.36982472628033
 40
12.44598212828784
 40
13.52983440361964
 40
14.62080578343036
 40
14.90544694398022
 40
14.90544694398022
 40
14.90544694398022
 40
14.90544694398022
 10
-107.428759540361
 20
-7.650067110355998
 30
0.0
 10
-108.3389903748106
 20
-7.533931734241232
 30
0.0
 10
-109.2058390794228
 20
-7.388398466000616
 30
0.0
 10
-110.7745922547149
 20
-7.151429134802261
 30
0.0
 10
-112.1222516929666
 20
-6.822699335395081
 30
0.0
 10
-113.5980547090186
 20
-6.528664531655357
 30
0.0
 10
-115.073719943927
 20
-6.194392925305643
 30
0.0
 10
-116.5492341071545
 20
-5.821971652373377
 30
0.0
 10
-118.024604909593
 20
-5.41366731067644
 30
0.0
 10
-119.4998418619636
 20
-4.972078127420048
 30
0.0
 10
-120.9749438561901
 20
-4.499829331604811
 30
0.0
 10
-122.4499385265706
 20
-3.999929361872298
 30
0.0
 10
-123.5585001005192
 20
-3.605704148561928
 30
0.0
 10
-124.1762292942992
 20
-3.380377688662283
 30
0.0
 10
-124.8039958095584
 20
-3.20922642984177
 30
0.0
  0
SPLINE
  5
4172
330
1F
100
AcDbEntity
  8
AM_0
 48
0.5
100
AcDbSpline
210
0.0
220
0.0
230
1.0
 70
     8
 71
     3
 72
    26
 73
    22
 74
     0
 42
0.0000000001
 43
0.0000000001
 40
0.0
 40
0.0
 40
0.0
 40
0.0
 40
0.4211432018735474
 40
0.8428473235286537
 40
1.265657898956934
 40
1.690088643751428
 40
2.116607084860617
 40
2.545625100287603
 40
2.977483884449724
 40
3.412450195918404
 40
3.850709593302191
 40
4.292362208965671
 40
4.737427885281768
 40
5.185826256336565
 40
5.637431371058531
 40
6.092003378174421
 40
6.549257520372505
 40
7.008843368271169
 40
7.470358728297647
 40
7.933358849736796
 40
8.383035712276667
 40
8.383035712276667
 40
8.383035712276667
 40
8.383035712276667
 10
-99.12762249193569
 20
-7.650389099119472
 30
0.0
 10
-99.61952824686825
 20
-7.645837534650372
 30
0.0
 10
-100.6039949250165
 20
-7.636728343492659
 30
0.0
 10
-102.0803366749819
 20
-7.563298030228675
 30
0.0
 10
-103.55661540977
 20
-7.446563030399164
 30
0.0
 10
-105.0328027612386
 20
-7.282954429641653
 30
0.0
 10
-106.5088840762832
 20
-7.07468969540486
 30
0.0
 10
-107.9848299456377
 20
-6.822693978263743
 30
0.0
 10
-109.460639387421
 20
-6.528669859058243
 30
0.0
 10
-110.9363023366453
 20
-6.194403092206036
 30
0.0
 10
-112.4118153047006
 20
-5.821967747145693
 30
0.0
 10
-113.8871904351135
 20
-5.413681892442843
 30
0.0
 10
-115.3624216144117
 20
-4.972066561645844
 30
0.0
 10
-116.8375255573794
 20
-4.499830732702767
 30
0.0
 10
-118.3125219871736
 20
-3.999933380906131
 30
0.0
 10
-119.7874140907068
 20
-3.475407012417121
 30
0.0
 10
-121.2622128625249
 20
-2.929510389497033
 30
0.0
 10
-122.736945385572
 20
-2.365611576449424
 30
0.0
 10
-124.2115872882561
 20
-1.787106603971009
 30
0.0
 10
-125.59082208942
 20
-1.20391475448509
 30
0.0
 10
-126.5197535819691
 20
-0.9733524032354717
 30
0.0
 10
-127.9999999999992
 20
-0.2470911954289686
 30
0.0
  0
SPLINE
  5
4173
330
1F
100
AcDbEntity
  8
AM_0
100
AcDbSpline
210
0.0
220
0.0
230
1.0
 70
     8
 71
     3
 72
    23
 73
    19
 74
     0
 42
0.0000000001
 43
0.0000000001
 40
16.03460024169435
 40
16.03460024169435
 40
16.03460024169435
 40
16.03460024169435
 40
16.35212704903564
 40
17.38177054169784
 40
18.41822485651776
 40
19.46214173629503
 40
20.51396345435107
 40
21.57393551351153
 40
22.64208202342361
 40
23.7182574881101
 40
24.80209208578934
 40
25.89306333925047
 40
26.99048218457928
 40
28.09348763352352
 40
29.20111863782268
 40
30.31232390128032
 40
31.42594612798585
 40
32.5407912310448
 40
32.5407912310486
 40
32.5407912310486
 40
32.5407912310486
 10
-121.6454727331139
 20
7.650697722214141
 30
0.0
 10
-120.9429478997759
 20
7.624872669376182
 30
0.0
 10
-118.1302955199677
 20
7.466243496747128
 30
0.0
 10
-116.9451861556273
 20
7.276715968623179
 30
0.0
 10
-115.4524648476213
 20
6.964404177068051
 30
0.0
 10
-113.9873383155376
 20
6.596499071009383
 30
0.0
 10
-112.5234873516196
 20
6.190475916401115
 30
0.0
 10
-111.0608600012025
 20
5.748598301419833
 30
0.0
 10
-109.599371727931
 20
5.273392184858368
 30
0.0
 10
-108.1389207593163
 20
4.767623147116456
 30
0.0
 10
-106.6794241072892
 20
4.234155328766524
 30
0.0
 10
-105.2207647587108
 20
3.676092854742851
 30
0.0
 10
-103.7628245055525
 20
3.096679425254423
 30
0.0
 10
-102.3055062094136
 20
2.499246424615095
 30
0.0
 10
-100.8486879382421
 20
1.887267843908448
 30
0.0
 10
-99.39223475981297
 20
1.264317189063469
 30
0.0
 10
-97.93602807772357
 20
0.6340042904357772
 30
0.0
 10
-96.96548438073524
 20
0.2114139570590024
 30
0.0
 10
-96.47994785898788
 20
-0.0000000000001609
 30
0.0
  0
ELLIPSE
  5
4174
330
1F
100
AcDbEntity
  8
AM_0
 48
0.5
100
AcDbEllipse
 10
-125.6976946691883
 20
-5.052121201796106
 30
0.0
 11
2.273268323183079
 21
0.442614919753995
 31
0.0
210
0.0
220
0.0
230
1.0
 40
0.8346328087320097
 41
1.011190270289295
 42
2.954400205955089
  0
ELLIPSE
  5
4175
330
1F
100
AcDbEntity
  8
AM_0
 48
0.5
100
AcDbEllipse
 10
-125.0795646524146
 20
-5.10038909911892
 30
0.0
 11
-2.920697012231917
 21
0.0028907825688834
 31
0.0
210
0.0
220
0.0
230
1.0
 40
0.8730787355170772
 41
0.0142778960805432
 42
1.571660149213445
  0
SPLINE
  5
4176
330
1F
100
AcDbEntity
  8
AM_0
100
AcDbSpline
210
0.0
220
0.0
230
1.0
 70
     8
 71
     3
 72
    13
 73
     9
 74
     0
 42
0.0000000001
 43
0.0000000001
 40
16.03460056234195
 40
16.03460056234195
 40
16.03460056234195
 40
16.03460056234195
 40
16.35212717791071
 40
17.38177067057215
 40
18.41822498539278
 40
19.46214186516937
 40
20.5139635832251
 40
21.34083983469381
 40
21.34083983469381
 40
21.34083983469381
 40
21.34083983469381
 10
-125.0795655690196
 20
-7.650389099118791
 30
0.0
 10
-124.6623251056738
 20
-7.625260540636959
 30
0.0
 10
-124.0194551582086
 20
-7.512802789710732
 30
0.0
 10
-122.8870343768694
 20
-7.292450371661843
 30
0.0
 10
-121.4205455165738
 20
-6.964793469772131
 30
0.0
 10
-119.9554190344701
 20
-6.596888117671838
 30
0.0
 10
-118.5996950569211
 20
-6.220855827344111
 30
0.0
 10
-117.7347670334147
 20
-5.961930834624279
 30
0.0
 10
-116.9510032752574
 20
-5.708364547175137
 30
0.0
  0
LINE
  5
4177
330
1F
100
AcDbEntity
  8
AM_0
100
AcDbLine
 10
-100.2704946016686
 20
7.649999332533556
 30
0.0
 11
-71.70737852786462
 21
7.651086153865789
 31
0.0
  0
LINE
  5
4178
330
1F
100
AcDbEntity
  8
AM_0
 48
0.5
100
AcDbLine
 10
-100.2705037413329
 20
-7.650000667466333
 30
0.0
 11
-74.66527356911768
 21
-7.650000667467184
 31
0.0
  0
SPLINE
  5
4179
330
1F
100
AcDbEntity
  8
AM_0
100
AcDbSpline
210
0.0
220
0.0
230
1.0
 70
     8
 71
     3
 72
    55
 73
    51
 74
     0
 42
0.0000000001
 43
0.0000000001
 40
0.0
 40
0.0
 40
0.0
 40
0.0
 40
1.010743684496582
 40
2.022833576467832
 40
3.037578957496688
 40
4.056212745003489
 40
5.079857003664532
 40
6.109500240690281
 40
7.145961322679372
 40
8.189895241603872
 40
9.241717795325891
 40
10.30168407291828
 40
11.36983447792315
 40
12.44600489715814
 40
13.52984294512926
 40
14.62081576220742
 40
15.7182257034828
 40
16.82123173843959
 40
17.92886860250316
 40
19.0400688939571
 40
20.15368796660465
 40
21.26852814259644
 40
22.38336992938901
 40
23.49698739941135
 40
24.6081876908653
 40
25.71582455492886
 40
26.81883757994213
 40
27.91624752121713
 40
29.00722033829659
 40
30.09105838626677
 40
31.16722880550176
 40
32.23537921050758
 40
33.29534548809967
 40
34.347168041821
 40
35.39108718934584
 40
36.42754827133493
 40
37.45720575381954
 40
38.48085062012849
 40
39.49948440763516
 40
40.51422944315121
 40
41.52631975251916
 40
42.53706336719636
 40
43.54780698187354
 40
44.55989729124051
 40
45.57464232675757
 40
46.59327611426424
 40
47.6169209805722
 40
48.64656348684535
 40
49.68302456883444
 40
50.58557219878025
 40
50.58557219878025
 40
50.58557219878025
 40
50.58557219878025
 10
-51.84565315863848
 20
-7.650000667468193
 30
0.0
 10
-52.24928177263727
 20
-7.645449102800752
 30
0.0
 10
-53.05707659277174
 20
-7.636339911246101
 30
0.0
 10
-54.26847485104111
 20
-7.562909600964704
 30
0.0
 10
-55.47982139928636
 20
-7.446174589754416
 30
0.0
 10
-56.69109297707294
 20
-7.282566031776432
 30
0.0
 10
-57.90227749781722
 20
-7.074301136671338
 30
0.0
 10
-59.11335106755664
 20
-6.822306025238384
 30
0.0
 10
-60.32431773727856
 20
-6.528278226366851
 30
0.0
 10
-61.53516676815599
 20
-6.194018225615523
 30
0.0
 10
-62.74588991210027
 20
-5.821578359111475
 30
0.0
 10
-63.95649320389686
 20
-5.413296393397157
 30
0.0
 10
-65.16697988578285
 20
-4.971671042092708
 30
0.0
 10
-66.37736508181966
 20
-4.499451535190482
 30
0.0
 10
-67.58765433360172
 20
-3.999539762736421
 30
0.0
 10
-68.79785886382395
 20
-3.47501873007348
 30
0.0
 10
-70.00799209381831
 20
-2.929124313098444
 30
0.0
 10
-71.21806464436014
 20
-2.365213504194088
 30
0.0
 10
-72.42808825934147
 20
-1.786754574201888
 30
0.0
 10
-73.63807588652917
 20
-1.197307869111594
 30
0.0
 10
-74.84803813866652
 20
-0.6004970650247329
 30
0.0
 10
-76.05799210229474
 20
-0.0000022283452044
 30
0.0
 10
-77.267940634242
 20
0.6005034176156176
 30
0.0
 10
-78.47790694190912
 20
1.197304927779659
 30
0.0
 10
-79.68789307535089
 20
1.78675341709157
 30
0.0
 10
-80.89791884779096
 20
2.365214550754461
 30
0.0
 10
-82.10799641829417
 20
2.929120547144957
 30
0.0
 10
-83.3181315581984
 20
3.47501773256423
 30
0.0
 10
-84.52833626313386
 20
3.999538339894696
 30
0.0
 10
-85.7386254708774
 20
4.499450217478319
 30
0.0
 10
-86.94901067001358
 20
4.971669725071307
 30
0.0
 10
-88.15949738273165
 20
5.41329497077647
 30
0.0
 10
-89.37010054958072
 20
5.821577353384239
 30
0.0
 10
-90.58081849028166
 20
6.194013931249041
 30
0.0
 10
-91.79166003345642
 20
6.528278309972415
 30
0.0
 10
-93.00262625397257
 20
6.822312021373089
 30
0.0
 10
-94.21370847118319
 20
7.074278351466249
 30
0.0
 10
-95.42489699333888
 20
7.282607708959032
 30
0.0
 10
-96.63616893020055
 20
7.446022330108913
 30
0.0
 10
-97.84751632012619
 20
7.563466230517678
 30
0.0
 10
-99.05891355127419
 20
7.634234862069417
 30
0.0
 10
-100.2703374021416
 20
7.657876320204006
 30
0.0
 10
-101.4817612512268
 20
7.634234862032435
 30
0.0
 10
-102.6931584877325
 20
7.563466230666539
 30
0.0
 10
-103.9045058579326
 20
7.446022329548722
 30
0.0
 10
-105.1157778687501
 20
7.282607711065227
 30
0.0
 10
-106.3269602081029
 20
7.074279359187091
 30
0.0
 10
-107.5380376541105
 20
6.822314597593085
 30
0.0
 10
-108.6939438685851
 20
6.541625578931738
 30
0.0
 10
-109.4439089843704
 20
6.336355046042346
 30
0.0
 10
-111.069540384296
 20
5.745705662797929
 30
0.0
  0
SPLINE
  5
417A
330
1F
100
AcDbEntity
  8
AM_0
100
AcDbSpline
210
0.0
220
0.0
230
1.0
 70
     8
 71
     3
 72
    22
 73
    18
 74
     0
 42
0.0000000001
 43
0.0000000001
 40
17.17441611292
 40
17.17441611292
 40
17.17441611292
 40
17.17441611292
 40
17.38177636558528
 40
18.41823744757437
 40
19.46215659509824
 40
20.51397914882054
 40
21.57394542641293
 40
22.64209583141747
 40
23.71826625065247
 40
24.80210429862395
 40
25.8930771157021
 40
26.99048705697709
 40
28.09349309193389
 40
29.20112995599786
 40
30.31233024745139
 40
31.42594771747373
 40
32.5407895042663
 40
32.54078950426994
 40
32.54078950426994
 40
32.54078950426994
 10
-79.28891572370226
 20
-6.869756035482494
 30
0.0
 10
-79.37003267631791
 20
-6.852047035808033
 30
0.0
 10
-79.85628450670083
 20
-6.744179583149501
 30
0.0
 10
-80.74707045978078
 20
-6.527891301307609
 30
0.0
 10
-81.95791182981215
 20
-6.193625962240027
 30
0.0
 10
-83.16862981764963
 20
-5.821189645135805
 30
0.0
 10
-84.37923297089431
 20
-5.412907189833044
 30
0.0
 10
-85.58971969042366
 20
-4.971281971435934
 30
0.0
 10
-86.80010487592548
 20
-4.499062427751199
 30
0.0
 10
-88.01039413182344
 20
-3.999150668157348
 30
0.0
 10
-89.2205986561712
 20
-3.474629621083801
 30
0.0
 10
-90.43073190567556
 20
-2.928735249153834
 30
0.0
 10
-91.64080438356327
 20
-2.364824273368693
 30
0.0
 10
-92.85082827117015
 20
-1.786365969340916
 30
0.0
 10
-94.06081429430484
 20
-1.196917200863126
 30
0.0
 10
-95.27078037785788
 20
-0.6001151854386037
 30
0.0
 10
-96.07726609899172
 20
-0.1998527331333571
 30
0.0
 10
-96.4807305069926
 20
0.0003884316554955
 30
0.0
  0
SPLINE
  5
417B
330
1F
100
AcDbEntity
  8
AM_0
100
AcDbSpline
210
0.0
220
0.0
230
1.0
 70
     8
 71
     3
 72
    46
 73
    42
 74
     0
 42
0.0000000001
 43
0.0000000001
 40
0.0
 40
0.0
 40
0.0
 40
0.0
 40
1.348332046947654
 40
2.024828967632893
 40
2.703918159304094
 40
3.386347665078122
 40
4.072776489761951
 40
4.763750544421345
 40
5.459696642770595
 40
6.160921452191748
 40
6.867565637253344
 40
7.579665907256597
 40
8.297112853413899
 40
9.019671552060666
 40
9.746986763446125
 40
10.47859339096365
 40
11.21393074760088
 40
11.95235532364327
 40
12.69315551794651
 40
13.43556823304427
 40
14.1787950170388
 40
14.92202180103393
 40
15.66443451613169
 40
16.40523471043432
 40
17.14365928647669
 40
17.87899664311455
 40
18.61060327063121
 40
19.33791848201689
 40
20.06048192311554
 40
20.77792886927282
 40
21.49002913927608
 40
22.19667332433747
 40
22.89788836015233
 40
23.59383445850157
 40
24.28480851316097
 40
24.97123685067575
 40
25.65366676154837
 40
26.33276604526151
 40
27.00926273560554
 40
27.68398960851752
 40
28.35781868496899
 40
28.35781868496899
 40
28.35781868496899
 40
28.35781868496899
 10
-48.45456117312849
 20
-7.650000667468312
 30
0.0
 10
-49.2623954608305
 20
-7.632573376116289
 30
0.0
 10
-50.47554341684702
 20
-7.606402312069536
 30
0.0
 10
-52.08871915720571
 20
-7.445271878614127
 30
0.0
 10
-53.30000374884864
 20
-7.282809539095742
 30
0.0
 10
-54.51118480449414
 20
-7.074235491962951
 30
0.0
 10
-55.72225913347661
 20
-6.822323221867884
 30
0.0
 10
-56.93322051426964
 20
-6.528277084070839
 30
0.0
 10
-58.14406691869492
 20
-6.19401260250019
 30
0.0
 10
-59.35479295805833
 20
-5.821582210554534
 30
0.0
 10
-60.56540105231078
 20
-5.413295859638126
 30
0.0
 10
-61.77588794528456
 20
-4.971671186751956
 30
0.0
 10
-62.9862730840993
 20
-4.499451495964561
 30
0.0
 10
-64.19656235146868
 20
-3.999539773517248
 30
0.0
 10
-65.40676687713144
 20
-3.475018726541132
 30
0.0
 10
-66.61690010964367
 20
-2.929124316375227
 30
0.0
 10
-67.82697265467423
 20
-2.365213494581616
 30
0.0
 10
-69.03699628928229
 20
-1.78675460955711
 30
0.0
 10
-70.24698384316767
 20
-1.19730773678563
 30
0.0
 10
-71.45694636964583
 20
-0.6004975601898598
 30
0.0
 10
-72.66689872496536
 20
-0.0000006675889371
 30
0.0
 10
-73.87685108001905
 20
0.6004962257417074
 30
0.0
 10
-75.08681360729451
 20
1.197306400149367
 30
0.0
 10
-76.2968011582657
 20
1.786753280917413
 30
0.0
 10
-77.50682480367996
 20
2.36521213628558
 30
0.0
 10
-78.71689730864216
 20
2.929123068041878
 30
0.0
 10
-79.92703068954118
 20
3.475017070977312
 30
0.0
 10
-81.13723729725583
 20
3.999540764589041
 30
0.0
 10
-82.34753126722548
 20
4.499447945084923
 30
0.0
 10
-83.55791856518182
 20
4.971670057253176
 30
0.0
 10
-84.76840542997205
 20
5.413294861546183
 30
0.0
 10
-85.97900855118396
 20
5.82157746065995
 30
0.0
 10
-87.18972652372874
 20
6.194013613788284
 30
0.0
 10
-88.40056798556025
 20
6.528279460865918
 30
0.0
 10
-89.61152866551245
 20
6.822306360620904
 30
0.0
 10
-90.82260388238051
 20
7.074291695201187
 30
0.0
 10
-92.0337926678769
 20
7.282567895920187
 30
0.0
 10
-93.24507101807743
 20
7.446173940043419
 30
0.0
 10
-94.45642430948003
 20
7.562898237665871
 30
0.0
 10
-95.66782157210601
 20
7.636348363189412
 30
0.0
 10
-96.47561673053647
 20
7.645451029441622
 30
0.0
 10
-96.87924541633487
 20
7.649999332533435
 30
0.0
  0
DIMENSION
  5
426E
330
1F
100
AcDbEntity
  8
AM_5
100
AcDbDimension
  2
*D9
 10
-0.6569101001225142
 20
-1.804832053867269
 30
0.0
 11
22.43433162316846
 21
-0.0000272213788884
 31
0.0
 70
    34
  1
<>
 51
359.9999999999998
  3
AM_JIS$2
100
AcDb2LineAngularDimension
 13
0.0000000000000568
 23
-0.0000000000001562
 33
0.0
 14
-0.6568967178321654
 24
1.804808914154591
 34
0.0
 15
0.0000000000000568
 25
-0.0000000000001457
 35
0.0
 16
23.44602638469787
 26
-10.11365108211857
 36
0.0
1001
GENIUS_GENDTOL_13
1000

1000
h7
1000

1040
0.0
1001
ACAD
1000
DSTYLE
1002
{
1070
   271
1070
     0
1002
}
  0
ELLIPSE
  5
4370
330
1F
100
AcDbEntity
  8
AM_11
 48
0.5
100
AcDbEllipse
 10
-208.3160321091931
 20
31.80222867000248
 30
0.0
 11
-35.51732381184845
 21
0.000000000000775
 31
0.0
210
0.0
220
0.0
230
1.0
 40
0.9899999999999995
 41
1.895054800108161
 42
2.011520147323624
  0
ELLIPSE
  5
4371
330
1F
100
AcDbEntity
  8
AM_11
 48
0.5
100
AcDbEllipse
 10
-208.3160321091926
 20
-31.80208346378629
 30
0.0
 11
-35.51732381184842
 21
0.000000000001611
 31
0.0
210
0.0
220
0.0
230
1.0
 40
0.9900000000000011
 41
4.271664206181739
 42
4.388130507071504
  0
ELLIPSE
  5
4372
330
1F
100
AcDbEntity
  8
AM_11
 48
0.5
100
AcDbEllipse
 10
-178.0129363193919
 20
-31.8021140427936
 30
0.0
 11
-35.51732381184836
 21
0.0000000000012798
 31
0.0
210
0.0
220
0.0
230
1.0
 40
0.9900000000000032
 41
4.271664206181728
 42
5.153113667165039
  0
ELLIPSE
  5
4373
330
1F
100
AcDbEntity
  8
AM_11
 48
0.5
100
AcDbEllipse
 10
-178.0129363193924
 20
31.80219809099518
 30
0.0
 11
-35.51732381184845
 21
-0.0000000000002265
 31
0.0
210
0.0
220
0.0
230
1.0
 40
0.99
 41
1.130070686340306
 42
2.011520147323597
  0
ELLIPSE
  5
4374
330
1F
100
AcDbEntity
  8
AM_11
 48
0.5
100
AcDbEllipse
 10
-147.709906016362
 20
31.80219809099544
 30
0.0
 11
-35.51732381184845
 21
0.000000000000775
 31
0.0
210
0.0
220
0.0
230
1.0
 40
0.9899999999999995
 41
1.130070686340335
 42
2.011520147323624
  0
ELLIPSE
  5
4375
330
1F
100
AcDbEntity
  8
AM_11
 48
0.5
100
AcDbEllipse
 10
-147.7099060163616
 20
-31.80211404279333
 30
0.0
 11
-35.51732381184842
 21
0.000000000001611
 31
0.0
210
0.0
220
0.0
230
1.0
 40
0.9900000000000011
 41
4.271664206181739
 42
5.153113667165048
  0
ELLIPSE
  5
4376
330
1F
100
AcDbEntity
  8
AM_11
 48
0.5
100
AcDbEllipse
 10
-87.10377992353105
 20
31.8021675119884
 30
0.0
 11
-35.51732381184845
 21
0.000000000000775
 31
0.0
210
0.0
220
0.0
230
1.0
 40
0.9899999999999995
 41
1.130070686340335
 42
2.011520147323624
  0
ELLIPSE
  5
4377
330
1F
100
AcDbEntity
  8
AM_11
 48
0.5
100
AcDbEllipse
 10
-87.10377992353059
 20
-31.80214462180037
 30
0.0
 11
-35.51732381184842
 21
0.000000000001611
 31
0.0
210
0.0
220
0.0
230
1.0
 40
0.9900000000000011
 41
4.271664206181739
 42
5.153113667165048
  0
ELLIPSE
  5
4378
330
1F
100
AcDbEntity
  8
AM_11
 48
0.5
100
AcDbEllipse
 10
-117.4068102265608
 20
-31.80214462180063
 30
0.0
 11
-35.51732381184836
 21
0.0000000000012798
 31
0.0
210
0.0
220
0.0
230
1.0
 40
0.9900000000000032
 41
4.271664206181728
 42
5.153113667165039
  0
ELLIPSE
  5
4379
330
1F
100
AcDbEntity
  8
AM_11
 48
0.5
100
AcDbEllipse
 10
-117.4068102265614
 20
31.80216751198814
 30
0.0
 11
-35.51732381184845
 21
-0.0000000000002265
 31
0.0
210
0.0
220
0.0
230
1.0
 40
0.99
 41
1.130070686340306
 42
2.011520147323597
  0
ELLIPSE
  5
437A
330
1F
100
AcDbEntity
  8
AM_11
 48
0.5
100
AcDbEllipse
 10
-26.4977193174694
 20
-31.80214462180009
 30
0.0
 11
-35.51732381184842
 21
0.000000000001611
 31
0.0
210
0.0
220
0.0
230
1.0
 40
0.9900000000000011
 41
4.271664206181739
 42
5.153113667165048
  0
ELLIPSE
  5
437B
330
1F
100
AcDbEntity
  8
AM_11
 48
0.5
100
AcDbEllipse
 10
-26.49771931746986
 20
31.80216751198868
 30
0.0
 11
-35.51732381184845
 21
0.000000000000775
 31
0.0
210
0.0
220
0.0
230
1.0
 40
0.9899999999999995
 41
1.130070686340335
 42
2.011520147323624
  0
ELLIPSE
  5
437C
330
1F
100
AcDbEntity
  8
AM_11
 48
0.5
100
AcDbEllipse
 10
-56.80074962050023
 20
31.80216751198842
 30
0.0
 11
-35.51732381184845
 21
-0.0000000000002265
 31
0.0
210
0.0
220
0.0
230
1.0
 40
0.99
 41
1.130070686340306
 42
2.011520147323597
  0
ELLIPSE
  5
437D
330
1F
100
AcDbEntity
  8
AM_11
 48
0.5
100
AcDbEllipse
 10
-56.80074962049968
 20
-31.80214462180036
 30
0.0
 11
-35.51732381184836
 21
0.0000000000012798
 31
0.0
210
0.0
220
0.0
230
1.0
 40
0.9900000000000032
 41
4.271664206181728
 42
5.153113667165039
  0
ELLIPSE
  5
437E
330
1F
100
AcDbEntity
  8
AM_11
 48
0.5
100
AcDbEllipse
 10
3.805310985560396
 20
31.8021675119889
 30
0.0
 11
-35.51732381184908
 21
0.0000000000326126
 31
0.0
210
0.0
220
0.0
230
1.0
 40
0.989999999999986
 41
1.130070686341231
 42
1.291800737381917
  0
VIEWPORT
  5
110
330
101
100
AcDbEntity
 67
     1
  8
0
100
AcDbViewport
 10
420.5
 20
297.0
 30
0.0
 40
948.9782706766916
 41
628.452
 68
     1
 69
     1
1001
ACAD
1000
MVIEW
1002
{
1070
    16
1010
0.0
1020
0.0
1030
0.0
1010
0.0
1020
0.0
1030
1.0
1040
0.0
1040
628.452
1040
420.5
1040
297.0
1040
50.0
1040
0.0
1040
0.0
1070
     0
1070
   100
1070
     1
1070
     1
1070
     0
1070
     0
1070
     0
1070
     0
1040
0.0
1040
0.0
1040
0.0
1040
10.0
1040
10.0
1040
10.0
1040
10.0
1070
     0
1002
{
1002
}
1002
}
  0
ENDSEC
  0
SECTION
  2
OBJECTS
  0
DICTIONARY
  5
C
330
0
100
AcDbDictionary
  3
ACAD_GROUP
350
D
  3
ACAD_LAYOUT
350
1A
  3
ACAD_MLINESTYLE
350
17
  3
ACAD_PLOTSETTINGS
350
19
  3
ACAD_PLOTSTYLENAME
350
E
  3
ACDBVARIABLEDICTIONARY
350
34
  3
ACMDICTIONARY
350
43
  3
AMG
350
2B
  3
AMGSNAPSETTINGS
350
6E
  3
DWGPROPS
350
4398
  3
ACDBHEADERROUNDTRIPXREC
350
43A5
  0
DICTIONARY
  5
74
330
1F
100
AcDbDictionary
280
     1
  3
ACAD_INDEX
360
439A
  3
ACAD_LAYOUTSELFREF
360
43C8
  0
DICTIONARY
  5
43CD
330
101
100
AcDbDictionary
280
     1
  3
ACAD_LAYOUTSELFREF
360
43CE
  0
DICTIONARY
  5
D
102
{ACAD_REACTORS
330
C
102
}
330
C
100
AcDbDictionary
  0
DICTIONARY
  5
1A
102
{ACAD_REACTORS
330
C
102
}
330
C
100
AcDbDictionary
  0
DICTIONARY
  5
17
102
{ACAD_REACTORS
330
C
102
}
330
C
100
AcDbDictionary
  3
STANDARD
350
18
  0
DICTIONARY
  5
19
102
{ACAD_REACTORS
330
C
102
}
330
C
100
AcDbDictionary
  0
ACDBDICTIONARYWDFLT
  5
E
102
{ACAD_REACTORS
330
C
102
}
330
C
100
AcDbDictionary
281
     1
  3
Normal
350
F
100
AcDbDictionaryWithDefault
340
F
  0
DICTIONARY
  5
34
102
{ACAD_REACTORS
330
C
102
}
330
C
100
AcDbDictionary
  3
INDEXCTL
350
35
  3
SORTENTS
350
B5E
  0
DICTIONARY
  5
43
102
{ACAD_REACTORS
330
C
102
}
330
C
100
AcDbDictionary
  3
ACMSTDDICTIONARY
350
260
  0
DICTIONARY
  5
2B
102
{ACAD_REACTORS
330
C
102
}
330
C
100
AcDbDictionary
  3
ACMGSETTINGS
350
2C
  0
DICTIONARY
  5
6E
102
{ACAD_REACTORS
330
C
102
}
330
C
100
AcDbDictionary
  0
XRECORD
  5
4398
102
{ACAD_REACTORS
330
C
102
}
330
C
100
AcDbXrecord
  1
DWGPROPS COOKIE
  2

  3

  4

  6

  7

  8

  9

300
AmdtFileType=82
301
=
302
=
303
=
304
=
305
=
306
=
307
=
308
=
309
=
 40
0.0943464351851852
 41
2452800.443498622
 42
2452948.668973159
  1

 90
        1
  0
DICTIONARY
  5
43A5
102
{ACAD_REACTORS
330
C
102
}
330
C
100
AcDbDictionary
  3
TSTACKALIGN
350
43A6
  3
TSTACKSIZE
350
43A7
  3
HYPERLINKBASE
350
43A8
  3
STYLESHEET
350
43A9
  3
LAYOUTDICT
350
43AA
  3
PLOTSETDICT
350
43AB
  3
PLOTSTYLNAMDICT
350
43AC
  3
LWETCUNION
350
43AD
  3
INSUNITS
350
43AE
  3
CEPSNTYPE
350
43AF
  3
FINGERPRINTGUID
350
43B0
  3
VERSIONGUID
350
43B1
  3
PSVPSCALE
350
43B2
  3
DIMSTYLEDATA
350
43B3
  3
PUCSORTHOREF
350
43B4
  3
PUCSORTHOVIEW
350
43B5
  3
PUCSBASE
350
43B6
  3
PUCSORGTOP
350
43B7
  3
PUCSORGBOTTOM
350
43B8
  3
PUCSORGLEFT
350
43B9
  3
PUCSORGRIGHT
350
43BA
  3
PUCSORGFRONT
350
43BB
  3
PUCSORGBACK
350
43BC
  3
UCSORTHOREF
350
43BD
  3
UCSORTHOVIEW
350
43BE
  3
UCSBASE
350
43BF
  3
UCSORGTOP
350
43C0
  3
UCSORGBOTTOM
350
43C1
  3
UCSORGLEFT
350
43C2
  3
UCSORGRIGHT
350
43C3
  3
UCSORGFRONT
350
43C4
  3
UCSORGBACK
350
43C5
  0
DICTIONARY
  5
439A
102
{ACAD_REACTORS
330
74
102
}
330
74
100
AcDbDictionary
  3
*A1
350
439B
  0
XRECORD
  5
43C8
102
{ACAD_REACTORS
330
74
102
}
330
74
100
AcDbXrecord
340
1F
  0
XRECORD
  5
43CE
102
{ACAD_REACTORS
330
43CD
102
}
330
43CD
100
AcDbXrecord
340
101
  0
MLINESTYLE
  5
18
102
{ACAD_REACTORS
330
17
102
}
330
17
100
AcDbMlineStyle
  2
STANDARD
 70
     0
  3

 62
   256
 51
90.0
 52
90.0
 71
     2
 49
0.5
 62
   256
  6
BYLAYER
 49
-0.5
 62
   256
  6
BYLAYER
  0
ACDBPLACEHOLDER
  5
F
102
{ACAD_REACTORS
330
E
102
}
330
E
100
AcDbPlaceHolder
280
     0
  0
DICTIONARYVAR
  5
35
102
{ACAD_REACTORS
330
34
102
}
330
34
100
DictionaryVariables
280
     0
  1
1
  0
DICTIONARYVAR
  5
B5E
102
{ACAD_REACTORS
330
34
102
}
330
34
100
DictionaryVariables
280
     0
  1
96
  0
DICTIONARY
  5
260
102
{ACAD_REACTORS
330
43
102
}
330
43
100
AcDbDictionary
  0
DICTIONARY
  5
2C
102
{ACAD_REACTORS
330
2B
102
}
330
2B
100
AcDbDictionary
  3
DWGSETTINGS
350
2D
  0
XRECORD
  5
43A6
102
{ACAD_REACTORS
330
43A5
102
}
330
43A5
100
AcDbXrecord
 90
        1
  0
XRECORD
  5
43A7
102
{ACAD_REACTORS
330
43A5
102
}
330
43A5
100
AcDbXrecord
 90
       70
  0
XRECORD
  5
43A8
102
{ACAD_REACTORS
330
43A5
102
}
330
43A5
100
AcDbXrecord
  1

  0
XRECORD
  5
43A9
102
{ACAD_REACTORS
330
43A5
102
}
330
43A5
100
AcDbXrecord
  1
ASAMI.ctb
  0
XRECORD
  5
43AA
102
{ACAD_REACTORS
330
43A5
102
}
330
43A5
100
AcDbXrecord
340
1A
  0
XRECORD
  5
43AB
102
{ACAD_REACTORS
330
43A5
102
}
330
43A5
100
AcDbXrecord
340
19
  0
XRECORD
  5
43AC
102
{ACAD_REACTORS
330
43A5
102
}
330
43A5
100
AcDbXrecord
340
E
  0
XRECORD
  5
43AD
102
{ACAD_REACTORS
330
43A5
102
}
330
43A5
100
AcDbXrecord
 90
    10781
  0
XRECORD
  5
43AE
102
{ACAD_REACTORS
330
43A5
102
}
330
43A5
100
AcDbXrecord
 90
        4
  0
XRECORD
  5
43AF
102
{ACAD_REACTORS
330
43A5
102
}
330
43A5
100
AcDbXrecord
 90
        0
  0
XRECORD
  5
43B0
102
{ACAD_REACTORS
330
43A5
102
}
330
43A5
100
AcDbXrecord
  1
{AFB28963-8C59-40AE-9337-C84526B81ACE}
  0
XRECORD
  5
43B1
102
{ACAD_REACTORS
330
43A5
102
}
330
43A5
100
AcDbXrecord
  1
{DB98EE9A-E661-43FC-81E1-62F1C6751D9F}
  0
XRECORD
  5
43B2
102
{ACAD_REACTORS
330
43A5
102
}
330
43A5
100
AcDbXrecord
 40
0.0
  0
XRECORD
  5
43B3
102
{ACAD_REACTORS
330
43A5
102
}
330
43A5
100
AcDbXrecord
1000
DSTYLE
1002
{
1070
    79
 70
     2
1070
   341
340
59
1070
   342
340
59
1070
   371
 70
    -1
1070
   372
 70
    -1
1002
}
  0
XRECORD
  5
43B4
102
{ACAD_REACTORS
330
43A5
102
}
330
43A5
100
AcDbXrecord
340
0
  0
XRECORD
  5
43B5
102
{ACAD_REACTORS
330
43A5
102
}
330
43A5
100
AcDbXrecord
 70
     0
  0
XRECORD
  5
43B6
102
{ACAD_REACTORS
330
43A5
102
}
330
43A5
100
AcDbXrecord
340
0
  0
XRECORD
  5
43B7
102
{ACAD_REACTORS
330
43A5
102
}
330
43A5
100
AcDbXrecord
 10
0.0
 20
0.0
 30
0.0
  0
XRECORD
  5
43B8
102
{ACAD_REACTORS
330
43A5
102
}
330
43A5
100
AcDbXrecord
 10
0.0
 20
0.0
 30
0.0
  0
XRECORD
  5
43B9
102
{ACAD_REACTORS
330
43A5
102
}
330
43A5
100
AcDbXrecord
 10
0.0
 20
0.0
 30
0.0
  0
XRECORD
  5
43BA
102
{ACAD_REACTORS
330
43A5
102
}
330
43A5
100
AcDbXrecord
 10
0.0
 20
0.0
 30
0.0
  0
XRECORD
  5
43BB
102
{ACAD_REACTORS
330
43A5
102
}
330
43A5
100
AcDbXrecord
 10
0.0
 20
0.0
 30
0.0
  0
XRECORD
  5
43BC
102
{ACAD_REACTORS
330
43A5
102
}
330
43A5
100
AcDbXrecord
 10
0.0
 20
0.0
 30
0.0
  0
XRECORD
  5
43BD
102
{ACAD_REACTORS
330
43A5
102
}
330
43A5
100
AcDbXrecord
340
0
  0
XRECORD
  5
43BE
102
{ACAD_REACTORS
330
43A5
102
}
330
43A5
100
AcDbXrecord
 70
     0
  0
XRECORD
  5
43BF
102
{ACAD_REACTORS
330
43A5
102
}
330
43A5
100
AcDbXrecord
340
0
  0
XRECORD
  5
43C0
102
{ACAD_REACTORS
330
43A5
102
}
330
43A5
100
AcDbXrecord
 10
0.0
 20
0.0
 30
0.0
  0
XRECORD
  5
43C1
102
{ACAD_REACTORS
330
43A5
102
}
330
43A5
100
AcDbXrecord
 10
0.0
 20
0.0
 30
0.0
  0
XRECORD
  5
43C2
102
{ACAD_REACTORS
330
43A5
102
}
330
43A5
100
AcDbXrecord
 10
0.0
 20
0.0
 30
0.0
  0
XRECORD
  5
43C3
102
{ACAD_REACTORS
330
43A5
102
}
330
43A5
100
AcDbXrecord
 10
0.0
 20
0.0
 30
0.0
  0
XRECORD
  5
43C4
102
{ACAD_REACTORS
330
43A5
102
}
330
43A5
100
AcDbXrecord
 10
0.0
 20
0.0
 30
0.0
  0
XRECORD
  5
43C5
102
{ACAD_REACTORS
330
43A5
102
}
330
43A5
100
AcDbXrecord
 10
0.0
 20
0.0
 30
0.0
  0
LAYER_INDEX
  5
439B
102
{ACAD_REACTORS
330
439A
102
}
330
439A
100
AcDbIndex
 40
2453151.671241308
100
AcDbLayerIndex
  8
0
360
439C
 90
        0
  8
AM_0
360
439D
 90
       52
  8
AM_7
360
439E
 90
        1
  8
AM_11
360
439F
 90
       21
  8
AM_5
360
43A0
 90
        5
  8
Defpoints
360
43A1
 90
        0
  8
AM_6
360
43A2
 90
        1
  8
AM_CL
360
43A3
 90
        0
  0
XRECORD
  5
2D
102
{ACAD_REACTORS
330
2C
102
}
330
2C
100
AcDbXrecord
  1
VERSION
140
15.0
  1
PRODUCT
  2
AutoCAD Mechanical 2000
  0
IDBUFFER
  5
439C
330
0
100
AcDbIdBuffer
  0
IDBUFFER
  5
439D
330
0
100
AcDbIdBuffer
330
4178
330
4179
330
417A
330
417B
330
1E25
330
1E26
330
1FD9
330
21D7
330
21D8
330
21D9
330
21DC
330
21DD
330
2694
330
2695
330
2696
330
2699
330
3366
330
3367
330
3F18
330
3F1B
330
4151
330
4152
330
4153
330
4154
330
4159
330
415A
330
415B
330
415C
330
415D
330
415E
330
415F
330
4161
330
4162
330
4163
330
4164
330
4165
330
4166
330
4167
330
4168
330
4169
330
416A
330
416B
330
416C
330
416D
330
416F
330
4171
330
4172
330
4173
330
4174
330
4175
330
4176
330
4177
  0
IDBUFFER
  5
439E
330
0
100
AcDbIdBuffer
330
C9F
  0
IDBUFFER
  5
439F
330
0
100
AcDbIdBuffer
330
437A
330
437B
330
437C
330
437D
330
437E
330
4155
330
4156
330
4157
330
4158
330
416E
330
4170
330
4370
330
4371
330
4372
330
4373
330
4374
330
4375
330
4376
330
4377
330
4378
330
4379
  0
IDBUFFER
  5
43A0
330
0
100
AcDbIdBuffer
330
CC6
330
DF5
330
1FB6
330
2216
330
426E
  0
IDBUFFER
  5
43A1
330
0
100
AcDbIdBuffer
  0
IDBUFFER
  5
43A2
330
0
100
AcDbIdBuffer
330
19BD
  0
IDBUFFER
  5
43A3
330
0
100
AcDbIdBuffer
  0
ENDSEC
  0
EOF
