  0
SECTION
  2
HEADER
  9
$ACADVER
  1
AC1014
  9
$ACADMAINTVER
 70
     9
  9
$DWGCODEPAGE
  3
ANSI_932
  9
$INSBASE
 10
0.0
 20
0.0
 30
0.0
  9
$EXTMIN
 10
-217.7925069274152
 20
-54.50000305448103
 30
-0.00000001
  9
$EXTMAX
 10
25.73825403799793
 20
24.64882982945026
 30
0.00000001
  9
$LIMMIN
 10
-235.3243199069245
 20
-84.95978435839356
  9
$LIMMAX
 10
43.00602480537361
 20
55.45771548967673
  9
$ORTHOMODE
 70
     0
  9
$REGENMODE
 70
     1
  9
$FILLMODE
 70
     1
  9
$QTEXTMODE
 70
     0
  9
$MIRRTEXT
 70
     0
  9
$DRAGMODE
 70
     2
  9
$LTSCALE
 40
1.0
  9
$OSMODE
 70
    55
  9
$ATTMODE
 70
     1
  9
$TEXTSIZE
 40
2.5
  9
$TRACEWID
 40
1.0
  9
$TEXTSTYLE
  7
STANDARD
  9
$CLAYER
  8
AM_0
  9
$CELTYPE
  6
BYLAYER
  9
$CECOLOR
 62
   256
  9
$CELTSCALE
 40
1.0
  9
$DELOBJ
 70
     1
  9
$DISPSILH
 70
     0
  9
$DIMSCALE
 40
1.0
  9
$DIMASZ
 40
2.5
  9
$DIMEXO
 40
1.0
  9
$DIMDLI
 40
12.0
  9
$DIMRND
 40
0.0
  9
$DIMDLE
 40
0.0
  9
$DIMEXE
 40
1.0
  9
$DIMTP
 40
0.1
  9
$DIMTM
 40
0.1
  9
$DIMTXT
 40
3.2
  9
$DIMCEN
 40
0.0
  9
$DIMTSZ
 40
0.0
  9
$DIMTOL
 70
     0
  9
$DIMLIM
 70
     0
  9
$DIMTIH
 70
     0
  9
$DIMTOH
 70
     0
  9
$DIMSE1
 70
     0
  9
$DIMSE2
 70
     0
  9
$DIMTAD
 70
     3
  9
$DIMZIN
 70
     8
  9
$DIMBLK
  1
OPEN30
  9
$DIMASO
 70
     1
  9
$DIMSHO
 70
     1
  9
$DIMPOST
  1

  9
$DIMAPOST
  1
"
  9
$DIMALT
 70
     0
  9
$DIMALTD
 70
     2
  9
$DIMALTF
 40
0.0393701
  9
$DIMLFAC
 40
1.0
  9
$DIMTOFL
 70
     1
  9
$DIMTVP
 40
0.0
  9
$DIMTIX
 70
     0
  9
$DIMSOXD
 70
     0
  9
$DIMSAH
 70
     0
  9
$DIMBLK1
  1

  9
$DIMBLK2
  1

  9
$DIMSTYLE
  2
AM_JIS
  9
$DIMCLRD
 70
   256
  9
$DIMCLRE
 70
   256
  9
$DIMCLRT
 70
     2
  9
$DIMTFAC
 40
0.71
  9
$DIMGAP
 40
1.5
  9
$DIMJUST
 70
     0
  9
$DIMSD1
 70
     0
  9
$DIMSD2
 70
     0
  9
$DIMTOLJ
 70
     0
  9
$DIMTZIN
 70
     0
  9
$DIMALTZ
 70
     0
  9
$DIMALTTZ
 70
     0
  9
$DIMFIT
 70
     3
  9
$DIMUPT
 70
     0
  9
$DIMUNIT
 70
     2
  9
$DIMDEC
 70
     3
  9
$DIMTDEC
 70
     3
  9
$DIMALTU
 70
     2
  9
$DIMALTTD
 70
     2
  9
$DIMTXSTY
  7
ASAMI
  9
$DIMAUNIT
 70
     0
  9
$LUNITS
 70
     2
  9
$LUPREC
 70
     2
  9
$SKETCHINC
 40
1.0
  9
$FILLETRAD
 40
2.5
  9
$AUNITS
 70
     0
  9
$AUPREC
 70
     0
  9
$MENU
  1
.
  9
$ELEVATION
 40
0.0
  9
$PELEVATION
 40
0.0
  9
$THICKNESS
 40
0.0
  9
$LIMCHECK
 70
     0
  9
$BLIPMODE
 70
     0
  9
$CHAMFERA
 40
0.5
  9
$CHAMFERB
 40
0.5
  9
$CHAMFERC
 40
20.0
  9
$CHAMFERD
 40
0.0
  9
$SKPOLY
 70
     0
  9
$TDCREATE
 40
2452800.443498622
  9
$TDUPDATE
 40
2453151.671795590
  9
$TDINDWG
 40
0.1013530787
  9
$TDUSRTIMER
 40
0.1013530787
  9
$USRTIMER
 70
     1
  9
$ANGBASE
 50
0.0
  9
$ANGDIR
 70
     0
  9
$PDMODE
 70
     3
  9
$PDSIZE
 40
0.0
  9
$PLINEWID
 40
0.0
  9
$COORDS
 70
     1
  9
$SPLFRAME
 70
     0
  9
$SPLINETYPE
 70
     6
  9
$SPLINESEGS
 70
     8
  9
$ATTDIA
 70
     1
  9
$ATTREQ
 70
     1
  9
$HANDLING
 70
 12289
  9
$HANDSEED
  5
46A0
  9
$SURFTAB1
 70
     6
  9
$SURFTAB2
 70
     6
  9
$SURFTYPE
 70
     6
  9
$SURFU
 70
     6
  9
$SURFV
 70
     6
  9
$UCSNAME
  2

  9
$UCSORG
 10
0.0
 20
0.0
 30
0.0
  9
$UCSXDIR
 10
1.0
 20
0.0000000000000027
 30
0.0
  9
$UCSYDIR
 10
-0.0000000000000027
 20
1.0
 30
0.0
  9
$PUCSNAME
  2

  9
$PUCSORG
 10
0.0
 20
0.0
 30
0.0
  9
$PUCSXDIR
 10
1.0
 20
0.0
 30
0.0
  9
$PUCSYDIR
 10
0.0
 20
1.0
 30
0.0
  9
$USERI1
 70
     0
  9
$USERI2
 70
     0
  9
$USERI3
 70
     0
  9
$USERI4
 70
     0
  9
$USERI5
 70
     0
  9
$USERR1
 40
0.0
  9
$USERR2
 40
0.0
  9
$USERR3
 40
0.0
  9
$USERR4
 40
0.0
  9
$USERR5
 40
0.0
  9
$WORLDVIEW
 70
     1
  9
$SHADEDGE
 70
     3
  9
$SHADEDIF
 70
    70
  9
$TILEMODE
 70
     1
  9
$MAXACTVP
 70
    64
  9
$PINSBASE
 10
0.0
 20
0.0
 30
0.0
  9
$PLIMCHECK
 70
     0
  9
$PEXTMIN
 10
1.000000000000000E+20
 20
1.000000000000000E+20
 30
1.000000000000000E+20
  9
$PEXTMAX
 10
-1.000000000000000E+20
 20
-1.000000000000000E+20
 30
-1.000000000000000E+20
  9
$PLIMMIN
 10
0.0
 20
0.0
  9
$PLIMMAX
 10
841.0
 20
594.0
  9
$UNITMODE
 70
     0
  9
$VISRETAIN
 70
     1
  9
$PLINEGEN
 70
     0
  9
$PSLTSCALE
 70
     0
  9
$TREEDEPTH
 70
  3020
  9
$PICKSTYLE
 70
     0
  9
$CMLSTYLE
  2
STANDARD
  9
$CMLJUST
 70
     0
  9
$CMLSCALE
 40
20.0
  9
$PROXYGRAPHICS
 70
     1
  9
$MEASUREMENT
 70
     1
  0
ENDSEC
  0
SECTION
  2
CLASSES
  0
CLASS
  1
ACDBDICTIONARYWDFLT
  2
AcDbDictionaryWithDefault
  3
AutoCAD 2000
 90
        0
280
     0
281
     0
  0
CLASS
  1
ACDBPLACEHOLDER
  2
AcDbPlaceHolder
  3
AutoCAD 2000
 90
        0
280
     0
281
     0
  0
CLASS
  1
LAYOUT
  2
AcDbLayout
  3
AutoCAD 2000
 90
        0
280
     0
281
     0
  0
CLASS
  1
AMGSETTINGSOBJ
  2
AmgSettingsObj
  3
"AcadM|Product Description: AutoCAD Mechanical 2000|Company: Autodesk"
 90
        0
280
     0
281
     0
  0
CLASS
  1
ACME_DOCUMENT
  2
AcMeDbDoc
  3
AcMeServices
 90
        0
280
     0
281
     0
  0
CLASS
  1
ACMESCOPE
  2
AcMeScope
  3
AcMeServices
 90
        0
280
     0
281
     0
  0
CLASS
  1
ACMECOMMANDHISTORY
  2
AcMeCommandHistory
  3
AcMeServices
 90
        0
280
     0
281
     0
  0
CLASS
  1
DICTIONARYVAR
  2
AcDbDictionaryVar
  3
AutoCAD 2000
 90
        0
280
     0
281
     0
  0
CLASS
  1
ACIMSYSVARMAN
  2
AcImSysVarManager
  3
AcMeServices
 90
        0
280
     0
281
     0
  0
CLASS
  1
ACIMREALSYSVAR
  2
AcImRealSysVar
  3
AcMeServices
 90
        0
280
     0
281
     0
  0
CLASS
  1
ACIMINTSYSVAR
  2
AcImIntSysVar
  3
AcMeServices
 90
        0
280
     0
281
     0
  0
CLASS
  1
ACMEDRAWINGMAN
  2
AcMeDrawingMan
  3
AcMeServices
 90
        0
280
     0
281
     0
  0
CLASS
  1
ACMEVIEW
  2
AcMeView
  3
AcMeServices
 90
        0
280
     0
281
     0
  0
CLASS
  1
ACDBENTITYCACHE
  2
AcMeEntityCache
  3
AcMeServices
 90
        0
280
     0
281
     0
  0
CLASS
  1
GSMANAGER
  2
AcMeGSManager
  3
AcMeServices
 90
        0
280
     0
281
     0
  0
CLASS
  1
AmdtInternalReactor
  2
AmdtInternalReactor
  3
AcMeServices
 90
        0
280
     0
281
     0
  0
CLASS
  1
ACMESTATEMGR
  2
AcMeStateMgr
  3
AcMeServices
 90
        0
280
     0
281
     0
  0
CLASS
  1
ACME_DATABASE
  2
AcMeDbDatabase
  3
AcMeServices
 90
        0
280
     0
281
     0
  0
CLASS
  1
ACRFINSADJUSTERMGR
  2
AcRfInsAdjusterMgr
  3
AcMeServices
 90
        0
280
     0
281
     0
  0
CLASS
  1
ACMDATADICTIONARY
  2
AcmDataDictionary
  3
"AcmSymBB|Product Description: AutoCAD Mechanical 2000|Company: Autodesk"
 90
        0
280
     0
281
     0
  0
CLASS
  1
ACMDATAENTRYBLOCK
  2
AcmDataEntryBlock
  3
"AcmSymBB|Product Description: AutoCAD Mechanical 2000|Company: Autodesk"
 90
        0
280
     0
281
     0
  0
CLASS
  1
AMGOBJPROPCFG
  2
AmgObjPropCfg
  3
"AmgLay|Product Description: AutoCAD Mechanical 2000|Company: Autodesk"
 90
        1
280
     0
281
     0
  0
CLASS
  1
ACAMGFILTERDAT
  2
AcAmgFilterDat
  3
"AcadM|Product Description: AutoCAD Mechanical 2000|Company: Autodesk"
 90
        0
280
     0
281
     0
  0
CLASS
  1
LAYER_INDEX
  2
AcDbLayerIndex
  3
AutoCAD 2000
 90
        0
280
     0
281
     0
  0
CLASS
  1
IDBUFFER
  2
AcDbIdBuffer
  3
AutoCAD 2000
 90
        0
280
     0
281
     0
  0
CLASS
  1
ACIMSTRSYSVAR
  2
AcImStrSysVar
  3
AcMeServices
 90
        0
280
     0
281
     0
  0
CLASS
  1
ACMSTANDARDJIS
  2
AcmStandardJIS
  3
"AcmSymBB|Product Description: AutoCAD Mechanical 2000|Company: Autodesk"
 90
        0
280
     0
281
     0
  0
CLASS
  1
ACMSURFSTANDARDJIS
  2
AcmSurfTextStdJIS
  3
"AcmSymBB|Product Description: AutoCAD Mechanical 2000|Company: Autodesk"
 90
        0
280
     0
281
     0
  0
CLASS
  1
ACMFCFSTANDARDJIS
  2
AcmFCFStdJIS
  3
"AcmSymBB|Product Description: AutoCAD Mechanical 2000|Company: Autodesk"
 90
        0
280
     0
281
     0
  0
CLASS
  1
ACMWELDSTANDARDJIS
  2
AcmWeldingStdJIS
  3
"AcmSymBB|Product Description: AutoCAD Mechanical 2000|Company: Autodesk"
 90
        0
280
     0
281
     0
  0
CLASS
  1
ACMIDSTANDARDJIS
  2
AcmIdStdJIS
  3
"AcmSymBB|Product Description: AutoCAD Mechanical 2000|Company: Autodesk"
 90
        0
280
     0
281
     0
  0
CLASS
  1
ACMDATUMSTANDARDJIS
  2
AcmDatumStdJIS
  3
"AcmSymBB|Product Description: AutoCAD Mechanical 2000|Company: Autodesk"
 90
        0
280
     0
281
     0
  0
CLASS
  1
ACMBOMSTANDARDJIS
  2
AcmBOMStdJIS
  3
"AcmSymBB|Product Description: AutoCAD Mechanical 2000|Company: Autodesk"
 90
        0
280
     0
281
     0
  0
CLASS
  1
ACMSTANDARDANSI
  2
AcmStandardANSI
  3
"AcmSymBB|Product Description: AutoCAD Mechanical 2000|Company: Autodesk"
 90
        0
280
     0
281
     0
  0
CLASS
  1
ACMSURFSTANDARDANSI
  2
AcmSurfTextStdANSI
  3
"AcmSymBB|Product Description: AutoCAD Mechanical 2000|Company: Autodesk"
 90
        0
280
     0
281
     0
  0
CLASS
  1
ACMFCFSTANDARDANSI
  2
AcmFCFStdANSI
  3
"AcmSymBB|Product Description: AutoCAD Mechanical 2000|Company: Autodesk"
 90
        0
280
     0
281
     0
  0
CLASS
  1
ACMWELDSTANDARDANSI
  2
AcmWeldingStdANSI
  3
"AcmSymBB|Product Description: AutoCAD Mechanical 2000|Company: Autodesk"
 90
        0
280
     0
281
     0
  0
CLASS
  1
ACMIDSTANDARDANSI
  2
AcmIdStdANSI
  3
"AcmSymBB|Product Description: AutoCAD Mechanical 2000|Company: Autodesk"
 90
        0
280
     0
281
     0
  0
CLASS
  1
ACMDATUMSTANDARDANSI
  2
AcmDatumStdANSI
  3
"AcmSymBB|Product Description: AutoCAD Mechanical 2000|Company: Autodesk"
 90
        0
280
     0
281
     0
  0
CLASS
  1
ACMBOMSTANDARDANSI
  2
AcmBOMStdANSI
  3
"AcmSymBB|Product Description: AutoCAD Mechanical 2000|Company: Autodesk"
 90
        0
280
     0
281
     0
  0
CLASS
  1
ACMSTANDARDBSI
  2
AcmStandardBSI
  3
"AcmSymBB|Product Description: AutoCAD Mechanical 2000|Company: Autodesk"
 90
        0
280
     0
281
     0
  0
CLASS
  1
ACMSURFSTANDARDBSI
  2
AcmSurfTextStdBSI
  3
"AcmSymBB|Product Description: AutoCAD Mechanical 2000|Company: Autodesk"
 90
        0
280
     0
281
     0
  0
CLASS
  1
ACMFCFSTANDARDBSI
  2
AcmFCFStdBSI
  3
"AcmSymBB|Product Description: AutoCAD Mechanical 2000|Company: Autodesk"
 90
        0
280
     0
281
     0
  0
CLASS
  1
ACMWELDSTANDARDBSI
  2
AcmWeldingStdBSI
  3
"AcmSymBB|Product Description: AutoCAD Mechanical 2000|Company: Autodesk"
 90
        0
280
     0
281
     0
  0
CLASS
  1
ACMIDSTANDARDBSI
  2
AcmIdStdBSI
  3
"AcmSymBB|Product Description: AutoCAD Mechanical 2000|Company: Autodesk"
 90
        0
280
     0
281
     0
  0
CLASS
  1
ACMDATUMSTANDARDBSI
  2
AcmDatumStdBSI
  3
"AcmSymBB|Product Description: AutoCAD Mechanical 2000|Company: Autodesk"
 90
        0
280
     0
281
     0
  0
CLASS
  1
ACMBOMSTANDARDBSI
  2
AcmBOMStdBSI
  3
"AcmSymBB|Product Description: AutoCAD Mechanical 2000|Company: Autodesk"
 90
        0
280
     0
281
     0
  0
CLASS
  1
LONG_TRANSACTION
  2
AcDbLongTransaction
  3
AutoCAD 2000
 90
        0
280
     0
281
     0
  0
CLASS
  1
LWPOLYLINE
  2
AcDbPolyline
  3
AutoCAD 2000
 90
        0
280
     0
281
     1
  0
CLASS
  1
HATCH
  2
AcDbHatch
  3
AutoCAD 2000
 90
        0
280
     0
281
     1
  0
CLASS
  1
XRECORD
  2
AcDbXrecord
  3
AutoCAD 2000
 90
        0
280
     0
281
     0
  0
ENDSEC
  0
SECTION
  2
TABLES
  0
TABLE
  2
VPORT
  5
8
330
0
100
AcDbSymbolTable
 70
     3
  0
VPORT
  5
466A
330
8
100
AcDbSymbolTableRecord
100
AcDbViewportTableRecord
  2
*ACTIVE
 70
     0
 10
0.0
 20
0.0
 11
1.0
 21
1.0
 12
-91.50836405322179
 22
-14.92779869102562
 13
0.0
 23
0.0
 14
2.5
 24
2.5
 15
10.0
 25
10.0
 16
0.0
 26
0.0
 36
1.0
 17
0.0
 27
0.0
 37
0.0
 40
162.0863458628054
 41
1.56570841889117
 42
50.0
 43
0.0
 44
0.0
 50
0.0
 51
0.0
 71
     0
 72
   100
 73
     1
 74
     1
 75
     0
 76
     0
 77
     0
 78
     0
  0
ENDTAB
  0
TABLE
  2
LTYPE
  5
5
330
0
100
AcDbSymbolTable
 70
    10
  0
LTYPE
  5
14
330
5
100
AcDbSymbolTableRecord
100
AcDbLinetypeTableRecord
  2
BYBLOCK
 70
     0
  3

 72
    65
 73
     0
 40
0.0
  0
LTYPE
  5
15
330
5
100
AcDbSymbolTableRecord
100
AcDbLinetypeTableRecord
  2
BYLAYER
 70
     0
  3

 72
    65
 73
     0
 40
0.0
  0
LTYPE
  5
16
330
5
100
AcDbSymbolTableRecord
100
AcDbLinetypeTableRecord
  2
CONTINUOUS
 70
     0
  3
Solid line
 72
    65
 73
     0
 40
0.0
  0
LTYPE
  5
4B
330
5
100
AcDbSymbolTableRecord
100
AcDbLinetypeTableRecord
  2
AM_ISO02W050
 70
     0
  3
__ __ __ __ __ __ __ __ __ __ __ __ __ __ __
 72
    65
 73
     2
 40
7.5
 49
6.0
 74
     0
 49
-1.5
 74
     0
  0
LTYPE
  5
4C
330
5
100
AcDbSymbolTableRecord
100
AcDbLinetypeTableRecord
  2
AM_ISO08W050
 70
     0
  3
____ . ____ . ____ . ____ . ____ . ____ . ____
 72
    65
 73
     4
 40
18.0
 49
12.0
 74
     0
 49
-1.5
 74
     0
 49
3.0
 74
     0
 49
-1.5
 74
     0
  0
LTYPE
  5
4D
330
5
100
AcDbSymbolTableRecord
100
AcDbLinetypeTableRecord
  2
AM_ISO09W050
 70
     0
  3
_____ . . _____ . . _____ . . ____ .. ____
 72
    65
 73
     6
 40
22.5
 49
12.0
 74
     0
 49
-1.5
 74
     0
 49
3.0
 74
     0
 49
-1.5
 74
     0
 49
3.0
 74
     0
 49
-1.5
 74
     0
  0
LTYPE
  5
4E
330
5
100
AcDbSymbolTableRecord
100
AcDbLinetypeTableRecord
  2
AMCONSTR
 70
     0
  3
_______________________
 72
    65
 73
     2
 40
9999.0
 49
9999.0
 74
     0
 49
0.0
 74
     0
  0
LTYPE
  5
4F
330
5
100
AcDbSymbolTableRecord
100
AcDbLinetypeTableRecord
  2
AM_ISO02W050X2
 70
     0
  3
 _ _ _ _ _ _ _ _ _ _ _ _
 72
    65
 73
     2
 40
3.75
 49
3.0
 74
     0
 49
-0.75
 74
     0
  0
LTYPE
  5
50
330
5
100
AcDbSymbolTableRecord
100
AcDbLinetypeTableRecord
  2
AM_ISO08W050X2
 70
     0
  3
__ . __ . __ . __ . __ . __
 72
    65
 73
     4
 40
9.0
 49
6.0
 74
     0
 49
-0.75
 74
     0
 49
1.5
 74
     0
 49
-0.75
 74
     0
  0
LTYPE
  5
53
330
5
100
AcDbSymbolTableRecord
100
AcDbLinetypeTableRecord
  2
AMZIGZAG
 70
     0
  3
/\/-/\/-/\/-/\/-/\/-/\/
 72
    65
 73
     2
 40
11.00009999999999
 49
0.0001
 74
     4
 75
   135
340
52
 46
0.04
 50
0.0
 44
0.0
 45
0.0
 49
-11.0
 74
     0
  0
LTYPE
  5
166
330
5
100
AcDbSymbolTableRecord
100
AcDbLinetypeTableRecord
  2
ACJISTGL
 70
     0
  3
_ _ _ _ _
 72
    65
 73
     2
 40
3.0
 49
2.0
 74
     0
 49
-1.0
 74
     0
  0
LTYPE
  5
26A
330
5
100
AcDbSymbolTableRecord
100
AcDbLinetypeTableRecord
  2
ACJISTGB
 70
     0
  3
__ . . __ . .
 72
    65
 73
     6
 40
9.0
 49
4.0
 74
     0
 49
-1.0
 74
     0
 49
1.0
 74
     0
 49
-1.0
 74
     0
 49
1.0
 74
     0
 49
-1.0
 74
     0
  0
ENDTAB
  0
TABLE
  2
LAYER
  5
2
330
0
100
AcDbSymbolTable
 70
     8
  0
LAYER
  5
10
330
2
100
AcDbSymbolTableRecord
100
AcDbLayerTableRecord
  2
0
 70
     0
 62
     7
  6
CONTINUOUS
  0
LAYER
  5
3F9
330
2
100
AcDbSymbolTableRecord
100
AcDbLayerTableRecord
  2
AM_0
 70
     0
 62
     7
  6
CONTINUOUS
  0
LAYER
  5
C7C
330
2
100
AcDbSymbolTableRecord
100
AcDbLayerTableRecord
  2
AM_7
 70
     0
 62
     4
  6
AM_ISO08W050
  0
LAYER
  5
C97
330
2
100
AcDbSymbolTableRecord
100
AcDbLayerTableRecord
  2
AM_11
 70
     0
 62
     3
  6
AM_ISO09W050
  0
LAYER
  5
CC5
330
2
100
AcDbSymbolTableRecord
100
AcDbLayerTableRecord
  2
AM_5
 70
     0
 62
     3
  6
CONTINUOUS
  0
LAYER
  5
CC7
330
2
100
AcDbSymbolTableRecord
100
AcDbLayerTableRecord
  2
DEFPOINTS
 70
     0
 62
     7
  6
CONTINUOUS
  0
LAYER
  5
19BC
330
2
100
AcDbSymbolTableRecord
100
AcDbLayerTableRecord
  2
AM_6
 70
     0
 62
     2
  6
CONTINUOUS
  0
LAYER
  5
44EC
330
2
100
AcDbSymbolTableRecord
100
AcDbLayerTableRecord
  2
AM_CL
 70
     0
 62
     1
  6
AMCONSTR
  0
ENDTAB
  0
TABLE
  2
STYLE
  5
3
330
0
100
AcDbSymbolTable
 70
     5
  0
STYLE
  5
11
330
3
100
AcDbSymbolTableRecord
100
AcDbTextStyleTableRecord
  2
STANDARD
 70
     0
 40
0.0
 41
1.0
 50
0.0
 71
     0
 42
2.5
  3
simplex.shx
  4
EXTFONT.SHX
  0
STYLE
  5
52
330
3
100
AcDbSymbolTableRecord
100
AcDbTextStyleTableRecord
  2

 70
     1
 40
0.0
 41
1.0
 50
0.0
 71
     0
 42
2.5
  3
ltypeshp.shx
  4

  0
STYLE
  5
6B
330
3
100
AcDbSymbolTableRecord
100
AcDbTextStyleTableRecord
  2
ASAMI
 70
     0
 40
0.0
 41
1.0
 50
0.0
 71
     0
 42
2.5
  3
simplex.shx
  4
EXTFONT.SHX
  0
STYLE
  5
262
330
3
100
AcDbSymbolTableRecord
100
AcDbTextStyleTableRecord
  2
ACJISTS
 70
     0
 40
1.0
 41
1.0
 50
0.0
 71
     0
 42
2.5
  3
simplex.shx
  4
bigfont.shx
  0
STYLE
  5
269
330
3
100
AcDbSymbolTableRecord
100
AcDbTextStyleTableRecord
  2
ACJISGDT
 70
     0
 40
0.0
 41
1.0
 50
0.0
 71
     0
 42
2.5
  3
amgdtans.shx
  4

  0
ENDTAB
  0
TABLE
  2
VIEW
  5
6
330
0
100
AcDbSymbolTable
 70
     0
  0
ENDTAB
  0
TABLE
  2
UCS
  5
7
330
0
100
AcDbSymbolTable
 70
     0
  0
ENDTAB
  0
TABLE
  2
APPID
  5
9
330
0
100
AcDbSymbolTable
 70
    16
  0
APPID
  5
12
330
9
100
AcDbSymbolTableRecord
100
AcDbRegAppTableRecord
  2
ACAD
 70
     0
  0
APPID
  5
30
330
9
100
AcDbSymbolTableRecord
100
AcDbRegAppTableRecord
  2
MCAD_NO_VIS
 70
     0
  0
APPID
  5
31
330
9
100
AcDbSymbolTableRecord
100
AcDbRegAppTableRecord
  2
ACAD_TEMP_GRAPHIC
 70
     0
  0
APPID
  5
2C2
330
9
100
AcDbSymbolTableRecord
100
AcDbRegAppTableRecord
  2
GENIUS_GENDTOL_13
 70
     0
  0
APPID
  5
339
330
9
100
AcDbSymbolTableRecord
100
AcDbRegAppTableRecord
  2
GENIUS_GENODEF_13
 70
     0
  0
APPID
  5
33A
330
9
100
AcDbSymbolTableRecord
100
AcDbRegAppTableRecord
  2
GENIUS_GENOBJ-N-RSBK_13
 70
     0
  0
APPID
  5
33B
330
9
100
AcDbSymbolTableRecord
100
AcDbRegAppTableRecord
  2
GENIUS_GENOBJ-N-LIB_13
 70
     0
  0
APPID
  5
33C
330
9
100
AcDbSymbolTableRecord
100
AcDbRegAppTableRecord
  2
GENIUS_GENSCALE_13
 70
     0
  0
APPID
  5
378
330
9
100
AcDbSymbolTableRecord
100
AcDbRegAppTableRecord
  2
GENIUS_GENDIMSH_14
 70
     0
  0
APPID
  5
C82
330
9
100
AcDbSymbolTableRecord
100
AcDbRegAppTableRecord
  2
GENIUS_GENOBJ-N-CRS_13
 70
     0
  0
APPID
  5
C83
330
9
100
AcDbSymbolTableRecord
100
AcDbRegAppTableRecord
  2
GENIUS_GENOENT_13
 70
     0
  0
APPID
  5
C84
330
9
100
AcDbSymbolTableRecord
100
AcDbRegAppTableRecord
  2
GENIUS_GENOREF_13
 70
     0
  0
APPID
  5
C85
330
9
100
AcDbSymbolTableRecord
100
AcDbRegAppTableRecord
  2
GENIUS_GENOLIS_13
 70
     0
  0
APPID
  5
CA0
330
9
100
AcDbSymbolTableRecord
100
AcDbRegAppTableRecord
  2
GENIUS_GENOBJ-N-CEN_13
 70
     0
  0
APPID
  5
1E1E
330
9
100
AcDbSymbolTableRecord
100
AcDbRegAppTableRecord
  2
GENIUS_GENFIL_13
 70
     0
  0
APPID
  5
1E1F
330
9
100
AcDbSymbolTableRecord
100
AcDbRegAppTableRecord
  2
GENIUS_GENOBJ-N-CHA_13
 70
     0
  0
ENDTAB
  0
TABLE
  2
DIMSTYLE
  5
A
330
0
100
AcDbSymbolTable
 70
     9
  0
DIMSTYLE
105
58
330
A
100
AcDbSymbolTableRecord
100
AcDbDimStyleTableRecord
  2
AM_JIS
 70
     0
  3

  4
"
  5
OPEN30
  6

  7

 40
1.0
 41
2.5
 42
1.0
 43
12.0
 44
1.0
 45
0.0
 46
0.0
 47
0.1
 48
0.1
140
3.2
141
0.0
142
0.0
143
0.0393701
144
1.0
145
0.0
146
0.71
147
1.5
 71
     0
 72
     0
 73
     0
 74
     0
 75
     0
 76
     0
 77
     3
 78
     8
170
     0
171
     2
172
     1
173
     0
174
     0
175
     0
176
   256
177
   256
178
     2
270
     2
271
     3
272
     3
273
     2
274
     2
340
6B
275
     0
280
     0
281
     0
282
     0
283
     0
284
     0
285
     0
286
     0
287
     3
288
     0
  0
DIMSTYLE
105
5F
330
A
100
AcDbSymbolTableRecord
100
AcDbDimStyleTableRecord
  2
AM_JIS$3
 70
     0
  3

  4
"
  5
OPEN30
  6

  7

 40
1.0
 41
2.5
 42
1.0
 43
10.0
 44
1.0
 45
0.0
 46
0.0
 47
0.1
 48
0.1
140
3.2
141
0.0
142
0.0
143
0.0393701
144
1.0
145
0.0
146
0.71
147
1.5
 71
     0
 72
     0
 73
     0
 74
     1
 75
     0
 76
     0
 77
     3
 78
     8
170
     0
171
     2
172
     0
173
     0
174
     0
175
     0
176
   256
177
   256
178
     2
270
     2
271
     2
272
     3
273
     2
274
     2
340
6B
275
     0
280
     0
281
     0
282
     0
283
     0
284
     0
285
     0
286
     0
287
     0
288
     1
  0
DIMSTYLE
105
60
330
A
100
AcDbSymbolTableRecord
100
AcDbDimStyleTableRecord
  2
AM_JIS$4
 70
     0
  3

  4
"
  5
OPEN30
  6

  7

 40
1.0
 41
2.5
 42
1.0
 43
10.0
 44
1.0
 45
0.0
 46
0.0
 47
0.1
 48
0.1
140
3.2
141
0.0
142
0.0
143
0.0393701
144
1.0
145
0.0
146
0.71
147
1.5
 71
     0
 72
     0
 73
     0
 74
     1
 75
     0
 76
     0
 77
     3
 78
     8
170
     0
171
     2
172
     0
173
     0
174
     0
175
     0
176
   256
177
   256
178
     2
270
     2
271
     2
272
     3
273
     2
274
     2
340
6B
275
     0
280
     0
281
     0
282
     0
283
     0
284
     0
285
     0
286
     0
287
     0
288
     1
  0
DIMSTYLE
105
61
330
A
100
AcDbSymbolTableRecord
100
AcDbDimStyleTableRecord
  2
AM_JIS$6
 70
     0
  3

  4
"
  5
OPEN30
  6

  7

 40
1.0
 41
2.5
 42
1.0
 43
10.0
 44
1.0
 45
0.0
 46
0.0
 47
0.1
 48
0.1
140
3.2
141
0.0
142
0.0
143
0.0393701
144
1.0
145
0.0
146
0.71
147
1.5
 71
     0
 72
     0
 73
     0
 74
     0
 75
     0
 76
     0
 77
     0
 78
     8
170
     0
171
     2
172
     1
173
     0
174
     0
175
     0
176
   256
177
   256
178
     2
270
     2
271
     2
272
     2
273
     2
274
     2
340
6B
275
     0
280
     0
281
     0
282
     0
283
     0
284
     0
285
     0
286
     0
287
     3
288
     0
  0
DIMSTYLE
105
62
330
A
100
AcDbSymbolTableRecord
100
AcDbDimStyleTableRecord
  2
AM_JIS$7
 70
     0
  3

  4
"
  5
OPEN30
  6

  7

 40
1.0
 41
2.5
 42
1.0
 43
10.0
 44
1.0
 45
0.0
 46
0.0
 47
0.1
 48
0.1
140
3.2
141
0.0
142
0.0
143
0.0393701
144
1.0
145
0.0
146
0.71
147
1.5
 71
     0
 72
     0
 73
     0
 74
     0
 75
     0
 76
     0
 77
     3
 78
     8
170
     0
171
     2
172
     1
173
     0
174
     0
175
     0
176
   256
177
   256
178
     2
270
     2
271
     2
272
     3
273
     2
274
     2
340
6B
275
     0
280
     0
281
     0
282
     0
283
     0
284
     0
285
     0
286
     0
287
     3
288
     0
  0
DIMSTYLE
105
63
330
A
100
AcDbSymbolTableRecord
100
AcDbDimStyleTableRecord
  2
AM_JIS$SF
 70
     0
  3

  4
"
  5
OPEN30
  6

  7

 40
1.0
 41
2.5
 42
1.0
 43
10.0
 44
1.0
 45
0.0
 46
0.0
 47
0.1
 48
0.1
140
3.2
141
0.0
142
0.0
143
0.0393701
144
1.0
145
0.0
146
0.71
147
1.5
 71
     0
 72
     0
 73
     0
 74
     0
 75
     1
 76
     1
 77
     3
 78
     8
170
     0
171
     2
172
     1
173
     0
174
     0
175
     0
176
   256
177
   256
178
     2
270
     2
271
     2
272
     2
273
     2
274
     2
340
6B
275
     0
280
     0
281
     0
282
     0
283
     0
284
     0
285
     0
286
     0
287
     3
288
     0
  0
DIMSTYLE
105
68
330
A
100
AcDbSymbolTableRecord
100
AcDbDimStyleTableRecord
  2
AM_JIS$SH
 70
     0
  3

  4
"
  5

  6
GENAXEH
  7
OPEN30
 40
1.0
 41
2.5
 42
1.0
 43
10.0
 44
1.0
 45
0.0
 46
0.0
 47
0.1
 48
0.1
140
3.2
141
0.0
142
0.0
143
0.0393701
144
2.0
145
0.0
146
0.71
147
1.5
 71
     0
 72
     0
 73
     0
 74
     0
 75
     1
 76
     1
 77
     3
 78
     8
170
     0
171
     2
172
     1
173
     1
174
     0
175
     0
176
   256
177
   256
178
     2
270
     2
271
     2
272
     2
273
     2
274
     2
340
6B
275
     0
280
     0
281
     0
282
     0
283
     0
284
     0
285
     0
286
     0
287
     3
288
     0
  0
DIMSTYLE
105
B34
102
{ACAD_REACTORS
330
4536
102
}
330
A
100
AcDbSymbolTableRecord
100
AcDbDimStyleTableRecord
  2
AM_JIS$2
 70
     0
  3

  4
"
  5
OPEN30
  6

  7

 40
1.0
 41
2.5
 42
1.0
 43
12.0
 44
1.0
 45
0.0
 46
0.0
 47
0.1
 48
0.1
140
3.2
141
0.0
142
0.0
143
0.0393701
144
1.0
145
0.0
146
0.71
147
1.5
 71
     0
 72
     0
 73
     0
 74
     0
 75
     0
 76
     0
 77
     3
 78
     8
170
     0
171
     2
172
     1
173
     0
174
     0
175
     0
176
   256
177
   256
178
     2
270
     2
271
     3
272
     3
273
     2
274
     2
340
6B
275
     0
280
     0
281
     0
282
     0
283
     0
284
     0
285
     0
286
     0
287
     3
288
     0
  0
DIMSTYLE
105
BA5
102
{ACAD_REACTORS
330
CC6
330
DF5
330
1FB6
330
2216
102
}
330
A
100
AcDbSymbolTableRecord
100
AcDbDimStyleTableRecord
  2
AM_JIS$0
 70
     0
  3

  4
"
  5
OPEN30
  6

  7

 40
1.0
 41
2.5
 42
0.0
 43
10.0
 44
1.0
 45
0.0
 46
0.0
 47
0.1
 48
0.1000000001
140
3.799999999999999
141
0.0
142
0.0
143
0.0393701
144
1.0
145
0.0
146
0.71
147
1.5
 71
     0
 72
     0
 73
     0
 74
     0
 75
     0
 76
     0
 77
     3
 78
     1
170
     0
171
     2
172
     1
173
     0
174
     0
175
     0
176
     3
177
     3
178
     2
270
     2
271
     2
272
     2
273
     2
274
     2
340
11
275
     1
280
     0
281
     0
282
     0
283
     0
284
     8
285
     0
286
     0
287
     0
288
     0
  0
ENDTAB
  0
TABLE
  2
BLOCK_RECORD
  5
1
330
0
100
AcDbSymbolTable
 70
    10
  0
BLOCK_RECORD
  5
1F
102
{ACAD_XDICTIONARY
360
74
102
}
330
1
100
AcDbSymbolTableRecord
100
AcDbBlockTableRecord
  2
*MODEL_SPACE
  0
BLOCK_RECORD
  5
101
102
{ACAD_XDICTIONARY
360
4693
102
}
330
1
100
AcDbSymbolTableRecord
100
AcDbBlockTableRecord
  2
*PAPER_SPACE
  0
BLOCK_RECORD
  5
59
330
1
100
AcDbSymbolTableRecord
100
AcDbBlockTableRecord
  2
_OPEN30
  0
BLOCK_RECORD
  5
64
330
1
100
AcDbSymbolTableRecord
100
AcDbBlockTableRecord
  2
GENAXEH
  0
BLOCK_RECORD
  5
CC8
330
1
100
AcDbSymbolTableRecord
100
AcDbBlockTableRecord
  2
*D5
  0
BLOCK_RECORD
  5
DF6
330
1
100
AcDbSymbolTableRecord
100
AcDbBlockTableRecord
  2
*D6
  0
BLOCK_RECORD
  5
1FB7
330
1
100
AcDbSymbolTableRecord
100
AcDbBlockTableRecord
  2
*D7
  0
BLOCK_RECORD
  5
2217
330
1
100
AcDbSymbolTableRecord
100
AcDbBlockTableRecord
  2
*D8
  0
BLOCK_RECORD
  5
4537
330
1
100
AcDbSymbolTableRecord
100
AcDbBlockTableRecord
  2
*D9
  0
ENDTAB
  0
ENDSEC
  0
SECTION
  2
BLOCKS
  0
BLOCK
  5
20
330
1F
100
AcDbEntity
  8
0
100
AcDbBlockBegin
  2
*MODEL_SPACE
 70
     0
 10
0.0
 20
0.0
 30
0.0
  3
*MODEL_SPACE
  1

  0
ENDBLK
  5
21
330
1F
100
AcDbEntity
  8
0
100
AcDbBlockEnd
  0
BLOCK
  5
103
330
101
100
AcDbEntity
 67
     1
  8
0
100
AcDbBlockBegin
  2
*PAPER_SPACE
 70
     0
 10
0.0
 20
0.0
 30
0.0
  3
*PAPER_SPACE
  1

  0
ENDBLK
  5
104
330
101
100
AcDbEntity
 67
     1
  8
0
100
AcDbBlockEnd
  0
BLOCK
  5
5D
330
59
100
AcDbEntity
  8
0
100
AcDbBlockBegin
  2
_OPEN30
 70
     0
 10
0.0
 20
0.0
 30
0.0
  3
_OPEN30
  1

  0
LINE
  5
5A
330
59
100
AcDbEntity
  8
0
 62
     0
100
AcDbLine
 10
-1.0
 20
0.26794919
 30
0.0
 11
0.0
 21
0.0
 31
0.0
  0
LINE
  5
5B
330
59
100
AcDbEntity
  8
0
 62
     0
100
AcDbLine
 10
0.0
 20
0.0
 30
0.0
 11
-1.0
 21
-0.26794919
 31
0.0
  0
LINE
  5
5C
330
59
100
AcDbEntity
  8
0
 62
     0
100
AcDbLine
 10
0.0
 20
0.0
 30
0.0
 11
-1.0
 21
0.0
 31
0.0
  0
ENDBLK
  5
5E
330
59
100
AcDbEntity
  8
0
100
AcDbBlockEnd
  0
BLOCK
  5
66
330
64
100
AcDbEntity
  8
0
100
AcDbBlockBegin
  2
GENAXEH
 70
     0
 10
0.0
 20
0.0
 30
0.0
  3
GENAXEH
  1

  0
LINE
  5
65
330
64
100
AcDbEntity
  8
0
100
AcDbLine
 10
-1.0
 20
0.0
 30
0.0
 11
1.0
 21
0.0
 31
0.0
  0
ENDBLK
  5
67
330
64
100
AcDbEntity
  8
0
100
AcDbBlockEnd
  0
BLOCK
  5
CD2
330
CC8
100
AcDbEntity
  8
0
100
AcDbBlockBegin
  2
*D5
 70
     1
 10
0.0
 20
0.0
 30
0.0
  3
*D5
  1

  0
LINE
  5
4503
330
CC8
100
AcDbEntity
  8
AM_5
 62
     3
100
AcDbLine
 10
-196.4925059274152
 20
-7.500002054481146
 30
0.0
 11
-196.4925059274152
 21
-33.00000305448097
 31
0.0
  0
LINE
  5
4504
330
CC8
100
AcDbEntity
  8
AM_5
 62
     3
100
AcDbLine
 10
-2.492505927414748
 20
-7.800000680556824
 30
0.0
 11
-2.492505927414749
 21
-33.00000305448097
 31
0.0
  0
LINE
  5
4505
330
CC8
100
AcDbEntity
  8
AM_5
 62
     3
100
AcDbLine
 10
-193.9925059274152
 20
-32.00000305448097
 30
0.0
 11
-4.992505927414749
 21
-32.00000305448097
 31
0.0
  0
INSERT
  5
4506
330
CC8
100
AcDbEntity
  8
AM_5
 62
     3
100
AcDbBlockReference
  2
_OPEN30
 10
-196.4925059274152
 20
-32.00000305448097
 30
0.0
 41
2.5
 42
2.5
 43
2.5
 50
180.0
  0
INSERT
  5
4507
330
CC8
100
AcDbEntity
  8
AM_5
 62
     3
100
AcDbBlockReference
  2
_OPEN30
 10
-2.492505927414749
 20
-32.00000305448097
 30
0.0
 41
2.5
 42
2.5
 43
2.5
  0
MTEXT
  5
4508
330
CC8
100
AcDbEntity
  8
AM_5
 62
     2
100
AcDbMText
 10
-99.49250592741499
 20
-28.60000305448097
 30
0.0
 40
3.799999999999999
 41
0.0
 71
     5
 72
     1
  1
194
1001
ACAD
1000
MTEXTBEGIN
1070
    73
1070
     1
1070
    44
1040
1.0
1070
    74
1070
     0
1000
MTEXTEND
  0
POINT
  5
4509
330
CC8
100
AcDbEntity
  8
DEFPOINTS
 62
     0
100
AcDbPoint
 10
-196.4925059274152
 20
-7.500002054481146
 30
0.0
  0
POINT
  5
450A
330
CC8
100
AcDbEntity
  8
DEFPOINTS
 62
     0
100
AcDbPoint
 10
-2.492505927414748
 20
-7.800000680556824
 30
0.0
  0
POINT
  5
450B
330
CC8
100
AcDbEntity
  8
DEFPOINTS
 62
     0
100
AcDbPoint
 10
-2.492505927414749
 20
-32.00000305448097
 30
0.0
  0
ENDBLK
  5
CD3
330
CC8
100
AcDbEntity
  8
0
100
AcDbBlockEnd
  0
BLOCK
  5
E00
330
DF6
100
AcDbEntity
  8
0
100
AcDbBlockBegin
  2
*D6
 70
     1
 10
0.0
 20
0.0
 30
0.0
  3
*D6
  1

  0
LINE
  5
44FA
330
DF6
100
AcDbEntity
  8
AM_5
 62
     3
100
AcDbLine
 10
-130.4924866869681
 20
-8.000002054481122
 30
0.0
 11
-130.4924866869681
 21
-23.00000305448083
 31
0.0
  0
LINE
  5
44FB
330
DF6
100
AcDbEntity
  8
AM_5
 62
     3
100
AcDbLine
 10
-2.492505927414737
 20
-7.800000680556808
 30
0.0
 11
-2.492505927414738
 21
-23.00000305448083
 31
0.0
  0
LINE
  5
44FC
330
DF6
100
AcDbEntity
  8
AM_5
 62
     3
100
AcDbLine
 10
-127.9924866869681
 20
-22.00000305448083
 30
0.0
 11
-4.992505927414738
 21
-22.00000305448083
 31
0.0
  0
INSERT
  5
44FD
330
DF6
100
AcDbEntity
  8
AM_5
 62
     3
100
AcDbBlockReference
  2
_OPEN30
 10
-130.4924866869681
 20
-22.00000305448083
 30
0.0
 41
2.5
 42
2.5
 43
2.5
 50
180.0
  0
INSERT
  5
44FE
330
DF6
100
AcDbEntity
  8
AM_5
 62
     3
100
AcDbBlockReference
  2
_OPEN30
 10
-2.492505927414738
 20
-22.00000305448083
 30
0.0
 41
2.5
 42
2.5
 43
2.5
  0
MTEXT
  5
44FF
330
DF6
100
AcDbEntity
  8
AM_5
 62
     2
100
AcDbMText
 10
-66.49249630719144
 20
-18.60000305448083
 30
0.0
 40
3.799999999999999
 41
0.0
 71
     5
 72
     1
  1
128
1001
ACAD
1000
MTEXTBEGIN
1070
    73
1070
     1
1070
    44
1040
1.0
1070
    74
1070
     0
1000
MTEXTEND
  0
POINT
  5
4500
330
DF6
100
AcDbEntity
  8
DEFPOINTS
 62
     0
100
AcDbPoint
 10
-130.4924866869681
 20
-8.000002054481122
 30
0.0
  0
POINT
  5
4501
330
DF6
100
AcDbEntity
  8
DEFPOINTS
 62
     0
100
AcDbPoint
 10
-2.492505927414737
 20
-7.800000680556808
 30
0.0
  0
POINT
  5
4502
330
DF6
100
AcDbEntity
  8
DEFPOINTS
 62
     0
100
AcDbPoint
 10
-2.492505927414738
 20
-22.00000305448083
 30
0.0
  0
ENDBLK
  5
E01
330
DF6
100
AcDbEntity
  8
0
100
AcDbBlockEnd
  0
BLOCK
  5
1FC3
330
1FB7
100
AcDbEntity
  8
0
100
AcDbBlockBegin
  2
*D7
 70
     1
 10
0.0
 20
0.0
 30
0.0
  3
*D7
  1

  0
LINE
  5
4520
330
1FB7
100
AcDbEntity
  8
AM_5
 62
     3
100
AcDbLine
 10
-2.492505927414737
 20
-7.800000680556808
 30
0.0
 11
16.06341509744276
 21
-7.800000680556814
 31
0.0
  0
LINE
  5
4521
330
1FB7
100
AcDbEntity
  8
AM_5
 62
     3
100
AcDbLine
 10
-2.492505927414518
 20
7.799999319442792
 30
0.0
 11
16.06341509744276
 21
7.799999319442787
 31
0.0
  0
LINE
  5
4522
330
1FB7
100
AcDbEntity
  8
AM_5
 62
     3
100
AcDbLine
 10
15.06341509744276
 20
-5.300000680556814
 30
0.0
 11
15.06341509744276
 21
5.299999319442787
 31
0.0
  0
INSERT
  5
4523
330
1FB7
100
AcDbEntity
  8
AM_5
 62
     3
100
AcDbBlockReference
  2
_OPEN30
 10
15.06341509744276
 20
-7.800000680556814
 30
0.0
 41
2.5
 42
2.5
 43
2.5
 50
270.0
  0
INSERT
  5
4524
330
1FB7
100
AcDbEntity
  8
AM_5
 62
     3
100
AcDbBlockReference
  2
_OPEN30
 10
15.06341509744276
 20
7.799999319442787
 30
0.0
 41
2.5
 42
2.5
 43
2.5
 50
90.0
  0
MTEXT
  5
4525
330
1FB7
100
AcDbEntity
  8
AM_5
 62
     2
100
AcDbMText
 10
11.66341509744276
 20
-0.0000006805570104
 30
0.0
 40
3.799999999999999
 41
0.0
 71
     5
 72
     1
  1
%%c15.6
 11
0.0000000000000001
 21
1.0
 31
0.0
1001
ACAD
1000
MTEXTBEGIN
1070
    73
1070
     1
1070
    44
1040
1.0
1070
    74
1070
     0
1000
MTEXTEND
  0
POINT
  5
4526
330
1FB7
100
AcDbEntity
  8
DEFPOINTS
 62
     0
100
AcDbPoint
 10
-2.492505927414737
 20
-7.800000680556808
 30
0.0
  0
POINT
  5
4527
330
1FB7
100
AcDbEntity
  8
DEFPOINTS
 62
     0
100
AcDbPoint
 10
-2.492505927414518
 20
7.799999319442792
 30
0.0
  0
POINT
  5
4528
330
1FB7
100
AcDbEntity
  8
DEFPOINTS
 62
     0
100
AcDbPoint
 10
15.06341509744276
 20
7.799999319442787
 30
0.0
  0
ENDBLK
  5
1FC4
330
1FB7
100
AcDbEntity
  8
0
100
AcDbBlockEnd
  0
BLOCK
  5
2221
330
2217
100
AcDbEntity
  8
0
100
AcDbBlockBegin
  2
*D8
 70
     1
 10
0.0
 20
0.0
 30
0.0
  3
*D8
  1

  0
LINE
  5
450C
330
2217
100
AcDbEntity
  8
AM_5
 62
     3
100
AcDbLine
 10
-195.9925059274157
 20
7.999999999998594
 30
0.0
 11
-213.4925069274152
 21
7.999999999998544
 31
0.0
  0
LINE
  5
450D
330
2217
100
AcDbEntity
  8
AM_5
 62
     3
100
AcDbLine
 10
-195.9925059274157
 20
-8.000002054481242
 30
0.0
 11
-213.4925069274152
 21
-8.000002054481292
 31
0.0
  0
LINE
  5
450E
330
2217
100
AcDbEntity
  8
AM_5
 62
     3
100
AcDbLine
 10
-212.4925069274152
 20
5.499999999998546
 30
0.0
 11
-212.4925069274151
 21
-5.500002054481289
 31
0.0
  0
INSERT
  5
450F
330
2217
100
AcDbEntity
  8
AM_5
 62
     3
100
AcDbBlockReference
  2
_OPEN30
 10
-212.4925069274152
 20
7.999999999998546
 30
0.0
 41
2.5
 42
2.5
 43
2.5
 50
90.00000000000017
  0
INSERT
  5
4510
330
2217
100
AcDbEntity
  8
AM_5
 62
     3
100
AcDbBlockReference
  2
_OPEN30
 10
-212.4925069274151
 20
-8.000002054481289
 30
0.0
 41
2.5
 42
2.5
 43
2.5
 50
270.0000000000001
  0
MTEXT
  5
4511
330
2217
100
AcDbEntity
  8
AM_5
 62
     2
100
AcDbMText
 10
-215.8925069274152
 20
-0.0000010272413725
 30
0.0
 40
3.799999999999999
 41
0.0
 71
     5
 72
     1
  1
%%c16
 11
-0.0000000000000028
 21
1.0
 31
0.0
1001
ACAD
1000
MTEXTBEGIN
1070
    73
1070
     1
1070
    44
1040
1.0
1070
    74
1070
     0
1000
MTEXTEND
  0
POINT
  5
4512
330
2217
100
AcDbEntity
  8
DEFPOINTS
 62
     0
100
AcDbPoint
 10
-195.9925059274157
 20
7.999999999999203
 30
0.0
  0
POINT
  5
4513
330
2217
100
AcDbEntity
  8
DEFPOINTS
 62
     0
100
AcDbPoint
 10
-195.9925059274157
 20
-8.000002054480635
 30
0.0
  0
POINT
  5
4514
330
2217
100
AcDbEntity
  8
DEFPOINTS
 62
     0
100
AcDbPoint
 10
-212.4925069274152
 20
-8.000002054480628
 30
0.0
  0
ENDBLK
  5
2222
330
2217
100
AcDbEntity
  8
0
100
AcDbBlockEnd
  0
BLOCK
  5
4545
330
4537
100
AcDbEntity
  8
0
100
AcDbBlockBegin
  2
*D9
 70
     1
 10
0.0
 20
0.0
 30
0.0
  3
*D9
  1

  0
LINE
  5
4695
330
4537
100
AcDbEntity
  8
AM_5
100
AcDbLine
 10
0.8495142134008753
 20
-0.939692621699277
 30
0.0
 11
9.478942289676071
 21
-24.64885160108154
 31
0.0
  0
LINE
  5
4696
330
4537
100
AcDbEntity
  8
AM_5
100
AcDbLine
 10
0.8495164938090626
 20
0.93969179169557
 30
0.0
 11
9.479002106516649
 21
24.64882982945026
 31
0.0
  0
ARC
  5
4697
330
4537
100
AcDbEntity
  8
AM_5
100
AcDbCircle
 10
0.507494072584704
 20
0.000000000000108
 30
0.0
 40
25.23075996543175
100
AcDbArc
 50
295.6795001937775
 51
64.32036076307035
  0
INSERT
  5
4698
330
4537
100
AcDbEntity
  8
AM_5
100
AcDbBlockReference
  2
_OPEN30
 10
9.136922148859929
 20
-23.70915897938224
 30
0.0
 41
2.5
 42
2.5
 43
2.5
 50
202.8397500203821
  0
INSERT
  5
4699
330
4537
100
AcDbEntity
  8
AM_5
100
AcDbBlockReference
  2
_OPEN30
 10
9.13697968529229
 20
23.7091380377548
 30
0.0
 41
2.5
 42
2.5
 43
2.5
 50
157.1601109364656
  0
MTEXT
  5
469A
330
4537
100
AcDbEntity
  8
AM_5
 62
     2
100
AcDbMText
 10
22.63825403800016
 20
-0.0000268530303439
 30
0.0
 40
3.2
 41
0.0
 71
     5
 72
     1
  1
140°
  7
ASAMI
 11
0.0000012133804031
 21
0.999999999999264
 31
0.0
  0
POINT
  5
469B
330
4537
100
AcDbEntity
  8
DEFPOINTS
 62
     0
100
AcDbPoint
 10
23.67477616891187
 20
-9.993412265209032
 30
0.0
  0
POINT
  5
469C
330
4537
100
AcDbEntity
  8
DEFPOINTS
 62
     0
100
AcDbPoint
 10
0.5074940725846774
 20
0.0000000000000336
 30
0.0
  0
POINT
  5
469D
330
4537
100
AcDbEntity
  8
DEFPOINTS
 62
     0
100
AcDbPoint
 10
0.5074940725847342
 20
0.0000000000000231
 30
0.0
  0
POINT
  5
469E
330
4537
100
AcDbEntity
  8
DEFPOINTS
 62
     0
100
AcDbPoint
 10
-0.149402645247488
 20
1.80480891415477
 30
0.0
  0
POINT
  5
469F
330
4537
100
AcDbEntity
  8
DEFPOINTS
 62
     0
100
AcDbPoint
 10
-0.1494160275378368
 20
-1.80483205386709
 30
0.0
  0
ENDBLK
  5
4546
330
4537
100
AcDbEntity
  8
0
100
AcDbBlockEnd
  0
ENDSEC
  0
SECTION
  2
ENTITIES
  0
LINE
  5
C9F
330
1F
100
AcDbEntity
  8
AM_7
100
AcDbLine
 10
-198.4925059274152
 20
-0.000000000000342
 30
0.0
 11
1.063414097442788
 21
0.0000000000000346
 31
0.0
1001
GENIUS_GENODEF_13
1002
{
1000
HIER
1070
     0
1002
}
1002
{
1000
MANEDIT
1070
     0
1002
}
1002
{
1000
NOSEL
1070
     0
1002
}
1002
{
1000
BEHIND
1070
     0
1002
}
1002
{
1000
REACTOR
1002
}
1001
GENIUS_GENOBJ-N-CEN_13
1002
{
1000
OWNER
1000
GEN
1002
}
  0
DIMENSION
  5
CC6
330
1F
100
AcDbEntity
  8
AM_5
100
AcDbDimension
  2
*D5
 10
-2.492505927414749
 20
-32.00000305448097
 30
0.0
 11
-99.49250592741499
 21
-28.60000305448097
 31
0.0
 70
    32
  1
<>
  3
AM_JIS$0
100
AcDbAlignedDimension
 13
-196.4925059274152
 23
-7.500002054481146
 33
0.0
 14
-2.492505927414748
 24
-7.800000680556824
 34
0.0
 50
0.0000000000001132
100
AcDbRotatedDimension
1001
GENIUS_GENDTOL_13
1000

1000
h7
1000

1040
0.0
1001
ACAD
1000
DSTYLE
1002
{
1070
   271
1070
     0
1002
}
  0
DIMENSION
  5
DF5
330
1F
100
AcDbEntity
  8
AM_5
100
AcDbDimension
  2
*D6
 10
-2.492505927414738
 20
-22.00000305448083
 30
0.0
 11
-66.49249630719144
 21
-18.60000305448083
 31
0.0
 70
    32
  1
<>
  3
AM_JIS$0
100
AcDbAlignedDimension
 13
-130.4924866869681
 23
-8.000002054481122
 33
0.0
 14
-2.492505927414737
 24
-7.800000680556808
 34
0.0
 50
0.0000000000001527
100
AcDbRotatedDimension
1001
GENIUS_GENDTOL_13
1000

1000
h7
1000

1040
0.0
1001
ACAD
1000
DSTYLE
1002
{
1070
   271
1070
     0
1002
}
  0
TEXT
  5
19BD
330
1F
100
AcDbEntity
  8
AM_6
100
AcDbText
 10
-120.682982117891
 20
-54.50000305448103
 30
0.0
 40
5.0
  1
MDW156LHK
 50
0.0000000000001527
 72
     4
 11
-99.49250592741485
 21
-52.00000305448098
 31
0.0
100
AcDbText
  0
LINE
  5
1E25
330
1F
100
AcDbEntity
  8
AM_0
100
AcDbLine
 10
-130.4924866869682
 20
-8.00000205448118
 30
0.0
 11
-130.1460741457387
 21
-7.800000680551624
 31
0.0
  0
LINE
  5
1E26
330
1F
100
AcDbEntity
  8
AM_0
100
AcDbLine
 10
-130.1460753467049
 20
7.799999319448239
 30
0.0
 11
-130.4925059274152
 21
8.000011108476888
 31
0.0
  0
DIMENSION
  5
1FB6
330
1F
100
AcDbEntity
  8
AM_5
100
AcDbDimension
  2
*D7
 10
15.06341509744276
 20
7.799999319442787
 30
0.0
 11
15.06341509744276
 21
-0.0000006805570108
 31
0.0
 70
   160
  1
%%c<>
  3
AM_JIS$0
100
AcDbAlignedDimension
 13
-2.492505927414737
 23
-7.800000680556808
 33
0.0
 14
-2.492505927414518
 24
7.799999319442792
 34
0.0
 50
89.99999999999969
100
AcDbRotatedDimension
1001
ACAD
1000
DSTYLE
1002
{
1070
   271
1070
     1
1002
}
1001
GENIUS_GENDTOL_13
1000

1000
h7
1000

1040
0.0
  0
LINE
  5
1FD9
330
1F
100
AcDbEntity
  8
AM_0
100
AcDbLine
 10
-130.1460741457387
 20
-7.800000680551622
 30
0.0
 11
-130.1460747200797
 21
-6.20077778121273
 31
0.0
  0
LINE
  5
21D7
330
1F
100
AcDbEntity
  8
AM_0
 48
0.5
100
AcDbLine
 10
-130.4924866869682
 20
-8.000002054481122
 30
0.0
 11
-130.4924866869683
 21
7.999999999999709
 31
0.0
  0
LINE
  5
21D8
330
1F
100
AcDbEntity
  8
AM_0
 48
0.5
100
AcDbLine
 10
-195.9925059274152
 20
7.999999999999658
 30
0.0
 11
-130.4924866869683
 21
7.99999999999971
 31
0.0
1001
GENIUS_GENODEF_13
1002
{
1000
HIER
1070
     0
1002
}
1002
{
1000
MANEDIT
1070
     0
1002
}
1002
{
1000
NOSEL
1070
     0
1002
}
1002
{
1000
BEHIND
1070
     0
1002
}
1002
{
1000
REACTOR
1002
}
1001
GENIUS_GENOBJ-N-CEN_13
1002
{
1000
OWNER
1000
GEN
1002
}
  0
LINE
  5
21D9
330
1F
100
AcDbEntity
  8
AM_0
 48
0.5
100
AcDbLine
 10
-195.9925059274152
 20
-8.000002054481175
 30
0.0
 11
-130.4924866869683
 21
-8.000002054481122
 31
0.0
1001
GENIUS_GENODEF_13
1002
{
1000
HIER
1070
     0
1002
}
1002
{
1000
MANEDIT
1070
     0
1002
}
1002
{
1000
NOSEL
1070
     0
1002
}
1002
{
1000
BEHIND
1070
     0
1002
}
1002
{
1000
REACTOR
1002
}
1001
GENIUS_GENOBJ-N-CEN_13
1002
{
1000
OWNER
1000
GEN
1002
}
  0
LINE
  5
21DC
330
1F
100
AcDbEntity
  8
AM_0
100
AcDbLine
 10
-195.9925059274157
 20
-8.000002054481175
 30
0.0
 11
-195.9925059274157
 21
7.999999999999658
 31
0.0
  0
LINE
  5
21DD
330
1F
100
AcDbEntity
  8
AM_0
 48
0.5
100
AcDbLine
 10
-196.4925059274152
 20
-7.500002054481174
 30
0.0
 11
-196.4925059274152
 21
7.499999999999658
 31
0.0
  0
DIMENSION
  5
2216
330
1F
100
AcDbEntity
  8
AM_5
100
AcDbDimension
  2
*D8
 10
-212.4925069274152
 20
-8.000002054480628
 30
0.0
 11
-215.8925069274152
 21
-0.0000010272407444
 31
0.0
 70
    32
  1
%%c<>
 51
359.9999999999998
  3
AM_JIS$0
100
AcDbAlignedDimension
 13
-195.9925059274157
 23
7.999999999999203
 33
0.0
 14
-195.9925059274157
 24
-8.000002054480635
 34
0.0
 50
269.9999999999999
100
AcDbRotatedDimension
1001
ACAD
1000
DSTYLE
1002
{
1070
   271
1070
     0
1002
}
1001
GENIUS_GENDTOL_13
1000

1000
h7
1000

1040
0.0
  0
ELLIPSE
  5
2694
330
1F
100
AcDbEntity
  8
AM_0
 48
0.5
100
AcDbEllipse
 10
9.724742761112961
 20
7.401657934614823
 30
0.0
 11
11.3780264168592
 21
0.0000000000011224
 31
0.0
210
0.0
220
0.0
230
1.0
 40
0.9899999999999971
 41
3.323896559076802
 42
3.661579236128986
  0
LINE
  5
2695
330
1F
100
AcDbEntity
  8
AM_0
 48
0.5
100
AcDbLine
 10
-1.464733997472933
 20
5.359497651709217
 30
0.0
 11
-2.492505927414518
 21
7.799999319442792
 31
0.0
  0
LINE
  5
2696
330
1F
100
AcDbEntity
  8
AM_0
 48
0.5
100
AcDbLine
 10
0.5074940725847342
 20
0.0000000000000231
 30
0.0
 11
-0.149402645247488
 21
1.80480891415477
 31
0.0
  0
LINE
  5
2699
330
1F
100
AcDbEntity
  8
AM_0
 48
0.5
100
AcDbLine
 10
0.5074940725846774
 20
0.0000000000000336
 30
0.0
 11
-0.1494160275378368
 21
-1.80483205386709
 31
0.0
  0
ELLIPSE
  5
3366
330
1F
100
AcDbEntity
  8
AM_0
 48
0.5
100
AcDbEllipse
 10
9.724742761112985
 20
-7.40165793461473
 30
0.0
 11
11.3780264168592
 21
-0.0000000000010845
 31
0.0
210
0.0
220
0.0
230
-1.0
 40
0.9899999999999971
 41
3.323896559076802
 42
3.661579236128986
  0
LINE
  5
3367
330
1F
100
AcDbEntity
  8
AM_0
 48
0.5
100
AcDbLine
 10
-1.464733997472917
 20
-5.359497651709171
 30
0.0
 11
-2.492505927414737
 21
-7.800000680556808
 31
0.0
  0
LINE
  5
3F18
330
1F
100
AcDbEntity
  8
AM_0
 48
0.5
100
AcDbLine
 10
-195.9925059274152
 20
7.999999999999658
 30
0.0
 11
-196.4925059274152
 21
7.499999999999658
 31
0.0
1001
GENIUS_GENFIL_13
1070
     0
1040
0.5
1040
0.5
1040
20.0
1040
0.0
1002
{
1002
}
1001
GENIUS_GENODEF_13
1002
{
1000
HIER
1070
     0
1002
}
1002
{
1000
MANEDIT
1070
     0
1002
}
1002
{
1000
NOSEL
1070
     0
1002
}
1002
{
1000
BEHIND
1070
     0
1002
}
1002
{
1000
REACTOR
1002
}
1001
GENIUS_GENOBJ-N-CHA_13
1002
{
1000
OWNER
1000
GEN
1002
}
  0
LINE
  5
3F1B
330
1F
100
AcDbEntity
  8
AM_0
 48
0.5
100
AcDbLine
 10
-196.4925059274152
 20
-7.500002054481174
 30
0.0
 11
-195.9925059274152
 21
-8.000002054481175
 31
0.0
1001
GENIUS_GENFIL_13
1070
     0
1040
0.5
1040
0.5
1040
20.0
1040
0.0
1002
{
1002
}
1001
GENIUS_GENODEF_13
1002
{
1000
HIER
1070
     0
1002
}
1002
{
1000
MANEDIT
1070
     0
1002
}
1002
{
1000
NOSEL
1070
     0
1002
}
1002
{
1000
BEHIND
1070
     0
1002
}
1002
{
1000
REACTOR
1002
}
1001
GENIUS_GENOBJ-N-CHA_13
1002
{
1000
OWNER
1000
GEN
1002
}
  0
LINE
  5
43BF
330
1F
100
AcDbEntity
  8
AM_0
100
AcDbLine
 10
-129.0817100406568
 20
7.799999319447739
 30
0.0
 11
-130.1460753467049
 21
7.799999319448238
 31
0.0
  0
LINE
  5
43C0
330
1F
100
AcDbEntity
  8
AM_0
 48
0.5
100
AcDbLine
 10
-8.212619983178575
 20
7.799999319443042
 30
0.0
 11
-2.492505927414518
 21
7.799999319442792
 31
0.0
  0
LINE
  5
43C1
330
1F
100
AcDbEntity
  8
AM_0
 48
0.5
100
AcDbLine
 10
-8.212619983179205
 20
-7.800000680556964
 30
0.0
 11
-2.492505927414682
 21
-7.800000680556833
 31
0.0
  0
LINE
  5
43C2
330
1F
100
AcDbEntity
  8
AM_11
 48
0.5
100
AcDbLine
 10
-31.03224375573911
 20
7.799999319444061
 30
0.0
 11
-8.212619983178575
 21
7.799999319443042
 31
0.0
  0
LINE
  5
43C3
330
1F
100
AcDbEntity
  8
AM_11
 48
0.5
100
AcDbLine
 10
-31.03224375573976
 20
-7.800000680555926
 30
0.0
 11
-8.212619983179205
 21
-7.800000680556964
 31
0.0
  0
LINE
  5
43C4
330
1F
100
AcDbEntity
  8
AM_11
 48
0.5
100
AcDbLine
 10
-71.1998844552799
 20
7.801107451001191
 30
0.0
 11
-56.63727543235575
 21
7.799999319445205
 31
0.0
  0
LINE
  5
43C5
330
1F
100
AcDbEntity
  8
AM_11
 48
0.5
100
AcDbLine
 10
-74.15778285861148
 20
-7.800000680554159
 30
0.0
 11
-51.33815908605388
 21
-7.801108812110484
 31
0.0
  0
LINE
  5
43C6
330
1F
100
AcDbEntity
  8
AM_0
 48
0.5
100
AcDbLine
 10
-56.63729508676349
 20
7.799999319445205
 30
0.0
 11
-31.03224375573911
 21
7.799999319444061
 31
0.0
  0
LINE
  5
43C7
330
1F
100
AcDbEntity
  8
AM_0
 48
0.5
100
AcDbLine
 10
-51.33815908605386
 20
-7.800000680555184
 30
0.0
 11
-31.03224375573976
 21
-7.800000680555926
 31
0.0
  0
LINE
  5
43C8
330
1F
100
AcDbEntity
  8
AM_0
 48
0.5
100
AcDbLine
 10
0.5074940725846774
 20
0.0000000000000336
 30
0.0
 11
-5.249998015959847
 21
2.994962393172817
 31
0.0
  0
ELLIPSE
  5
43C9
330
1F
100
AcDbEntity
  8
AM_0
 48
0.5
100
AcDbEllipse
 10
-3.859071032700548
 20
-2.03279296266216
 30
0.0
 11
-1.021065826193974
 21
0.6775122813777546
 31
0.0
210
0.0
220
0.0
230
1.0
 40
0.518560673991455
 41
4.53419610082032
 42
7.677636442149829
  0
SPLINE
  5
43CA
330
1F
100
AcDbEntity
  8
AM_0
100
AcDbSpline
210
0.0
220
0.0
230
1.0
 70
     8
 71
     3
 72
    23
 73
    19
 74
     0
 42
0.0000000001
 43
0.0000000001
 40
16.03460024169435
 40
16.03460024169435
 40
16.03460024169435
 40
16.03460024169435
 40
16.35212704903564
 40
17.38177054169784
 40
18.41822485651776
 40
19.46214173629503
 40
20.51396345435107
 40
21.57393551351153
 40
22.64208202342361
 40
23.7182574881101
 40
24.80209208578934
 40
25.89306333925047
 40
26.99048218457928
 40
28.09348763352352
 40
29.20111863782268
 40
30.31232390128032
 40
31.42594612798585
 40
32.5407912310448
 40
32.5407912310486
 40
32.5407912310486
 40
32.5407912310486
 10
-71.1998844552799
 20
7.801107451001187
 30
0.0
 10
-71.07542817174176
 20
7.774776024578181
 30
0.0
 10
-70.54792775404711
 20
7.660110073648228
 30
0.0
 10
-69.61873008748778
 20
7.435439643031263
 30
0.0
 10
-68.41541667679566
 20
7.101357169675744
 30
0.0
 10
-67.21322096019938
 20
6.726238238008064
 30
0.0
 10
-66.01207189899532
 20
6.312253845074117
 30
0.0
 10
-64.81192686227473
 20
5.861711963132396
 30
0.0
 10
-63.61271648453076
 20
5.37718807957951
 30
0.0
 10
-62.41435725731075
 20
4.861502001881821
 30
0.0
 10
-61.21678108553934
 20
4.317574030230927
 30
0.0
 10
-60.01989195519232
 20
3.748569154755794
 30
0.0
 10
-58.82359287179001
 20
3.157794677630307
 30
0.0
 10
-57.62780412933655
 20
2.548647304429402
 30
0.0
 10
-56.43242567764017
 20
1.924669143708904
 30
0.0
 10
-55.23734679933999
 20
1.289503770141418
 30
0.0
 10
-54.04247018127962
 20
0.6468317950700508
 30
0.0
 10
-53.24609973153457
 20
0.2159553767250946
 30
0.0
 10
-52.84769733152786
 20
0.0003960479588666
 30
0.0
  0
SPLINE
  5
43CB
330
1F
100
AcDbEntity
  8
AM_0
100
AcDbSpline
210
0.0
220
0.0
230
1.0
 70
     8
 71
     3
 72
    11
 73
     7
 74
     0
 42
0.0000000001
 43
0.0000000001
 40
11.27226913003534
 40
11.27226913003534
 40
11.27226913003534
 40
11.2722691300354
 40
12.28301561507924
 40
13.29510212255852
 40
14.30984805882082
 40
15.18258238371378
 40
15.18258238371378
 40
15.18258238371378
 40
15.18258238371378
 10
-74.15778285861434
 20
-7.800000680554158
 30
0.0
 10
-74.55987667260711
 20
-7.761825213888942
 30
0.0
 10
-75.36330587519863
 20
-7.669404070556613
 30
0.0
 10
-76.56430092046453
 20
-7.482967764139713
 30
0.0
 10
-77.70406639526219
 20
-7.260290038068487
 30
0.0
 10
-78.44119980147015
 20
-7.089111042723273
 30
0.0
 10
-78.78089186490531
 20
-7.004553347156964
 30
0.0
  0
SPLINE
  5
43CC
330
1F
100
AcDbEntity
  8
AM_0
100
AcDbSpline
210
0.0
220
0.0
230
1.0
 70
     8
 71
     3
 72
    17
 73
    13
 74
     0
 42
0.0000000001
 43
0.0000000001
 40
1.580019955310467
 40
1.580019955310467
 40
1.580019955310467
 40
1.580019955310467
 40
2.030549285115227
 40
3.082371838836284
 40
4.126290986361125
 40
5.162752068350215
 40
6.192395305374981
 40
7.216039564037012
 40
8.234688489606833
 40
9.249433870634691
 40
10.26152376260694
 40
11.27226744710342
 40
11.27226744710342
 40
11.27226744710342
 40
11.27226744710352
 10
-62.74708078564775
 20
-5.756630363959484
 30
0.0
 10
-62.91847341911787
 20
-5.815918867448108
 30
0.0
 10
-63.49098239635358
 20
-6.010244856743709
 30
0.0
 10
-64.46839719677978
 20
-6.3150521240584
 30
0.0
 10
-65.67907002046283
 20
-6.656395828000913
 30
0.0
 10
-66.89007614124077
 20
-6.956050279297261
 30
0.0
 10
-68.10113774989639
 20
-7.213009170951719
 30
0.0
 10
-69.31233130154381
 20
-7.425403371577095
 30
0.0
 10
-70.52360853107813
 20
-7.59202084112331
 30
0.0
 10
-71.73496118442898
 20
-7.711781842636839
 30
0.0
 10
-72.94635941700395
 20
-7.783915460642836
 30
0.0
 10
-73.75415424994054
 20
-7.800000725186188
 30
0.0
 10
-74.15778285861427
 20
-7.800000680554158
 30
0.0
  0
SPLINE
  5
43CD
330
1F
100
AcDbEntity
  8
AM_0
 48
0.5
100
AcDbSpline
210
0.0
220
0.0
230
1.0
 70
     8
 71
     3
 72
    17
 73
    13
 74
     0
 42
0.0000000001
 43
0.0000000001
 40
0.0
 40
0.0
 40
0.0
 40
0.0
 40
1.010743614677189
 40
2.022833924044153
 40
3.037578959561199
 40
4.056212747067873
 40
5.079857613375832
 40
6.109500119648989
 40
7.14596120163808
 40
8.18989512056258
 40
9.241717674284874
 40
9.693948937866434
 40
9.693948937866434
 40
9.693948937866434
 40
9.693948937866434
 10
-8.212619983178576
 20
7.799999319443039
 30
0.0
 10
-8.616248670632959
 20
7.795361852803695
 30
0.0
 10
-9.424043832377272
 20
7.786080740656772
 30
0.0
 10
-10.63544107009928
 20
7.711190132877636
 30
0.0
 10
-11.84678843530017
 20
7.592178797639562
 30
0.0
 10
-13.05806046500388
 20
7.425361901334601
 30
0.0
 10
-14.26924273331145
 20
7.21300186398136
 30
0.0
 10
-15.48032044682875
 20
6.956083262713551
 30
0.0
 10
-16.69127735085746
 20
6.656259967533507
 30
0.0
 10
-17.90216043538638
 20
6.315550466080897
 30
0.0
 10
-18.87961683654139
 20
6.00862270744624
 30
0.0
 10
-19.4536365446238
 20
5.816748720156602
 30
0.0
 10
-19.62592646445208
 20
5.758017377108095
 30
0.0
  0
SPLINE
  5
43CF
330
1F
100
AcDbEntity
  8
AM_0
 48
0.5
100
AcDbSpline
210
0.0
220
0.0
230
1.0
 70
     8
 71
     3
 72
    25
 73
    21
 74
     0
 42
0.0000000001
 43
0.0000000001
 40
6.846175049578289
 40
6.846175049578289
 40
6.846175049578289
 40
6.846175049578289
 40
7.604337694224321
 40
8.711974558287883
 40
9.814980593243754
 40
10.91239053451967
 40
12.0033633515982
 40
13.08720139956839
 40
14.16337181880432
 40
15.23152222380919
 40
16.29148850140128
 40
17.34331105512262
 40
18.38723020264746
 40
19.42369128463655
 40
20.45333379090873
 40
21.47697865721768
 40
22.49561244472435
 40
23.5103574802404
 40
24.52244778960836
 40
25.53320666051913
 40
25.53320666051913
 40
25.53320666051913
 40
25.53320666051913
 10
-9.625415254360989
 20
1.411850384879644
 30
0.0
 10
-9.900603471130869
 20
1.548804512630728
 30
0.0
 10
-10.57840675029644
 20
1.884471154272956
 30
0.0
 10
-11.65983237961029
 20
2.411588615850507
 30
0.0
 10
-12.86990479136649
 20
2.986556832062134
 30
0.0
 10
-14.08003805845018
 20
3.543154971943346
 30
0.0
 10
-15.2902425781614
 20
4.077960757119118
 30
0.0
 10
-16.50053183516509
 20
4.587674704254498
 30
0.0
 10
-17.71091702083525
 20
5.069153458351142
 30
0.0
 10
-18.92140373861786
 20
5.519437983965985
 30
0.0
 10
-20.1320068986039
 20
5.935726016691702
 30
0.0
 10
-21.34272486149218
 20
6.315464862671085
 30
0.0
 10
-22.55356632361583
 20
6.656284955481178
 30
0.0
 10
-23.76452701185959
 20
6.956077012705461
 30
0.0
 10
-24.975602195599
 20
7.213003523524318
 30
0.0
 10
-26.18678513576992
 20
7.425361459851967
 30
0.0
 10
-27.39805698685208
 20
7.592178916186601
 30
0.0
 10
-28.60940439940041
 20
7.711190097588858
 30
0.0
 10
-29.82080770959619
 20
7.786081139869119
 30
0.0
 10
-30.62860897183885
 20
7.795361962463569
 30
0.0
 10
-31.0322437557391
 20
7.799999319444062
 30
0.0
  0
SPLINE
  5
43D0
330
1F
100
AcDbEntity
  8
AM_0
 48
0.5
100
AcDbSpline
210
0.0
220
0.0
230
1.0
 70
     8
 71
     3
 72
    10
 73
     6
 74
     0
 42
0.0000000001
 43
0.0000000001
 40
0.0
 40
0.0
 40
0.0
 40
0.0
 40
2.69986029516136
 40
4.147722969032201
 40
6.285750005020438
 40
6.285750005020438
 40
6.285750005020438
 40
6.285750005020438
 10
-9.625221578449409
 20
1.41175774229452
 30
0.0
 10
-8.763044980528473
 20
0.6870838418652025
 30
0.0
 10
-7.438506194218851
 20
-0.4262132377117302
 30
0.0
 10
-4.306149893094077
 20
0.1127533818307751
 30
0.0
 10
-4.896063694796131
 20
1.928064272349172
 30
0.0
 10
-5.285841043823496
 20
3.034552170190712
 30
0.0
  0
SPLINE
  5
43D1
330
1F
100
AcDbEntity
  8
AM_0
100
AcDbSpline
210
0.0
220
0.0
230
1.0
 70
     8
 71
     3
 72
    55
 73
    51
 74
     0
 42
0.0000000001
 43
0.0000000001
 40
0.0
 40
0.0
 40
0.0
 40
0.0
 40
1.010743684496582
 40
2.022833576467832
 40
3.037578957496688
 40
4.056212745003489
 40
5.079857003664532
 40
6.109500240690281
 40
7.145961322679372
 40
8.189895241603872
 40
9.241717795325891
 40
10.30168407291828
 40
11.36983447792315
 40
12.44600489715814
 40
13.52984294512926
 40
14.62081576220742
 40
15.7182257034828
 40
16.82123173843959
 40
17.92886860250316
 40
19.0400688939571
 40
20.15368796660465
 40
21.26852814259644
 40
22.38336992938901
 40
23.49698739941135
 40
24.6081876908653
 40
25.71582455492886
 40
26.81883757994213
 40
27.91624752121713
 40
29.00722033829659
 40
30.09105838626677
 40
31.16722880550176
 40
32.23537921050758
 40
33.29534548809967
 40
34.347168041821
 40
35.39108718934584
 40
36.42754827133493
 40
37.45720575381954
 40
38.48085062012849
 40
39.49948440763516
 40
40.51422944315121
 40
41.52631975251916
 40
42.53706336719636
 40
43.54780698187354
 40
44.55989729124051
 40
45.57464232675757
 40
46.59327611426424
 40
47.6169209805722
 40
48.64656348684535
 40
49.68302456883444
 40
50.58557219878025
 40
50.58557219878025
 40
50.58557219878025
 40
50.58557219878025
 10
-8.212619983179207
 20
-7.800000680556958
 30
0.0
 10
-8.616248597178003
 20
-7.795359869523494
 30
0.0
 10
-9.424043417312459
 20
-7.786072066369729
 30
0.0
 10
-10.63544167558184
 20
-7.711201946082798
 30
0.0
 10
-11.8467882238271
 20
-7.592178013084061
 30
0.0
 10
-13.05805980161366
 20
-7.425361444165328
 30
0.0
 10
-14.26924432235794
 20
-7.213012923666001
 30
0.0
 10
-15.48031789209735
 20
-6.956076731616703
 30
0.0
 10
-16.69128456181929
 20
-6.656283681786894
 30
0.0
 10
-17.90213359269672
 20
-6.315469563373771
 30
0.0
 10
-19.11285673664095
 20
-5.935726954389241
 30
0.0
 10
-20.32346002843754
 20
-5.519439459935414
 30
0.0
 10
-21.53394671032352
 20
-5.069154788017144
 30
0.0
 10
-22.74433190636038
 20
-4.58767607509722
 30
0.0
 10
-23.9546211581424
 20
-4.077962111026401
 30
0.0
 10
-25.1648256883646
 20
-3.543156352232804
 30
0.0
 10
-26.37495891835896
 20
-2.986558123160206
 30
0.0
 10
-27.58503146890083
 20
-2.411590239571443
 30
0.0
 10
-28.79505508388216
 20
-1.821788977618604
 30
0.0
 10
-30.00504271106986
 20
-1.220784493997117
 30
0.0
 10
-31.21500496320718
 20
-0.6122715172810915
 30
0.0
 10
-32.42495892683536
 20
-0.0000022720392098
 30
0.0
 10
-33.63490745878266
 20
0.612277994430658
 30
0.0
 10
-34.84487376644973
 20
1.220781494990082
 30
0.0
 10
-36.05485989989143
 20
1.821787797817923
 30
0.0
 10
-37.2648856723315
 20
2.411591306650686
 30
0.0
 10
-38.47496324283477
 20
2.98655428336257
 30
0.0
 10
-39.68509838273912
 20
3.543155335162626
 30
0.0
 10
-40.89530308767458
 20
4.077960660283895
 30
0.0
 10
-42.10559229541805
 20
4.587674731545639
 30
0.0
 10
-43.3159774945542
 20
5.069153445169866
 30
0.0
 10
-44.52646420727222
 20
5.519438009418282
 30
0.0
 10
-45.73706737412135
 20
5.935725928939935
 30
0.0
 10
-46.94778531482227
 20
6.315465184802094
 30
0.0
 10
-48.15862685799701
 20
6.65628376702986
 30
0.0
 10
-49.36959307851312
 20
6.956082845320749
 30
0.0
 10
-50.58067529572373
 20
7.212989691690268
 30
0.0
 10
-51.79186381787942
 20
7.425403938545661
 30
0.0
 10
-53.00313575474106
 20
7.59202276795339
 30
0.0
 10
-54.21448314466673
 20
7.711769489938811
 30
0.0
 10
-55.42588037581474
 20
7.783925741717063
 30
0.0
 10
-56.63730422668228
 20
7.808030757854303
 30
0.0
 10
-57.84872807576735
 20
7.783925741679375
 30
0.0
 10
-59.06012531227307
 20
7.711769490090619
 30
0.0
 10
-60.27147268247319
 20
7.592022767382274
 30
0.0
 10
-61.48274469329066
 20
7.425403940693226
 30
0.0
 10
-62.6939270326435
 20
7.212990719170435
 30
0.0
 10
-63.90500447865115
 20
6.956085472054988
 30
0.0
 10
-65.06091069312579
 20
6.669892747145389
 30
0.0
 10
-65.81087580891106
 20
6.46059730184641
 30
0.0
 10
-66.15881591150703
 20
6.358597421305526
 30
0.0
  0
SPLINE
  5
43D2
330
1F
100
AcDbEntity
  8
AM_0
100
AcDbSpline
210
0.0
220
0.0
230
1.0
 70
     8
 71
     3
 72
    11
 73
     7
 74
     0
 42
0.0000000001
 43
0.0000000001
 40
11.27226913003534
 40
11.27226913003534
 40
11.27226913003534
 40
11.2722691300354
 40
12.28301561507924
 40
13.29510212255852
 40
14.30984805882082
 40
15.18258238371378
 40
15.18258238371378
 40
15.18258238371378
 40
15.18258238371378
 10
-31.03224375573972
 20
-7.800000680555934
 30
0.0
 10
-31.43433756973251
 20
-7.76182521389072
 30
0.0
 10
-32.23776677232405
 20
-7.669404070558386
 30
0.0
 10
-33.43876181758995
 20
-7.482967764141484
 30
0.0
 10
-34.57852729238757
 20
-7.260290038070253
 30
0.0
 10
-35.31566069859553
 20
-7.089111042725051
 30
0.0
 10
-35.65535276203069
 20
-7.004553347158743
 30
0.0
  0
SPLINE
  5
43D3
330
1F
100
AcDbEntity
  8
AM_0
100
AcDbSpline
210
0.0
220
0.0
230
1.0
 70
     8
 71
     3
 72
    22
 73
    18
 74
     0
 42
0.0000000001
 43
0.0000000001
 40
17.17441611292
 40
17.17441611292
 40
17.17441611292
 40
17.17441611292
 40
17.38177636558528
 40
18.41823744757437
 40
19.46215659509824
 40
20.51397914882054
 40
21.57394542641293
 40
22.64209583141747
 40
23.71826625065247
 40
24.80210429862395
 40
25.8930771157021
 40
26.99048705697709
 40
28.09349309193389
 40
29.20112995599786
 40
30.31233024745139
 40
31.42594771747373
 40
32.5407895042663
 40
32.54078950426994
 40
32.54078950426994
 40
32.54078950426994
 10
-35.655882548243
 20
-7.004457134218387
 30
0.0
 10
-35.73699950085867
 20
-6.986400899256185
 30
0.0
 10
-36.22325133124155
 20
-6.876418398506307
 30
0.0
 10
-37.11403728432145
 20
-6.655889169961617
 30
0.0
 10
-38.32487865435282
 20
-6.315069608559373
 30
0.0
 10
-39.53559664219031
 20
-5.935330618570746
 30
0.0
 10
-40.74619979543501
 20
-5.519042624928709
 30
0.0
 10
-41.95668651496432
 20
-5.068758088523798
 30
0.0
 10
-43.16707170046611
 20
-4.587279338100134
 30
0.0
 10
-44.37736095636405
 20
-4.077565387141691
 30
0.0
 10
-45.58756548071175
 20
-3.542759613654926
 30
0.0
 10
-46.79769873021627
 20
-2.986161430510636
 30
0.0
 10
-48.00777120810403
 20
-2.411193376768915
 30
0.0
 10
-49.21779509571095
 20
-1.82139275305431
 30
0.0
 10
-50.42778111884548
 20
-1.220386165586749
 30
0.0
 10
-51.63774720239851
 20
-0.6118821498597754
 30
0.0
 10
-52.44423292353236
 20
-0.2037714141759876
 30
0.0
 10
-52.84769733153322
 20
0.0003960479616691
 30
0.0
  0
SPLINE
  5
43D4
330
1F
100
AcDbEntity
  8
AM_0
100
AcDbSpline
210
0.0
220
0.0
230
1.0
 70
     8
 71
     3
 72
    17
 73
    13
 74
     0
 42
0.0000000001
 43
0.0000000001
 40
1.580019955310467
 40
1.580019955310467
 40
1.580019955310467
 40
1.580019955310467
 40
2.030549285115227
 40
3.082371838836284
 40
4.126290986361125
 40
5.162752068350215
 40
6.192395305374981
 40
7.216039564037012
 40
8.234688489606833
 40
9.249433870634691
 40
10.26152376260694
 40
11.27226744710342
 40
11.27226744710342
 40
11.27226744710342
 40
11.27226744710352
 10
-19.62154168277306
 20
-5.756630363961256
 30
0.0
 10
-19.79293431624319
 20
-5.815918867449883
 30
0.0
 10
-20.36544329347891
 20
-6.010244856745486
 30
0.0
 10
-21.34285809390512
 20
-6.315052124060178
 30
0.0
 10
-22.5535309175882
 20
-6.656395828002682
 30
0.0
 10
-23.76453703836613
 20
-6.956050279299035
 30
0.0
 10
-24.97559864702177
 20
-7.21300917095349
 30
0.0
 10
-26.18679219866919
 20
-7.425403371578867
 30
0.0
 10
-27.39806942820355
 20
-7.59202084112509
 30
0.0
 10
-28.6094220815544
 20
-7.711781842638613
 30
0.0
 10
-29.82082031412936
 20
-7.783915460644611
 30
0.0
 10
-30.62861514706593
 20
-7.800000725187967
 30
0.0
 10
-31.03224375573966
 20
-7.800000680555934
 30
0.0
  0
SPLINE
  5
43D5
330
1F
100
AcDbEntity
  8
AM_0
100
AcDbSpline
210
0.0
220
0.0
230
1.0
 70
     8
 71
     3
 72
    46
 73
    42
 74
     0
 42
0.0000000001
 43
0.0000000001
 40
0.0
 40
0.0
 40
0.0
 40
0.0
 40
1.348332046947657
 40
2.024828967632895
 40
2.703918159304097
 40
3.386347665078124
 40
4.072776489761952
 40
4.763750544421347
 40
5.459696642770596
 40
6.160921452191754
 40
6.867565637253344
 40
7.579665907256596
 40
8.297112853413899
 40
9.019671552060676
 40
9.746986763446127
 40
10.47859339096366
 40
11.21393074760089
 40
11.95235532364328
 40
12.69315551794651
 40
13.43556823304427
 40
14.1787950170388
 40
14.92202180103393
 40
15.66443451613169
 40
16.40523471043432
 40
17.14365928647669
 40
17.87899664311455
 40
18.61060327063121
 40
19.3379184820169
 40
20.06048192311554
 40
20.77792886927283
 40
21.49002913927608
 40
22.19667332433747
 40
22.89788836015233
 40
23.59383445850158
 40
24.28480851316097
 40
24.97123685067576
 40
25.65366676154838
 40
26.33276604526152
 40
27.00926273560555
 40
27.68398960851751
 40
28.357818684969
 40
28.357818684969
 40
28.357818684969
 40
28.357818684969
 10
-4.821527997669223
 20
-7.80000068055711
 30
0.0
 10
-5.629362285371239
 20
-7.78223167760994
 30
0.0
 10
-6.842510241387762
 20
-7.755547455444617
 30
0.0
 10
-8.455685981746455
 20
-7.59125760172536
 30
0.0
 10
-9.66697057338937
 20
-7.425609726137978
 30
0.0
 10
-10.87815162903486
 20
-7.212945991806503
 30
0.0
 10
-12.0892259580173
 20
-6.956094265435049
 30
0.0
 10
-13.30018733881035
 20
-6.656282517092953
 30
0.0
 10
-14.51103374323565
 20
-6.3154638300013
 30
0.0
 10
-15.72175978259903
 20
-5.93573088135083
 30
0.0
 10
-16.93236787685144
 20
-5.51943891571055
 30
0.0
 10
-18.14285476982525
 20
-5.069154935512873
 30
0.0
 10
-19.35323990863998
 20
-4.587676035102184
 30
0.0
 10
-20.5635291760094
 20
-4.077962122018657
 30
0.0
 10
-21.7737337016721
 20
-3.543156348631207
 30
0.0
 10
-22.98386693418428
 20
-2.986558126501284
 30
0.0
 10
-24.19393947921494
 20
-2.411590229770508
 30
0.0
 10
-25.40396311382295
 20
-1.8217890136671
 30
0.0
 10
-26.61395066770839
 20
-1.220784359076547
 30
0.0
 10
-27.82391319418648
 20
-0.6122720221553673
 30
0.0
 10
-29.033865549506
 20
-0.0000006806799077
 30
0.0
 10
-30.24381790455969
 20
0.6122706615395855
 30
0.0
 10
-31.4537804318351
 20
1.220782996229758
 30
0.0
 10
-32.66376798280624
 20
1.821787658973657
 30
0.0
 10
-33.87379162822051
 20
2.411588844839252
 30
0.0
 10
-35.08386413318273
 20
2.986556853688815
 30
0.0
 10
-36.2939975140819
 20
3.543154660603387
 30
0.0
 10
-37.50420412179652
 20
4.077963132521236
 30
0.0
 10
-38.71449809176614
 20
4.587672414595478
 30
0.0
 10
-39.92488538972245
 20
5.069153783865085
 30
0.0
 10
-41.13537225451265
 20
5.519437898046192
 30
0.0
 10
-42.34597537572458
 20
5.935726038319065
 30
0.0
 10
-43.55669334826933
 20
6.315464861116595
 30
0.0
 10
-44.76753481010083
 20
6.656284940489875
 30
0.0
 10
-45.978495490053
 20
6.956077073573404
 30
0.0
 10
-47.18957070692105
 20
7.213003297067038
 30
0.0
 10
-48.40075949241748
 20
7.425363344858965
 30
0.0
 10
-49.61203784261799
 20
7.592177350631681
 30
0.0
 10
-50.82339113402059
 20
7.711190359972227
 30
0.0
 10
-52.03478839664654
 20
7.78608068403546
 30
0.0
 10
-52.84258355507701
 20
7.795361833939679
 30
0.0
 10
-53.24621224087542
 20
7.799999319445061
 30
0.0
  0
ELLIPSE
  5
43D6
330
1F
100
AcDbEntity
  8
AM_0
 48
0.5
100
AcDbEllipse
 10
-21.75383814938189
 20
53.54103553764222
 30
0.0
 11
0.0031875115299625
 21
58.47986553051534
 31
0.0
210
0.0
220
0.0
230
1.0
 40
0.9464452865747515
 41
3.480509810611488
 42
3.555576036842244
  0
ELLIPSE
  5
43D7
330
1F
100
AcDbEntity
  8
AM_0
 48
0.5
100
AcDbEllipse
 10
-14.15980814845483
 20
13.09122704161068
 30
0.0
 11
-0.000000000008637
 21
18.80662641525167
 31
0.0
210
0.0
220
0.0
230
1.0
 40
0.9214988064987547
 41
3.652175978817691
 42
3.740670756497195
  0
ELLIPSE
  5
43D8
330
1F
100
AcDbEntity
  8
AM_0
 48
0.5
100
AcDbEllipse
 10
2.870834304247294
 20
9.364379202255003
 30
0.0
 11
0.0000000000003701
 21
15.72046909332247
 31
0.0
210
0.0
220
0.0
230
1.0
 40
0.9214988064988064
 41
2.101163880028967
 42
2.509284810223864
  0
ELLIPSE
  5
43D9
330
1F
100
AcDbEntity
  8
AM_0
 48
0.5
100
AcDbEllipse
 10
-3.859071032700548
 20
-2.03279296266216
 30
0.0
 11
-0.1982651717561987
 21
1.281934615528184
 31
0.0
210
0.0
220
0.0
230
1.0
 40
0.4627539830549002
 41
1.822348539629391
 42
4.957690429341369
  0
ELLIPSE
  5
43DA
330
1F
100
AcDbEntity
  8
AM_0
 48
0.5
100
AcDbEllipse
 10
5.716674759775989
 20
-1.733833230605929
 30
0.0
 11
11.32824084452791
 21
2.220252257746176
 31
0.0
210
0.0
220
0.0
230
0.9999999999999998
 40
0.6300130540737447
 41
3.053392982749076
 42
3.786878275254721
  0
LINE
  5
43DB
330
1F
100
AcDbEntity
  8
AM_11
 48
0.5
100
AcDbLine
 10
-129.0817100406568
 20
7.799999319447739
 30
0.0
 11
-99.76300052908392
 21
7.799999319446985
 31
0.0
  0
LINE
  5
43E4
330
1F
100
AcDbEntity
  8
AM_0
100
AcDbLine
 10
-99.76300052908392
 20
7.799999319446985
 30
0.0
 11
-71.1998844552799
 21
7.801107451001191
 31
0.0
  0
LINE
  5
43E5
330
1F
100
AcDbEntity
  8
AM_0
 48
0.5
100
AcDbLine
 10
-130.1460741457387
 20
-7.800000680551626
 30
0.0
 11
-74.15777949653305
 21
-7.800000680553973
 31
0.0
  0
SPLINE
  5
43E6
330
1F
100
AcDbEntity
  8
AM_0
100
AcDbSpline
210
0.0
220
0.0
230
1.0
 70
     8
 71
     3
 72
    55
 73
    51
 74
     0
 42
0.0000000001
 43
0.0000000001
 40
0.0
 40
0.0
 40
0.0
 40
0.0
 40
1.010743684496582
 40
2.022833576467832
 40
3.037578957496688
 40
4.056212745003489
 40
5.079857003664532
 40
6.109500240690281
 40
7.145961322679372
 40
8.189895241603872
 40
9.241717795325891
 40
10.30168407291828
 40
11.36983447792315
 40
12.44600489715814
 40
13.52984294512926
 40
14.62081576220742
 40
15.7182257034828
 40
16.82123173843959
 40
17.92886860250316
 40
19.0400688939571
 40
20.15368796660465
 40
21.26852814259644
 40
22.38336992938901
 40
23.49698739941135
 40
24.6081876908653
 40
25.71582455492886
 40
26.81883757994213
 40
27.91624752121713
 40
29.00722033829659
 40
30.09105838626677
 40
31.16722880550176
 40
32.23537921050758
 40
33.29534548809967
 40
34.347168041821
 40
35.39108718934584
 40
36.42754827133493
 40
37.45720575381954
 40
38.48085062012849
 40
39.49948440763516
 40
40.51422944315121
 40
41.52631975251916
 40
42.53706336719636
 40
43.54780698187354
 40
44.55989729124051
 40
45.57464232675757
 40
46.59327611426424
 40
47.6169209805722
 40
48.64656348684535
 40
49.68302456883444
 40
50.58557219878025
 40
50.58557219878025
 40
50.58557219878025
 40
50.58557219878025
 10
-51.33815908605387
 20
-7.800000680555188
 30
0.0
 10
-51.74178770005266
 20
-7.795359869521717
 30
0.0
 10
-52.54958252018712
 20
-7.786072066367946
 30
0.0
 10
-53.76098077845649
 20
-7.711201946081024
 30
0.0
 10
-54.97232732670175
 20
-7.592178013082287
 30
0.0
 10
-56.18359890448832
 20
-7.425361444163548
 30
0.0
 10
-57.39478342523261
 20
-7.213012923664229
 30
0.0
 10
-58.60585699497203
 20
-6.956076731614931
 30
0.0
 10
-59.81682366469392
 20
-6.656283681785122
 30
0.0
 10
-61.02767269557136
 20
-6.315469563371995
 30
0.0
 10
-62.23839583951563
 20
-5.935726954387465
 30
0.0
 10
-63.44899913131223
 20
-5.51943945993364
 30
0.0
 10
-64.65948581319821
 20
-5.06915478801537
 30
0.0
 10
-65.86987100923503
 20
-4.587676075095443
 30
0.0
 10
-67.08016026101708
 20
-4.077962111024627
 30
0.0
 10
-68.29036479123931
 20
-3.543156352231029
 30
0.0
 10
-69.50049802123368
 20
-2.986558123158435
 30
0.0
 10
-70.71057057177546
 20
-2.411590239569668
 30
0.0
 10
-71.9205941867568
 20
-1.821788977616828
 30
0.0
 10
-73.13058181394449
 20
-1.220784493995342
 30
0.0
 10
-74.34054406608185
 20
-0.612271517279317
 30
0.0
 10
-75.55049802971005
 20
-0.0000022720374351
 30
0.0
 10
-76.76044656165732
 20
0.6122779944324324
 30
0.0
 10
-77.97041286932445
 20
1.220781494991856
 30
0.0
 10
-79.18039900276621
 20
1.821787797819698
 30
0.0
 10
-80.39042477520629
 20
2.41159130665246
 30
0.0
 10
-81.60050234570945
 20
2.986554283364347
 30
0.0
 10
-82.81063748561368
 20
3.5431553351644
 30
0.0
 10
-84.02084219054914
 20
4.077960660285668
 30
0.0
 10
-85.23113139829268
 20
4.587674731547411
 30
0.0
 10
-86.44151659742886
 20
5.069153445171647
 30
0.0
 10
-87.65200331014693
 20
5.519438009420055
 30
0.0
 10
-88.862606476996
 20
5.935725928941714
 30
0.0
 10
-90.07332441769694
 20
6.315465184803873
 30
0.0
 10
-91.2841659608717
 20
6.656283767031637
 30
0.0
 10
-92.49513218138785
 20
6.956082845322531
 30
0.0
 10
-93.70621439859847
 20
7.212989691692036
 30
0.0
 10
-94.91740292075416
 20
7.425403938547432
 30
0.0
 10
-96.12867485761583
 20
7.592022767955167
 30
0.0
 10
-97.34002224754148
 20
7.711769489940581
 30
0.0
 10
-98.55141947868947
 20
7.783925741718836
 30
0.0
 10
-99.76284332955698
 20
7.808030757856071
 30
0.0
 10
-100.974267178642
 20
7.783925741681148
 30
0.0
 10
-102.1856644151478
 20
7.711769490092401
 30
0.0
 10
-103.3970117853479
 20
7.592022767384047
 30
0.0
 10
-104.6082837961654
 20
7.425403940695004
 30
0.0
 10
-105.8194661355182
 20
7.21299071917221
 30
0.0
 10
-107.0305435815258
 20
6.956085472056761
 30
0.0
 10
-108.1864497960004
 20
6.669892747147163
 30
0.0
 10
-108.9364149117857
 20
6.46059730184818
 30
0.0
 10
-111.1945958201538
 20
5.493163929172978
 30
0.0
  0
SPLINE
  5
43E7
330
1F
100
AcDbEntity
  8
AM_0
100
AcDbSpline
210
0.0
220
0.0
230
1.0
 70
     8
 71
     3
 72
    22
 73
    18
 74
     0
 42
0.0000000001
 43
0.0000000001
 40
17.17441611292
 40
17.17441611292
 40
17.17441611292
 40
17.17441611292
 40
17.38177636558528
 40
18.41823744757437
 40
19.46215659509824
 40
20.51397914882054
 40
21.57394542641293
 40
22.64209583141747
 40
23.71826625065247
 40
24.80210429862395
 40
25.8930771157021
 40
26.99048705697709
 40
28.09349309193389
 40
29.20112995599786
 40
30.31233024745139
 40
31.42594771747373
 40
32.5407895042663
 40
32.54078950426994
 40
32.54078950426994
 40
32.54078950426994
 10
-78.78142165111762
 20
-7.004457134216605
 30
0.0
 10
-78.86253860373327
 20
-6.986400899254409
 30
0.0
 10
-79.34879043411619
 20
-6.87641839850453
 30
0.0
 10
-80.23957638719613
 20
-6.655889169959848
 30
0.0
 10
-81.45041775722752
 20
-6.315069608557596
 30
0.0
 10
-82.66113574506499
 20
-5.93533061856897
 30
0.0
 10
-83.87173889830966
 20
-5.519042624926928
 30
0.0
 10
-85.08222561783901
 20
-5.068758088522025
 30
0.0
 10
-86.29261080334085
 20
-4.587279338098362
 30
0.0
 10
-87.50290005923881
 20
-4.077565387139916
 30
0.0
 10
-88.71310458358655
 20
-3.542759613653152
 30
0.0
 10
-89.92323783309092
 20
-2.986161430508863
 30
0.0
 10
-91.13331031097859
 20
-2.411193376767141
 30
0.0
 10
-92.34333419858549
 20
-1.821392753052534
 30
0.0
 10
-93.55332022172015
 20
-1.220386165584974
 30
0.0
 10
-94.76328630527319
 20
-0.6118821498580002
 30
0.0
 10
-95.56977202640704
 20
-0.2037714141742129
 30
0.0
 10
-95.97323643440791
 20
0.0003960479634438
 30
0.0
  0
SPLINE
  5
43E8
330
1F
100
AcDbEntity
  8
AM_0
100
AcDbSpline
210
0.0
220
0.0
230
1.0
 70
     8
 71
     3
 72
    46
 73
    42
 74
     0
 42
0.0000000001
 43
0.0000000001
 40
0.0
 40
0.0
 40
0.0
 40
0.0
 40
1.348332046947654
 40
2.024828967632893
 40
2.703918159304094
 40
3.386347665078122
 40
4.072776489761951
 40
4.763750544421345
 40
5.459696642770595
 40
6.160921452191748
 40
6.867565637253344
 40
7.579665907256597
 40
8.297112853413899
 40
9.019671552060666
 40
9.746986763446125
 40
10.47859339096365
 40
11.21393074760088
 40
11.95235532364327
 40
12.69315551794651
 40
13.43556823304427
 40
14.1787950170388
 40
14.92202180103393
 40
15.66443451613169
 40
16.40523471043432
 40
17.14365928647669
 40
17.87899664311455
 40
18.61060327063121
 40
19.33791848201689
 40
20.06048192311554
 40
20.77792886927282
 40
21.49002913927608
 40
22.19667332433747
 40
22.89788836015233
 40
23.59383445850157
 40
24.28480851316097
 40
24.97123685067575
 40
25.65366676154837
 40
26.33276604526151
 40
27.00926273560554
 40
27.68398960851752
 40
28.35781868496899
 40
28.35781868496899
 40
28.35781868496899
 40
28.35781868496899
 10
-47.94706710054388
 20
-7.800000680555336
 30
0.0
 10
-48.75490138824589
 20
-7.78223167760817
 30
0.0
 10
-49.96804934426241
 20
-7.755547455442843
 30
0.0
 10
-51.5812250846211
 20
-7.591257601723588
 30
0.0
 10
-52.79250967626403
 20
-7.425609726136205
 30
0.0
 10
-54.00369073190953
 20
-7.212945991804724
 30
0.0
 10
-55.21476506089199
 20
-6.956094265433272
 30
0.0
 10
-56.42572644168501
 20
-6.656282517091178
 30
0.0
 10
-57.63657284611028
 20
-6.315463829999527
 30
0.0
 10
-58.8472988854737
 20
-5.935730881349043
 30
0.0
 10
-60.05790697972614
 20
-5.519438915708776
 30
0.0
 10
-61.26839387269992
 20
-5.069154935511101
 30
0.0
 10
-62.47877901151467
 20
-4.587676035100413
 30
0.0
 10
-63.68906827888404
 20
-4.07796212201687
 30
0.0
 10
-64.89927280454681
 20
-3.543156348629447
 30
0.0
 10
-66.10940603705903
 20
-2.986558126499494
 30
0.0
 10
-67.31947858208956
 20
-2.411590229768745
 30
0.0
 10
-68.52950221669761
 20
-1.821789013665317
 30
0.0
 10
-69.73948977058299
 20
-1.220784359074778
 30
0.0
 10
-70.94945229706116
 20
-0.6122720221535917
 30
0.0
 10
-72.15940465238069
 20
-0.0000006806781312
 30
0.0
 10
-73.36935700743437
 20
0.6122706615413591
 30
0.0
 10
-74.57931953470984
 20
1.220782996231532
 30
0.0
 10
-75.78930708568101
 20
1.821787658975431
 30
0.0
 10
-76.99933073109528
 20
2.411588844841023
 30
0.0
 10
-78.20940323605744
 20
2.986556853690593
 30
0.0
 10
-79.41953661695646
 20
3.543154660605162
 30
0.0
 10
-80.62974322467111
 20
4.077963132523013
 30
0.0
 10
-81.84003719464076
 20
4.587672414597256
 30
0.0
 10
-83.0504244925971
 20
5.069153783866855
 30
0.0
 10
-84.26091135738733
 20
5.519437898047971
 30
0.0
 10
-85.47151447859924
 20
5.935726038320843
 30
0.0
 10
-86.68223245114402
 20
6.315464861118367
 30
0.0
 10
-87.89307391297553
 20
6.656284940491652
 30
0.0
 10
-89.10403459292773
 20
6.956077073575178
 30
0.0
 10
-90.31510980979579
 20
7.213003297068809
 30
0.0
 10
-91.52629859529218
 20
7.42536334486074
 30
0.0
 10
-92.73757694549271
 20
7.592177350633456
 30
0.0
 10
-93.94893023689531
 20
7.711190359974007
 30
0.0
 10
-95.16032749952129
 20
7.786080684037235
 30
0.0
 10
-95.96812265795175
 20
7.795361833941455
 30
0.0
 10
-96.37175134375015
 20
7.799999319446835
 30
0.0
  0
ELLIPSE
  5
4475
330
1F
100
AcDbEntity
  8
AM_0
100
AcDbEllipse
 10
-128.522239359667
 20
-8.045678544423248
 30
0.0
 11
1.641544753624479
 21
1.313306613297959
 31
0.0
210
0.0
220
0.0
230
1.0
 40
0.8658818254428675
 41
1.213778136258363
 42
2.372089898473118
  0
SPLINE
  5
4476
330
1F
100
AcDbEntity
  8
AM_0
100
AcDbSpline
210
0.0
220
0.0
230
1.0
 70
     8
 71
     3
 72
     9
 73
     5
 74
     0
 42
0.0000000001
 43
0.0000000001
 40
1.580019955310467
 40
1.580019955310467
 40
1.580019955310467
 40
1.580019955310467
 40
2.030549285115227
 40
2.43907978603305
 40
2.43907978603305
 40
2.43907978603305
 40
2.43907978603305
 10
-127.906912914504
 20
-5.953369458489121
 30
0.0
 10
-128.0997276516049
 20
-6.008150313044255
 30
0.0
 10
-128.4680110313694
 20
-6.110819695071421
 30
0.0
 10
-128.8378340551391
 20
-6.209113506213186
 30
0.0
 10
-129.0140109983632
 20
-6.25494583577887
 30
0.0
  0
SPLINE
  5
4477
330
1F
100
AcDbEntity
  8
AM_0
100
AcDbSpline
210
0.0
220
0.0
230
1.0
 70
     8
 71
     3
 72
    15
 73
    11
 74
     0
 42
0.0000000001
 43
0.0000000001
 40
5.241236682593577
 40
5.241236682593577
 40
5.241236682593577
 40
5.241236682593577
 40
5.954688180526682
 40
6.824620803463244
 40
7.701151815239697
 40
8.58445704656667
 40
9.47458238407075
 40
10.37139106676736
 40
11.27458944007584
 40
12.17321262433756
 40
12.17321262433756
 40
12.17321262433756
 40
12.17321262433756
 10
-119.6656570170185
 20
-0.6010228378824971
 30
0.0
 10
-120.0414959490416
 20
-0.6746634838312966
 30
0.0
 10
-120.8732824564603
 20
-0.8477394484870339
 30
0.0
 10
-122.1570506030281
 20
-1.147889563650211
 30
0.0
 10
-123.5191034419084
 20
-1.502738845381558
 30
0.0
 10
-124.8810235938983
 20
-1.891751454171434
 30
0.0
 10
-126.2428073958468
 20
-2.312528601680292
 30
0.0
 10
-127.6044767255392
 20
-2.762456485438421
 30
0.0
 10
-128.9607506564847
 20
-3.23691942637791
 30
0.0
 10
-129.8604013454924
 20
-3.567068102184436
 30
0.0
 10
-130.4924866870142
 20
-3.734544201333855
 30
0.0
  0
SPLINE
  5
4478
330
1F
100
AcDbEntity
  8
AM_0
100
AcDbSpline
210
0.0
220
0.0
230
1.0
 70
     8
 71
     3
 72
    17
 73
    13
 74
     0
 42
0.0000000001
 43
0.0000000001
 40
4.004329625082316
 40
4.004329625082316
 40
4.004329625082316
 40
4.004329625082316
 40
4.232934581347659
 40
5.09097061220244
 40
5.954688180526682
 40
6.824620803463244
 40
7.701151815239697
 40
8.58445704656667
 40
9.47458238407075
 40
10.37139106676736
 40
11.27458944007584
 40
12.17321262433756
 40
12.17321262433756
 40
12.17321262433756
 40
12.17321262433756
 10
-114.0616251613431
 20
-7.800125558569871
 30
0.0
 10
-114.2356674528391
 20
-7.772844932485782
 30
0.0
 10
-114.8128126046863
 20
-7.682306872542611
 30
0.0
 10
-115.8448404995733
 20
-7.500495643457314
 30
0.0
 10
-117.2071580948493
 20
-7.220330374860183
 30
0.0
 10
-118.5693463430368
 20
-6.901845327026117
 30
0.0
 10
-123.5191034419085
 20
-5.966349557262156
 30
0.0
 10
-124.8810235938984
 20
-5.577336948472201
 30
0.0
 10
-126.2428073958469
 20
-5.15655980096328
 30
0.0
 10
-127.6044767255394
 20
-4.706631917205059
 30
0.0
 10
-128.9607506564847
 20
-4.232168976265485
 30
0.0
 10
-129.8604013454925
 20
-3.902020300458901
 30
0.0
 10
-130.4924866870142
 20
-3.734544201309454
 30
0.0
  0
SPLINE
  5
4479
330
1F
100
AcDbEntity
  8
AM_0
100
AcDbSpline
210
0.0
220
0.0
230
1.0
 70
     8
 71
     3
 72
    14
 73
    10
 74
     0
 42
0.0000000001
 43
0.0000000001
 40
4.826907296497788
 40
4.826907296497788
 40
4.826907296497788
 40
4.826907296497788
 40
5.079857003664532
 40
6.109500240690281
 40
7.145961322679372
 40
8.189895241603872
 40
9.241717795325891
 40
10.30168407291828
 40
10.55450228288433
 40
10.55450228288433
 40
10.55450228288433
 40
10.55450228288433
 10
-117.3122481964083
 20
-7.800153948108632
 30
0.0
 10
-117.6514018641338
 20
-7.770861597932133
 30
0.0
 10
-119.532081205099
 20
-7.674596590538688
 30
0.0
 10
-123.2474840980221
 20
-7.060599170101142
 30
0.0
 10
-124.6098076432821
 20
-6.783599102752334
 30
0.0
 10
-125.971998846198
 20
-6.468696759928016
 30
0.0
 10
-127.334048427765
 20
-6.117825622909855
 30
0.0
 10
-128.346770044894
 20
-5.83180863014546
 30
0.0
 10
-128.9063450798371
 20
-5.665822874322729
 30
0.0
 10
-129.1522138911596
 20
-5.605226106838878
 30
0.0
  0
ELLIPSE
  5
447A
330
1F
100
AcDbEntity
  8
AM_0
100
AcDbEllipse
 10
-129.6709138159602
 20
-7.601770737480124
 30
0.0
 11
0.0000000000059978
 21
2.070419435447797
 31
0.0
210
0.0
220
0.0
230
1.0
 40
0.9463087248314497
 41
-0.2679377313971929
 42
-0.1275323195032443
  0
ELLIPSE
  5
447B
330
1F
100
AcDbEntity
  8
AM_0
100
AcDbEllipse
 10
-129.5788300562329
 20
-6.813040991962858
 30
0.0
 11
-0.000000000000115
 21
1.275724449903672
 31
0.0
210
0.0
220
0.0
230
1.0
 40
0.9463087248323468
 41
-0.130509439197054
 42
0.0485168534967961
  0
ELLIPSE
  5
447C
330
1F
100
AcDbEntity
  8
AM_0
100
AcDbEllipse
 10
-129.5144593370185
 20
-5.095040280719836
 30
0.0
 11
-2.30297712256456
 21
0.159146580458495
 31
0.0
210
0.0
220
0.0
230
1.0
 40
0.5402305111731373
 41
1.553078630907902
 42
1.646940070001193
  0
ELLIPSE
  5
447D
330
1F
100
AcDbEntity
  8
AM_0
100
AcDbEllipse
 10
-129.3271163556826
 20
-4.520968593248727
 30
0.0
 11
-1.293533148541313
 21
1.293533148541313
 31
0.0
210
0.0
220
0.0
230
1.0
 40
0.9999999999999973
 41
2.302662073251985
 42
2.411558789531869
  0
ELLIPSE
  5
447E
330
1F
100
AcDbEntity
  8
AM_0
100
AcDbEllipse
 10
-129.2895960805339
 20
-9.384478428522024
 30
0.0
 11
0.0000000000006702
 21
3.863181740944362
 31
0.0
210
0.0
220
0.0
230
1.0
 40
0.94630872483227
 41
0.0952766170362043
 42
0.2313492321878376
  0
ELLIPSE
  5
447F
330
1F
100
AcDbEntity
  8
AM_0
100
AcDbEllipse
 10
-128.9672557163863
 20
-2.449410934979455
 30
0.0
 11
-0.0000000000056811
 21
3.951466462083168
 31
0.0
210
0.0
220
0.0
230
1.0
 40
0.9463087248325216
 41
2.827283645644172
 42
2.960363693369707
  0
ELLIPSE
  5
4480
330
1F
100
AcDbEntity
  8
AM_0
100
AcDbEllipse
 10
-129.995384719909
 20
-6.341769851623944
 30
0.0
 11
-0.0000000000000159
 21
0.7310722136382127
 31
0.0
210
0.0
220
0.0
230
1.0
 40
0.9463087248322143
 41
0.1926332863331319
 42
0.506111744197773
  0
ELLIPSE
  5
4481
330
1F
100
AcDbEntity
  8
AM_0
100
AcDbEllipse
 10
-130.1070255137561
 20
-6.13220649134194
 30
0.0
 11
-0.0000000000009036
 21
0.4905911827367364
 31
0.0
210
0.0
220
0.0
230
1.0
 40
0.9463087248321627
 41
0.5028645116644444
 42
0.8675868530668719
  0
ELLIPSE
  5
4482
330
1F
100
AcDbEntity
  8
AM_0
100
AcDbEllipse
 10
-130.3591501866031
 20
-5.905732372393409
 30
0.0
 11
0.0000000000007721
 21
0.1409134105202889
 31
0.0
210
0.0
220
0.0
230
1.0
 40
0.9463087248315078
 41
0.8708229448579945
 42
1.557899568961953
  0
ELLIPSE
  5
4483
330
1F
100
AcDbEntity
  8
AM_0
100
AcDbEllipse
 10
-130.3554781336648
 20
-5.903994113414484
 30
0.0
 11
-0.0000000000000388
 21
0.1447821098047757
 31
0.0
210
0.0
220
0.0
230
1.0
 40
0.9463087248322336
 41
1.570250563378537
 42
2.246594350020552
  0
ELLIPSE
  5
4484
330
1F
100
AcDbEntity
  8
AM_0
100
AcDbEllipse
 10
-130.0733335570511
 20
-5.662507786929531
 30
0.0
 11
0.000000000001875
 21
0.528461308359566
 31
0.0
210
0.0
220
0.0
230
1.0
 40
0.9463087248320929
 41
2.250206732579703
 42
2.600849383085747
  0
ELLIPSE
  5
4485
330
1F
100
AcDbEntity
  8
AM_0
100
AcDbEllipse
 10
-129.9342647825414
 20
-5.421962356681299
 30
0.0
 11
0.0000000000047835
 21
0.8103408081678445
 31
0.0
210
0.0
220
0.0
230
1.0
 40
0.9463087248315861
 41
2.598176912243786
 42
2.892513815374981
  0
POLYLINE
  5
4486
330
1F
100
AcDbEntity
  8
AM_0
100
AcDb2dPolyline
 66
     1
 10
0.0
 20
0.0
 30
0.0
 70
     2
  0
VERTEX
  5
4487
330
4486
100
AcDbEntity
  8
AM_0
100
AcDbVertex
100
AcDb2dVertex
 10
-125.6757900260903
 20
6.766838898142963
 30
0.0
 42
0.0862297278188617
  0
VERTEX
  5
4488
330
4486
100
AcDbEntity
  8
AM_0
100
AcDbVertex
100
AcDb2dVertex
 10
-128.6203917649963
 20
6.516190707601601
 30
0.0
 42
0.0414024687830266
 70
     1
  0
VERTEX
  5
4489
330
4486
100
AcDbEntity
  8
AM_0
100
AcDbVertex
100
AcDb2dVertex
 10
-128.9763487160388
 20
6.381446050825181
 30
0.0
 42
0.0280074108471844
  0
VERTEX
  5
448A
330
4486
100
AcDbEntity
  8
AM_0
100
AcDbVertex
100
AcDb2dVertex
 10
-129.7879436860967
 20
5.933929030934009
 30
0.0
 42
0.0512701366748525
 70
     1
  0
VERTEX
  5
448B
330
4486
100
AcDbEntity
  8
AM_0
100
AcDbVertex
100
AcDb2dVertex
 10
-130.1892590927822
 20
5.619446868875463
 30
0.0
 42
0.0658714570033076
  0
VERTEX
  5
448C
330
4486
100
AcDbEntity
  8
AM_0
100
AcDbVertex
100
AcDb2dVertex
 10
-130.4411292221596
 20
5.302776053077827
 30
0.0
 42
0.1411961588081283
 70
     1
  0
VERTEX
  5
448D
330
4486
100
AcDbEntity
  8
AM_0
100
AcDbVertex
100
AcDb2dVertex
 10
-130.4924866869681
 20
5.115774055803618
 30
0.0
 42
0.1226739033459629
  0
VERTEX
  5
448E
330
4486
100
AcDbEntity
  8
AM_0
100
AcDbVertex
100
AcDb2dVertex
 10
-130.4423841651143
 20
4.910167339004209
 30
0.0
 42
0.0555312784770531
 70
     1
  0
VERTEX
  5
448F
330
4486
100
AcDbEntity
  8
AM_0
100
AcDbVertex
100
AcDb2dVertex
 10
-130.1892590927822
 20
4.52872520978063
 30
0.0
 42
0.0351528005485752
  0
VERTEX
  5
4490
330
4486
100
AcDbEntity
  8
AM_0
100
AcDbVertex
100
AcDb2dVertex
 10
-129.7801732938376
 20
4.10329496530788
 30
0.0
 42
0.0198940146009696
 70
     1
  0
VERTEX
  5
4491
330
4486
100
AcDbEntity
  8
AM_0
100
AcDbVertex
100
AcDb2dVertex
 10
-128.9437309041546
 20
3.490878474141942
 30
0.0
 42
0.0358460074876439
  0
VERTEX
  5
4492
330
4486
100
AcDbEntity
  8
AM_0
100
AcDbVertex
100
AcDb2dVertex
 10
-128.6140425038088
 20
3.273667209733686
 30
0.0
 42
0.021710998496176
 70
     1
  0
VERTEX
  5
4493
330
4486
100
AcDbEntity
  8
AM_0
100
AcDbVertex
100
AcDb2dVertex
 10
-128.034048121597
 20
2.982424006410702
 30
0.0
  0
SEQEND
  5
4494
330
4486
100
AcDbEntity
  8
AM_0
  0
SPLINE
  5
4495
330
1F
100
AcDbEntity
  8
AM_0
100
AcDbSpline
210
0.0
220
0.0
230
1.0
 70
     8
 71
     3
 72
    13
 73
     9
 74
     0
 42
0.0000000001
 43
0.0000000001
 40
26.13201924531566
 40
26.13201924531566
 40
26.13201924531566
 40
26.13201924531566
 40
26.99048218457928
 40
28.09348763352352
 40
29.20111863782268
 40
30.31232390128032
 40
31.42594612798585
 40
32.5407912310448
 40
32.5407912310486
 40
32.5407912310486
 40
32.5407912310486
 10
-128.034048121597
 20
2.982424006410702
 30
0.0
 10
-127.5303041926447
 20
2.783672586415973
 30
0.0
 10
-126.7287526229402
 20
2.457459490407756
 30
0.0
 10
-125.4806775029169
 20
1.935281115131743
 30
0.0
 10
-124.1358905232585
 20
1.35874342474205
 30
0.0
 10
-122.7914405602175
 20
0.7718690747339272
 30
0.0
 10
-121.4472181376151
 20
0.1780588430456964
 30
0.0
 10
-120.5513105609961
 20
-0.2200584480933552
 30
0.0
 10
-120.1031124531638
 20
-0.4192290046483232
 30
0.0
  0
SPLINE
  5
4496
330
1F
100
AcDbEntity
  8
AM_0
100
AcDbSpline
210
0.0
220
0.0
230
1.0
 70
     8
 71
     3
 72
    21
 73
    17
 74
     0
 42
0.0000000001
 43
0.0000000001
 40
17.52103074144743
 40
17.52103074144743
 40
17.52103074144743
 40
17.52103074144743
 40
18.41823744757437
 40
19.46215659509824
 40
20.51397914882054
 40
21.57394542641293
 40
22.64209583141747
 40
23.71826625065247
 40
24.80210429862395
 40
25.8930771157021
 40
26.99048705697709
 40
28.09349309193389
 40
29.20112995599786
 40
30.31233024745139
 40
31.42594771747373
 40
32.5407895042663
 40
32.54078950426994
 40
32.54078950426994
 40
32.54078950426994
 10
-97.92565553318869
 20
-7.800000680552971
 30
0.0
 10
-100.7102857814371
 20
-7.098623844202932
 30
0.0
 10
-102.4634874302078
 20
-6.555442699085785
 30
0.0
 10
-103.7651088382498
 20
-6.254535771058471
 30
0.0
 10
-105.1271526192562
 20
-5.903667977887367
 30
0.0
 10
-106.4890672126694
 20
-5.519029967297037
 30
0.0
 10
-107.8508508194949
 20
-5.102980138986851
 30
0.0
 10
-109.2125202017097
 20
-4.658107763292712
 30
0.0
 10
-110.574081664226
 20
-4.187146882697704
 30
0.0
 10
-111.9355478047248
 20
-3.693001887146736
 30
0.0
 10
-113.2969337618466
 20
-3.178721338265703
 30
0.0
 10
-114.6582513515999
 20
-2.647467562701913
 30
0.0
 10
-116.0195142778475
 20
-2.102508923453734
 30
0.0
 10
-117.3807346070003
 20
-1.54719629929484
 30
0.0
 10
-118.7419325043535
 20
-0.984956269267216
 30
0.0
 10
-119.6492196446915
 20
-0.6078738074344452
 30
0.0
 10
-120.10311245317
 20
-0.4192290046457439
 30
0.0
  0
ELLIPSE
  5
4497
330
1F
100
AcDbEntity
  8
AM_0
100
AcDbEllipse
 10
-125.8343734710624
 20
25.80610294133474
 30
0.0
 11
-17.13192041899088
 21
14.36467347165473
 31
0.0
210
0.0
220
0.0
230
1.0
 40
0.7774888906769193
 41
1.989046446208591
 42
2.156263607295849
  0
SPLINE
  5
4499
330
1F
100
AcDbEntity
  8
AM_0
100
AcDbSpline
210
0.0
220
0.0
230
1.0
 70
     8
 71
     3
 72
    22
 73
    18
 74
     0
 42
0.0000000001
 43
0.0000000001
 40
30.51371389116273
 40
30.51371389116273
 40
30.51371389116273
 40
30.51371389116273
 40
31.16722880550176
 40
32.23537921050758
 40
33.29534548809967
 40
34.347168041821
 40
35.39108718934584
 40
36.42754827133493
 40
37.45720575381954
 40
38.48085062012849
 40
39.49948440763516
 40
40.51422944315121
 40
41.52631975251916
 40
42.53706336719636
 40
43.54780698187354
 40
44.55989729124051
 40
45.14939243453665
 40
45.14939243453665
 40
45.14939243453665
 40
45.14939243453665
 10
-95.97323643440528
 20
0.0003960479621087
 30
0.0
 10
-106.2149375322303
 20
4.084475287238908
 30
0.0
 10
-106.9422315055654
 20
4.319033832990597
 30
0.0
 10
-108.1243915827492
 20
4.680205408168062
 30
0.0
 10
-109.4863061914672
 20
5.064843350273284
 30
0.0
 10
-110.8483499194456
 20
5.415711389103797
 30
0.0
 10
-112.2105326987823
 20
5.730617856363145
 30
0.0
 10
-113.572855738691
 20
6.007623493834855
 30
0.0
 10
-114.935309273544
 20
6.244997955274569
 30
0.0
 10
-116.2978824002349
 20
6.441262547526441
 30
0.0
 10
-117.6605493675084
 20
6.595213504674133
 30
0.0
 10
-119.0233012186092
 20
6.70585599646501
 30
0.0
 10
-120.3861091405106
 20
6.772526276558429
 30
0.0
 10
-121.7489470092897
 20
6.794798611081374
 30
0.0
 10
-123.1117848760636
 20
6.772526276523612
 30
0.0
 10
-124.2838047019597
 20
6.715189590802196
 30
0.0
 10
-124.7979376267245
 20
6.781401369168476
 30
0.0
 10
-125.6757900260821
 20
6.766838898142082
 30
0.0
  0
LINE
  5
449D
330
1F
100
AcDbEntity
  8
AM_0
100
AcDbLine
 10
-130.1460789797653
 20
5.660097429560728
 30
0.0
 11
-130.1460797482853
 21
7.800001860701897
 31
0.0
  0
LINE
  5
449E
330
1F
100
AcDbEntity
  8
AM_0
100
AcDbLine
 10
-130.1460749256955
 20
-5.628250964376969
 30
0.0
 11
-130.1460755711283
 21
-3.831076701946436
 31
0.0
  0
LINE
  5
449F
330
1F
100
AcDbEntity
  8
AM_0
100
AcDbLine
 10
-130.1460756404652
 20
-3.638011720997131
 30
0.0
 11
-130.1460785551651
 21
4.4778200926978
 31
0.0
  0
DIMENSION
  5
4536
330
1F
100
AcDbEntity
  8
AM_5
100
AcDbDimension
  2
*D9
 10
-0.1494160275378368
 20
-1.80483205386709
 30
0.0
 11
22.63825403800016
 21
-0.0000268530304109
 31
0.0
 70
    34
  1
<>
 51
359.9999999999998
  3
AM_JIS$2
100
AcDb2LineAngularDimension
 13
0.5074940725847342
 23
0.0000000000000231
 33
0.0
 14
-0.149402645247488
 24
1.80480891415477
 34
0.0
 15
0.5074940725846774
 25
0.0000000000000336
 35
0.0
 16
23.67477616891187
 26
-9.993412265209032
 36
0.0
1001
GENIUS_GENDTOL_13
1000

1000
h7
1000

1040
0.0
1001
ACAD
1000
DSTYLE
1002
{
1070
   271
1070
     0
1002
}
  0
ELLIPSE
  5
4636
330
1F
100
AcDbEntity
  8
AM_11
 48
0.5
100
AcDbEllipse
 10
-207.8085380366084
 20
31.80222867000266
 30
0.0
 11
-35.51732381184845
 21
0.000000000000775
 31
0.0
210
0.0
220
0.0
230
1.0
 40
0.9899999999999995
 41
1.895054800108161
 42
2.011520147323624
  0
ELLIPSE
  5
4637
330
1F
100
AcDbEntity
  8
AM_11
 48
0.5
100
AcDbEllipse
 10
-207.808538036608
 20
-31.80208346378611
 30
0.0
 11
-35.51732381184842
 21
0.000000000001611
 31
0.0
210
0.0
220
0.0
230
1.0
 40
0.9900000000000011
 41
4.271664206181739
 42
4.388130507071504
  0
ELLIPSE
  5
4638
330
1F
100
AcDbEntity
  8
AM_11
 48
0.5
100
AcDbEllipse
 10
-177.5054422468072
 20
-31.80211404279342
 30
0.0
 11
-35.51732381184836
 21
0.0000000000012798
 31
0.0
210
0.0
220
0.0
230
1.0
 40
0.9900000000000032
 41
4.271664206181728
 42
5.153113667165039
  0
ELLIPSE
  5
4639
330
1F
100
AcDbEntity
  8
AM_11
 48
0.5
100
AcDbEllipse
 10
-177.5054422468077
 20
31.80219809099536
 30
0.0
 11
-35.51732381184845
 21
-0.0000000000002265
 31
0.0
210
0.0
220
0.0
230
1.0
 40
0.99
 41
1.130070686340306
 42
2.011520147323597
  0
ELLIPSE
  5
463A
330
1F
100
AcDbEntity
  8
AM_11
 48
0.5
100
AcDbEllipse
 10
-147.2024119437774
 20
31.80219809099562
 30
0.0
 11
-35.51732381184845
 21
0.000000000000775
 31
0.0
210
0.0
220
0.0
230
1.0
 40
0.9899999999999995
 41
1.130070686340335
 42
2.011520147323624
  0
ELLIPSE
  5
463B
330
1F
100
AcDbEntity
  8
AM_11
 48
0.5
100
AcDbEllipse
 10
-147.2024119437769
 20
-31.80211404279315
 30
0.0
 11
-35.51732381184842
 21
0.000000000001611
 31
0.0
210
0.0
220
0.0
230
1.0
 40
0.9900000000000011
 41
4.271664206181739
 42
5.153113667165048
  0
ELLIPSE
  5
463C
330
1F
100
AcDbEntity
  8
AM_11
 48
0.5
100
AcDbEllipse
 10
-86.59628585094637
 20
31.80216751198858
 30
0.0
 11
-35.51732381184845
 21
0.000000000000775
 31
0.0
210
0.0
220
0.0
230
1.0
 40
0.9899999999999995
 41
1.130070686340335
 42
2.011520147323624
  0
ELLIPSE
  5
463D
330
1F
100
AcDbEntity
  8
AM_11
 48
0.5
100
AcDbEllipse
 10
-86.59628585094592
 20
-31.80214462180019
 30
0.0
 11
-35.51732381184842
 21
0.000000000001611
 31
0.0
210
0.0
220
0.0
230
1.0
 40
0.9900000000000011
 41
4.271664206181739
 42
5.153113667165048
  0
ELLIPSE
  5
463E
330
1F
100
AcDbEntity
  8
AM_11
 48
0.5
100
AcDbEllipse
 10
-116.8993161539761
 20
-31.80214462180046
 30
0.0
 11
-35.51732381184836
 21
0.0000000000012798
 31
0.0
210
0.0
220
0.0
230
1.0
 40
0.9900000000000032
 41
4.271664206181728
 42
5.153113667165039
  0
ELLIPSE
  5
463F
330
1F
100
AcDbEntity
  8
AM_11
 48
0.5
100
AcDbEllipse
 10
-116.8993161539767
 20
31.80216751198833
 30
0.0
 11
-35.51732381184845
 21
-0.0000000000002265
 31
0.0
210
0.0
220
0.0
230
1.0
 40
0.99
 41
1.130070686340306
 42
2.011520147323597
  0
ELLIPSE
  5
4640
330
1F
100
AcDbEntity
  8
AM_11
 48
0.5
100
AcDbEllipse
 10
-25.99022524488472
 20
-31.80214462179991
 30
0.0
 11
-35.51732381184842
 21
0.000000000001611
 31
0.0
210
0.0
220
0.0
230
1.0
 40
0.9900000000000011
 41
4.271664206181739
 42
5.153113667165048
  0
ELLIPSE
  5
4641
330
1F
100
AcDbEntity
  8
AM_11
 48
0.5
100
AcDbEllipse
 10
-25.99022524488518
 20
31.80216751198886
 30
0.0
 11
-35.51732381184845
 21
0.000000000000775
 31
0.0
210
0.0
220
0.0
230
1.0
 40
0.9899999999999995
 41
1.130070686340335
 42
2.011520147323624
  0
ELLIPSE
  5
4642
330
1F
100
AcDbEntity
  8
AM_11
 48
0.5
100
AcDbEllipse
 10
-56.29325554791555
 20
31.8021675119886
 30
0.0
 11
-35.51732381184845
 21
-0.0000000000002265
 31
0.0
210
0.0
220
0.0
230
1.0
 40
0.99
 41
1.130070686340306
 42
2.011520147323597
  0
ELLIPSE
  5
4643
330
1F
100
AcDbEntity
  8
AM_11
 48
0.5
100
AcDbEllipse
 10
-56.29325554791501
 20
-31.80214462180018
 30
0.0
 11
-35.51732381184836
 21
0.0000000000012798
 31
0.0
210
0.0
220
0.0
230
1.0
 40
0.9900000000000032
 41
4.271664206181728
 42
5.153113667165039
  0
ELLIPSE
  5
4644
330
1F
100
AcDbEntity
  8
AM_11
 48
0.5
100
AcDbEllipse
 10
4.312805058145073
 20
31.80216751198908
 30
0.0
 11
-35.51732381184908
 21
0.0000000000326126
 31
0.0
210
0.0
220
0.0
230
1.0
 40
0.989999999999986
 41
1.130070686341231
 42
1.291800737381917
  0
VIEWPORT
  5
110
330
101
100
AcDbEntity
 67
     1
  8
0
100
AcDbViewport
 10
420.5
 20
297.0
 30
0.0
 40
948.9782706766916
 41
628.452
 68
     1
 69
     1
1001
ACAD
1000
MVIEW
1002
{
1070
    16
1010
0.0
1020
0.0
1030
0.0
1010
0.0
1020
0.0
1030
1.0
1040
0.0
1040
628.452
1040
420.5
1040
297.0
1040
50.0
1040
0.0
1040
0.0
1070
     0
1070
   100
1070
     1
1070
     1
1070
     0
1070
     0
1070
     0
1070
     0
1040
0.0
1040
0.0
1040
0.0
1040
10.0
1040
10.0
1040
10.0
1040
10.0
1070
     0
1002
{
1002
}
1002
}
  0
ENDSEC
  0
SECTION
  2
OBJECTS
  0
DICTIONARY
  5
C
330
0
100
AcDbDictionary
  3
ACAD_GROUP
350
D
  3
ACAD_LAYOUT
350
1A
  3
ACAD_MLINESTYLE
350
17
  3
ACAD_PLOTSETTINGS
350
19
  3
ACAD_PLOTSTYLENAME
350
E
  3
ACDBVARIABLEDICTIONARY
350
34
  3
ACMDICTIONARY
350
43
  3
AMG
350
2B
  3
AMGSNAPSETTINGS
350
6E
  3
DWGPROPS
350
465E
  3
ACDBHEADERROUNDTRIPXREC
350
466B
  0
DICTIONARY
  5
74
330
1F
100
AcDbDictionary
280
     1
  3
ACAD_INDEX
360
4660
  3
ACAD_LAYOUTSELFREF
360
468E
  0
DICTIONARY
  5
4693
330
101
100
AcDbDictionary
280
     1
  3
ACAD_LAYOUTSELFREF
360
4694
  0
DICTIONARY
  5
D
102
{ACAD_REACTORS
330
C
102
}
330
C
100
AcDbDictionary
  0
DICTIONARY
  5
1A
102
{ACAD_REACTORS
330
C
102
}
330
C
100
AcDbDictionary
  0
DICTIONARY
  5
17
102
{ACAD_REACTORS
330
C
102
}
330
C
100
AcDbDictionary
  3
STANDARD
350
18
  0
DICTIONARY
  5
19
102
{ACAD_REACTORS
330
C
102
}
330
C
100
AcDbDictionary
  0
ACDBDICTIONARYWDFLT
  5
E
102
{ACAD_REACTORS
330
C
102
}
330
C
100
AcDbDictionary
281
     1
  3
Normal
350
F
100
AcDbDictionaryWithDefault
340
F
  0
DICTIONARY
  5
34
102
{ACAD_REACTORS
330
C
102
}
330
C
100
AcDbDictionary
  3
INDEXCTL
350
35
  3
SORTENTS
350
B5E
  0
DICTIONARY
  5
43
102
{ACAD_REACTORS
330
C
102
}
330
C
100
AcDbDictionary
  3
ACMSTDDICTIONARY
350
260
  0
DICTIONARY
  5
2B
102
{ACAD_REACTORS
330
C
102
}
330
C
100
AcDbDictionary
  3
ACMGSETTINGS
350
2C
  0
DICTIONARY
  5
6E
102
{ACAD_REACTORS
330
C
102
}
330
C
100
AcDbDictionary
  0
XRECORD
  5
465E
102
{ACAD_REACTORS
330
C
102
}
330
C
100
AcDbXrecord
  1
DWGPROPS COOKIE
  2

  3

  4

  6

  7

  8

  9

300
AmdtFileType=82
301
=
302
=
303
=
304
=
305
=
306
=
307
=
308
=
309
=
 40
0.1012018981481481
 41
2452800.443498622
 42
2452948.66978714
  1

 90
        1
  0
DICTIONARY
  5
466B
102
{ACAD_REACTORS
330
C
102
}
330
C
100
AcDbDictionary
  3
TSTACKALIGN
350
466C
  3
TSTACKSIZE
350
466D
  3
HYPERLINKBASE
350
466E
  3
STYLESHEET
350
466F
  3
LAYOUTDICT
350
4670
  3
PLOTSETDICT
350
4671
  3
PLOTSTYLNAMDICT
350
4672
  3
LWETCUNION
350
4673
  3
INSUNITS
350
4674
  3
CEPSNTYPE
350
4675
  3
FINGERPRINTGUID
350
4676
  3
VERSIONGUID
350
4677
  3
PSVPSCALE
350
4678
  3
DIMSTYLEDATA
350
4679
  3
PUCSORTHOREF
350
467A
  3
PUCSORTHOVIEW
350
467B
  3
PUCSBASE
350
467C
  3
PUCSORGTOP
350
467D
  3
PUCSORGBOTTOM
350
467E
  3
PUCSORGLEFT
350
467F
  3
PUCSORGRIGHT
350
4680
  3
PUCSORGFRONT
350
4681
  3
PUCSORGBACK
350
4682
  3
UCSORTHOREF
350
4683
  3
UCSORTHOVIEW
350
4684
  3
UCSBASE
350
4685
  3
UCSORGTOP
350
4686
  3
UCSORGBOTTOM
350
4687
  3
UCSORGLEFT
350
4688
  3
UCSORGRIGHT
350
4689
  3
UCSORGFRONT
350
468A
  3
UCSORGBACK
350
468B
  0
DICTIONARY
  5
4660
102
{ACAD_REACTORS
330
74
102
}
330
74
100
AcDbDictionary
  3
*A1
350
4661
  0
XRECORD
  5
468E
102
{ACAD_REACTORS
330
74
102
}
330
74
100
AcDbXrecord
340
1F
  0
XRECORD
  5
4694
102
{ACAD_REACTORS
330
4693
102
}
330
4693
100
AcDbXrecord
340
101
  0
MLINESTYLE
  5
18
102
{ACAD_REACTORS
330
17
102
}
330
17
100
AcDbMlineStyle
  2
STANDARD
 70
     0
  3

 62
   256
 51
90.0
 52
90.0
 71
     2
 49
0.5
 62
   256
  6
BYLAYER
 49
-0.5
 62
   256
  6
BYLAYER
  0
ACDBPLACEHOLDER
  5
F
102
{ACAD_REACTORS
330
E
102
}
330
E
100
AcDbPlaceHolder
280
     0
  0
DICTIONARYVAR
  5
35
102
{ACAD_REACTORS
330
34
102
}
330
34
100
DictionaryVariables
280
     0
  1
1
  0
DICTIONARYVAR
  5
B5E
102
{ACAD_REACTORS
330
34
102
}
330
34
100
DictionaryVariables
280
     0
  1
96
  0
DICTIONARY
  5
260
102
{ACAD_REACTORS
330
43
102
}
330
43
100
AcDbDictionary
  0
DICTIONARY
  5
2C
102
{ACAD_REACTORS
330
2B
102
}
330
2B
100
AcDbDictionary
  3
DWGSETTINGS
350
2D
  0
XRECORD
  5
466C
102
{ACAD_REACTORS
330
466B
102
}
330
466B
100
AcDbXrecord
 90
        1
  0
XRECORD
  5
466D
102
{ACAD_REACTORS
330
466B
102
}
330
466B
100
AcDbXrecord
 90
       70
  0
XRECORD
  5
466E
102
{ACAD_REACTORS
330
466B
102
}
330
466B
100
AcDbXrecord
  1

  0
XRECORD
  5
466F
102
{ACAD_REACTORS
330
466B
102
}
330
466B
100
AcDbXrecord
  1
ASAMI.ctb
  0
XRECORD
  5
4670
102
{ACAD_REACTORS
330
466B
102
}
330
466B
100
AcDbXrecord
340
1A
  0
XRECORD
  5
4671
102
{ACAD_REACTORS
330
466B
102
}
330
466B
100
AcDbXrecord
340
19
  0
XRECORD
  5
4672
102
{ACAD_REACTORS
330
466B
102
}
330
466B
100
AcDbXrecord
340
E
  0
XRECORD
  5
4673
102
{ACAD_REACTORS
330
466B
102
}
330
466B
100
AcDbXrecord
 90
    10781
  0
XRECORD
  5
4674
102
{ACAD_REACTORS
330
466B
102
}
330
466B
100
AcDbXrecord
 90
        4
  0
XRECORD
  5
4675
102
{ACAD_REACTORS
330
466B
102
}
330
466B
100
AcDbXrecord
 90
        0
  0
XRECORD
  5
4676
102
{ACAD_REACTORS
330
466B
102
}
330
466B
100
AcDbXrecord
  1
{AFB28963-8C59-40AE-9337-C84526B81ACE}
  0
XRECORD
  5
4677
102
{ACAD_REACTORS
330
466B
102
}
330
466B
100
AcDbXrecord
  1
{1707AF51-E834-4F31-9D0E-4131BF96330B}
  0
XRECORD
  5
4678
102
{ACAD_REACTORS
330
466B
102
}
330
466B
100
AcDbXrecord
 40
0.0
  0
XRECORD
  5
4679
102
{ACAD_REACTORS
330
466B
102
}
330
466B
100
AcDbXrecord
1000
DSTYLE
1002
{
1070
    79
 70
     2
1070
   341
340
59
1070
   342
340
59
1070
   371
 70
    -1
1070
   372
 70
    -1
1002
}
  0
XRECORD
  5
467A
102
{ACAD_REACTORS
330
466B
102
}
330
466B
100
AcDbXrecord
340
0
  0
XRECORD
  5
467B
102
{ACAD_REACTORS
330
466B
102
}
330
466B
100
AcDbXrecord
 70
     0
  0
XRECORD
  5
467C
102
{ACAD_REACTORS
330
466B
102
}
330
466B
100
AcDbXrecord
340
0
  0
XRECORD
  5
467D
102
{ACAD_REACTORS
330
466B
102
}
330
466B
100
AcDbXrecord
 10
0.0
 20
0.0
 30
0.0
  0
XRECORD
  5
467E
102
{ACAD_REACTORS
330
466B
102
}
330
466B
100
AcDbXrecord
 10
0.0
 20
0.0
 30
0.0
  0
XRECORD
  5
467F
102
{ACAD_REACTORS
330
466B
102
}
330
466B
100
AcDbXrecord
 10
0.0
 20
0.0
 30
0.0
  0
XRECORD
  5
4680
102
{ACAD_REACTORS
330
466B
102
}
330
466B
100
AcDbXrecord
 10
0.0
 20
0.0
 30
0.0
  0
XRECORD
  5
4681
102
{ACAD_REACTORS
330
466B
102
}
330
466B
100
AcDbXrecord
 10
0.0
 20
0.0
 30
0.0
  0
XRECORD
  5
4682
102
{ACAD_REACTORS
330
466B
102
}
330
466B
100
AcDbXrecord
 10
0.0
 20
0.0
 30
0.0
  0
XRECORD
  5
4683
102
{ACAD_REACTORS
330
466B
102
}
330
466B
100
AcDbXrecord
340
0
  0
XRECORD
  5
4684
102
{ACAD_REACTORS
330
466B
102
}
330
466B
100
AcDbXrecord
 70
     0
  0
XRECORD
  5
4685
102
{ACAD_REACTORS
330
466B
102
}
330
466B
100
AcDbXrecord
340
0
  0
XRECORD
  5
4686
102
{ACAD_REACTORS
330
466B
102
}
330
466B
100
AcDbXrecord
 10
0.0
 20
0.0
 30
0.0
  0
XRECORD
  5
4687
102
{ACAD_REACTORS
330
466B
102
}
330
466B
100
AcDbXrecord
 10
0.0
 20
0.0
 30
0.0
  0
XRECORD
  5
4688
102
{ACAD_REACTORS
330
466B
102
}
330
466B
100
AcDbXrecord
 10
0.0
 20
0.0
 30
0.0
  0
XRECORD
  5
4689
102
{ACAD_REACTORS
330
466B
102
}
330
466B
100
AcDbXrecord
 10
0.0
 20
0.0
 30
0.0
  0
XRECORD
  5
468A
102
{ACAD_REACTORS
330
466B
102
}
330
466B
100
AcDbXrecord
 10
0.0
 20
0.0
 30
0.0
  0
XRECORD
  5
468B
102
{ACAD_REACTORS
330
466B
102
}
330
466B
100
AcDbXrecord
 10
0.0
 20
0.0
 30
0.0
  0
LAYER_INDEX
  5
4661
102
{ACAD_REACTORS
330
4660
102
}
330
4660
100
AcDbIndex
 40
2453151.67179559
100
AcDbLayerIndex
  8
0
360
4662
 90
        0
  8
AM_0
360
4663
 90
       69
  8
AM_7
360
4664
 90
        1
  8
AM_11
360
4665
 90
       20
  8
AM_5
360
4666
 90
        5
  8
Defpoints
360
4667
 90
        0
  8
AM_6
360
4668
 90
        1
  8
AM_CL
360
4669
 90
        0
  0
XRECORD
  5
2D
102
{ACAD_REACTORS
330
2C
102
}
330
2C
100
AcDbXrecord
  1
VERSION
140
15.0
  1
PRODUCT
  2
AutoCAD Mechanical 2000
  0
IDBUFFER
  5
4662
330
0
100
AcDbIdBuffer
  0
IDBUFFER
  5
4663
330
0
100
AcDbIdBuffer
330
4479
330
447A
330
447B
330
447C
330
447D
330
447E
330
447F
330
4480
330
4481
330
4482
330
4483
330
4484
330
4485
330
4486
330
4495
330
4496
330
4497
330
4499
330
449D
330
449E
330
449F
330
1E25
330
1E26
330
1FD9
330
21D7
330
21D8
330
21D9
330
21DC
330
21DD
330
2694
330
2695
330
2696
330
2699
330
3366
330
3367
330
3F18
330
3F1B
330
43BF
330
43C0
330
43C1
330
43C6
330
43C7
330
43C8
330
43C9
330
43CA
330
43CB
330
43CC
330
43CD
330
43CF
330
43D0
330
43D1
330
43D2
330
43D3
330
43D4
330
43D5
330
43D6
330
43D7
330
43D8
330
43D9
330
43DA
330
43E4
330
43E5
330
43E6
330
43E7
330
43E8
330
4475
330
4476
330
4477
330
4478
  0
IDBUFFER
  5
4664
330
0
100
AcDbIdBuffer
330
C9F
  0
IDBUFFER
  5
4665
330
0
100
AcDbIdBuffer
330
4641
330
4642
330
4643
330
4644
330
43C2
330
43C3
330
43C4
330
43C5
330
43DB
330
4636
330
4637
330
4638
330
4639
330
463A
330
463B
330
463C
330
463D
330
463E
330
463F
330
4640
  0
IDBUFFER
  5
4666
330
0
100
AcDbIdBuffer
330
CC6
330
DF5
330
1FB6
330
2216
330
4536
  0
IDBUFFER
  5
4667
330
0
100
AcDbIdBuffer
  0
IDBUFFER
  5
4668
330
0
100
AcDbIdBuffer
330
19BD
  0
IDBUFFER
  5
4669
330
0
100
AcDbIdBuffer
  0
ENDSEC
  0
EOF
