  0
SECTION
  2
HEADER
  9
$ACADVER
  1
AC1014
  9
$ACADMAINTVER
 70
     9
  9
$DWGCODEPAGE
  3
ANSI_932
  9
$INSBASE
 10
0.0
 20
0.0
 30
0.0
  9
$EXTMIN
 10
-218.3000009999999
 20
-54.50000305448121
 30
-0.00000001
  9
$EXTMAX
 10
25.2974980803944
 20
24.71154308829082
 30
0.00000001
  9
$LIMMIN
 10
-235.3243199069245
 20
-84.95978435839356
  9
$LIMMAX
 10
43.00602480537361
 20
55.45771548967673
  9
$ORTHOMODE
 70
     0
  9
$REGENMODE
 70
     1
  9
$FILLMODE
 70
     1
  9
$QTEXTMODE
 70
     0
  9
$MIRRTEXT
 70
     0
  9
$DRAGMODE
 70
     2
  9
$LTSCALE
 40
1.0
  9
$OSMODE
 70
    55
  9
$ATTMODE
 70
     1
  9
$TEXTSIZE
 40
2.5
  9
$TRACEWID
 40
1.0
  9
$TEXTSTYLE
  7
STANDARD
  9
$CLAYER
  8
AM_0
  9
$CELTYPE
  6
BYLAYER
  9
$CECOLOR
 62
   256
  9
$CELTSCALE
 40
1.0
  9
$DELOBJ
 70
     1
  9
$DISPSILH
 70
     0
  9
$DIMSCALE
 40
1.0
  9
$DIMASZ
 40
2.5
  9
$DIMEXO
 40
1.0
  9
$DIMDLI
 40
12.0
  9
$DIMRND
 40
0.0
  9
$DIMDLE
 40
0.0
  9
$DIMEXE
 40
1.0
  9
$DIMTP
 40
0.1
  9
$DIMTM
 40
0.1
  9
$DIMTXT
 40
3.2
  9
$DIMCEN
 40
0.0
  9
$DIMTSZ
 40
0.0
  9
$DIMTOL
 70
     0
  9
$DIMLIM
 70
     0
  9
$DIMTIH
 70
     0
  9
$DIMTOH
 70
     0
  9
$DIMSE1
 70
     0
  9
$DIMSE2
 70
     0
  9
$DIMTAD
 70
     3
  9
$DIMZIN
 70
     8
  9
$DIMBLK
  1
OPEN30
  9
$DIMASO
 70
     1
  9
$DIMSHO
 70
     1
  9
$DIMPOST
  1

  9
$DIMAPOST
  1
"
  9
$DIMALT
 70
     0
  9
$DIMALTD
 70
     2
  9
$DIMALTF
 40
0.0393701
  9
$DIMLFAC
 40
1.0
  9
$DIMTOFL
 70
     1
  9
$DIMTVP
 40
0.0
  9
$DIMTIX
 70
     0
  9
$DIMSOXD
 70
     0
  9
$DIMSAH
 70
     0
  9
$DIMBLK1
  1

  9
$DIMBLK2
  1

  9
$DIMSTYLE
  2
AM_JIS
  9
$DIMCLRD
 70
   256
  9
$DIMCLRE
 70
   256
  9
$DIMCLRT
 70
     2
  9
$DIMTFAC
 40
0.71
  9
$DIMGAP
 40
1.5
  9
$DIMJUST
 70
     0
  9
$DIMSD1
 70
     0
  9
$DIMSD2
 70
     0
  9
$DIMTOLJ
 70
     0
  9
$DIMTZIN
 70
     0
  9
$DIMALTZ
 70
     0
  9
$DIMALTTZ
 70
     0
  9
$DIMFIT
 70
     3
  9
$DIMUPT
 70
     0
  9
$DIMUNIT
 70
     2
  9
$DIMDEC
 70
     3
  9
$DIMTDEC
 70
     3
  9
$DIMALTU
 70
     2
  9
$DIMALTTD
 70
     2
  9
$DIMTXSTY
  7
ASAMI
  9
$DIMAUNIT
 70
     0
  9
$LUNITS
 70
     2
  9
$LUPREC
 70
     2
  9
$SKETCHINC
 40
1.0
  9
$FILLETRAD
 40
2.5
  9
$AUNITS
 70
     0
  9
$AUPREC
 70
     0
  9
$MENU
  1
.
  9
$ELEVATION
 40
0.0
  9
$PELEVATION
 40
0.0
  9
$THICKNESS
 40
0.0
  9
$LIMCHECK
 70
     0
  9
$BLIPMODE
 70
     0
  9
$CHAMFERA
 40
0.5
  9
$CHAMFERB
 40
0.5
  9
$CHAMFERC
 40
20.0
  9
$CHAMFERD
 40
0.0
  9
$SKPOLY
 70
     0
  9
$TDCREATE
 40
2452800.443498622
  9
$TDUPDATE
 40
2453151.672165243
  9
$TDINDWG
 40
0.1055107176
  9
$TDUSRTIMER
 40
0.1055107176
  9
$USRTIMER
 70
     1
  9
$ANGBASE
 50
0.0
  9
$ANGDIR
 70
     0
  9
$PDMODE
 70
     3
  9
$PDSIZE
 40
0.0
  9
$PLINEWID
 40
0.0
  9
$COORDS
 70
     1
  9
$SPLFRAME
 70
     0
  9
$SPLINETYPE
 70
     6
  9
$SPLINESEGS
 70
     8
  9
$ATTDIA
 70
     1
  9
$ATTREQ
 70
     1
  9
$HANDLING
 70
 12289
  9
$HANDSEED
  5
47EA
  9
$SURFTAB1
 70
     6
  9
$SURFTAB2
 70
     6
  9
$SURFTYPE
 70
     6
  9
$SURFU
 70
     6
  9
$SURFV
 70
     6
  9
$UCSNAME
  2

  9
$UCSORG
 10
0.0
 20
0.0
 30
0.0
  9
$UCSXDIR
 10
1.0
 20
0.0000000000000027
 30
0.0
  9
$UCSYDIR
 10
-0.0000000000000027
 20
1.0
 30
0.0
  9
$PUCSNAME
  2

  9
$PUCSORG
 10
0.0
 20
0.0
 30
0.0
  9
$PUCSXDIR
 10
1.0
 20
0.0
 30
0.0
  9
$PUCSYDIR
 10
0.0
 20
1.0
 30
0.0
  9
$USERI1
 70
     0
  9
$USERI2
 70
     0
  9
$USERI3
 70
     0
  9
$USERI4
 70
     0
  9
$USERI5
 70
     0
  9
$USERR1
 40
0.0
  9
$USERR2
 40
0.0
  9
$USERR3
 40
0.0
  9
$USERR4
 40
0.0
  9
$USERR5
 40
0.0
  9
$WORLDVIEW
 70
     1
  9
$SHADEDGE
 70
     3
  9
$SHADEDIF
 70
    70
  9
$TILEMODE
 70
     1
  9
$MAXACTVP
 70
    64
  9
$PINSBASE
 10
0.0
 20
0.0
 30
0.0
  9
$PLIMCHECK
 70
     0
  9
$PEXTMIN
 10
1.000000000000000E+20
 20
1.000000000000000E+20
 30
1.000000000000000E+20
  9
$PEXTMAX
 10
-1.000000000000000E+20
 20
-1.000000000000000E+20
 30
-1.000000000000000E+20
  9
$PLIMMIN
 10
0.0
 20
0.0
  9
$PLIMMAX
 10
841.0
 20
594.0
  9
$UNITMODE
 70
     0
  9
$VISRETAIN
 70
     1
  9
$PLINEGEN
 70
     0
  9
$PSLTSCALE
 70
     0
  9
$TREEDEPTH
 70
  3020
  9
$PICKSTYLE
 70
     0
  9
$CMLSTYLE
  2
STANDARD
  9
$CMLJUST
 70
     0
  9
$CMLSCALE
 40
20.0
  9
$PROXYGRAPHICS
 70
     1
  9
$MEASUREMENT
 70
     1
  0
ENDSEC
  0
SECTION
  2
CLASSES
  0
CLASS
  1
ACDBDICTIONARYWDFLT
  2
AcDbDictionaryWithDefault
  3
AutoCAD 2000
 90
        0
280
     0
281
     0
  0
CLASS
  1
ACDBPLACEHOLDER
  2
AcDbPlaceHolder
  3
AutoCAD 2000
 90
        0
280
     0
281
     0
  0
CLASS
  1
LAYOUT
  2
AcDbLayout
  3
AutoCAD 2000
 90
        0
280
     0
281
     0
  0
CLASS
  1
AMGSETTINGSOBJ
  2
AmgSettingsObj
  3
"AcadM|Product Description: AutoCAD Mechanical 2000|Company: Autodesk"
 90
        0
280
     0
281
     0
  0
CLASS
  1
ACME_DOCUMENT
  2
AcMeDbDoc
  3
AcMeServices
 90
        0
280
     0
281
     0
  0
CLASS
  1
ACMESCOPE
  2
AcMeScope
  3
AcMeServices
 90
        0
280
     0
281
     0
  0
CLASS
  1
ACMECOMMANDHISTORY
  2
AcMeCommandHistory
  3
AcMeServices
 90
        0
280
     0
281
     0
  0
CLASS
  1
DICTIONARYVAR
  2
AcDbDictionaryVar
  3
AutoCAD 2000
 90
        0
280
     0
281
     0
  0
CLASS
  1
ACIMSYSVARMAN
  2
AcImSysVarManager
  3
AcMeServices
 90
        0
280
     0
281
     0
  0
CLASS
  1
ACIMREALSYSVAR
  2
AcImRealSysVar
  3
AcMeServices
 90
        0
280
     0
281
     0
  0
CLASS
  1
ACIMINTSYSVAR
  2
AcImIntSysVar
  3
AcMeServices
 90
        0
280
     0
281
     0
  0
CLASS
  1
ACMEDRAWINGMAN
  2
AcMeDrawingMan
  3
AcMeServices
 90
        0
280
     0
281
     0
  0
CLASS
  1
ACMEVIEW
  2
AcMeView
  3
AcMeServices
 90
        0
280
     0
281
     0
  0
CLASS
  1
ACDBENTITYCACHE
  2
AcMeEntityCache
  3
AcMeServices
 90
        0
280
     0
281
     0
  0
CLASS
  1
GSMANAGER
  2
AcMeGSManager
  3
AcMeServices
 90
        0
280
     0
281
     0
  0
CLASS
  1
AmdtInternalReactor
  2
AmdtInternalReactor
  3
AcMeServices
 90
        0
280
     0
281
     0
  0
CLASS
  1
ACMESTATEMGR
  2
AcMeStateMgr
  3
AcMeServices
 90
        0
280
     0
281
     0
  0
CLASS
  1
ACME_DATABASE
  2
AcMeDbDatabase
  3
AcMeServices
 90
        0
280
     0
281
     0
  0
CLASS
  1
ACRFINSADJUSTERMGR
  2
AcRfInsAdjusterMgr
  3
AcMeServices
 90
        0
280
     0
281
     0
  0
CLASS
  1
ACMDATADICTIONARY
  2
AcmDataDictionary
  3
"AcmSymBB|Product Description: AutoCAD Mechanical 2000|Company: Autodesk"
 90
        0
280
     0
281
     0
  0
CLASS
  1
ACMDATAENTRYBLOCK
  2
AcmDataEntryBlock
  3
"AcmSymBB|Product Description: AutoCAD Mechanical 2000|Company: Autodesk"
 90
        0
280
     0
281
     0
  0
CLASS
  1
AMGOBJPROPCFG
  2
AmgObjPropCfg
  3
"AmgLay|Product Description: AutoCAD Mechanical 2000|Company: Autodesk"
 90
        1
280
     0
281
     0
  0
CLASS
  1
ACAMGFILTERDAT
  2
AcAmgFilterDat
  3
"AcadM|Product Description: AutoCAD Mechanical 2000|Company: Autodesk"
 90
        0
280
     0
281
     0
  0
CLASS
  1
LAYER_INDEX
  2
AcDbLayerIndex
  3
AutoCAD 2000
 90
        0
280
     0
281
     0
  0
CLASS
  1
IDBUFFER
  2
AcDbIdBuffer
  3
AutoCAD 2000
 90
        0
280
     0
281
     0
  0
CLASS
  1
ACIMSTRSYSVAR
  2
AcImStrSysVar
  3
AcMeServices
 90
        0
280
     0
281
     0
  0
CLASS
  1
ACMSTANDARDJIS
  2
AcmStandardJIS
  3
"AcmSymBB|Product Description: AutoCAD Mechanical 2000|Company: Autodesk"
 90
        0
280
     0
281
     0
  0
CLASS
  1
ACMSURFSTANDARDJIS
  2
AcmSurfTextStdJIS
  3
"AcmSymBB|Product Description: AutoCAD Mechanical 2000|Company: Autodesk"
 90
        0
280
     0
281
     0
  0
CLASS
  1
ACMFCFSTANDARDJIS
  2
AcmFCFStdJIS
  3
"AcmSymBB|Product Description: AutoCAD Mechanical 2000|Company: Autodesk"
 90
        0
280
     0
281
     0
  0
CLASS
  1
ACMWELDSTANDARDJIS
  2
AcmWeldingStdJIS
  3
"AcmSymBB|Product Description: AutoCAD Mechanical 2000|Company: Autodesk"
 90
        0
280
     0
281
     0
  0
CLASS
  1
ACMIDSTANDARDJIS
  2
AcmIdStdJIS
  3
"AcmSymBB|Product Description: AutoCAD Mechanical 2000|Company: Autodesk"
 90
        0
280
     0
281
     0
  0
CLASS
  1
ACMDATUMSTANDARDJIS
  2
AcmDatumStdJIS
  3
"AcmSymBB|Product Description: AutoCAD Mechanical 2000|Company: Autodesk"
 90
        0
280
     0
281
     0
  0
CLASS
  1
ACMBOMSTANDARDJIS
  2
AcmBOMStdJIS
  3
"AcmSymBB|Product Description: AutoCAD Mechanical 2000|Company: Autodesk"
 90
        0
280
     0
281
     0
  0
CLASS
  1
ACMSTANDARDANSI
  2
AcmStandardANSI
  3
"AcmSymBB|Product Description: AutoCAD Mechanical 2000|Company: Autodesk"
 90
        0
280
     0
281
     0
  0
CLASS
  1
ACMSURFSTANDARDANSI
  2
AcmSurfTextStdANSI
  3
"AcmSymBB|Product Description: AutoCAD Mechanical 2000|Company: Autodesk"
 90
        0
280
     0
281
     0
  0
CLASS
  1
ACMFCFSTANDARDANSI
  2
AcmFCFStdANSI
  3
"AcmSymBB|Product Description: AutoCAD Mechanical 2000|Company: Autodesk"
 90
        0
280
     0
281
     0
  0
CLASS
  1
ACMWELDSTANDARDANSI
  2
AcmWeldingStdANSI
  3
"AcmSymBB|Product Description: AutoCAD Mechanical 2000|Company: Autodesk"
 90
        0
280
     0
281
     0
  0
CLASS
  1
ACMIDSTANDARDANSI
  2
AcmIdStdANSI
  3
"AcmSymBB|Product Description: AutoCAD Mechanical 2000|Company: Autodesk"
 90
        0
280
     0
281
     0
  0
CLASS
  1
ACMDATUMSTANDARDANSI
  2
AcmDatumStdANSI
  3
"AcmSymBB|Product Description: AutoCAD Mechanical 2000|Company: Autodesk"
 90
        0
280
     0
281
     0
  0
CLASS
  1
ACMBOMSTANDARDANSI
  2
AcmBOMStdANSI
  3
"AcmSymBB|Product Description: AutoCAD Mechanical 2000|Company: Autodesk"
 90
        0
280
     0
281
     0
  0
CLASS
  1
ACMSTANDARDBSI
  2
AcmStandardBSI
  3
"AcmSymBB|Product Description: AutoCAD Mechanical 2000|Company: Autodesk"
 90
        0
280
     0
281
     0
  0
CLASS
  1
ACMSURFSTANDARDBSI
  2
AcmSurfTextStdBSI
  3
"AcmSymBB|Product Description: AutoCAD Mechanical 2000|Company: Autodesk"
 90
        0
280
     0
281
     0
  0
CLASS
  1
ACMFCFSTANDARDBSI
  2
AcmFCFStdBSI
  3
"AcmSymBB|Product Description: AutoCAD Mechanical 2000|Company: Autodesk"
 90
        0
280
     0
281
     0
  0
CLASS
  1
ACMWELDSTANDARDBSI
  2
AcmWeldingStdBSI
  3
"AcmSymBB|Product Description: AutoCAD Mechanical 2000|Company: Autodesk"
 90
        0
280
     0
281
     0
  0
CLASS
  1
ACMIDSTANDARDBSI
  2
AcmIdStdBSI
  3
"AcmSymBB|Product Description: AutoCAD Mechanical 2000|Company: Autodesk"
 90
        0
280
     0
281
     0
  0
CLASS
  1
ACMDATUMSTANDARDBSI
  2
AcmDatumStdBSI
  3
"AcmSymBB|Product Description: AutoCAD Mechanical 2000|Company: Autodesk"
 90
        0
280
     0
281
     0
  0
CLASS
  1
ACMBOMSTANDARDBSI
  2
AcmBOMStdBSI
  3
"AcmSymBB|Product Description: AutoCAD Mechanical 2000|Company: Autodesk"
 90
        0
280
     0
281
     0
  0
CLASS
  1
LONG_TRANSACTION
  2
AcDbLongTransaction
  3
AutoCAD 2000
 90
        0
280
     0
281
     0
  0
CLASS
  1
LWPOLYLINE
  2
AcDbPolyline
  3
AutoCAD 2000
 90
        0
280
     0
281
     1
  0
CLASS
  1
HATCH
  2
AcDbHatch
  3
AutoCAD 2000
 90
        0
280
     0
281
     1
  0
CLASS
  1
XRECORD
  2
AcDbXrecord
  3
AutoCAD 2000
 90
        0
280
     0
281
     0
  0
ENDSEC
  0
SECTION
  2
TABLES
  0
TABLE
  2
VPORT
  5
8
330
0
100
AcDbSymbolTable
 70
     3
  0
VPORT
  5
47B4
330
8
100
AcDbSymbolTableRecord
100
AcDbViewportTableRecord
  2
*ACTIVE
 70
     0
 10
0.0
 20
0.0
 11
1.0
 21
1.0
 12
-91.98496933331758
 22
-14.89565967582521
 13
0.0
 23
0.0
 14
2.5
 24
2.5
 15
10.0
 25
10.0
 16
0.0
 26
0.0
 36
1.0
 17
0.0
 27
0.0
 37
0.0
 40
162.1287435468437
 41
1.56570841889117
 42
50.0
 43
0.0
 44
0.0
 50
0.0
 51
0.0
 71
     0
 72
   100
 73
     1
 74
     1
 75
     0
 76
     0
 77
     0
 78
     0
  0
ENDTAB
  0
TABLE
  2
LTYPE
  5
5
330
0
100
AcDbSymbolTable
 70
    10
  0
LTYPE
  5
14
330
5
100
AcDbSymbolTableRecord
100
AcDbLinetypeTableRecord
  2
BYBLOCK
 70
     0
  3

 72
    65
 73
     0
 40
0.0
  0
LTYPE
  5
15
330
5
100
AcDbSymbolTableRecord
100
AcDbLinetypeTableRecord
  2
BYLAYER
 70
     0
  3

 72
    65
 73
     0
 40
0.0
  0
LTYPE
  5
16
330
5
100
AcDbSymbolTableRecord
100
AcDbLinetypeTableRecord
  2
CONTINUOUS
 70
     0
  3
Solid line
 72
    65
 73
     0
 40
0.0
  0
LTYPE
  5
4B
330
5
100
AcDbSymbolTableRecord
100
AcDbLinetypeTableRecord
  2
AM_ISO02W050
 70
     0
  3
__ __ __ __ __ __ __ __ __ __ __ __ __ __ __
 72
    65
 73
     2
 40
7.5
 49
6.0
 74
     0
 49
-1.5
 74
     0
  0
LTYPE
  5
4C
330
5
100
AcDbSymbolTableRecord
100
AcDbLinetypeTableRecord
  2
AM_ISO08W050
 70
     0
  3
____ . ____ . ____ . ____ . ____ . ____ . ____
 72
    65
 73
     4
 40
18.0
 49
12.0
 74
     0
 49
-1.5
 74
     0
 49
3.0
 74
     0
 49
-1.5
 74
     0
  0
LTYPE
  5
4D
330
5
100
AcDbSymbolTableRecord
100
AcDbLinetypeTableRecord
  2
AM_ISO09W050
 70
     0
  3
_____ . . _____ . . _____ . . ____ .. ____
 72
    65
 73
     6
 40
22.5
 49
12.0
 74
     0
 49
-1.5
 74
     0
 49
3.0
 74
     0
 49
-1.5
 74
     0
 49
3.0
 74
     0
 49
-1.5
 74
     0
  0
LTYPE
  5
4E
330
5
100
AcDbSymbolTableRecord
100
AcDbLinetypeTableRecord
  2
AMCONSTR
 70
     0
  3
_______________________
 72
    65
 73
     2
 40
9999.0
 49
9999.0
 74
     0
 49
0.0
 74
     0
  0
LTYPE
  5
4F
330
5
100
AcDbSymbolTableRecord
100
AcDbLinetypeTableRecord
  2
AM_ISO02W050X2
 70
     0
  3
 _ _ _ _ _ _ _ _ _ _ _ _
 72
    65
 73
     2
 40
3.75
 49
3.0
 74
     0
 49
-0.75
 74
     0
  0
LTYPE
  5
50
330
5
100
AcDbSymbolTableRecord
100
AcDbLinetypeTableRecord
  2
AM_ISO08W050X2
 70
     0
  3
__ . __ . __ . __ . __ . __
 72
    65
 73
     4
 40
9.0
 49
6.0
 74
     0
 49
-0.75
 74
     0
 49
1.5
 74
     0
 49
-0.75
 74
     0
  0
LTYPE
  5
53
330
5
100
AcDbSymbolTableRecord
100
AcDbLinetypeTableRecord
  2
AMZIGZAG
 70
     0
  3
/\/-/\/-/\/-/\/-/\/-/\/
 72
    65
 73
     2
 40
11.00009999999999
 49
0.0001
 74
     4
 75
   135
340
52
 46
0.04
 50
0.0
 44
0.0
 45
0.0
 49
-11.0
 74
     0
  0
LTYPE
  5
166
330
5
100
AcDbSymbolTableRecord
100
AcDbLinetypeTableRecord
  2
ACJISTGL
 70
     0
  3
_ _ _ _ _
 72
    65
 73
     2
 40
3.0
 49
2.0
 74
     0
 49
-1.0
 74
     0
  0
LTYPE
  5
26A
330
5
100
AcDbSymbolTableRecord
100
AcDbLinetypeTableRecord
  2
ACJISTGB
 70
     0
  3
__ . . __ . .
 72
    65
 73
     6
 40
9.0
 49
4.0
 74
     0
 49
-1.0
 74
     0
 49
1.0
 74
     0
 49
-1.0
 74
     0
 49
1.0
 74
     0
 49
-1.0
 74
     0
  0
ENDTAB
  0
TABLE
  2
LAYER
  5
2
330
0
100
AcDbSymbolTable
 70
     8
  0
LAYER
  5
10
330
2
100
AcDbSymbolTableRecord
100
AcDbLayerTableRecord
  2
0
 70
     0
 62
     7
  6
CONTINUOUS
  0
LAYER
  5
3F9
330
2
100
AcDbSymbolTableRecord
100
AcDbLayerTableRecord
  2
AM_0
 70
     0
 62
     7
  6
CONTINUOUS
  0
LAYER
  5
C7C
330
2
100
AcDbSymbolTableRecord
100
AcDbLayerTableRecord
  2
AM_7
 70
     0
 62
     4
  6
AM_ISO08W050
  0
LAYER
  5
C97
330
2
100
AcDbSymbolTableRecord
100
AcDbLayerTableRecord
  2
AM_11
 70
     0
 62
     3
  6
AM_ISO09W050
  0
LAYER
  5
CC5
330
2
100
AcDbSymbolTableRecord
100
AcDbLayerTableRecord
  2
AM_5
 70
     0
 62
     3
  6
CONTINUOUS
  0
LAYER
  5
CC7
330
2
100
AcDbSymbolTableRecord
100
AcDbLayerTableRecord
  2
DEFPOINTS
 70
     0
 62
     7
  6
CONTINUOUS
  0
LAYER
  5
19BC
330
2
100
AcDbSymbolTableRecord
100
AcDbLayerTableRecord
  2
AM_6
 70
     0
 62
     2
  6
CONTINUOUS
  0
LAYER
  5
4636
330
2
100
AcDbSymbolTableRecord
100
AcDbLayerTableRecord
  2
AM_CL
 70
     0
 62
     1
  6
AMCONSTR
  0
ENDTAB
  0
TABLE
  2
STYLE
  5
3
330
0
100
AcDbSymbolTable
 70
     5
  0
STYLE
  5
11
330
3
100
AcDbSymbolTableRecord
100
AcDbTextStyleTableRecord
  2
STANDARD
 70
     0
 40
0.0
 41
1.0
 50
0.0
 71
     0
 42
2.5
  3
simplex.shx
  4
EXTFONT.SHX
  0
STYLE
  5
52
330
3
100
AcDbSymbolTableRecord
100
AcDbTextStyleTableRecord
  2

 70
     1
 40
0.0
 41
1.0
 50
0.0
 71
     0
 42
2.5
  3
ltypeshp.shx
  4

  0
STYLE
  5
6B
330
3
100
AcDbSymbolTableRecord
100
AcDbTextStyleTableRecord
  2
ASAMI
 70
     0
 40
0.0
 41
1.0
 50
0.0
 71
     0
 42
2.5
  3
simplex.shx
  4
EXTFONT.SHX
  0
STYLE
  5
262
330
3
100
AcDbSymbolTableRecord
100
AcDbTextStyleTableRecord
  2
ACJISTS
 70
     0
 40
1.0
 41
1.0
 50
0.0
 71
     0
 42
2.5
  3
simplex.shx
  4
bigfont.shx
  0
STYLE
  5
269
330
3
100
AcDbSymbolTableRecord
100
AcDbTextStyleTableRecord
  2
ACJISGDT
 70
     0
 40
0.0
 41
1.0
 50
0.0
 71
     0
 42
2.5
  3
amgdtans.shx
  4

  0
ENDTAB
  0
TABLE
  2
VIEW
  5
6
330
0
100
AcDbSymbolTable
 70
     0
  0
ENDTAB
  0
TABLE
  2
UCS
  5
7
330
0
100
AcDbSymbolTable
 70
     0
  0
ENDTAB
  0
TABLE
  2
APPID
  5
9
330
0
100
AcDbSymbolTable
 70
    16
  0
APPID
  5
12
330
9
100
AcDbSymbolTableRecord
100
AcDbRegAppTableRecord
  2
ACAD
 70
     0
  0
APPID
  5
30
330
9
100
AcDbSymbolTableRecord
100
AcDbRegAppTableRecord
  2
MCAD_NO_VIS
 70
     0
  0
APPID
  5
31
330
9
100
AcDbSymbolTableRecord
100
AcDbRegAppTableRecord
  2
ACAD_TEMP_GRAPHIC
 70
     0
  0
APPID
  5
2C2
330
9
100
AcDbSymbolTableRecord
100
AcDbRegAppTableRecord
  2
GENIUS_GENDTOL_13
 70
     0
  0
APPID
  5
339
330
9
100
AcDbSymbolTableRecord
100
AcDbRegAppTableRecord
  2
GENIUS_GENODEF_13
 70
     0
  0
APPID
  5
33A
330
9
100
AcDbSymbolTableRecord
100
AcDbRegAppTableRecord
  2
GENIUS_GENOBJ-N-RSBK_13
 70
     0
  0
APPID
  5
33B
330
9
100
AcDbSymbolTableRecord
100
AcDbRegAppTableRecord
  2
GENIUS_GENOBJ-N-LIB_13
 70
     0
  0
APPID
  5
33C
330
9
100
AcDbSymbolTableRecord
100
AcDbRegAppTableRecord
  2
GENIUS_GENSCALE_13
 70
     0
  0
APPID
  5
378
330
9
100
AcDbSymbolTableRecord
100
AcDbRegAppTableRecord
  2
GENIUS_GENDIMSH_14
 70
     0
  0
APPID
  5
C82
330
9
100
AcDbSymbolTableRecord
100
AcDbRegAppTableRecord
  2
GENIUS_GENOBJ-N-CRS_13
 70
     0
  0
APPID
  5
C83
330
9
100
AcDbSymbolTableRecord
100
AcDbRegAppTableRecord
  2
GENIUS_GENOENT_13
 70
     0
  0
APPID
  5
C84
330
9
100
AcDbSymbolTableRecord
100
AcDbRegAppTableRecord
  2
GENIUS_GENOREF_13
 70
     0
  0
APPID
  5
C85
330
9
100
AcDbSymbolTableRecord
100
AcDbRegAppTableRecord
  2
GENIUS_GENOLIS_13
 70
     0
  0
APPID
  5
CA0
330
9
100
AcDbSymbolTableRecord
100
AcDbRegAppTableRecord
  2
GENIUS_GENOBJ-N-CEN_13
 70
     0
  0
APPID
  5
1E1E
330
9
100
AcDbSymbolTableRecord
100
AcDbRegAppTableRecord
  2
GENIUS_GENFIL_13
 70
     0
  0
APPID
  5
1E1F
330
9
100
AcDbSymbolTableRecord
100
AcDbRegAppTableRecord
  2
GENIUS_GENOBJ-N-CHA_13
 70
     0
  0
ENDTAB
  0
TABLE
  2
DIMSTYLE
  5
A
330
0
100
AcDbSymbolTable
 70
     9
  0
DIMSTYLE
105
58
330
A
100
AcDbSymbolTableRecord
100
AcDbDimStyleTableRecord
  2
AM_JIS
 70
     0
  3

  4
"
  5
OPEN30
  6

  7

 40
1.0
 41
2.5
 42
1.0
 43
12.0
 44
1.0
 45
0.0
 46
0.0
 47
0.1
 48
0.1
140
3.2
141
0.0
142
0.0
143
0.0393701
144
1.0
145
0.0
146
0.71
147
1.5
 71
     0
 72
     0
 73
     0
 74
     0
 75
     0
 76
     0
 77
     3
 78
     8
170
     0
171
     2
172
     1
173
     0
174
     0
175
     0
176
   256
177
   256
178
     2
270
     2
271
     3
272
     3
273
     2
274
     2
340
6B
275
     0
280
     0
281
     0
282
     0
283
     0
284
     0
285
     0
286
     0
287
     3
288
     0
  0
DIMSTYLE
105
5F
330
A
100
AcDbSymbolTableRecord
100
AcDbDimStyleTableRecord
  2
AM_JIS$3
 70
     0
  3

  4
"
  5
OPEN30
  6

  7

 40
1.0
 41
2.5
 42
1.0
 43
10.0
 44
1.0
 45
0.0
 46
0.0
 47
0.1
 48
0.1
140
3.2
141
0.0
142
0.0
143
0.0393701
144
1.0
145
0.0
146
0.71
147
1.5
 71
     0
 72
     0
 73
     0
 74
     1
 75
     0
 76
     0
 77
     3
 78
     8
170
     0
171
     2
172
     0
173
     0
174
     0
175
     0
176
   256
177
   256
178
     2
270
     2
271
     2
272
     3
273
     2
274
     2
340
6B
275
     0
280
     0
281
     0
282
     0
283
     0
284
     0
285
     0
286
     0
287
     0
288
     1
  0
DIMSTYLE
105
60
330
A
100
AcDbSymbolTableRecord
100
AcDbDimStyleTableRecord
  2
AM_JIS$4
 70
     0
  3

  4
"
  5
OPEN30
  6

  7

 40
1.0
 41
2.5
 42
1.0
 43
10.0
 44
1.0
 45
0.0
 46
0.0
 47
0.1
 48
0.1
140
3.2
141
0.0
142
0.0
143
0.0393701
144
1.0
145
0.0
146
0.71
147
1.5
 71
     0
 72
     0
 73
     0
 74
     1
 75
     0
 76
     0
 77
     3
 78
     8
170
     0
171
     2
172
     0
173
     0
174
     0
175
     0
176
   256
177
   256
178
     2
270
     2
271
     2
272
     3
273
     2
274
     2
340
6B
275
     0
280
     0
281
     0
282
     0
283
     0
284
     0
285
     0
286
     0
287
     0
288
     1
  0
DIMSTYLE
105
61
330
A
100
AcDbSymbolTableRecord
100
AcDbDimStyleTableRecord
  2
AM_JIS$6
 70
     0
  3

  4
"
  5
OPEN30
  6

  7

 40
1.0
 41
2.5
 42
1.0
 43
10.0
 44
1.0
 45
0.0
 46
0.0
 47
0.1
 48
0.1
140
3.2
141
0.0
142
0.0
143
0.0393701
144
1.0
145
0.0
146
0.71
147
1.5
 71
     0
 72
     0
 73
     0
 74
     0
 75
     0
 76
     0
 77
     0
 78
     8
170
     0
171
     2
172
     1
173
     0
174
     0
175
     0
176
   256
177
   256
178
     2
270
     2
271
     2
272
     2
273
     2
274
     2
340
6B
275
     0
280
     0
281
     0
282
     0
283
     0
284
     0
285
     0
286
     0
287
     3
288
     0
  0
DIMSTYLE
105
62
330
A
100
AcDbSymbolTableRecord
100
AcDbDimStyleTableRecord
  2
AM_JIS$7
 70
     0
  3

  4
"
  5
OPEN30
  6

  7

 40
1.0
 41
2.5
 42
1.0
 43
10.0
 44
1.0
 45
0.0
 46
0.0
 47
0.1
 48
0.1
140
3.2
141
0.0
142
0.0
143
0.0393701
144
1.0
145
0.0
146
0.71
147
1.5
 71
     0
 72
     0
 73
     0
 74
     0
 75
     0
 76
     0
 77
     3
 78
     8
170
     0
171
     2
172
     1
173
     0
174
     0
175
     0
176
   256
177
   256
178
     2
270
     2
271
     2
272
     3
273
     2
274
     2
340
6B
275
     0
280
     0
281
     0
282
     0
283
     0
284
     0
285
     0
286
     0
287
     3
288
     0
  0
DIMSTYLE
105
63
330
A
100
AcDbSymbolTableRecord
100
AcDbDimStyleTableRecord
  2
AM_JIS$SF
 70
     0
  3

  4
"
  5
OPEN30
  6

  7

 40
1.0
 41
2.5
 42
1.0
 43
10.0
 44
1.0
 45
0.0
 46
0.0
 47
0.1
 48
0.1
140
3.2
141
0.0
142
0.0
143
0.0393701
144
1.0
145
0.0
146
0.71
147
1.5
 71
     0
 72
     0
 73
     0
 74
     0
 75
     1
 76
     1
 77
     3
 78
     8
170
     0
171
     2
172
     1
173
     0
174
     0
175
     0
176
   256
177
   256
178
     2
270
     2
271
     2
272
     2
273
     2
274
     2
340
6B
275
     0
280
     0
281
     0
282
     0
283
     0
284
     0
285
     0
286
     0
287
     3
288
     0
  0
DIMSTYLE
105
68
330
A
100
AcDbSymbolTableRecord
100
AcDbDimStyleTableRecord
  2
AM_JIS$SH
 70
     0
  3

  4
"
  5

  6
GENAXEH
  7
OPEN30
 40
1.0
 41
2.5
 42
1.0
 43
10.0
 44
1.0
 45
0.0
 46
0.0
 47
0.1
 48
0.1
140
3.2
141
0.0
142
0.0
143
0.0393701
144
2.0
145
0.0
146
0.71
147
1.5
 71
     0
 72
     0
 73
     0
 74
     0
 75
     1
 76
     1
 77
     3
 78
     8
170
     0
171
     2
172
     1
173
     1
174
     0
175
     0
176
   256
177
   256
178
     2
270
     2
271
     2
272
     2
273
     2
274
     2
340
6B
275
     0
280
     0
281
     0
282
     0
283
     0
284
     0
285
     0
286
     0
287
     3
288
     0
  0
DIMSTYLE
105
B34
102
{ACAD_REACTORS
330
4680
102
}
330
A
100
AcDbSymbolTableRecord
100
AcDbDimStyleTableRecord
  2
AM_JIS$2
 70
     0
  3

  4
"
  5
OPEN30
  6

  7

 40
1.0
 41
2.5
 42
1.0
 43
12.0
 44
1.0
 45
0.0
 46
0.0
 47
0.1
 48
0.1
140
3.2
141
0.0
142
0.0
143
0.0393701
144
1.0
145
0.0
146
0.71
147
1.5
 71
     0
 72
     0
 73
     0
 74
     0
 75
     0
 76
     0
 77
     3
 78
     8
170
     0
171
     2
172
     1
173
     0
174
     0
175
     0
176
   256
177
   256
178
     2
270
     2
271
     3
272
     3
273
     2
274
     2
340
6B
275
     0
280
     0
281
     0
282
     0
283
     0
284
     0
285
     0
286
     0
287
     3
288
     0
  0
DIMSTYLE
105
BA5
102
{ACAD_REACTORS
330
CC6
330
DF5
330
1FB6
330
2216
102
}
330
A
100
AcDbSymbolTableRecord
100
AcDbDimStyleTableRecord
  2
AM_JIS$0
 70
     0
  3

  4
"
  5
OPEN30
  6

  7

 40
1.0
 41
2.5
 42
0.0
 43
10.0
 44
1.0
 45
0.0
 46
0.0
 47
0.1
 48
0.1000000001
140
3.799999999999999
141
0.0
142
0.0
143
0.0393701
144
1.0
145
0.0
146
0.71
147
1.5
 71
     0
 72
     0
 73
     0
 74
     0
 75
     0
 76
     0
 77
     3
 78
     1
170
     0
171
     2
172
     1
173
     0
174
     0
175
     0
176
     3
177
     3
178
     2
270
     2
271
     2
272
     2
273
     2
274
     2
340
11
275
     1
280
     0
281
     0
282
     0
283
     0
284
     8
285
     0
286
     0
287
     0
288
     0
  0
ENDTAB
  0
TABLE
  2
BLOCK_RECORD
  5
1
330
0
100
AcDbSymbolTable
 70
    10
  0
BLOCK_RECORD
  5
1F
102
{ACAD_XDICTIONARY
360
74
102
}
330
1
100
AcDbSymbolTableRecord
100
AcDbBlockTableRecord
  2
*MODEL_SPACE
  0
BLOCK_RECORD
  5
101
102
{ACAD_XDICTIONARY
360
47DD
102
}
330
1
100
AcDbSymbolTableRecord
100
AcDbBlockTableRecord
  2
*PAPER_SPACE
  0
BLOCK_RECORD
  5
59
330
1
100
AcDbSymbolTableRecord
100
AcDbBlockTableRecord
  2
_OPEN30
  0
BLOCK_RECORD
  5
64
330
1
100
AcDbSymbolTableRecord
100
AcDbBlockTableRecord
  2
GENAXEH
  0
BLOCK_RECORD
  5
CC8
330
1
100
AcDbSymbolTableRecord
100
AcDbBlockTableRecord
  2
*D5
  0
BLOCK_RECORD
  5
DF6
330
1
100
AcDbSymbolTableRecord
100
AcDbBlockTableRecord
  2
*D6
  0
BLOCK_RECORD
  5
1FB7
330
1
100
AcDbSymbolTableRecord
100
AcDbBlockTableRecord
  2
*D7
  0
BLOCK_RECORD
  5
2217
330
1
100
AcDbSymbolTableRecord
100
AcDbBlockTableRecord
  2
*D8
  0
BLOCK_RECORD
  5
4681
330
1
100
AcDbSymbolTableRecord
100
AcDbBlockTableRecord
  2
*D9
  0
ENDTAB
  0
ENDSEC
  0
SECTION
  2
BLOCKS
  0
BLOCK
  5
20
330
1F
100
AcDbEntity
  8
0
100
AcDbBlockBegin
  2
*MODEL_SPACE
 70
     0
 10
0.0
 20
0.0
 30
0.0
  3
*MODEL_SPACE
  1

  0
ENDBLK
  5
21
330
1F
100
AcDbEntity
  8
0
100
AcDbBlockEnd
  0
BLOCK
  5
103
330
101
100
AcDbEntity
 67
     1
  8
0
100
AcDbBlockBegin
  2
*PAPER_SPACE
 70
     0
 10
0.0
 20
0.0
 30
0.0
  3
*PAPER_SPACE
  1

  0
ENDBLK
  5
104
330
101
100
AcDbEntity
 67
     1
  8
0
100
AcDbBlockEnd
  0
BLOCK
  5
5D
330
59
100
AcDbEntity
  8
0
100
AcDbBlockBegin
  2
_OPEN30
 70
     0
 10
0.0
 20
0.0
 30
0.0
  3
_OPEN30
  1

  0
LINE
  5
5A
330
59
100
AcDbEntity
  8
0
 62
     0
100
AcDbLine
 10
-1.0
 20
0.26794919
 30
0.0
 11
0.0
 21
0.0
 31
0.0
  0
LINE
  5
5B
330
59
100
AcDbEntity
  8
0
 62
     0
100
AcDbLine
 10
0.0
 20
0.0
 30
0.0
 11
-1.0
 21
-0.26794919
 31
0.0
  0
LINE
  5
5C
330
59
100
AcDbEntity
  8
0
 62
     0
100
AcDbLine
 10
0.0
 20
0.0
 30
0.0
 11
-1.0
 21
0.0
 31
0.0
  0
ENDBLK
  5
5E
330
59
100
AcDbEntity
  8
0
100
AcDbBlockEnd
  0
BLOCK
  5
66
330
64
100
AcDbEntity
  8
0
100
AcDbBlockBegin
  2
GENAXEH
 70
     0
 10
0.0
 20
0.0
 30
0.0
  3
GENAXEH
  1

  0
LINE
  5
65
330
64
100
AcDbEntity
  8
0
100
AcDbLine
 10
-1.0
 20
0.0
 30
0.0
 11
1.0
 21
0.0
 31
0.0
  0
ENDBLK
  5
67
330
64
100
AcDbEntity
  8
0
100
AcDbBlockEnd
  0
BLOCK
  5
CD2
330
CC8
100
AcDbEntity
  8
0
100
AcDbBlockBegin
  2
*D5
 70
     1
 10
0.0
 20
0.0
 30
0.0
  3
*D5
  1

  0
LINE
  5
464D
330
CC8
100
AcDbEntity
  8
AM_5
 62
     3
100
AcDbLine
 10
-196.9999999999999
 20
-7.500002054481325
 30
0.0
 11
-196.9999999999999
 21
-33.00000305448115
 31
0.0
  0
LINE
  5
464E
330
CC8
100
AcDbEntity
  8
AM_5
 62
     3
100
AcDbLine
 10
-2.999999999999425
 20
-7.900000689282187
 30
0.0
 11
-2.999999999999427
 21
-33.00000305448115
 31
0.0
  0
LINE
  5
464F
330
CC8
100
AcDbEntity
  8
AM_5
 62
     3
100
AcDbLine
 10
-194.4999999999999
 20
-32.00000305448114
 30
0.0
 11
-5.499999999999427
 21
-32.00000305448114
 31
0.0
  0
INSERT
  5
4650
330
CC8
100
AcDbEntity
  8
AM_5
 62
     3
100
AcDbBlockReference
  2
_OPEN30
 10
-196.9999999999999
 20
-32.00000305448114
 30
0.0
 41
2.5
 42
2.5
 43
2.5
 50
180.0
  0
INSERT
  5
4651
330
CC8
100
AcDbEntity
  8
AM_5
 62
     3
100
AcDbBlockReference
  2
_OPEN30
 10
-2.999999999999427
 20
-32.00000305448114
 30
0.0
 41
2.5
 42
2.5
 43
2.5
  0
MTEXT
  5
4652
330
CC8
100
AcDbEntity
  8
AM_5
 62
     2
100
AcDbMText
 10
-99.99999999999968
 20
-28.60000305448115
 30
0.0
 40
3.799999999999999
 41
0.0
 71
     5
 72
     1
  1
194
1001
ACAD
1000
MTEXTBEGIN
1070
    73
1070
     1
1070
    44
1040
1.0
1070
    74
1070
     0
1000
MTEXTEND
  0
POINT
  5
4653
330
CC8
100
AcDbEntity
  8
DEFPOINTS
 62
     0
100
AcDbPoint
 10
-196.9999999999999
 20
-7.500002054481325
 30
0.0
  0
POINT
  5
4654
330
CC8
100
AcDbEntity
  8
DEFPOINTS
 62
     0
100
AcDbPoint
 10
-2.999999999999425
 20
-7.900000689282187
 30
0.0
  0
POINT
  5
4655
330
CC8
100
AcDbEntity
  8
DEFPOINTS
 62
     0
100
AcDbPoint
 10
-2.999999999999427
 20
-32.00000305448114
 30
0.0
  0
ENDBLK
  5
CD3
330
CC8
100
AcDbEntity
  8
0
100
AcDbBlockEnd
  0
BLOCK
  5
E00
330
DF6
100
AcDbEntity
  8
0
100
AcDbBlockBegin
  2
*D6
 70
     1
 10
0.0
 20
0.0
 30
0.0
  3
*D6
  1

  0
LINE
  5
4644
330
DF6
100
AcDbEntity
  8
AM_5
 62
     3
100
AcDbLine
 10
-130.9999807595528
 20
-8.000002054481299
 30
0.0
 11
-130.9999807595528
 21
-23.00000305448101
 31
0.0
  0
LINE
  5
4645
330
DF6
100
AcDbEntity
  8
AM_5
 62
     3
100
AcDbLine
 10
-2.99999999999938
 20
-7.900000689282076
 30
0.0
 11
-2.999999999999381
 21
-23.00000305448101
 31
0.0
  0
LINE
  5
4646
330
DF6
100
AcDbEntity
  8
AM_5
 62
     3
100
AcDbLine
 10
-128.4999807595528
 20
-22.00000305448101
 30
0.0
 11
-5.499999999999381
 21
-22.00000305448101
 31
0.0
  0
INSERT
  5
4647
330
DF6
100
AcDbEntity
  8
AM_5
 62
     3
100
AcDbBlockReference
  2
_OPEN30
 10
-130.9999807595528
 20
-22.00000305448101
 30
0.0
 41
2.5
 42
2.5
 43
2.5
 50
180.0
  0
INSERT
  5
4648
330
DF6
100
AcDbEntity
  8
AM_5
 62
     3
100
AcDbBlockReference
  2
_OPEN30
 10
-2.999999999999381
 20
-22.00000305448101
 30
0.0
 41
2.5
 42
2.5
 43
2.5
  0
MTEXT
  5
4649
330
DF6
100
AcDbEntity
  8
AM_5
 62
     2
100
AcDbMText
 10
-66.99999037977611
 20
-18.60000305448101
 30
0.0
 40
3.799999999999999
 41
0.0
 71
     5
 72
     1
  1
128
1001
ACAD
1000
MTEXTBEGIN
1070
    73
1070
     1
1070
    44
1040
1.0
1070
    74
1070
     0
1000
MTEXTEND
  0
POINT
  5
464A
330
DF6
100
AcDbEntity
  8
DEFPOINTS
 62
     0
100
AcDbPoint
 10
-130.9999807595528
 20
-8.000002054481299
 30
0.0
  0
POINT
  5
464B
330
DF6
100
AcDbEntity
  8
DEFPOINTS
 62
     0
100
AcDbPoint
 10
-2.99999999999938
 20
-7.900000689282076
 30
0.0
  0
POINT
  5
464C
330
DF6
100
AcDbEntity
  8
DEFPOINTS
 62
     0
100
AcDbPoint
 10
-2.999999999999381
 20
-22.00000305448101
 30
0.0
  0
ENDBLK
  5
E01
330
DF6
100
AcDbEntity
  8
0
100
AcDbBlockEnd
  0
BLOCK
  5
1FC3
330
1FB7
100
AcDbEntity
  8
0
100
AcDbBlockBegin
  2
*D7
 70
     1
 10
0.0
 20
0.0
 30
0.0
  3
*D7
  1

  0
LINE
  5
466A
330
1FB7
100
AcDbEntity
  8
AM_5
 62
     3
100
AcDbLine
 10
-2.99999999999938
 20
-7.900000689282076
 30
0.0
 11
15.55592102485809
 21
-7.900000689282081
 31
0.0
  0
LINE
  5
466B
330
1FB7
100
AcDbEntity
  8
AM_5
 62
     3
100
AcDbLine
 10
-2.999999999999154
 20
7.899999310717546
 30
0.0
 11
15.55592102485809
 21
7.89999931071754
 31
0.0
  0
LINE
  5
466C
330
1FB7
100
AcDbEntity
  8
AM_5
 62
     3
100
AcDbLine
 10
14.55592102485808
 20
-5.400000689282081
 30
0.0
 11
14.55592102485809
 21
5.39999931071754
 31
0.0
  0
INSERT
  5
466D
330
1FB7
100
AcDbEntity
  8
AM_5
 62
     3
100
AcDbBlockReference
  2
_OPEN30
 10
14.55592102485808
 20
-7.900000689282081
 30
0.0
 41
2.5
 42
2.5
 43
2.5
 50
270.0
  0
INSERT
  5
466E
330
1FB7
100
AcDbEntity
  8
AM_5
 62
     3
100
AcDbBlockReference
  2
_OPEN30
 10
14.55592102485809
 20
7.89999931071754
 30
0.0
 41
2.5
 42
2.5
 43
2.5
 50
90.0
  0
MTEXT
  5
466F
330
1FB7
100
AcDbEntity
  8
AM_5
 62
     2
100
AcDbMText
 10
11.15592102485808
 20
-0.0000006892822673
 30
0.0
 40
3.799999999999999
 41
0.0
 71
     5
 72
     1
  1
%%c15.8
 11
0.0000000000000001
 21
1.0
 31
0.0
1001
ACAD
1000
MTEXTBEGIN
1070
    73
1070
     1
1070
    44
1040
1.0
1070
    74
1070
     0
1000
MTEXTEND
  0
POINT
  5
4670
330
1FB7
100
AcDbEntity
  8
DEFPOINTS
 62
     0
100
AcDbPoint
 10
-2.99999999999938
 20
-7.900000689282076
 30
0.0
  0
POINT
  5
4671
330
1FB7
100
AcDbEntity
  8
DEFPOINTS
 62
     0
100
AcDbPoint
 10
-2.999999999999154
 20
7.899999310717546
 30
0.0
  0
POINT
  5
4672
330
1FB7
100
AcDbEntity
  8
DEFPOINTS
 62
     0
100
AcDbPoint
 10
14.55592102485809
 20
7.89999931071754
 30
0.0
  0
ENDBLK
  5
1FC4
330
1FB7
100
AcDbEntity
  8
0
100
AcDbBlockEnd
  0
BLOCK
  5
2221
330
2217
100
AcDbEntity
  8
0
100
AcDbBlockBegin
  2
*D8
 70
     1
 10
0.0
 20
0.0
 30
0.0
  3
*D8
  1

  0
LINE
  5
4656
330
2217
100
AcDbEntity
  8
AM_5
 62
     3
100
AcDbLine
 10
-196.5000000000004
 20
7.999999999998412
 30
0.0
 11
-214.0000009999999
 21
7.999999999998363
 31
0.0
  0
LINE
  5
4657
330
2217
100
AcDbEntity
  8
AM_5
 62
     3
100
AcDbLine
 10
-196.5000000000004
 20
-8.000002054481424
 30
0.0
 11
-214.0000009999998
 21
-8.000002054481473
 31
0.0
  0
LINE
  5
4658
330
2217
100
AcDbEntity
  8
AM_5
 62
     3
100
AcDbLine
 10
-213.0000009999999
 20
5.499999999998366
 30
0.0
 11
-213.0000009999998
 21
-5.50000205448147
 31
0.0
  0
INSERT
  5
4659
330
2217
100
AcDbEntity
  8
AM_5
 62
     3
100
AcDbBlockReference
  2
_OPEN30
 10
-213.0000009999999
 20
7.999999999998366
 30
0.0
 41
2.5
 42
2.5
 43
2.5
 50
90.00000000000017
  0
INSERT
  5
465A
330
2217
100
AcDbEntity
  8
AM_5
 62
     3
100
AcDbBlockReference
  2
_OPEN30
 10
-213.0000009999998
 20
-8.00000205448147
 30
0.0
 41
2.5
 42
2.5
 43
2.5
 50
270.0000000000001
  0
MTEXT
  5
465B
330
2217
100
AcDbEntity
  8
AM_5
 62
     2
100
AcDbMText
 10
-216.4000009999999
 20
-0.0000010272415533
 30
0.0
 40
3.799999999999999
 41
0.0
 71
     5
 72
     1
  1
%%c16
 11
-0.0000000000000028
 21
1.0
 31
0.0
1001
ACAD
1000
MTEXTBEGIN
1070
    73
1070
     1
1070
    44
1040
1.0
1070
    74
1070
     0
1000
MTEXTEND
  0
POINT
  5
465C
330
2217
100
AcDbEntity
  8
DEFPOINTS
 62
     0
100
AcDbPoint
 10
-196.5000000000004
 20
7.999999999999023
 30
0.0
  0
POINT
  5
465D
330
2217
100
AcDbEntity
  8
DEFPOINTS
 62
     0
100
AcDbPoint
 10
-196.5000000000004
 20
-8.000002054480813
 30
0.0
  0
POINT
  5
465E
330
2217
100
AcDbEntity
  8
DEFPOINTS
 62
     0
100
AcDbPoint
 10
-213.0000009999998
 20
-8.000002054480807
 30
0.0
  0
ENDBLK
  5
2222
330
2217
100
AcDbEntity
  8
0
100
AcDbBlockEnd
  0
BLOCK
  5
468F
330
4681
100
AcDbEntity
  8
0
100
AcDbBlockBegin
  2
*D9
 70
     1
 10
0.0
 20
0.0
 30
0.0
  3
*D9
  1

  0
LINE
  5
47DF
330
4681
100
AcDbEntity
  8
AM_5
100
AcDbLine
 10
0.3420201408161974
 20
-0.9396926216994582
 30
0.0
 11
8.994273996575079
 21
-24.71156491531576
 31
0.0
  0
LINE
  5
47E0
330
4681
100
AcDbEntity
  8
AM_5
100
AcDbLine
 10
0.3420224212244416
 20
0.9396917916953068
 30
0.0
 11
8.994333965606502
 21
24.71154308829082
 31
0.0
  0
ARC
  5
47E1
330
4681
100
AcDbEntity
  8
AM_5
100
AcDbCircle
 10
0.0000000000000549
 20
-0.0000000000001509
 30
0.0
 40
25.29749808041295
100
AcDbArc
 50
295.6645046954182
 51
64.33535626142798
  0
INSERT
  5
47E2
330
4681
100
AcDbEntity
  8
AM_5
100
AcDbBlockReference
  2
_OPEN30
 10
8.652253855758939
 20
-23.77187229361646
 30
0.0
 41
2.5
 42
2.5
 43
2.5
 50
202.8322522712025
  0
INSERT
  5
47E3
330
4681
100
AcDbEntity
  8
AM_5
100
AcDbBlockReference
  2
_OPEN30
 10
8.652311544382119
 20
23.77185129659536
 30
0.0
 41
2.5
 42
2.5
 43
2.5
 50
157.1676086856437
  0
MTEXT
  5
47E4
330
4681
100
AcDbEntity
  8
AM_5
 62
     2
100
AcDbMText
 10
22.19749808039666
 20
-0.000026934009639
 30
0.0
 40
3.2
 41
0.0
 71
     5
 72
     1
  1
140°
  7
ASAMI
 11
0.0000012133804173
 21
0.999999999999264
 31
0.0
  0
POINT
  5
47E5
330
4681
100
AcDbEntity
  8
DEFPOINTS
 62
     0
100
AcDbPoint
 10
23.22856208703945
 20
-10.01984593180233
 30
0.0
  0
POINT
  5
47E6
330
4681
100
AcDbEntity
  8
DEFPOINTS
 62
     0
100
AcDbPoint
 10
0.0000000000000568
 20
-0.0000000000001457
 30
0.0
  0
POINT
  5
47E7
330
4681
100
AcDbEntity
  8
DEFPOINTS
 62
     0
100
AcDbPoint
 10
0.0000000000000568
 20
-0.0000000000001562
 30
0.0
  0
POINT
  5
47E8
330
4681
100
AcDbEntity
  8
DEFPOINTS
 62
     0
100
AcDbPoint
 10
-0.6568967178321655
 20
1.804808914154591
 30
0.0
  0
POINT
  5
47E9
330
4681
100
AcDbEntity
  8
DEFPOINTS
 62
     0
100
AcDbPoint
 10
-0.6569101001225143
 20
-1.804832053867269
 30
0.0
  0
ENDBLK
  5
4690
330
4681
100
AcDbEntity
  8
0
100
AcDbBlockEnd
  0
ENDSEC
  0
SECTION
  2
ENTITIES
  0
LINE
  5
C9F
330
1F
100
AcDbEntity
  8
AM_7
100
AcDbLine
 10
-198.9999999999999
 20
-0.0000000000005212
 30
0.0
 11
0.5559200248581107
 21
-0.0000000000001446
 31
0.0
1001
GENIUS_GENODEF_13
1002
{
1000
HIER
1070
     0
1002
}
1002
{
1000
MANEDIT
1070
     0
1002
}
1002
{
1000
NOSEL
1070
     0
1002
}
1002
{
1000
BEHIND
1070
     0
1002
}
1002
{
1000
REACTOR
1002
}
1001
GENIUS_GENOBJ-N-CEN_13
1002
{
1000
OWNER
1000
GEN
1002
}
  0
DIMENSION
  5
CC6
330
1F
100
AcDbEntity
  8
AM_5
100
AcDbDimension
  2
*D5
 10
-2.999999999999427
 20
-32.00000305448114
 30
0.0
 11
-99.99999999999968
 21
-28.60000305448115
 31
0.0
 70
    32
  1
<>
  3
AM_JIS$0
100
AcDbAlignedDimension
 13
-196.9999999999999
 23
-7.500002054481325
 33
0.0
 14
-2.999999999999425
 24
-7.900000689282187
 34
0.0
 50
0.0000000000001132
100
AcDbRotatedDimension
1001
GENIUS_GENDTOL_13
1000

1000
h7
1000

1040
0.0
1001
ACAD
1000
DSTYLE
1002
{
1070
   271
1070
     0
1002
}
  0
DIMENSION
  5
DF5
330
1F
100
AcDbEntity
  8
AM_5
100
AcDbDimension
  2
*D6
 10
-2.999999999999381
 20
-22.00000305448101
 30
0.0
 11
-66.99999037977611
 21
-18.60000305448101
 31
0.0
 70
    32
  1
<>
  3
AM_JIS$0
100
AcDbAlignedDimension
 13
-130.9999807595528
 23
-8.000002054481299
 33
0.0
 14
-2.99999999999938
 24
-7.900000689282076
 34
0.0
 50
0.0000000000001527
100
AcDbRotatedDimension
1001
GENIUS_GENDTOL_13
1000

1000
h7
1000

1040
0.0
1001
ACAD
1000
DSTYLE
1002
{
1070
   271
1070
     0
1002
}
  0
TEXT
  5
19BD
330
1F
100
AcDbEntity
  8
AM_6
100
AcDbText
 10
-121.1904761904757
 20
-54.50000305448121
 30
0.0
 40
5.0
  1
MDW158LHK
 50
0.0000000000001527
 72
     4
 11
-99.99999999999953
 21
-52.00000305448115
 31
0.0
100
AcDbText
  0
LINE
  5
1E25
330
1F
100
AcDbEntity
  8
AM_0
100
AcDbLine
 10
-130.9999807595529
 20
-8.000002054481358
 30
0.0
 11
-130.8267733141912
 21
-7.900000689276101
 31
0.0
  0
LINE
  5
1E26
330
1F
100
AcDbEntity
  8
AM_0
100
AcDbLine
 10
-130.8267744849356
 20
7.899999310723833
 30
0.0
 11
-130.9999999999999
 21
8.00001110847671
 31
0.0
  0
DIMENSION
  5
1FB6
330
1F
100
AcDbEntity
  8
AM_5
100
AcDbDimension
  2
*D7
 10
14.55592102485809
 20
7.89999931071754
 30
0.0
 11
14.55592102485808
 21
-0.0000006892822677
 31
0.0
 70
   160
  1
%%c<>
  3
AM_JIS$0
100
AcDbAlignedDimension
 13
-2.99999999999938
 23
-7.900000689282076
 33
0.0
 14
-2.999999999999154
 24
7.899999310717546
 34
0.0
 50
89.99999999999969
100
AcDbRotatedDimension
1001
ACAD
1000
DSTYLE
1002
{
1070
   271
1070
     1
1002
}
1001
GENIUS_GENDTOL_13
1000

1000
h7
1000

1040
0.0
  0
LINE
  5
1FD9
330
1F
100
AcDbEntity
  8
AM_0
100
AcDbLine
 10
-130.8267733141912
 20
-7.900000689276106
 30
0.0
 11
-130.8267739242739
 21
-6.201256860727648
 31
0.0
  0
LINE
  5
21D7
330
1F
100
AcDbEntity
  8
AM_0
 48
0.5
100
AcDbLine
 10
-130.9999807595529
 20
-8.000002054481299
 30
0.0
 11
-130.9999807595529
 21
7.99999999999953
 31
0.0
  0
LINE
  5
21D8
330
1F
100
AcDbEntity
  8
AM_0
 48
0.5
100
AcDbLine
 10
-196.4999999999999
 20
7.999999999999478
 30
0.0
 11
-130.999980759553
 21
7.999999999999531
 31
0.0
1001
GENIUS_GENODEF_13
1002
{
1000
HIER
1070
     0
1002
}
1002
{
1000
MANEDIT
1070
     0
1002
}
1002
{
1000
NOSEL
1070
     0
1002
}
1002
{
1000
BEHIND
1070
     0
1002
}
1002
{
1000
REACTOR
1002
}
1001
GENIUS_GENOBJ-N-CEN_13
1002
{
1000
OWNER
1000
GEN
1002
}
  0
LINE
  5
21D9
330
1F
100
AcDbEntity
  8
AM_0
 48
0.5
100
AcDbLine
 10
-196.4999999999998
 20
-8.000002054481353
 30
0.0
 11
-130.9999807595529
 21
-8.000002054481299
 31
0.0
1001
GENIUS_GENODEF_13
1002
{
1000
HIER
1070
     0
1002
}
1002
{
1000
MANEDIT
1070
     0
1002
}
1002
{
1000
NOSEL
1070
     0
1002
}
1002
{
1000
BEHIND
1070
     0
1002
}
1002
{
1000
REACTOR
1002
}
1001
GENIUS_GENOBJ-N-CEN_13
1002
{
1000
OWNER
1000
GEN
1002
}
  0
LINE
  5
21DC
330
1F
100
AcDbEntity
  8
AM_0
100
AcDbLine
 10
-196.5000000000004
 20
-8.000002054481353
 30
0.0
 11
-196.5000000000003
 21
7.999999999999479
 31
0.0
  0
LINE
  5
21DD
330
1F
100
AcDbEntity
  8
AM_0
 48
0.5
100
AcDbLine
 10
-196.9999999999998
 20
-7.500002054481353
 30
0.0
 11
-196.9999999999999
 21
7.499999999999478
 31
0.0
  0
DIMENSION
  5
2216
330
1F
100
AcDbEntity
  8
AM_5
100
AcDbDimension
  2
*D8
 10
-213.0000009999998
 20
-8.000002054480807
 30
0.0
 11
-216.4000009999999
 21
-0.0000010272409237
 31
0.0
 70
    32
  1
%%c<>
 51
359.9999999999998
  3
AM_JIS$0
100
AcDbAlignedDimension
 13
-196.5000000000004
 23
7.999999999999023
 33
0.0
 14
-196.5000000000004
 24
-8.000002054480813
 34
0.0
 50
269.9999999999999
100
AcDbRotatedDimension
1001
ACAD
1000
DSTYLE
1002
{
1070
   271
1070
     0
1002
}
1001
GENIUS_GENDTOL_13
1000

1000
h7
1000

1040
0.0
  0
ELLIPSE
  5
2694
330
1F
100
AcDbEntity
  8
AM_0
 48
0.5
100
AcDbEllipse
 10
9.217248688528284
 20
7.401657934614643
 30
0.0
 11
11.3780264168592
 21
0.0000000000011224
 31
0.0
210
0.0
220
0.0
230
1.0
 40
0.9899999999999971
 41
3.323896559076802
 42
3.661579236128986
  0
LINE
  5
2695
330
1F
100
AcDbEntity
  8
AM_0
 48
0.5
100
AcDbLine
 10
-1.97222807005761
 20
5.359497651709038
 30
0.0
 11
-2.999999999999154
 21
7.899999310717546
 31
0.0
  0
LINE
  5
2696
330
1F
100
AcDbEntity
  8
AM_0
 48
0.5
100
AcDbLine
 10
0.0000000000000568
 20
-0.0000000000001562
 30
0.0
 11
-0.6568967178321654
 21
1.804808914154591
 31
0.0
  0
LINE
  5
2699
330
1F
100
AcDbEntity
  8
AM_0
 48
0.5
100
AcDbLine
 10
0.0000000000000568
 20
-0.0000000000001457
 30
0.0
 11
-0.6569101001225142
 21
-1.804832053867269
 31
0.0
  0
ELLIPSE
  5
3366
330
1F
100
AcDbEntity
  8
AM_0
 48
0.5
100
AcDbEllipse
 10
9.217248688528307
 20
-7.40165793461491
 30
0.0
 11
11.3780264168592
 21
-0.0000000000010845
 31
0.0
210
0.0
220
0.0
230
-1.0
 40
0.9899999999999971
 41
3.323896559076802
 42
3.661579236128986
  0
LINE
  5
3367
330
1F
100
AcDbEntity
  8
AM_0
 48
0.5
100
AcDbLine
 10
-1.972228070057594
 20
-5.35949765170935
 30
0.0
 11
-2.99999999999938
 21
-7.900000689282076
 31
0.0
  0
LINE
  5
3F18
330
1F
100
AcDbEntity
  8
AM_0
 48
0.5
100
AcDbLine
 10
-196.4999999999999
 20
7.999999999999478
 30
0.0
 11
-196.9999999999999
 21
7.499999999999478
 31
0.0
1001
GENIUS_GENFIL_13
1070
     0
1040
0.5
1040
0.5
1040
20.0
1040
0.0
1002
{
1002
}
1001
GENIUS_GENODEF_13
1002
{
1000
HIER
1070
     0
1002
}
1002
{
1000
MANEDIT
1070
     0
1002
}
1002
{
1000
NOSEL
1070
     0
1002
}
1002
{
1000
BEHIND
1070
     0
1002
}
1002
{
1000
REACTOR
1002
}
1001
GENIUS_GENOBJ-N-CHA_13
1002
{
1000
OWNER
1000
GEN
1002
}
  0
LINE
  5
3F1B
330
1F
100
AcDbEntity
  8
AM_0
 48
0.5
100
AcDbLine
 10
-196.9999999999998
 20
-7.500002054481353
 30
0.0
 11
-196.4999999999998
 21
-8.000002054481353
 31
0.0
1001
GENIUS_GENFIL_13
1070
     0
1040
0.5
1040
0.5
1040
20.0
1040
0.0
1002
{
1002
}
1001
GENIUS_GENODEF_13
1002
{
1000
HIER
1070
     0
1002
}
1002
{
1000
MANEDIT
1070
     0
1002
}
1002
{
1000
NOSEL
1070
     0
1002
}
1002
{
1000
BEHIND
1070
     0
1002
}
1002
{
1000
REACTOR
1002
}
1001
GENIUS_GENOBJ-N-CHA_13
1002
{
1000
OWNER
1000
GEN
1002
}
  0
LINE
  5
449D
330
1F
100
AcDbEntity
  8
AM_0
100
AcDbLine
 10
-130.8267781437323
 20
5.54760795140107
 30
0.0
 11
-130.8267789885654
 21
7.900001910895679
 31
0.0
  0
LINE
  5
449E
330
1F
100
AcDbEntity
  8
AM_0
100
AcDbLine
 10
-130.8267740795881
 20
-5.768792355985265
 30
0.0
 11
-130.8267747758502
 21
-3.830086326369835
 31
0.0
  0
LINE
  5
449F
330
1F
100
AcDbEntity
  8
AM_0
100
AcDbLine
 10
-130.8267748100856
 20
-3.734759629554616
 30
0.0
 11
-130.8267778615595
 21
4.761912325649441
 31
0.0
  0
LINE
  5
45B4
330
1F
100
AcDbEntity
  8
AM_0
 48
0.5
100
AcDbLine
 10
0.0000000000000568
 20
-0.0000000000001457
 30
0.0
 11
-5.757492088544508
 21
3.033359346931303
 31
0.0
  0
ELLIPSE
  5
45B5
330
1F
100
AcDbEntity
  8
AM_0
100
AcDbEllipse
 10
-130.0863241288176
 20
-6.900387671346469
 30
0.0
 11
0.0000000000000346
 21
1.292079891569104
 31
0.0
210
0.0
220
0.0
230
1.0
 40
0.9343301333787326
 41
-0.1305094391969617
 42
0.0485168534969038
  0
ELLIPSE
  5
45B6
330
1F
100
AcDbEntity
  8
AM_0
100
AcDbEllipse
 10
-129.7970901531186
 20
-9.504792254528188
 30
0.0
 11
-0.0000000000010666
 21
3.912709711982092
 31
0.0
210
0.0
220
0.0
230
1.0
 40
0.9343301333785296
 41
0.095276617035734
 42
0.2313492321873962
  0
ELLIPSE
  5
45B7
330
1F
100
AcDbEntity
  8
AM_0
100
AcDbEllipse
 10
-129.474749788971
 20
-2.480813639273537
 30
0.0
 11
0.0000000000039258
 21
4.002126288520006
 31
0.0
210
0.0
220
0.0
230
1.0
 40
0.9343301333783887
 41
2.827283645646538
 42
2.960363693372148
  0
ELLIPSE
  5
45B8
330
1F
100
AcDbEntity
  8
AM_0
100
AcDbEllipse
 10
-130.5028787924937
 20
-6.423074593310901
 30
0.0
 11
-0.0000000000015523
 21
0.7404449343258484
 31
0.0
210
0.0
220
0.0
230
1.0
 40
0.9343301333782749
 41
0.192633286330955
 42
0.5061117441957439
  0
ELLIPSE
  5
45B9
330
1F
100
AcDbEntity
  8
AM_0
100
AcDbEllipse
 10
-130.6145195863408
 20
-6.210824523281689
 30
0.0
 11
-0.0000000000041495
 21
0.4968808132844547
 31
0.0
210
0.0
220
0.0
230
1.0
 40
0.9343301333785207
 41
0.5028645116576902
 42
0.8675868530604828
  0
ELLIPSE
  5
45BA
330
1F
100
AcDbEntity
  8
AM_0
100
AcDbEllipse
 10
-130.8666442591879
 20
-5.981446889987664
 30
0.0
 11
0.0000000000009975
 21
0.1427199927064866
 31
0.0
210
0.0
220
0.0
230
1.0
 40
0.934330133377761
 41
0.8708229448595767
 42
1.557899568963299
  0
ELLIPSE
  5
45BB
330
1F
100
AcDbEntity
  8
AM_0
100
AcDbEllipse
 10
-130.8629722062496
 20
-5.979686345637214
 30
0.0
 11
-0.0000000000002396
 21
0.1466382906997185
 31
0.0
210
0.0
220
0.0
230
1.0
 40
0.934330133378679
 41
1.570250563377256
 42
2.246594350019229
  0
ELLIPSE
  5
45BC
330
1F
100
AcDbEntity
  8
AM_0
100
AcDbEllipse
 10
-130.5808276296358
 20
-5.735104040607585
 30
0.0
 11
0.000000000002125
 21
0.5352364533385272
 31
0.0
210
0.0
220
0.0
230
1.0
 40
0.9343301333783662
 41
2.250206732580061
 42
2.600849383086115
  0
ELLIPSE
  5
45BD
330
1F
100
AcDbEntity
  8
AM_0
100
AcDbEllipse
 10
-130.4417588551262
 20
-5.491474694586939
 30
0.0
 11
0.000000000004853
 21
0.8207297928879235
 31
0.0
210
0.0
220
0.0
230
1.0
 40
0.9343301333778441
 41
2.598176912243762
 42
2.892513815375014
  0
ELLIPSE
  5
45BE
330
1F
100
AcDbEntity
  8
AM_0
100
AcDbEllipse
 10
-130.0219534096032
 20
-5.160361309959305
 30
0.0
 11
-2.302857335747993
 21
0.1629108116744366
 31
0.0
210
0.0
220
0.0
230
0.9999999999999998
 40
0.5470887269133309
 41
1.554446821442674
 42
1.648308260536025
  0
ELLIPSE
  5
45BF
330
1F
100
AcDbEntity
  8
AM_0
100
AcDbEllipse
 10
-129.8346104282673
 20
-4.578929729059081
 30
0.0
 11
-0.0000000000007891
 21
1.852785097969964
 31
0.0
210
0.0
220
0.0
230
1.0
 40
0.9873417721521382
 41
3.088060236649001
 42
3.196956952928873
  0
SPLINE
  5
45C0
330
1F
100
AcDbEntity
  8
AM_0
100
AcDbSpline
210
0.0
220
0.0
230
1.0
 70
     8
 71
     3
 72
    15
 73
    11
 74
     0
 42
0.0000000001
 43
0.0000000001
 40
5.241236682593577
 40
5.241236682593577
 40
5.241236682593577
 40
5.241236682593577
 40
5.954688180526682
 40
6.824620803463244
 40
7.701151815239697
 40
8.58445704656667
 40
9.47458238407075
 40
10.37139106676736
 40
11.27458944007584
 40
12.17321262433756
 40
12.17321262433756
 40
12.17321262433756
 40
12.17321262433756
 10
-120.1731510896032
 20
-0.608728258880515
 30
0.0
 10
-120.5489900216263
 20
-0.6833130156748095
 30
0.0
 10
-121.380776529045
 20
-0.8586079029543341
 30
0.0
 10
-122.6645446756128
 20
-1.162606096517032
 30
0.0
 10
-124.026597514493
 20
-1.522004728014158
 30
0.0
 10
-125.388517666483
 20
-1.916004677942359
 30
0.0
 10
-126.7503014684315
 20
-2.342176404265425
 30
0.0
 10
-128.1119707981239
 20
-2.797872594225574
 30
0.0
 10
-129.4682447290694
 20
-3.278418393382229
 30
0.0
 10
-130.3678954180771
 20
-3.612799744519603
 30
0.0
 10
-130.9999807595989
 20
-3.782422973145293
 30
0.0
  0
ELLIPSE
  5
45C1
330
1F
100
AcDbEntity
  8
AM_0
100
AcDbEllipse
 10
-130.1784078885449
 20
-7.699229336678058
 30
0.0
 11
0.0000000000031885
 21
2.096963274363818
 31
0.0
210
0.0
220
0.0
230
1.0
 40
0.9343301333781246
 41
-0.2679377313985596
 42
-0.1275323195046609
  0
SPLINE
  5
45C2
330
1F
100
AcDbEntity
  8
AM_0
100
AcDbSpline
210
0.0
220
0.0
230
1.0
 70
     8
 71
     3
 72
    17
 73
    13
 74
     0
 42
0.0000000001
 43
0.0000000001
 40
4.004329625082316
 40
4.004329625082316
 40
4.004329625082316
 40
4.004329625082316
 40
4.232934581347659
 40
5.09097061220244
 40
5.954688180526682
 40
6.824620803463244
 40
7.701151815239697
 40
8.58445704656667
 40
9.47458238407075
 40
10.37139106676736
 40
11.27458944007584
 40
12.17321262433756
 40
12.17321262433756
 40
12.17321262433756
 40
12.17321262433756
 10
-114.5691192339279
 20
-7.900127168294681
 30
0.0
 10
-114.7431615254238
 20
-7.872496790594128
 30
0.0
 10
-115.320306677271
 20
-7.780797986292707
 30
0.0
 10
-116.352334572158
 20
-7.596655844014003
 30
0.0
 10
-117.714652167434
 20
-7.312898712998953
 30
0.0
 10
-119.0768404156215
 20
-6.990330523525982
 30
0.0
 10
-124.0265975144932
 20
-6.0428412182522
 30
0.0
 10
-125.3885176664832
 20
-5.648841268323905
 30
0.0
 10
-126.7503014684316
 20
-5.222669542000759
 30
0.0
 10
-128.1119707981241
 20
-4.766973352040503
 30
0.0
 10
-129.4682447290694
 20
-4.286427552883748
 30
0.0
 10
-130.3678954180772
 20
-3.952046201746304
 30
0.0
 10
-130.9999807595989
 20
-3.78242297312058
 30
0.0
  0
ELLIPSE
  5
45C3
330
1F
100
AcDbEntity
  8
AM_0
100
AcDbEllipse
 10
-129.0297334322518
 20
-8.148828269351225
 30
0.0
 11
1.643687592843755
 21
1.395130843387707
 31
0.0
210
0.0
220
0.0
230
0.9999999999999998
 40
0.849416842185203
 41
1.19127305155249
 42
2.281094572104326
  0
LINE
  5
45C4
330
1F
100
AcDbEntity
  8
AM_0
 48
0.5
100
AcDbLine
 10
-130.8267733141912
 20
-7.900000689276106
 30
0.0
 11
-74.66527356911775
 21
-7.900000689278794
 31
0.0
  0
LINE
  5
45C5
330
1F
100
AcDbEntity
  8
AM_0
100
AcDbLine
 10
-129.5892041132414
 20
7.89999931072321
 30
0.0
 11
-130.8267744849356
 21
7.899999310723833
 31
0.0
  0
POLYLINE
  5
45C6
330
1F
100
AcDbEntity
  8
AM_0
100
AcDb2dPolyline
 66
     1
 10
0.0
 20
0.0
 30
0.0
 70
     2
  0
VERTEX
  5
45C7
330
45C6
100
AcDbEntity
  8
AM_0
100
AcDbVertex
100
AcDb2dVertex
 10
-126.1832840986749
 20
6.853593242991457
 30
0.0
 42
0.0862297278188617
  0
VERTEX
  5
45C8
330
45C6
100
AcDbEntity
  8
AM_0
100
AcDbVertex
100
AcDb2dVertex
 10
-129.1278858375809
 20
6.599731614109836
 30
0.0
 42
0.0414024687830266
 70
     1
  0
VERTEX
  5
45C9
330
45C6
100
AcDbEntity
  8
AM_0
100
AcDbVertex
100
AcDb2dVertex
 10
-129.4838427886234
 20
6.463259461733721
 30
0.0
 42
0.0280074108471844
  0
VERTEX
  5
45CA
330
45C6
100
AcDbEntity
  8
AM_0
100
AcDbVertex
100
AcDb2dVertex
 10
-130.2954377586813
 20
6.010005044151641
 30
0.0
 42
0.0512701366748525
 70
     1
  0
VERTEX
  5
45CB
330
45C6
100
AcDbEntity
  8
AM_0
100
AcDbVertex
100
AcDb2dVertex
 10
-130.6967531653669
 20
5.691491059502603
 30
0.0
 42
0.0658714570033076
  0
VERTEX
  5
45CC
330
45C6
100
AcDbEntity
  8
AM_0
100
AcDbVertex
100
AcDb2dVertex
 10
-130.9486232947442
 20
5.370760361451153
 30
0.0
 42
0.1411961588081283
 70
     1
  0
VERTEX
  5
45CD
330
45C6
100
AcDbEntity
  8
AM_0
100
AcDbVertex
100
AcDb2dVertex
 10
-130.9999807595528
 20
5.181360902673429
 30
0.0
 42
0.1226739033459629
  0
VERTEX
  5
45CE
330
45C6
100
AcDbEntity
  8
AM_0
100
AcDbVertex
100
AcDb2dVertex
 10
-130.949878237699
 20
4.97311820232531
 30
0.0
 42
0.0555312784770531
 70
     1
  0
VERTEX
  5
45CF
330
45C6
100
AcDbEntity
  8
AM_0
100
AcDbVertex
100
AcDb2dVertex
 10
-130.6967531653669
 20
4.586785789393735
 30
0.0
 42
0.0351528005485752
  0
VERTEX
  5
45D0
330
45C6
100
AcDbEntity
  8
AM_0
100
AcDbVertex
100
AcDb2dVertex
 10
-130.2876673664223
 20
4.155901311017486
 30
0.0
 42
0.0198940146009696
 70
     1
  0
VERTEX
  5
45D1
330
45C6
100
AcDbEntity
  8
AM_0
100
AcDbVertex
100
AcDb2dVertex
 10
-129.4512249767393
 20
3.535633326375057
 30
0.0
 42
0.0358460074876439
  0
VERTEX
  5
45D2
330
45C6
100
AcDbEntity
  8
AM_0
100
AcDbVertex
100
AcDb2dVertex
 10
-129.1215365763934
 20
3.315637302166694
 30
0.0
 42
0.021710998496176
 70
     1
  0
VERTEX
  5
45D3
330
45C6
100
AcDbEntity
  8
AM_0
100
AcDbVertex
100
AcDb2dVertex
 10
-128.5415421941817
 20
3.020660211621617
 30
0.0
  0
SEQEND
  5
45D4
330
45C6
100
AcDbEntity
  8
AM_0
  0
LINE
  5
45D5
330
1F
100
AcDbEntity
  8
AM_0
 48
0.5
100
AcDbLine
 10
-8.720114055763209
 20
7.899999310717829
 30
0.0
 11
-2.999999999999154
 21
7.899999310717546
 31
0.0
  0
LINE
  5
45D6
330
1F
100
AcDbEntity
  8
AM_0
 48
0.5
100
AcDbLine
 10
-8.720114055763925
 20
-7.900000689282178
 30
0.0
 11
-2.999999999999401
 21
-7.900000689282076
 31
0.0
  0
LINE
  5
45D7
330
1F
100
AcDbEntity
  8
AM_0
 48
0.5
100
AcDbLine
 10
-51.84565315863858
 20
-7.900000689280143
 30
0.0
 11
-31.53973782832448
 21
-7.900000689281005
 31
0.0
  0
LINE
  5
45D8
330
1F
100
AcDbEntity
  8
AM_11
 48
0.5
100
AcDbLine
 10
-71.70737852786455
 20
7.901121649091164
 30
0.0
 11
-57.14476950494038
 21
7.899999310720279
 31
0.0
  0
LINE
  5
45D9
330
1F
100
AcDbEntity
  8
AM_0
 48
0.5
100
AcDbLine
 10
-57.14478915934812
 20
7.899999310720279
 30
0.0
 11
-31.53973782832374
 21
7.899999310718982
 31
0.0
  0
LINE
  5
45DA
330
1F
100
AcDbEntity
  8
AM_11
 48
0.5
100
AcDbLine
 10
-74.66527693119619
 20
-7.900000689278981
 30
0.0
 11
-51.8456531586386
 21
-7.901123027650255
 31
0.0
  0
LINE
  5
45DB
330
1F
100
AcDbEntity
  8
AM_11
 48
0.5
100
AcDbLine
 10
-31.53973782832374
 20
7.899999310718982
 30
0.0
 11
-8.720114055763209
 21
7.899999310717829
 31
0.0
  0
LINE
  5
45DC
330
1F
100
AcDbEntity
  8
AM_11
 48
0.5
100
AcDbLine
 10
-31.53973782832448
 20
-7.900000689281005
 30
0.0
 11
-8.720114055763925
 21
-7.900000689282178
 31
0.0
  0
ELLIPSE
  5
45DD
330
1F
100
AcDbEntity
  8
AM_0
 48
0.5
100
AcDbEllipse
 10
-4.366565105285236
 20
-2.058854410901565
 30
0.0
 11
-1.018079955656205
 21
0.6906768499858022
 31
0.0
210
0.0
220
0.0
230
0.9999999999999998
 40
0.5210714748379159
 41
4.542592488535025
 42
7.686032829864535
  0
SPLINE
  5
45DE
330
1F
100
AcDbEntity
  8
AM_0
100
AcDbSpline
210
0.0
220
0.0
230
1.0
 70
     8
 71
     3
 72
    23
 73
    19
 74
     0
 42
0.0000000001
 43
0.0000000001
 40
16.03460024169435
 40
16.03460024169435
 40
16.03460024169435
 40
16.03460024169435
 40
16.35212704903564
 40
17.38177054169784
 40
18.41822485651776
 40
19.46214173629503
 40
20.51396345435107
 40
21.57393551351153
 40
22.64208202342361
 40
23.7182574881101
 40
24.80209208578934
 40
25.89306333925047
 40
26.99048218457928
 40
28.09348763352352
 40
29.20111863782268
 40
30.31232390128032
 40
31.42594612798585
 40
32.5407912310448
 40
32.5407912310486
 40
32.5407912310486
 40
32.5407912310486
 10
-71.70737852786455
 20
7.901121649091161
 30
0.0
 10
-71.58292224432641
 20
7.874452640278114
 30
0.0
 10
-71.05542182663175
 20
7.758316613054185
 30
0.0
 10
-70.12622416007243
 20
7.5307657923011
 30
0.0
 10
-68.92291074938031
 20
7.192400210312811
 30
0.0
 10
-67.72071503278403
 20
6.812472061572463
 30
0.0
 10
-66.51956597157997
 20
6.393180176421407
 30
0.0
 10
-65.31942093485938
 20
5.936862116506069
 30
0.0
 10
-64.12021055711543
 20
5.446126388292241
 30
0.0
 10
-62.9218513298954
 20
4.923828950624062
 30
0.0
 10
-61.72427515812399
 20
4.372927543439177
 30
0.0
 10
-60.52738602777698
 20
3.796627733663075
 30
0.0
 10
-59.33108694437468
 20
3.198279224779562
 30
0.0
 10
-58.13529820192122
 20
2.581322269870946
 30
0.0
 10
-56.93991975022484
 20
1.949344389141205
 30
0.0
 10
-55.74484087192466
 20
1.306035869758745
 30
0.0
 10
-54.54996425386429
 20
0.6551245103915845
 30
0.0
 10
-53.75359380411925
 20
0.2187240354011758
 30
0.0
 10
-53.35519140411253
 20
0.0004011254969172
 30
0.0
  0
SPLINE
  5
45DF
330
1F
100
AcDbEntity
  8
AM_0
100
AcDbSpline
210
0.0
220
0.0
230
1.0
 70
     8
 71
     3
 72
    11
 73
     7
 74
     0
 42
0.0000000001
 43
0.0000000001
 40
11.27226913003534
 40
11.27226913003534
 40
11.27226913003534
 40
11.2722691300354
 40
12.28301561507924
 40
13.29510212255852
 40
14.30984805882082
 40
15.18258238371378
 40
15.18258238371378
 40
15.18258238371378
 40
15.18258238371378
 10
-74.66527693119904
 20
-7.90000068927898
 30
0.0
 10
-75.06737074519181
 20
-7.861335793553953
 30
0.0
 10
-75.87079994778334
 20
-7.767729763768642
 30
0.0
 10
-77.07179499304924
 20
-7.578903248295106
 30
0.0
 10
-78.2115604678469
 20
-7.353370679581937
 30
0.0
 10
-78.94869387405485
 20
-7.179997081732292
 30
0.0
 10
-79.28838593749002
 20
-7.0943553131459
 30
0.0
  0
SPLINE
  5
45E0
330
1F
100
AcDbEntity
  8
AM_0
100
AcDbSpline
210
0.0
220
0.0
230
1.0
 70
     8
 71
     3
 72
    17
 73
    13
 74
     0
 42
0.0000000001
 43
0.0000000001
 40
1.580019955310467
 40
1.580019955310467
 40
1.580019955310467
 40
1.580019955310467
 40
2.030549285115227
 40
3.082371838836284
 40
4.126290986361125
 40
5.162752068350215
 40
6.192395305374981
 40
7.216039564037012
 40
8.234688489606833
 40
9.249433870634691
 40
10.26152376260694
 40
11.27226744710342
 40
11.27226744710342
 40
11.27226744710342
 40
11.27226744710352
 10
-63.25457485823246
 20
-5.830433317343412
 30
0.0
 10
-63.42596749170258
 20
-5.890481929851119
 30
0.0
 10
-63.99847646893828
 20
-6.08729927798384
 30
0.0
 10
-64.97589126936448
 20
-6.396014330776918
 30
0.0
 10
-66.18656409304754
 20
-6.741734236052022
 30
0.0
 10
-67.39757021382548
 20
-7.045230411082931
 30
0.0
 10
-68.6086318224811
 20
-7.305483647502185
 30
0.0
 10
-69.81982537412851
 20
-7.520600850699675
 30
0.0
 10
-71.03110260366285
 20
-7.689354441650321
 30
0.0
 10
-72.24245525701369
 20
-7.810650840619146
 30
0.0
 10
-73.45385348958865
 20
-7.883709248599571
 30
0.0
 10
-74.26164832252524
 20
-7.900000734483219
 30
0.0
 10
-74.66527693119897
 20
-7.90000068927898
 30
0.0
  0
SPLINE
  5
45E1
330
1F
100
AcDbEntity
  8
AM_0
 48
0.5
100
AcDbSpline
210
0.0
220
0.0
230
1.0
 70
     8
 71
     3
 72
    17
 73
    13
 74
     0
 42
0.0000000001
 43
0.0000000001
 40
0.0
 40
0.0
 40
0.0
 40
0.0
 40
1.010743614677189
 40
2.022833924044153
 40
3.037578959561199
 40
4.056212747067873
 40
5.079857613375832
 40
6.109500119648989
 40
7.14596120163808
 40
8.18989512056258
 40
9.241717674284874
 40
9.693948937866434
 40
9.693948937866434
 40
9.693948937866434
 40
9.693948937866434
 10
-8.720114055763211
 20
7.899999310717825
 30
0.0
 10
-9.123742743217594
 20
7.895302389377979
 30
0.0
 10
-9.931537904961906
 20
7.885902288613791
 30
0.0
 10
-11.14293514268392
 20
7.810051544837493
 30
0.0
 10
-12.35428250788481
 20
7.689514423250221
 30
0.0
 10
-13.56555453758852
 20
7.520558848787509
 30
0.0
 10
-14.77673680589608
 20
7.305476246852824
 30
0.0
 10
-15.98781451941339
 20
7.04526381736364
 30
0.0
 10
-17.1987714234421
 20
6.741596633783856
 30
0.0
 10
-18.40965450797102
 20
6.396519061799811
 30
0.0
 10
-19.38711090912603
 20
6.085656331900612
 30
0.0
 10
-19.96113061720845
 20
5.891322421697007
 30
0.0
 10
-20.13342053703673
 20
5.831838112711982
 30
0.0
  0
SPLINE
  5
45E3
330
1F
100
AcDbEntity
  8
AM_0
 48
0.5
100
AcDbSpline
210
0.0
220
0.0
230
1.0
 70
     8
 71
     3
 72
    25
 73
    21
 74
     0
 42
0.0000000001
 43
0.0000000001
 40
6.846175049578289
 40
6.846175049578289
 40
6.846175049578289
 40
6.846175049578289
 40
7.604337694224321
 40
8.711974558287883
 40
9.814980593243754
 40
10.91239053451967
 40
12.0033633515982
 40
13.08720139956839
 40
14.16337181880432
 40
15.23152222380919
 40
16.29148850140128
 40
17.34331105512262
 40
18.38723020264746
 40
19.42369128463655
 40
20.45333379090873
 40
21.47697865721768
 40
22.49561244472435
 40
23.5103574802404
 40
24.52244778960836
 40
25.53320666051913
 40
25.53320666051913
 40
25.53320666051913
 40
25.53320666051913
 10
-10.13290932694566
 20
1.429951030839523
 30
0.0
 10
-10.40809754371553
 20
1.568660980741263
 30
0.0
 10
-11.0859008228811
 20
1.908631040866088
 30
0.0
 10
-12.16732645219496
 20
2.442506418617716
 30
0.0
 10
-13.37739886395115
 20
3.024846022216678
 30
0.0
 10
-14.58753213103484
 20
3.588580035686117
 30
0.0
 10
-15.79773665074605
 20
4.130242305287225
 30
0.0
 10
-17.00802590774974
 20
4.646491046616656
 30
0.0
 10
-18.2184110934199
 20
5.134142605253006
 30
0.0
 10
-19.42889781120251
 20
5.590200009401379
 30
0.0
 10
-20.63950097118854
 20
6.01182506818769
 30
0.0
 10
-21.85021893407682
 20
6.396432360910403
 30
0.0
 10
-23.06106039620047
 20
6.741621942089865
 30
0.0
 10
-24.27202108444423
 20
7.045257487227284
 30
0.0
 10
-25.48309626818364
 20
7.305477927672031
 30
0.0
 10
-26.69427920835456
 20
7.520558401644914
 30
0.0
 10
-27.90555105943671
 20
7.689514543317176
 30
0.0
 10
-29.11689847198505
 20
7.810051509096393
 30
0.0
 10
-30.32830178218082
 20
7.885902692944356
 30
0.0
 10
-31.13610304442348
 20
7.895302500443866
 30
0.0
 10
-31.53973782832374
 20
7.899999310718984
 30
0.0
  0
SPLINE
  5
45E4
330
1F
100
AcDbEntity
  8
AM_0
 48
0.5
100
AcDbSpline
210
0.0
220
0.0
230
1.0
 70
     8
 71
     3
 72
    10
 73
     6
 74
     0
 42
0.0000000001
 43
0.0000000001
 40
0.0
 40
0.0
 40
0.0
 40
0.0
 40
2.69986029516136
 40
4.147722969032201
 40
6.285750005020438
 40
6.285750005020438
 40
6.285750005020438
 40
6.285750005020438
 10
-10.13271565103407
 20
1.429857200528949
 30
0.0
 10
-9.270539053113147
 20
0.6958926090684816
 30
0.0
 10
-7.94600026680353
 20
-0.4316775099902135
 30
0.0
 10
-4.813643965678754
 20
0.1141989380079479
 30
0.0
 10
-5.403557767380798
 20
1.952783045071456
 30
0.0
 10
-5.793335116408157
 20
3.073456685193017
 30
0.0
  0
SPLINE
  5
45E5
330
1F
100
AcDbEntity
  8
AM_0
100
AcDbSpline
210
0.0
220
0.0
230
1.0
 70
     8
 71
     3
 72
    55
 73
    51
 74
     0
 42
0.0000000001
 43
0.0000000001
 40
0.0
 40
0.0
 40
0.0
 40
0.0
 40
1.010743684496582
 40
2.022833576467832
 40
3.037578957496688
 40
4.056212745003489
 40
5.079857003664532
 40
6.109500240690281
 40
7.145961322679372
 40
8.189895241603872
 40
9.241717795325891
 40
10.30168407291828
 40
11.36983447792315
 40
12.44600489715814
 40
13.52984294512926
 40
14.62081576220742
 40
15.7182257034828
 40
16.82123173843959
 40
17.92886860250316
 40
19.0400688939571
 40
20.15368796660465
 40
21.26852814259644
 40
22.38336992938901
 40
23.49698739941135
 40
24.6081876908653
 40
25.71582455492886
 40
26.81883757994213
 40
27.91624752121713
 40
29.00722033829659
 40
30.09105838626677
 40
31.16722880550176
 40
32.23537921050758
 40
33.29534548809967
 40
34.347168041821
 40
35.39108718934584
 40
36.42754827133493
 40
37.45720575381954
 40
38.48085062012849
 40
39.49948440763516
 40
40.51422944315121
 40
41.52631975251916
 40
42.53706336719636
 40
43.54780698187354
 40
44.55989729124051
 40
45.57464232675757
 40
46.59327611426424
 40
47.6169209805722
 40
48.64656348684535
 40
49.68302456883444
 40
50.58557219878025
 40
50.58557219878025
 40
50.58557219878025
 40
50.58557219878025
 10
-8.720114055763927
 20
-7.900000689282171
 30
0.0
 10
-9.123742669762723
 20
-7.895300380671353
 30
0.0
 10
-9.931537489897179
 20
-7.885893503118177
 30
0.0
 10
-11.14293574816656
 20
-7.810063509494227
 30
0.0
 10
-12.35428229641181
 20
-7.689513628636524
 30
0.0
 10
-13.56555387419838
 20
-7.520558385757289
 30
0.0
 10
-14.77673839494265
 20
-7.305487448328477
 30
0.0
 10
-15.98781196468206
 20
-7.04525720253495
 30
0.0
 10
-17.19877863440401
 20
-6.741620652066292
 30
0.0
 10
-18.40962766528144
 20
-6.396437121878636
 30
0.0
 10
-19.62035080922566
 20
-6.011826017907117
 30
0.0
 10
-20.83095410102224
 20
-5.59020150429362
 30
0.0
 10
-22.04144078290823
 20
-5.134143951966134
 30
0.0
 10
-23.25182597894507
 20
-4.646492435034411
 30
0.0
 10
-24.4621152307271
 20
-4.130243676552421
 30
0.0
 10
-25.6723197609493
 20
-3.588581433671719
 30
0.0
 10
-26.88245299094365
 20
-3.024847329867414
 30
0.0
 10
-28.09252554148552
 20
-2.442508063155711
 30
0.0
 10
-29.30254915646684
 20
-1.845145246562445
 30
0.0
 10
-30.51253678365455
 20
-1.236435577253497
 30
0.0
 10
-31.72249903579186
 20
-0.6201211521180285
 30
0.0
 10
-32.93245299942004
 20
-0.0000023011679112
 30
0.0
 10
-34.14240153136734
 20
0.6201277123079871
 30
0.0
 10
-35.35236783903441
 20
1.236432539797666
 30
0.0
 10
-36.56235397247609
 20
1.845144051636127
 30
0.0
 10
-37.77237974491616
 20
2.44250914391547
 30
0.0
 10
-38.98245731541944
 20
3.024843440841616
 30
0.0
 10
-40.19259245532378
 20
3.588580403562192
 30
0.0
 10
-41.40279716025923
 20
4.130242207210663
 30
0.0
 10
-42.6130863680027
 20
4.646491074257821
 30
0.0
 10
-43.82347156713885
 20
5.134142591902877
 30
0.0
 10
-45.03395827985687
 20
5.590200035180125
 30
0.0
 10
-46.244561446706
 20
6.011824979311036
 30
0.0
 10
-47.45527938740692
 20
6.396432687171435
 30
0.0
 10
-48.66612093058165
 20
6.741620738402128
 30
0.0
 10
-49.87708715109775
 20
7.04526339461983
 30
0.0
 10
-51.08816936830837
 20
7.305463918506913
 30
0.0
 10
-52.29935789046405
 20
7.520601424937383
 30
0.0
 10
-53.5106298273257
 20
7.689356393183677
 30
0.0
 10
-54.72197721725137
 20
7.810638329553534
 30
0.0
 10
-55.93337444839938
 20
7.883719661482794
 30
0.0
 10
-57.14479829926691
 20
7.908133716288467
 30
0.0
 10
-58.35622214835198
 20
7.883719661444638
 30
0.0
 10
-59.56761938485771
 20
7.810638329707313
 30
0.0
 10
-60.77896675505783
 20
7.689356392605279
 30
0.0
 10
-61.9902387658753
 20
7.520601427112532
 30
0.0
 10
-63.20142110522813
 20
7.305464959159968
 30
0.0
 10
-64.41249855123579
 20
7.045266055030228
 30
0.0
 10
-65.56840476571044
 20
6.755404192621792
 30
0.0
 10
-66.31836988149571
 20
6.543425472383088
 30
0.0
 10
-66.66630998409168
 20
6.440117901066041
 30
0.0
  0
SPLINE
  5
45E6
330
1F
100
AcDbEntity
  8
AM_0
100
AcDbSpline
210
0.0
220
0.0
230
1.0
 70
     8
 71
     3
 72
    11
 73
     7
 74
     0
 42
0.0000000001
 43
0.0000000001
 40
11.27226913003534
 40
11.27226913003534
 40
11.27226913003534
 40
11.2722691300354
 40
12.28301561507924
 40
13.29510212255852
 40
14.30984805882082
 40
15.18258238371378
 40
15.18258238371378
 40
15.18258238371378
 40
15.18258238371378
 10
-31.53973782832444
 20
-7.900000689281012
 30
0.0
 10
-31.94183164231723
 20
-7.861335793555985
 30
0.0
 10
-32.74526084490877
 20
-7.767729763770668
 30
0.0
 10
-33.94625589017467
 20
-7.578903248297132
 30
0.0
 10
-35.08602136497229
 20
-7.353370679583956
 30
0.0
 10
-35.82315477118025
 20
-7.179997081734326
 30
0.0
 10
-36.16284683461541
 20
-7.094355313147935
 30
0.0
  0
SPLINE
  5
45E7
330
1F
100
AcDbEntity
  8
AM_0
100
AcDbSpline
210
0.0
220
0.0
230
1.0
 70
     8
 71
     3
 72
    22
 73
    18
 74
     0
 42
0.0000000001
 43
0.0000000001
 40
17.17441611292
 40
17.17441611292
 40
17.17441611292
 40
17.17441611292
 40
17.38177636558528
 40
18.41823744757437
 40
19.46215659509824
 40
20.51397914882054
 40
21.57394542641293
 40
22.64209583141747
 40
23.71826625065247
 40
24.80210429862395
 40
25.8930771157021
 40
26.99048705697709
 40
28.09349309193389
 40
29.20112995599786
 40
30.31233024745139
 40
31.42594771747373
 40
32.5407895042663
 40
32.54078950426994
 40
32.54078950426994
 40
32.54078950426994
 10
-36.16337662082772
 20
-7.094257866708343
 30
0.0
 10
-36.24449357344339
 20
-7.075970141554318
 30
0.0
 10
-36.73074540382627
 20
-6.964577608743541
 30
0.0
 10
-37.62153135690616
 20
-6.74122108239699
 30
0.0
 10
-38.83237272693753
 20
-6.396032039438302
 30
0.0
 10
-40.04309071477502
 20
-6.01142460086007
 30
0.0
 10
-41.25369386801971
 20
-5.589799581658514
 30
0.0
 10
-42.46418058754902
 20
-5.133742166581739
 30
0.0
 10
-43.67456577305082
 20
-4.646090611665456
 30
0.0
 10
-44.88485502894876
 20
-4.129841866463952
 30
0.0
 10
-46.09505955329644
 20
-3.588179608701706
 30
0.0
 10
-47.30519280280097
 20
-3.024445551414535
 30
0.0
 10
-48.51526528068872
 20
-2.442106112368426
 30
0.0
 10
-49.72528916829564
 20
-1.844743942195935
 30
0.0
 10
-50.93527519143016
 20
-1.236032142068527
 30
0.0
 10
-52.14524127498319
 20
-0.6197267928065858
 30
0.0
 10
-52.95172699611703
 20
-0.2063838682037708
 30
0.0
 10
-53.3551914041179
 20
0.0004011254997556
 30
0.0
  0
SPLINE
  5
45E8
330
1F
100
AcDbEntity
  8
AM_0
100
AcDbSpline
210
0.0
220
0.0
230
1.0
 70
     8
 71
     3
 72
    17
 73
    13
 74
     0
 42
0.0000000001
 43
0.0000000001
 40
1.580019955310467
 40
1.580019955310467
 40
1.580019955310467
 40
1.580019955310467
 40
2.030549285115227
 40
3.082371838836284
 40
4.126290986361125
 40
5.162752068350215
 40
6.192395305374981
 40
7.216039564037012
 40
8.234688489606833
 40
9.249433870634691
 40
10.26152376260694
 40
11.27226744710342
 40
11.27226744710342
 40
11.27226744710342
 40
11.27226744710352
 10
-20.12903575535776
 20
-5.830433317345437
 30
0.0
 10
-20.3004283888279
 20
-5.890481929853147
 30
0.0
 10
-20.87293736606362
 20
-6.087299277985873
 30
0.0
 10
-21.85035216648983
 20
-6.396014330778953
 30
0.0
 10
-23.06102499017291
 20
-6.741734236054045
 30
0.0
 10
-24.27203111095084
 20
-7.045230411084962
 30
0.0
 10
-25.48309271960649
 20
-7.305483647504209
 30
0.0
 10
-26.69428627125391
 20
-7.5206008507017
 30
0.0
 10
-27.90556350078827
 20
-7.689354441652356
 30
0.0
 10
-29.11691615413912
 20
-7.810650840621174
 30
0.0
 10
-30.32831438671407
 20
-7.883709248601602
 30
0.0
 10
-31.13610921965065
 20
-7.900000734485253
 30
0.0
 10
-31.53973782832438
 20
-7.900000689281012
 30
0.0
  0
SPLINE
  5
45E9
330
1F
100
AcDbEntity
  8
AM_0
100
AcDbSpline
210
0.0
220
0.0
230
1.0
 70
     8
 71
     3
 72
    46
 73
    42
 74
     0
 42
0.0000000001
 43
0.0000000001
 40
0.0
 40
0.0
 40
0.0
 40
0.0
 40
1.348332046947657
 40
2.024828967632895
 40
2.703918159304097
 40
3.386347665078124
 40
4.072776489761952
 40
4.763750544421347
 40
5.459696642770596
 40
6.160921452191754
 40
6.867565637253344
 40
7.579665907256596
 40
8.297112853413899
 40
9.019671552060676
 40
9.746986763446127
 40
10.47859339096366
 40
11.21393074760089
 40
11.95235532364328
 40
12.69315551794651
 40
13.43556823304427
 40
14.1787950170388
 40
14.92202180103393
 40
15.66443451613169
 40
16.40523471043432
 40
17.14365928647669
 40
17.87899664311455
 40
18.61060327063121
 40
19.3379184820169
 40
20.06048192311554
 40
20.77792886927283
 40
21.49002913927608
 40
22.19667332433747
 40
22.89788836015233
 40
23.59383445850158
 40
24.28480851316097
 40
24.97123685067576
 40
25.65366676154838
 40
26.33276604526152
 40
27.00926273560555
 40
27.68398960851751
 40
28.357818684969
 40
28.357818684969
 40
28.357818684969
 40
28.357818684969
 10
-5.329022070253942
 20
-7.900000689282344
 30
0.0
 10
-6.136856357955958
 20
-7.882003878605078
 30
0.0
 10
-7.35000431397248
 20
-7.854977551027372
 30
0.0
 10
-8.963180054331171
 20
-7.688581417132218
 30
0.0
 10
-10.17446464597408
 20
-7.520809850832171
 30
0.0
 10
-11.38564570161958
 20
-7.305419658368235
 30
0.0
 10
-12.59672003060201
 20
-7.045274961145859
 30
0.0
 10
-13.80768141139506
 20
-6.741619472440395
 30
0.0
 10
-15.01852781582036
 20
-6.396431315001407
 30
0.0
 10
-16.22925385518374
 20
-6.011829995214386
 30
0.0
 10
-17.43986194943615
 20
-5.590200953091532
 30
0.0
 10
-18.65034884240996
 20
-5.134144101352852
 30
0.0
 10
-19.86073398122468
 20
-4.646492394526635
 30
0.0
 10
-21.07102324859411
 20
-4.130243687685621
 30
0.0
 10
-22.2812277742568
 20
-3.588581430023965
 30
0.0
 10
-23.49136100676898
 20
-3.024847333251345
 30
0.0
 10
-24.70143355179963
 20
-2.442508053229142
 30
0.0
 10
-25.91145718640764
 20
-1.845145283073119
 30
0.0
 10
-27.12144474029308
 20
-1.236435440603194
 30
0.0
 10
-28.33140726677116
 20
-0.6201216634650697
 30
0.0
 10
-29.54135962209067
 20
-0.000000689406585
 30
0.0
 10
-30.75131197714437
 20
0.6201202854054723
 30
0.0
 10
-31.96127450441977
 20
1.236434060283986
 30
0.0
 10
-33.17126205539091
 20
1.845143911011789
 30
0.0
 10
-34.38128570080517
 20
2.442506650542334
 30
0.0
 10
-35.5913582057674
 20
3.024846044120744
 30
0.0
 10
-36.80149158666656
 20
3.588579720354739
 30
0.0
 10
-38.01169819438117
 20
4.130244711143337
 30
0.0
 10
-39.22199216435079
 20
4.646488727603151
 30
0.0
 10
-40.4323794623071
 20
5.134142934940324
 30
0.0
 10
-41.6428663270973
 20
5.590199922380171
 30
0.0
 10
-42.85346944830923
 20
6.011825090092445
 30
0.0
 10
-44.06418742085397
 20
6.396432359336103
 30
0.0
 10
-45.27502888268547
 20
6.741621926906483
 30
0.0
 10
-46.48598956263763
 20
7.045257548875706
 30
0.0
 10
-47.69706477950568
 20
7.305477698311572
 30
0.0
 10
-48.90825356500211
 20
7.520560310818786
 30
0.0
 10
-50.11953191520262
 20
7.689512957691159
 30
0.0
 10
-51.33088520660522
 20
7.81005177484377
 30
0.0
 10
-52.54228246923118
 20
7.885902231266793
 30
0.0
 10
-53.35007762766164
 20
7.895302370272355
 30
0.0
 10
-53.75370631346005
 20
7.899999310720115
 30
0.0
  0
ELLIPSE
  5
45EA
330
1F
100
AcDbEntity
  8
AM_0
 48
0.5
100
AcDbEllipse
 10
-22.26133222196628
 20
54.22745907017604
 30
0.0
 11
0.0026209411895329
 21
59.22960742446632
 31
0.0
210
0.0
220
0.0
230
1.0
 40
0.9344649665490473
 41
3.480499574100438
 42
3.555565800331185
  0
ELLIPSE
  5
45EB
330
1F
100
AcDbEntity
  8
AM_0
 48
0.5
100
AcDbEllipse
 10
-14.66730222103943
 20
13.2590632857338
 30
0.0
 11
-0.0000000000108935
 21
19.04773701031881
 31
0.0
210
0.0
220
0.0
230
1.0
 40
0.9098342646443237
 41
3.65217597881757
 42
3.740670756497078
  0
ELLIPSE
  5
45EC
330
1F
100
AcDbEntity
  8
AM_0
 48
0.5
100
AcDbEllipse
 10
2.363340231662667
 20
9.484435345873475
 30
0.0
 11
0.0000000000005855
 21
15.92201356887787
 31
0.0
210
0.0
220
0.0
230
1.0
 40
0.9098342646443914
 41
2.101163880028973
 42
2.509284810223871
  0
ELLIPSE
  5
45ED
330
1F
100
AcDbEntity
  8
AM_0
 48
0.5
100
AcDbEllipse
 10
-4.366565105285236
 20
-2.058854410901565
 30
0.0
 11
-0.1969451994805645
 21
1.298573151506354
 31
0.0
210
0.0
220
0.0
230
1.0
 40
0.4571632151491836
 41
1.824572810793433
 42
4.959914700505412
  0
ELLIPSE
  5
45EE
330
1F
100
AcDbEntity
  8
AM_0
 48
0.5
100
AcDbEllipse
 10
5.209180687191303
 20
-1.756061861767742
 30
0.0
 11
11.32086624886502
 21
2.286015742086357
 31
0.0
210
0.0
220
0.0
230
1.0
 40
0.6374715145470909
 41
3.048228816103673
 42
3.781714108609318
  0
LINE
  5
45EF
330
1F
100
AcDbEntity
  8
AM_11
 48
0.5
100
AcDbLine
 10
-129.5892041132414
 20
7.89999931072321
 30
0.0
 11
-100.2704946016685
 21
7.899999310722314
 31
0.0
  0
SPLINE
  5
45F0
330
1F
100
AcDbEntity
  8
AM_0
100
AcDbSpline
210
0.0
220
0.0
230
1.0
 70
     8
 71
     3
 72
     9
 73
     5
 74
     0
 42
0.0000000001
 43
0.0000000001
 40
1.580019955310467
 40
1.580019955310467
 40
1.580019955310467
 40
1.580019955310467
 40
2.030549285115227
 40
2.43907978603305
 40
2.43907978603305
 40
2.43907978603305
 40
2.43907978603305
 10
-128.4144069870887
 20
-6.029694707956411
 30
0.0
 10
-128.6072217241897
 20
-6.085177881159687
 30
0.0
 10
-128.9755051039541
 20
-6.189163537315402
 30
0.0
 10
-129.3453281277239
 20
-6.288717525523087
 30
0.0
 10
-129.5215050709479
 20
-6.335137449057561
 30
0.0
  0
SPLINE
  5
45F1
330
1F
100
AcDbEntity
  8
AM_0
100
AcDbSpline
210
0.0
220
0.0
230
1.0
 70
     8
 71
     3
 72
    14
 73
    10
 74
     0
 42
0.0000000001
 43
0.0000000001
 40
4.826907296497788
 40
4.826907296497788
 40
4.826907296497788
 40
4.826907296497788
 40
5.079857003664532
 40
6.109500240690281
 40
7.145961322679372
 40
8.189895241603872
 40
9.241717795325891
 40
10.30168407291828
 40
10.55450228288433
 40
10.55450228288433
 40
10.55450228288433
 40
10.55450228288433
 10
-117.819742268993
 20
-7.900155921801871
 30
0.0
 10
-118.1588959367185
 20
-7.870488028674388
 30
0.0
 10
-120.0395752776837
 20
-7.772988854519478
 30
0.0
 10
-123.7549781706068
 20
-7.151119672281432
 30
0.0
 10
-125.1173017158668
 20
-6.870568322017887
 30
0.0
 10
-126.4794929187827
 20
-6.551628769670174
 30
0.0
 10
-127.8415425003497
 20
-6.196259284741517
 30
0.0
 10
-128.8542641174787
 20
-5.906575407454496
 30
0.0
 10
-129.4138391524219
 20
-5.738461629121213
 30
0.0
 10
-129.6597079637443
 20
-5.677087980002952
 30
0.0
  0
ELLIPSE
  5
45F2
330
1F
100
AcDbEntity
  8
AM_0
100
AcDbEllipse
 10
-126.3418675436469
 20
26.1369504149421
 30
0.0
 11
-16.84899942277207
 21
14.87969485367947
 31
0.0
210
0.0
220
0.0
230
0.9999999999999998
 40
0.7789671518756975
 41
2.013907322456392
 42
2.181124483543652
  0
SPLINE
  5
45F3
330
1F
100
AcDbEntity
  8
AM_0
100
AcDbSpline
210
0.0
220
0.0
230
1.0
 70
     8
 71
     3
 72
    13
 73
     9
 74
     0
 42
0.0000000001
 43
0.0000000001
 40
26.13201924531566
 40
26.13201924531566
 40
26.13201924531566
 40
26.13201924531566
 40
26.99048218457928
 40
28.09348763352352
 40
29.20111863782268
 40
30.31232390128032
 40
31.42594612798585
 40
32.5407912310448
 40
32.5407912310486
 40
32.5407912310486
 40
32.5407912310486
 10
-128.5415421941817
 20
3.020660211621617
 30
0.0
 10
-128.0377982652294
 20
2.819360696498748
 30
0.0
 10
-127.2362466955249
 20
2.488965381310933
 30
0.0
 10
-125.9881715755015
 20
1.960092411480093
 30
0.0
 10
-124.6433845958431
 20
1.376163212239243
 30
0.0
 10
-123.2989346328021
 20
0.7817648321028037
 30
0.0
 10
-121.9547122101998
 20
0.1803416487262548
 30
0.0
 10
-121.0588046335808
 20
-0.2228797102479176
 30
0.0
 10
-120.6106065257485
 20
-0.4246037354766695
 30
0.0
  0
SPLINE
  5
45F4
330
1F
100
AcDbEntity
  8
AM_0
100
AcDbSpline
210
0.0
220
0.0
230
1.0
 70
     8
 71
     3
 72
    21
 73
    17
 74
     0
 42
0.0000000001
 43
0.0000000001
 40
17.52103074144743
 40
17.52103074144743
 40
17.52103074144743
 40
17.52103074144743
 40
18.41823744757437
 40
19.46215659509824
 40
20.51397914882054
 40
21.57394542641293
 40
22.64209583141747
 40
23.71826625065247
 40
24.80210429862395
 40
25.8930771157021
 40
26.99048705697709
 40
28.09349309193389
 40
29.20112995599786
 40
30.31233024745139
 40
31.42594771747373
 40
32.5407895042663
 40
32.54078950426994
 40
32.54078950426994
 40
32.54078950426994
 10
-98.43314960577339
 20
-7.90000068927765
 30
0.0
 10
-101.2177798540218
 20
-7.189631842205161
 30
0.0
 10
-102.9709815027925
 20
-6.639486836253168
 30
0.0
 10
-104.2726029108345
 20
-6.334722127097294
 30
0.0
 10
-105.6346466918409
 20
-5.979356028885525
 30
0.0
 10
-106.9965612852541
 20
-5.589786761749159
 30
0.0
 10
-108.3583448920796
 20
-5.168402961281143
 30
0.0
 10
-109.7200142742944
 20
-4.717827093590917
 30
0.0
 10
-111.0815757368107
 20
-4.240828252988274
 30
0.0
 10
-112.4430418773096
 20
-3.740348065186644
 30
0.0
 10
-113.8044278344313
 20
-3.219474175935335
 30
0.0
 10
-115.1657454241846
 20
-2.681409454530975
 30
0.0
 10
-116.5270083504322
 20
-2.129464166061659
 30
0.0
 10
-117.8882286795849
 20
-1.567032149285336
 30
0.0
 10
-119.2494265769382
 20
-0.9975839137445298
 30
0.0
 10
-120.1567137172762
 20
-0.6156670613754367
 30
0.0
 10
-120.6106065257547
 20
-0.4246037354740572
 30
0.0
  0
LINE
  5
45F5
330
1F
100
AcDbEntity
  8
AM_0
100
AcDbLine
 10
-100.2704946016685
 20
7.899999310722314
 30
0.0
 11
-71.70737852786455
 21
7.901121649091164
 31
0.0
  0
SPLINE
  5
45F6
330
1F
100
AcDbEntity
  8
AM_0
100
AcDbSpline
210
0.0
220
0.0
230
1.0
 70
     8
 71
     3
 72
    22
 73
    18
 74
     0
 42
0.0000000001
 43
0.0000000001
 40
17.17441611292
 40
17.17441611292
 40
17.17441611292
 40
17.17441611292
 40
17.38177636558528
 40
18.41823744757437
 40
19.46215659509824
 40
20.51397914882054
 40
21.57394542641293
 40
22.64209583141747
 40
23.71826625065247
 40
24.80210429862395
 40
25.8930771157021
 40
26.99048705697709
 40
28.09349309193389
 40
29.20112995599786
 40
30.31233024745139
 40
31.42594771747373
 40
32.5407895042663
 40
32.54078950426994
 40
32.54078950426994
 40
32.54078950426994
 10
-79.28891572370233
 20
-7.094257866706305
 30
0.0
 10
-79.37003267631798
 20
-7.075970141552287
 30
0.0
 10
-79.8562845067009
 20
-6.96457760874151
 30
0.0
 10
-80.74707045978085
 20
-6.741221082394967
 30
0.0
 10
-81.95791182981222
 20
-6.39603203943627
 30
0.0
 10
-83.1686298176497
 20
-6.01142460085804
 30
0.0
 10
-84.37923297089438
 20
-5.589799581656477
 30
0.0
 10
-85.58971969042373
 20
-5.133742166579711
 30
0.0
 10
-86.80010487592555
 20
-4.64609061166343
 30
0.0
 10
-88.01039413182351
 20
-4.12984186646192
 30
0.0
 10
-89.22059865617127
 20
-3.588179608699678
 30
0.0
 10
-90.43073190567563
 20
-3.024445551412507
 30
0.0
 10
-91.64080438356327
 20
-2.442106112366397
 30
0.0
 10
-92.85082827117015
 20
-1.844743942193905
 30
0.0
 10
-94.06081429430484
 20
-1.236032142066498
 30
0.0
 10
-95.27078037785788
 20
-0.6197267928045557
 30
0.0
 10
-96.07726609899172
 20
-0.2063838682017413
 30
0.0
 10
-96.4807305069926
 20
0.000401125501785
 30
0.0
  0
SPLINE
  5
45F7
330
1F
100
AcDbEntity
  8
AM_0
100
AcDbSpline
210
0.0
220
0.0
230
1.0
 70
     8
 71
     3
 72
    46
 73
    42
 74
     0
 42
0.0000000001
 43
0.0000000001
 40
0.0
 40
0.0
 40
0.0
 40
0.0
 40
1.348332046947654
 40
2.024828967632893
 40
2.703918159304094
 40
3.386347665078122
 40
4.072776489761951
 40
4.763750544421345
 40
5.459696642770595
 40
6.160921452191748
 40
6.867565637253344
 40
7.579665907256597
 40
8.297112853413899
 40
9.019671552060666
 40
9.746986763446125
 40
10.47859339096365
 40
11.21393074760088
 40
11.95235532364327
 40
12.69315551794651
 40
13.43556823304427
 40
14.1787950170388
 40
14.92202180103393
 40
15.66443451613169
 40
16.40523471043432
 40
17.14365928647669
 40
17.87899664311455
 40
18.61060327063121
 40
19.33791848201689
 40
20.06048192311554
 40
20.77792886927282
 40
21.49002913927608
 40
22.19667332433747
 40
22.89788836015233
 40
23.59383445850157
 40
24.28480851316097
 40
24.97123685067575
 40
25.65366676154837
 40
26.33276604526151
 40
27.00926273560554
 40
27.68398960851752
 40
28.35781868496899
 40
28.35781868496899
 40
28.35781868496899
 40
28.35781868496899
 10
-48.4545611731286
 20
-7.900000689280314
 30
0.0
 10
-49.26239546083061
 20
-7.882003878603054
 30
0.0
 10
-50.47554341684713
 20
-7.854977551025344
 30
0.0
 10
-52.08871915720582
 20
-7.688581417130192
 30
0.0
 10
-53.30000374884875
 20
-7.520809850830143
 30
0.0
 10
-54.51118480449425
 20
-7.305419658366201
 30
0.0
 10
-55.72225913347671
 20
-7.045274961143826
 30
0.0
 10
-56.93322051426972
 20
-6.741619472438367
 30
0.0
 10
-58.14406691869499
 20
-6.396431314999379
 30
0.0
 10
-59.35479295805841
 20
-6.011829995212344
 30
0.0
 10
-60.56540105231086
 20
-5.590200953089503
 30
0.0
 10
-61.77588794528463
 20
-5.134144101350826
 30
0.0
 10
-62.98627308409937
 20
-4.646492394524609
 30
0.0
 10
-64.19656235146877
 20
-4.13024368768358
 30
0.0
 10
-65.40676687713151
 20
-3.58858143002195
 30
0.0
 10
-66.61690010964374
 20
-3.0248473332493
 30
0.0
 10
-67.82697265467423
 20
-2.442508053227125
 30
0.0
 10
-69.03699628928229
 20
-1.845145283071082
 30
0.0
 10
-70.24698384316767
 20
-1.23643544060117
 30
0.0
 10
-71.45694636964583
 20
-0.6201216634630394
 30
0.0
 10
-72.66689872496536
 20
-0.0000006894045537
 30
0.0
 10
-73.87685108001905
 20
0.6201202854075005
 30
0.0
 10
-75.08681360729451
 20
1.236434060286016
 30
0.0
 10
-76.2968011582657
 20
1.845143911013817
 30
0.0
 10
-77.50682480367996
 20
2.442506650544359
 30
0.0
 10
-78.71689730864209
 20
3.024846044122777
 30
0.0
 10
-79.92703068954111
 20
3.588579720356769
 30
0.0
 10
-81.13723729725576
 20
4.130244711145368
 30
0.0
 10
-82.34753126722541
 20
4.646488727605185
 30
0.0
 10
-83.55791856518175
 20
5.134142934942349
 30
0.0
 10
-84.76840542997198
 20
5.590199922382204
 30
0.0
 10
-85.97900855118389
 20
6.011825090094478
 30
0.0
 10
-87.18972652372867
 20
6.39643235933813
 30
0.0
 10
-88.40056798556018
 20
6.741621926908516
 30
0.0
 10
-89.61152866551238
 20
7.045257548877735
 30
0.0
 10
-90.82260388238044
 20
7.305477698313597
 30
0.0
 10
-92.03379266787683
 20
7.520560310820817
 30
0.0
 10
-93.24507101807736
 20
7.689512957693189
 30
0.0
 10
-94.45642430947996
 20
7.810051774845805
 30
0.0
 10
-95.66782157210594
 20
7.885902231268826
 30
0.0
 10
-96.4756167305364
 20
7.895302370274385
 30
0.0
 10
-96.8792454163348
 20
7.899999310722144
 30
0.0
  0
SPLINE
  5
45F8
330
1F
100
AcDbEntity
  8
AM_0
100
AcDbSpline
210
0.0
220
0.0
230
1.0
 70
     8
 71
     3
 72
    22
 73
    18
 74
     0
 42
0.0000000001
 43
0.0000000001
 40
30.51371389116273
 40
30.51371389116273
 40
30.51371389116273
 40
30.51371389116273
 40
31.16722880550176
 40
32.23537921050758
 40
33.29534548809967
 40
34.347168041821
 40
35.39108718934584
 40
36.42754827133493
 40
37.45720575381954
 40
38.48085062012849
 40
39.49948440763516
 40
40.51422944315121
 40
41.52631975251916
 40
42.53706336719636
 40
43.54780698187354
 40
44.55989729124051
 40
45.14939243453665
 40
45.14939243453665
 40
45.14939243453665
 40
45.14939243453665
 10
-96.48073050698997
 20
0.0004011255004328
 30
0.0
 10
-106.7224316048149
 20
4.136840355024426
 30
0.0
 10
-107.44972557815
 20
4.374406061619088
 30
0.0
 10
-108.6318856553339
 20
4.740208041606527
 30
0.0
 10
-109.9938002640519
 20
5.129777239379772
 30
0.0
 10
-111.3558439920303
 20
5.485143586400427
 30
0.0
 10
-112.718026771367
 20
5.804087316060543
 30
0.0
 10
-114.0803498112757
 20
6.084644307858821
 30
0.0
 10
-115.4428033461287
 20
6.325062031624692
 30
0.0
 10
-116.8053764728195
 20
6.523842836597749
 30
0.0
 10
-118.1680434400931
 20
6.679767523965291
 30
0.0
 10
-119.5307952911938
 20
6.791828509240674
 30
0.0
 10
-120.8936032130953
 20
6.859353536514785
 30
0.0
 10
-122.2564410818744
 20
6.881911413788031
 30
0.0
 10
-123.6192789486483
 20
6.859353536479537
 30
0.0
 10
-124.7912987745444
 20
6.801281765043749
 30
0.0
 10
-125.3054316993091
 20
6.868342412363447
 30
0.0
 10
-126.1832840986668
 20
6.853593242990564
 30
0.0
  0
SPLINE
  5
45F9
330
1F
100
AcDbEntity
  8
AM_0
100
AcDbSpline
210
0.0
220
0.0
230
1.0
 70
     8
 71
     3
 72
    55
 73
    51
 74
     0
 42
0.0000000001
 43
0.0000000001
 40
0.0
 40
0.0
 40
0.0
 40
0.0
 40
1.010743684496582
 40
2.022833576467832
 40
3.037578957496688
 40
4.056212745003489
 40
5.079857003664532
 40
6.109500240690281
 40
7.145961322679372
 40
8.189895241603872
 40
9.241717795325891
 40
10.30168407291828
 40
11.36983447792315
 40
12.44600489715814
 40
13.52984294512926
 40
14.62081576220742
 40
15.7182257034828
 40
16.82123173843959
 40
17.92886860250316
 40
19.0400688939571
 40
20.15368796660465
 40
21.26852814259644
 40
22.38336992938901
 40
23.49698739941135
 40
24.6081876908653
 40
25.71582455492886
 40
26.81883757994213
 40
27.91624752121713
 40
29.00722033829659
 40
30.09105838626677
 40
31.16722880550176
 40
32.23537921050758
 40
33.29534548809967
 40
34.347168041821
 40
35.39108718934584
 40
36.42754827133493
 40
37.45720575381954
 40
38.48085062012849
 40
39.49948440763516
 40
40.51422944315121
 40
41.52631975251916
 40
42.53706336719636
 40
43.54780698187354
 40
44.55989729124051
 40
45.57464232675757
 40
46.59327611426424
 40
47.6169209805722
 40
48.64656348684535
 40
49.68302456883444
 40
50.58557219878025
 40
50.58557219878025
 40
50.58557219878025
 40
50.58557219878025
 10
-51.84565315863859
 20
-7.900000689280147
 30
0.0
 10
-52.24928177263738
 20
-7.895300380669322
 30
0.0
 10
-53.05707659277184
 20
-7.885893503116139
 30
0.0
 10
-54.26847485104121
 20
-7.810063509492199
 30
0.0
 10
-55.47982139928647
 20
-7.689513628634498
 30
0.0
 10
-56.69109297707304
 20
-7.520558385755254
 30
0.0
 10
-57.90227749781733
 20
-7.305487448326451
 30
0.0
 10
-59.11335106755675
 20
-7.045257202532924
 30
0.0
 10
-60.32431773727864
 20
-6.741620652064265
 30
0.0
 10
-61.53516676815606
 20
-6.396437121876605
 30
0.0
 10
-62.74588991210034
 20
-6.011826017905087
 30
0.0
 10
-63.95649320389694
 20
-5.59020150429159
 30
0.0
 10
-65.16697988578292
 20
-5.134143951964105
 30
0.0
 10
-66.37736508181973
 20
-4.646492435032378
 30
0.0
 10
-67.58765433360179
 20
-4.130243676550391
 30
0.0
 10
-68.79785886382402
 20
-3.588581433669689
 30
0.0
 10
-70.00799209381838
 20
-3.024847329865388
 30
0.0
 10
-71.21806464436014
 20
-2.442508063153682
 30
0.0
 10
-72.42808825934147
 20
-1.845145246560415
 30
0.0
 10
-73.63807588652917
 20
-1.236435577251467
 30
0.0
 10
-74.84803813866652
 20
-0.6201211521159992
 30
0.0
 10
-76.05799210229474
 20
-0.0000023011658817
 30
0.0
 10
-77.267940634242
 20
0.6201277123100163
 30
0.0
 10
-78.47790694190912
 20
1.236432539799696
 30
0.0
 10
-79.68789307535089
 20
1.845144051638157
 30
0.0
 10
-80.89791884779096
 20
2.4425091439175
 30
0.0
 10
-82.1079964182941
 20
3.024843440843648
 30
0.0
 10
-83.31813155819833
 20
3.588580403564221
 30
0.0
 10
-84.52833626313379
 20
4.13024220721269
 30
0.0
 10
-85.73862547087733
 20
4.646491074259848
 30
0.0
 10
-86.94901067001351
 20
5.134142591904914
 30
0.0
 10
-88.15949738273157
 20
5.590200035182154
 30
0.0
 10
-89.37010054958065
 20
6.011824979313071
 30
0.0
 10
-90.58081849028159
 20
6.396432687173469
 30
0.0
 10
-91.79166003345635
 20
6.74162073840416
 30
0.0
 10
-93.0026262539725
 20
7.045263394621867
 30
0.0
 10
-94.21370847118312
 20
7.305463918508935
 30
0.0
 10
-95.42489699333881
 20
7.520601424939409
 30
0.0
 10
-96.63616893020048
 20
7.68935639318571
 30
0.0
 10
-97.84751632012612
 20
7.810638329555559
 30
0.0
 10
-99.05891355127412
 20
7.883719661484824
 30
0.0
 10
-100.2703374021416
 20
7.908133716290491
 30
0.0
 10
-101.4817612512267
 20
7.883719661446665
 30
0.0
 10
-102.6931584877324
 20
7.810638329709352
 30
0.0
 10
-103.9045058579325
 20
7.689356392607306
 30
0.0
 10
-105.11577786875
 20
7.520601427114566
 30
0.0
 10
-106.3269602081028
 20
7.305464959161999
 30
0.0
 10
-107.5380376541104
 20
7.045266055032254
 30
0.0
 10
-108.6939438685851
 20
6.755404192623822
 30
0.0
 10
-109.4439089843703
 20
6.543425472385113
 30
0.0
 10
-111.704957154195
 20
5.564279103131532
 30
0.0
  0
DIMENSION
  5
4680
330
1F
100
AcDbEntity
  8
AM_5
100
AcDbDimension
  2
*D9
 10
-0.6569101001225142
 20
-1.804832053867269
 30
0.0
 11
22.19749808039666
 21
-0.0000269340097047
 31
0.0
 70
    34
  1
<>
 51
359.9999999999998
  3
AM_JIS$2
100
AcDb2LineAngularDimension
 13
0.0000000000000568
 23
-0.0000000000001562
 33
0.0
 14
-0.6568967178321654
 24
1.804808914154591
 34
0.0
 15
0.0000000000000568
 25
-0.0000000000001457
 35
0.0
 16
23.22856208703945
 26
-10.01984593180233
 36
0.0
1001
GENIUS_GENDTOL_13
1000

1000
h7
1000

1040
0.0
1001
ACAD
1000
DSTYLE
1002
{
1070
   271
1070
     0
1002
}
  0
ELLIPSE
  5
4780
330
1F
100
AcDbEntity
  8
AM_11
 48
0.5
100
AcDbEllipse
 10
-208.3160321091931
 20
31.8022296972429
 30
0.0
 11
-35.51732381184845
 21
0.000000000000775
 31
0.0
210
0.0
220
0.0
230
1.0
 40
0.9899999999999995
 41
1.895054800108161
 42
2.011520147323624
  0
ELLIPSE
  5
4781
330
1F
100
AcDbEntity
  8
AM_11
 48
0.5
100
AcDbEllipse
 10
-208.3160321091926
 20
-31.80208243654587
 30
0.0
 11
-35.51732381184842
 21
0.000000000001611
 31
0.0
210
0.0
220
0.0
230
1.0
 40
0.9900000000000011
 41
4.271664206181739
 42
4.388130507071504
  0
ELLIPSE
  5
4782
330
1F
100
AcDbEntity
  8
AM_11
 48
0.5
100
AcDbEllipse
 10
-178.0129363193919
 20
-31.80211301555318
 30
0.0
 11
-35.51732381184836
 21
0.0000000000012798
 31
0.0
210
0.0
220
0.0
230
1.0
 40
0.9900000000000032
 41
4.271664206181728
 42
5.153113667165039
  0
ELLIPSE
  5
4783
330
1F
100
AcDbEntity
  8
AM_11
 48
0.5
100
AcDbEllipse
 10
-178.0129363193924
 20
31.8021991182356
 30
0.0
 11
-35.51732381184845
 21
-0.0000000000002265
 31
0.0
210
0.0
220
0.0
230
1.0
 40
0.99
 41
1.130070686340306
 42
2.011520147323597
  0
ELLIPSE
  5
4784
330
1F
100
AcDbEntity
  8
AM_11
 48
0.5
100
AcDbEllipse
 10
-147.709906016362
 20
31.80219911823586
 30
0.0
 11
-35.51732381184845
 21
0.000000000000775
 31
0.0
210
0.0
220
0.0
230
1.0
 40
0.9899999999999995
 41
1.130070686340335
 42
2.011520147323624
  0
ELLIPSE
  5
4785
330
1F
100
AcDbEntity
  8
AM_11
 48
0.5
100
AcDbEllipse
 10
-147.7099060163616
 20
-31.80211301555291
 30
0.0
 11
-35.51732381184842
 21
0.000000000001611
 31
0.0
210
0.0
220
0.0
230
1.0
 40
0.9900000000000011
 41
4.271664206181739
 42
5.153113667165048
  0
ELLIPSE
  5
4786
330
1F
100
AcDbEntity
  8
AM_11
 48
0.5
100
AcDbEllipse
 10
-87.10377992353105
 20
31.80216853922882
 30
0.0
 11
-35.51732381184845
 21
0.000000000000775
 31
0.0
210
0.0
220
0.0
230
1.0
 40
0.9899999999999995
 41
1.130070686340335
 42
2.011520147323624
  0
ELLIPSE
  5
4787
330
1F
100
AcDbEntity
  8
AM_11
 48
0.5
100
AcDbEllipse
 10
-87.10377992353059
 20
-31.80214359455995
 30
0.0
 11
-35.51732381184842
 21
0.000000000001611
 31
0.0
210
0.0
220
0.0
230
1.0
 40
0.9900000000000011
 41
4.271664206181739
 42
5.153113667165048
  0
ELLIPSE
  5
4788
330
1F
100
AcDbEntity
  8
AM_11
 48
0.5
100
AcDbEllipse
 10
-117.4068102265608
 20
-31.80214359456021
 30
0.0
 11
-35.51732381184836
 21
0.0000000000012798
 31
0.0
210
0.0
220
0.0
230
1.0
 40
0.9900000000000032
 41
4.271664206181728
 42
5.153113667165039
  0
ELLIPSE
  5
4789
330
1F
100
AcDbEntity
  8
AM_11
 48
0.5
100
AcDbEllipse
 10
-117.4068102265614
 20
31.80216853922857
 30
0.0
 11
-35.51732381184845
 21
-0.0000000000002265
 31
0.0
210
0.0
220
0.0
230
1.0
 40
0.99
 41
1.130070686340306
 42
2.011520147323597
  0
ELLIPSE
  5
478A
330
1F
100
AcDbEntity
  8
AM_11
 48
0.5
100
AcDbEllipse
 10
-26.4977193174694
 20
-31.80214359455967
 30
0.0
 11
-35.51732381184842
 21
0.000000000001611
 31
0.0
210
0.0
220
0.0
230
1.0
 40
0.9900000000000011
 41
4.271664206181739
 42
5.153113667165048
  0
ELLIPSE
  5
478B
330
1F
100
AcDbEntity
  8
AM_11
 48
0.5
100
AcDbEllipse
 10
-26.49771931746986
 20
31.8021685392291
 30
0.0
 11
-35.51732381184845
 21
0.000000000000775
 31
0.0
210
0.0
220
0.0
230
1.0
 40
0.9899999999999995
 41
1.130070686340335
 42
2.011520147323624
  0
ELLIPSE
  5
478C
330
1F
100
AcDbEntity
  8
AM_11
 48
0.5
100
AcDbEllipse
 10
-56.80074962050023
 20
31.80216853922884
 30
0.0
 11
-35.51732381184845
 21
-0.0000000000002265
 31
0.0
210
0.0
220
0.0
230
1.0
 40
0.99
 41
1.130070686340306
 42
2.011520147323597
  0
ELLIPSE
  5
478D
330
1F
100
AcDbEntity
  8
AM_11
 48
0.5
100
AcDbEllipse
 10
-56.80074962049968
 20
-31.80214359455994
 30
0.0
 11
-35.51732381184836
 21
0.0000000000012798
 31
0.0
210
0.0
220
0.0
230
1.0
 40
0.9900000000000032
 41
4.271664206181728
 42
5.153113667165039
  0
ELLIPSE
  5
478E
330
1F
100
AcDbEntity
  8
AM_11
 48
0.5
100
AcDbEllipse
 10
3.805310985560396
 20
31.80216853922932
 30
0.0
 11
-35.51732381184908
 21
0.0000000000326126
 31
0.0
210
0.0
220
0.0
230
1.0
 40
0.989999999999986
 41
1.130070686341231
 42
1.291800737381917
  0
VIEWPORT
  5
110
330
101
100
AcDbEntity
 67
     1
  8
0
100
AcDbViewport
 10
420.5
 20
297.0
 30
0.0
 40
948.9782706766916
 41
628.452
 68
     1
 69
     1
1001
ACAD
1000
MVIEW
1002
{
1070
    16
1010
0.0
1020
0.0
1030
0.0
1010
0.0
1020
0.0
1030
1.0
1040
0.0
1040
628.452
1040
420.5
1040
297.0
1040
50.0
1040
0.0
1040
0.0
1070
     0
1070
   100
1070
     1
1070
     1
1070
     0
1070
     0
1070
     0
1070
     0
1040
0.0
1040
0.0
1040
0.0
1040
10.0
1040
10.0
1040
10.0
1040
10.0
1070
     0
1002
{
1002
}
1002
}
  0
ENDSEC
  0
SECTION
  2
OBJECTS
  0
DICTIONARY
  5
C
330
0
100
AcDbDictionary
  3
ACAD_GROUP
350
D
  3
ACAD_LAYOUT
350
1A
  3
ACAD_MLINESTYLE
350
17
  3
ACAD_PLOTSETTINGS
350
19
  3
ACAD_PLOTSTYLENAME
350
E
  3
ACDBVARIABLEDICTIONARY
350
34
  3
ACMDICTIONARY
350
43
  3
AMG
350
2B
  3
AMGSNAPSETTINGS
350
6E
  3
DWGPROPS
350
47A8
  3
ACDBHEADERROUNDTRIPXREC
350
47B5
  0
DICTIONARY
  5
74
330
1F
100
AcDbDictionary
280
     1
  3
ACAD_INDEX
360
47AA
  3
ACAD_LAYOUTSELFREF
360
47D8
  0
DICTIONARY
  5
47DD
330
101
100
AcDbDictionary
280
     1
  3
ACAD_LAYOUTSELFREF
360
47DE
  0
DICTIONARY
  5
D
102
{ACAD_REACTORS
330
C
102
}
330
C
100
AcDbDictionary
  0
DICTIONARY
  5
1A
102
{ACAD_REACTORS
330
C
102
}
330
C
100
AcDbDictionary
  0
DICTIONARY
  5
17
102
{ACAD_REACTORS
330
C
102
}
330
C
100
AcDbDictionary
  3
STANDARD
350
18
  0
DICTIONARY
  5
19
102
{ACAD_REACTORS
330
C
102
}
330
C
100
AcDbDictionary
  0
ACDBDICTIONARYWDFLT
  5
E
102
{ACAD_REACTORS
330
C
102
}
330
C
100
AcDbDictionary
281
     1
  3
Normal
350
F
100
AcDbDictionaryWithDefault
340
F
  0
DICTIONARY
  5
34
102
{ACAD_REACTORS
330
C
102
}
330
C
100
AcDbDictionary
  3
INDEXCTL
350
35
  3
SORTENTS
350
B5E
  0
DICTIONARY
  5
43
102
{ACAD_REACTORS
330
C
102
}
330
C
100
AcDbDictionary
  3
ACMSTDDICTIONARY
350
260
  0
DICTIONARY
  5
2B
102
{ACAD_REACTORS
330
C
102
}
330
C
100
AcDbDictionary
  3
ACMGSETTINGS
350
2C
  0
DICTIONARY
  5
6E
102
{ACAD_REACTORS
330
C
102
}
330
C
100
AcDbDictionary
  0
XRECORD
  5
47A8
102
{ACAD_REACTORS
330
C
102
}
330
C
100
AcDbXrecord
  1
DWGPROPS COOKIE
  2

  3

  4

  6

  7

  8

  9

300
AmdtFileType=82
301
=
302
=
303
=
304
=
305
=
306
=
307
=
308
=
309
=
 40
0.1053579050925926
 41
2452800.443498622
 42
2452948.670364583
  1

 90
        1
  0
DICTIONARY
  5
47B5
102
{ACAD_REACTORS
330
C
102
}
330
C
100
AcDbDictionary
  3
TSTACKALIGN
350
47B6
  3
TSTACKSIZE
350
47B7
  3
HYPERLINKBASE
350
47B8
  3
STYLESHEET
350
47B9
  3
LAYOUTDICT
350
47BA
  3
PLOTSETDICT
350
47BB
  3
PLOTSTYLNAMDICT
350
47BC
  3
LWETCUNION
350
47BD
  3
INSUNITS
350
47BE
  3
CEPSNTYPE
350
47BF
  3
FINGERPRINTGUID
350
47C0
  3
VERSIONGUID
350
47C1
  3
PSVPSCALE
350
47C2
  3
DIMSTYLEDATA
350
47C3
  3
PUCSORTHOREF
350
47C4
  3
PUCSORTHOVIEW
350
47C5
  3
PUCSBASE
350
47C6
  3
PUCSORGTOP
350
47C7
  3
PUCSORGBOTTOM
350
47C8
  3
PUCSORGLEFT
350
47C9
  3
PUCSORGRIGHT
350
47CA
  3
PUCSORGFRONT
350
47CB
  3
PUCSORGBACK
350
47CC
  3
UCSORTHOREF
350
47CD
  3
UCSORTHOVIEW
350
47CE
  3
UCSBASE
350
47CF
  3
UCSORGTOP
350
47D0
  3
UCSORGBOTTOM
350
47D1
  3
UCSORGLEFT
350
47D2
  3
UCSORGRIGHT
350
47D3
  3
UCSORGFRONT
350
47D4
  3
UCSORGBACK
350
47D5
  0
DICTIONARY
  5
47AA
102
{ACAD_REACTORS
330
74
102
}
330
74
100
AcDbDictionary
  3
*A1
350
47AB
  0
XRECORD
  5
47D8
102
{ACAD_REACTORS
330
74
102
}
330
74
100
AcDbXrecord
340
1F
  0
XRECORD
  5
47DE
102
{ACAD_REACTORS
330
47DD
102
}
330
47DD
100
AcDbXrecord
340
101
  0
MLINESTYLE
  5
18
102
{ACAD_REACTORS
330
17
102
}
330
17
100
AcDbMlineStyle
  2
STANDARD
 70
     0
  3

 62
   256
 51
90.0
 52
90.0
 71
     2
 49
0.5
 62
   256
  6
BYLAYER
 49
-0.5
 62
   256
  6
BYLAYER
  0
ACDBPLACEHOLDER
  5
F
102
{ACAD_REACTORS
330
E
102
}
330
E
100
AcDbPlaceHolder
280
     0
  0
DICTIONARYVAR
  5
35
102
{ACAD_REACTORS
330
34
102
}
330
34
100
DictionaryVariables
280
     0
  1
1
  0
DICTIONARYVAR
  5
B5E
102
{ACAD_REACTORS
330
34
102
}
330
34
100
DictionaryVariables
280
     0
  1
96
  0
DICTIONARY
  5
260
102
{ACAD_REACTORS
330
43
102
}
330
43
100
AcDbDictionary
  0
DICTIONARY
  5
2C
102
{ACAD_REACTORS
330
2B
102
}
330
2B
100
AcDbDictionary
  3
DWGSETTINGS
350
2D
  0
XRECORD
  5
47B6
102
{ACAD_REACTORS
330
47B5
102
}
330
47B5
100
AcDbXrecord
 90
        1
  0
XRECORD
  5
47B7
102
{ACAD_REACTORS
330
47B5
102
}
330
47B5
100
AcDbXrecord
 90
       70
  0
XRECORD
  5
47B8
102
{ACAD_REACTORS
330
47B5
102
}
330
47B5
100
AcDbXrecord
  1

  0
XRECORD
  5
47B9
102
{ACAD_REACTORS
330
47B5
102
}
330
47B5
100
AcDbXrecord
  1
ASAMI.ctb
  0
XRECORD
  5
47BA
102
{ACAD_REACTORS
330
47B5
102
}
330
47B5
100
AcDbXrecord
340
1A
  0
XRECORD
  5
47BB
102
{ACAD_REACTORS
330
47B5
102
}
330
47B5
100
AcDbXrecord
340
19
  0
XRECORD
  5
47BC
102
{ACAD_REACTORS
330
47B5
102
}
330
47B5
100
AcDbXrecord
340
E
  0
XRECORD
  5
47BD
102
{ACAD_REACTORS
330
47B5
102
}
330
47B5
100
AcDbXrecord
 90
    10781
  0
XRECORD
  5
47BE
102
{ACAD_REACTORS
330
47B5
102
}
330
47B5
100
AcDbXrecord
 90
        4
  0
XRECORD
  5
47BF
102
{ACAD_REACTORS
330
47B5
102
}
330
47B5
100
AcDbXrecord
 90
        0
  0
XRECORD
  5
47C0
102
{ACAD_REACTORS
330
47B5
102
}
330
47B5
100
AcDbXrecord
  1
{AFB28963-8C59-40AE-9337-C84526B81ACE}
  0
XRECORD
  5
47C1
102
{ACAD_REACTORS
330
47B5
102
}
330
47B5
100
AcDbXrecord
  1
{0116B2DE-9C58-4018-B2A3-6B5509382E32}
  0
XRECORD
  5
47C2
102
{ACAD_REACTORS
330
47B5
102
}
330
47B5
100
AcDbXrecord
 40
0.0
  0
XRECORD
  5
47C3
102
{ACAD_REACTORS
330
47B5
102
}
330
47B5
100
AcDbXrecord
1000
DSTYLE
1002
{
1070
    79
 70
     2
1070
   341
340
59
1070
   342
340
59
1070
   371
 70
    -1
1070
   372
 70
    -1
1002
}
  0
XRECORD
  5
47C4
102
{ACAD_REACTORS
330
47B5
102
}
330
47B5
100
AcDbXrecord
340
0
  0
XRECORD
  5
47C5
102
{ACAD_REACTORS
330
47B5
102
}
330
47B5
100
AcDbXrecord
 70
     0
  0
XRECORD
  5
47C6
102
{ACAD_REACTORS
330
47B5
102
}
330
47B5
100
AcDbXrecord
340
0
  0
XRECORD
  5
47C7
102
{ACAD_REACTORS
330
47B5
102
}
330
47B5
100
AcDbXrecord
 10
0.0
 20
0.0
 30
0.0
  0
XRECORD
  5
47C8
102
{ACAD_REACTORS
330
47B5
102
}
330
47B5
100
AcDbXrecord
 10
0.0
 20
0.0
 30
0.0
  0
XRECORD
  5
47C9
102
{ACAD_REACTORS
330
47B5
102
}
330
47B5
100
AcDbXrecord
 10
0.0
 20
0.0
 30
0.0
  0
XRECORD
  5
47CA
102
{ACAD_REACTORS
330
47B5
102
}
330
47B5
100
AcDbXrecord
 10
0.0
 20
0.0
 30
0.0
  0
XRECORD
  5
47CB
102
{ACAD_REACTORS
330
47B5
102
}
330
47B5
100
AcDbXrecord
 10
0.0
 20
0.0
 30
0.0
  0
XRECORD
  5
47CC
102
{ACAD_REACTORS
330
47B5
102
}
330
47B5
100
AcDbXrecord
 10
0.0
 20
0.0
 30
0.0
  0
XRECORD
  5
47CD
102
{ACAD_REACTORS
330
47B5
102
}
330
47B5
100
AcDbXrecord
340
0
  0
XRECORD
  5
47CE
102
{ACAD_REACTORS
330
47B5
102
}
330
47B5
100
AcDbXrecord
 70
     0
  0
XRECORD
  5
47CF
102
{ACAD_REACTORS
330
47B5
102
}
330
47B5
100
AcDbXrecord
340
0
  0
XRECORD
  5
47D0
102
{ACAD_REACTORS
330
47B5
102
}
330
47B5
100
AcDbXrecord
 10
0.0
 20
0.0
 30
0.0
  0
XRECORD
  5
47D1
102
{ACAD_REACTORS
330
47B5
102
}
330
47B5
100
AcDbXrecord
 10
0.0
 20
0.0
 30
0.0
  0
XRECORD
  5
47D2
102
{ACAD_REACTORS
330
47B5
102
}
330
47B5
100
AcDbXrecord
 10
0.0
 20
0.0
 30
0.0
  0
XRECORD
  5
47D3
102
{ACAD_REACTORS
330
47B5
102
}
330
47B5
100
AcDbXrecord
 10
0.0
 20
0.0
 30
0.0
  0
XRECORD
  5
47D4
102
{ACAD_REACTORS
330
47B5
102
}
330
47B5
100
AcDbXrecord
 10
0.0
 20
0.0
 30
0.0
  0
XRECORD
  5
47D5
102
{ACAD_REACTORS
330
47B5
102
}
330
47B5
100
AcDbXrecord
 10
0.0
 20
0.0
 30
0.0
  0
LAYER_INDEX
  5
47AB
102
{ACAD_REACTORS
330
47AA
102
}
330
47AA
100
AcDbIndex
 40
2453151.672165243
100
AcDbLayerIndex
  8
0
360
47AC
 90
        0
  8
AM_0
360
47AD
 90
       69
  8
AM_7
360
47AE
 90
        1
  8
AM_11
360
47AF
 90
       20
  8
AM_5
360
47B0
 90
        5
  8
Defpoints
360
47B1
 90
        0
  8
AM_6
360
47B2
 90
        1
  8
AM_CL
360
47B3
 90
        0
  0
XRECORD
  5
2D
102
{ACAD_REACTORS
330
2C
102
}
330
2C
100
AcDbXrecord
  1
VERSION
140
15.0
  1
PRODUCT
  2
AutoCAD Mechanical 2000
  0
IDBUFFER
  5
47AC
330
0
100
AcDbIdBuffer
  0
IDBUFFER
  5
47AD
330
0
100
AcDbIdBuffer
330
45E4
330
45E5
330
45E6
330
45E7
330
45E8
330
45E9
330
45EA
330
45EB
330
45EC
330
45ED
330
45EE
330
45F0
330
45F1
330
45F2
330
45F3
330
45F4
330
45F5
330
45F6
330
45F7
330
45F8
330
45F9
330
1E25
330
1E26
330
1FD9
330
21D7
330
21D8
330
21D9
330
21DC
330
21DD
330
2694
330
2695
330
2696
330
2699
330
3366
330
3367
330
3F18
330
3F1B
330
449D
330
449E
330
449F
330
45B4
330
45B5
330
45B6
330
45B7
330
45B8
330
45B9
330
45BA
330
45BB
330
45BC
330
45BD
330
45BE
330
45BF
330
45C0
330
45C1
330
45C2
330
45C3
330
45C4
330
45C5
330
45C6
330
45D5
330
45D6
330
45D7
330
45D9
330
45DD
330
45DE
330
45DF
330
45E0
330
45E1
330
45E3
  0
IDBUFFER
  5
47AE
330
0
100
AcDbIdBuffer
330
C9F
  0
IDBUFFER
  5
47AF
330
0
100
AcDbIdBuffer
330
478B
330
478C
330
478D
330
478E
330
45D8
330
45DA
330
45DB
330
45DC
330
45EF
330
4780
330
4781
330
4782
330
4783
330
4784
330
4785
330
4786
330
4787
330
4788
330
4789
330
478A
  0
IDBUFFER
  5
47B0
330
0
100
AcDbIdBuffer
330
CC6
330
DF5
330
1FB6
330
2216
330
4680
  0
IDBUFFER
  5
47B1
330
0
100
AcDbIdBuffer
  0
IDBUFFER
  5
47B2
330
0
100
AcDbIdBuffer
330
19BD
  0
IDBUFFER
  5
47B3
330
0
100
AcDbIdBuffer
  0
ENDSEC
  0
EOF
