  0
SECTION
  2
HEADER
  9
$ACADVER
  1
AC1014
  9
$ACADMAINTVER
 70
     9
  9
$DWGCODEPAGE
  3
ANSI_932
  9
$INSBASE
 10
0.0
 20
0.0
 30
0.0
  9
$EXTMIN
 10
-170.800001
 20
-54.50000099999958
 30
-0.00000001
  9
$EXTMAX
 10
24.84001888334713
 20
24.28165551222765
 30
0.00000001
  9
$LIMMIN
 10
-174.4563797951447
 20
-70.82206914383238
  9
$LIMMAX
 10
45.85902212792825
 20
52.2453258987743
  9
$ORTHOMODE
 70
     0
  9
$REGENMODE
 70
     1
  9
$FILLMODE
 70
     1
  9
$QTEXTMODE
 70
     0
  9
$MIRRTEXT
 70
     0
  9
$DRAGMODE
 70
     2
  9
$LTSCALE
 40
1.0
  9
$OSMODE
 70
    55
  9
$ATTMODE
 70
     1
  9
$TEXTSIZE
 40
2.5
  9
$TRACEWID
 40
1.0
  9
$TEXTSTYLE
  7
STANDARD
  9
$CLAYER
  8
AM_0
  9
$CELTYPE
  6
BYLAYER
  9
$CECOLOR
 62
   256
  9
$CELTSCALE
 40
1.0
  9
$DELOBJ
 70
     1
  9
$DISPSILH
 70
     0
  9
$DIMSCALE
 40
1.0
  9
$DIMASZ
 40
2.5
  9
$DIMEXO
 40
1.0
  9
$DIMDLI
 40
12.0
  9
$DIMRND
 40
0.0
  9
$DIMDLE
 40
0.0
  9
$DIMEXE
 40
1.0
  9
$DIMTP
 40
0.1
  9
$DIMTM
 40
0.1
  9
$DIMTXT
 40
3.2
  9
$DIMCEN
 40
0.0
  9
$DIMTSZ
 40
0.0
  9
$DIMTOL
 70
     0
  9
$DIMLIM
 70
     0
  9
$DIMTIH
 70
     0
  9
$DIMTOH
 70
     0
  9
$DIMSE1
 70
     0
  9
$DIMSE2
 70
     0
  9
$DIMTAD
 70
     3
  9
$DIMZIN
 70
     8
  9
$DIMBLK
  1
OPEN30
  9
$DIMASO
 70
     1
  9
$DIMSHO
 70
     1
  9
$DIMPOST
  1

  9
$DIMAPOST
  1
"
  9
$DIMALT
 70
     0
  9
$DIMALTD
 70
     2
  9
$DIMALTF
 40
0.0393701
  9
$DIMLFAC
 40
1.0
  9
$DIMTOFL
 70
     1
  9
$DIMTVP
 40
0.0
  9
$DIMTIX
 70
     0
  9
$DIMSOXD
 70
     0
  9
$DIMSAH
 70
     0
  9
$DIMBLK1
  1

  9
$DIMBLK2
  1

  9
$DIMSTYLE
  2
AM_JIS
  9
$DIMCLRD
 70
   256
  9
$DIMCLRE
 70
   256
  9
$DIMCLRT
 70
     2
  9
$DIMTFAC
 40
0.71
  9
$DIMGAP
 40
1.5
  9
$DIMJUST
 70
     0
  9
$DIMSD1
 70
     0
  9
$DIMSD2
 70
     0
  9
$DIMTOLJ
 70
     0
  9
$DIMTZIN
 70
     0
  9
$DIMALTZ
 70
     0
  9
$DIMALTTZ
 70
     0
  9
$DIMFIT
 70
     3
  9
$DIMUPT
 70
     0
  9
$DIMUNIT
 70
     2
  9
$DIMDEC
 70
     3
  9
$DIMTDEC
 70
     3
  9
$DIMALTU
 70
     2
  9
$DIMALTTD
 70
     2
  9
$DIMTXSTY
  7
ASAMI
  9
$DIMAUNIT
 70
     0
  9
$LUNITS
 70
     2
  9
$LUPREC
 70
     2
  9
$SKETCHINC
 40
1.0
  9
$FILLETRAD
 40
2.5
  9
$AUNITS
 70
     0
  9
$AUPREC
 70
     0
  9
$MENU
  1
.
  9
$ELEVATION
 40
0.0
  9
$PELEVATION
 40
0.0
  9
$THICKNESS
 40
0.0
  9
$LIMCHECK
 70
     0
  9
$BLIPMODE
 70
     0
  9
$CHAMFERA
 40
0.75
  9
$CHAMFERB
 40
0.75
  9
$CHAMFERC
 40
20.0
  9
$CHAMFERD
 40
0.0
  9
$SKPOLY
 70
     0
  9
$TDCREATE
 40
2452800.443498622
  9
$TDUPDATE
 40
2453151.566689803
  9
$TDINDWG
 40
0.1004202546
  9
$TDUSRTIMER
 40
0.1004202546
  9
$USRTIMER
 70
     1
  9
$ANGBASE
 50
0.0
  9
$ANGDIR
 70
     0
  9
$PDMODE
 70
     0
  9
$PDSIZE
 40
0.0
  9
$PLINEWID
 40
0.0
  9
$COORDS
 70
     1
  9
$SPLFRAME
 70
     0
  9
$SPLINETYPE
 70
     6
  9
$SPLINESEGS
 70
     8
  9
$ATTDIA
 70
     1
  9
$ATTREQ
 70
     1
  9
$HANDLING
 70
 12289
  9
$HANDSEED
  5
476C
  9
$SURFTAB1
 70
     6
  9
$SURFTAB2
 70
     6
  9
$SURFTYPE
 70
     6
  9
$SURFU
 70
     6
  9
$SURFV
 70
     6
  9
$UCSNAME
  2

  9
$UCSORG
 10
0.0
 20
0.0
 30
0.0
  9
$UCSXDIR
 10
1.0
 20
0.0000000000000027
 30
0.0
  9
$UCSYDIR
 10
-0.0000000000000027
 20
1.0
 30
0.0
  9
$PUCSNAME
  2

  9
$PUCSORG
 10
0.0
 20
0.0
 30
0.0
  9
$PUCSXDIR
 10
1.0
 20
0.0
 30
0.0
  9
$PUCSYDIR
 10
0.0
 20
1.0
 30
0.0
  9
$USERI1
 70
     0
  9
$USERI2
 70
     0
  9
$USERI3
 70
     0
  9
$USERI4
 70
     0
  9
$USERI5
 70
     0
  9
$USERR1
 40
0.0
  9
$USERR2
 40
0.0
  9
$USERR3
 40
0.0
  9
$USERR4
 40
0.0
  9
$USERR5
 40
0.0
  9
$WORLDVIEW
 70
     1
  9
$SHADEDGE
 70
     3
  9
$SHADEDIF
 70
    70
  9
$TILEMODE
 70
     1
  9
$MAXACTVP
 70
    64
  9
$PINSBASE
 10
0.0
 20
0.0
 30
0.0
  9
$PLIMCHECK
 70
     0
  9
$PEXTMIN
 10
1.000000000000000E+20
 20
1.000000000000000E+20
 30
1.000000000000000E+20
  9
$PEXTMAX
 10
-1.000000000000000E+20
 20
-1.000000000000000E+20
 30
-1.000000000000000E+20
  9
$PLIMMIN
 10
0.0
 20
0.0
  9
$PLIMMAX
 10
841.0
 20
594.0
  9
$UNITMODE
 70
     0
  9
$VISRETAIN
 70
     1
  9
$PLINEGEN
 70
     0
  9
$PSLTSCALE
 70
     0
  9
$TREEDEPTH
 70
  3020
  9
$PICKSTYLE
 70
     0
  9
$CMLSTYLE
  2
STANDARD
  9
$CMLJUST
 70
     0
  9
$CMLSCALE
 40
20.0
  9
$PROXYGRAPHICS
 70
     1
  9
$MEASUREMENT
 70
     1
  0
ENDSEC
  0
SECTION
  2
CLASSES
  0
CLASS
  1
ACDBDICTIONARYWDFLT
  2
AcDbDictionaryWithDefault
  3
AutoCAD 2000
 90
        0
280
     0
281
     0
  0
CLASS
  1
ACDBPLACEHOLDER
  2
AcDbPlaceHolder
  3
AutoCAD 2000
 90
        0
280
     0
281
     0
  0
CLASS
  1
LAYOUT
  2
AcDbLayout
  3
AutoCAD 2000
 90
        0
280
     0
281
     0
  0
CLASS
  1
AMGSETTINGSOBJ
  2
AmgSettingsObj
  3
"AcadM|Product Description: AutoCAD Mechanical 2000|Company: Autodesk"
 90
        0
280
     0
281
     0
  0
CLASS
  1
ACME_DOCUMENT
  2
AcMeDbDoc
  3
AcMeServices
 90
        0
280
     0
281
     0
  0
CLASS
  1
ACMESCOPE
  2
AcMeScope
  3
AcMeServices
 90
        0
280
     0
281
     0
  0
CLASS
  1
ACMECOMMANDHISTORY
  2
AcMeCommandHistory
  3
AcMeServices
 90
        0
280
     0
281
     0
  0
CLASS
  1
DICTIONARYVAR
  2
AcDbDictionaryVar
  3
AutoCAD 2000
 90
        0
280
     0
281
     0
  0
CLASS
  1
ACIMSYSVARMAN
  2
AcImSysVarManager
  3
AcMeServices
 90
        0
280
     0
281
     0
  0
CLASS
  1
ACIMREALSYSVAR
  2
AcImRealSysVar
  3
AcMeServices
 90
        0
280
     0
281
     0
  0
CLASS
  1
ACIMINTSYSVAR
  2
AcImIntSysVar
  3
AcMeServices
 90
        0
280
     0
281
     0
  0
CLASS
  1
ACMEDRAWINGMAN
  2
AcMeDrawingMan
  3
AcMeServices
 90
        0
280
     0
281
     0
  0
CLASS
  1
ACMEVIEW
  2
AcMeView
  3
AcMeServices
 90
        0
280
     0
281
     0
  0
CLASS
  1
ACDBENTITYCACHE
  2
AcMeEntityCache
  3
AcMeServices
 90
        0
280
     0
281
     0
  0
CLASS
  1
GSMANAGER
  2
AcMeGSManager
  3
AcMeServices
 90
        0
280
     0
281
     0
  0
CLASS
  1
AmdtInternalReactor
  2
AmdtInternalReactor
  3
AcMeServices
 90
        0
280
     0
281
     0
  0
CLASS
  1
ACMESTATEMGR
  2
AcMeStateMgr
  3
AcMeServices
 90
        0
280
     0
281
     0
  0
CLASS
  1
ACME_DATABASE
  2
AcMeDbDatabase
  3
AcMeServices
 90
        0
280
     0
281
     0
  0
CLASS
  1
ACRFINSADJUSTERMGR
  2
AcRfInsAdjusterMgr
  3
AcMeServices
 90
        0
280
     0
281
     0
  0
CLASS
  1
ACMDATADICTIONARY
  2
AcmDataDictionary
  3
"AcmSymBB|Product Description: AutoCAD Mechanical 2000|Company: Autodesk"
 90
        0
280
     0
281
     0
  0
CLASS
  1
ACMDATAENTRYBLOCK
  2
AcmDataEntryBlock
  3
"AcmSymBB|Product Description: AutoCAD Mechanical 2000|Company: Autodesk"
 90
        0
280
     0
281
     0
  0
CLASS
  1
AMGOBJPROPCFG
  2
AmgObjPropCfg
  3
"AmgLay|Product Description: AutoCAD Mechanical 2000|Company: Autodesk"
 90
        1
280
     0
281
     0
  0
CLASS
  1
ACAMGFILTERDAT
  2
AcAmgFilterDat
  3
"AcadM|Product Description: AutoCAD Mechanical 2000|Company: Autodesk"
 90
        0
280
     0
281
     0
  0
CLASS
  1
LAYER_INDEX
  2
AcDbLayerIndex
  3
AutoCAD 2000
 90
        0
280
     0
281
     0
  0
CLASS
  1
IDBUFFER
  2
AcDbIdBuffer
  3
AutoCAD 2000
 90
        0
280
     0
281
     0
  0
CLASS
  1
ACIMSTRSYSVAR
  2
AcImStrSysVar
  3
AcMeServices
 90
        0
280
     0
281
     0
  0
CLASS
  1
ACMSTANDARDJIS
  2
AcmStandardJIS
  3
"AcmSymBB|Product Description: AutoCAD Mechanical 2000|Company: Autodesk"
 90
        0
280
     0
281
     0
  0
CLASS
  1
ACMSURFSTANDARDJIS
  2
AcmSurfTextStdJIS
  3
"AcmSymBB|Product Description: AutoCAD Mechanical 2000|Company: Autodesk"
 90
        0
280
     0
281
     0
  0
CLASS
  1
ACMFCFSTANDARDJIS
  2
AcmFCFStdJIS
  3
"AcmSymBB|Product Description: AutoCAD Mechanical 2000|Company: Autodesk"
 90
        0
280
     0
281
     0
  0
CLASS
  1
ACMWELDSTANDARDJIS
  2
AcmWeldingStdJIS
  3
"AcmSymBB|Product Description: AutoCAD Mechanical 2000|Company: Autodesk"
 90
        0
280
     0
281
     0
  0
CLASS
  1
ACMIDSTANDARDJIS
  2
AcmIdStdJIS
  3
"AcmSymBB|Product Description: AutoCAD Mechanical 2000|Company: Autodesk"
 90
        0
280
     0
281
     0
  0
CLASS
  1
ACMDATUMSTANDARDJIS
  2
AcmDatumStdJIS
  3
"AcmSymBB|Product Description: AutoCAD Mechanical 2000|Company: Autodesk"
 90
        0
280
     0
281
     0
  0
CLASS
  1
ACMBOMSTANDARDJIS
  2
AcmBOMStdJIS
  3
"AcmSymBB|Product Description: AutoCAD Mechanical 2000|Company: Autodesk"
 90
        0
280
     0
281
     0
  0
CLASS
  1
ACMSTANDARDANSI
  2
AcmStandardANSI
  3
"AcmSymBB|Product Description: AutoCAD Mechanical 2000|Company: Autodesk"
 90
        0
280
     0
281
     0
  0
CLASS
  1
ACMSURFSTANDARDANSI
  2
AcmSurfTextStdANSI
  3
"AcmSymBB|Product Description: AutoCAD Mechanical 2000|Company: Autodesk"
 90
        0
280
     0
281
     0
  0
CLASS
  1
ACMFCFSTANDARDANSI
  2
AcmFCFStdANSI
  3
"AcmSymBB|Product Description: AutoCAD Mechanical 2000|Company: Autodesk"
 90
        0
280
     0
281
     0
  0
CLASS
  1
ACMWELDSTANDARDANSI
  2
AcmWeldingStdANSI
  3
"AcmSymBB|Product Description: AutoCAD Mechanical 2000|Company: Autodesk"
 90
        0
280
     0
281
     0
  0
CLASS
  1
ACMIDSTANDARDANSI
  2
AcmIdStdANSI
  3
"AcmSymBB|Product Description: AutoCAD Mechanical 2000|Company: Autodesk"
 90
        0
280
     0
281
     0
  0
CLASS
  1
ACMDATUMSTANDARDANSI
  2
AcmDatumStdANSI
  3
"AcmSymBB|Product Description: AutoCAD Mechanical 2000|Company: Autodesk"
 90
        0
280
     0
281
     0
  0
CLASS
  1
ACMBOMSTANDARDANSI
  2
AcmBOMStdANSI
  3
"AcmSymBB|Product Description: AutoCAD Mechanical 2000|Company: Autodesk"
 90
        0
280
     0
281
     0
  0
CLASS
  1
ACMSTANDARDBSI
  2
AcmStandardBSI
  3
"AcmSymBB|Product Description: AutoCAD Mechanical 2000|Company: Autodesk"
 90
        0
280
     0
281
     0
  0
CLASS
  1
ACMSURFSTANDARDBSI
  2
AcmSurfTextStdBSI
  3
"AcmSymBB|Product Description: AutoCAD Mechanical 2000|Company: Autodesk"
 90
        0
280
     0
281
     0
  0
CLASS
  1
ACMFCFSTANDARDBSI
  2
AcmFCFStdBSI
  3
"AcmSymBB|Product Description: AutoCAD Mechanical 2000|Company: Autodesk"
 90
        0
280
     0
281
     0
  0
CLASS
  1
ACMWELDSTANDARDBSI
  2
AcmWeldingStdBSI
  3
"AcmSymBB|Product Description: AutoCAD Mechanical 2000|Company: Autodesk"
 90
        0
280
     0
281
     0
  0
CLASS
  1
ACMIDSTANDARDBSI
  2
AcmIdStdBSI
  3
"AcmSymBB|Product Description: AutoCAD Mechanical 2000|Company: Autodesk"
 90
        0
280
     0
281
     0
  0
CLASS
  1
ACMDATUMSTANDARDBSI
  2
AcmDatumStdBSI
  3
"AcmSymBB|Product Description: AutoCAD Mechanical 2000|Company: Autodesk"
 90
        0
280
     0
281
     0
  0
CLASS
  1
ACMBOMSTANDARDBSI
  2
AcmBOMStdBSI
  3
"AcmSymBB|Product Description: AutoCAD Mechanical 2000|Company: Autodesk"
 90
        0
280
     0
281
     0
  0
CLASS
  1
LONG_TRANSACTION
  2
AcDbLongTransaction
  3
AutoCAD 2000
 90
        0
280
     0
281
     0
  0
CLASS
  1
LWPOLYLINE
  2
AcDbPolyline
  3
AutoCAD 2000
 90
        0
280
     0
281
     1
  0
CLASS
  1
HATCH
  2
AcDbHatch
  3
AutoCAD 2000
 90
        0
280
     0
281
     1
  0
CLASS
  1
XRECORD
  2
AcDbXrecord
  3
AutoCAD 2000
 90
        0
280
     0
281
     0
  0
ENDSEC
  0
SECTION
  2
TABLES
  0
TABLE
  2
VPORT
  5
8
330
0
100
AcDbSymbolTable
 70
     3
  0
VPORT
  5
4736
330
8
100
AcDbSymbolTableRecord
100
AcDbViewportTableRecord
  2
*ACTIVE
 70
     0
 10
0.0
 20
0.0
 11
1.0
 21
1.0
 12
-69.35469626367352
 22
-15.1097355491895
 13
0.0
 23
0.0
 14
2.5
 24
2.5
 15
10.0
 25
10.0
 16
0.0
 26
0.0
 36
1.0
 17
0.0
 27
0.0
 37
0.0
 40
130.225330885058
 41
1.56570841889117
 42
50.0
 43
0.0
 44
0.0
 50
0.0
 51
0.0
 71
     0
 72
   100
 73
     1
 74
     1
 75
     0
 76
     0
 77
     0
 78
     0
  0
ENDTAB
  0
TABLE
  2
LTYPE
  5
5
330
0
100
AcDbSymbolTable
 70
    10
  0
LTYPE
  5
14
330
5
100
AcDbSymbolTableRecord
100
AcDbLinetypeTableRecord
  2
BYBLOCK
 70
     0
  3

 72
    65
 73
     0
 40
0.0
  0
LTYPE
  5
15
330
5
100
AcDbSymbolTableRecord
100
AcDbLinetypeTableRecord
  2
BYLAYER
 70
     0
  3

 72
    65
 73
     0
 40
0.0
  0
LTYPE
  5
16
330
5
100
AcDbSymbolTableRecord
100
AcDbLinetypeTableRecord
  2
CONTINUOUS
 70
     0
  3
Solid line
 72
    65
 73
     0
 40
0.0
  0
LTYPE
  5
4B
330
5
100
AcDbSymbolTableRecord
100
AcDbLinetypeTableRecord
  2
AM_ISO02W050
 70
     0
  3
__ __ __ __ __ __ __ __ __ __ __ __ __ __ __
 72
    65
 73
     2
 40
7.5
 49
6.0
 74
     0
 49
-1.5
 74
     0
  0
LTYPE
  5
4C
330
5
100
AcDbSymbolTableRecord
100
AcDbLinetypeTableRecord
  2
AM_ISO08W050
 70
     0
  3
____ . ____ . ____ . ____ . ____ . ____ . ____
 72
    65
 73
     4
 40
18.0
 49
12.0
 74
     0
 49
-1.5
 74
     0
 49
3.0
 74
     0
 49
-1.5
 74
     0
  0
LTYPE
  5
4D
330
5
100
AcDbSymbolTableRecord
100
AcDbLinetypeTableRecord
  2
AM_ISO09W050
 70
     0
  3
_____ . . _____ . . _____ . . ____ .. ____
 72
    65
 73
     6
 40
22.5
 49
12.0
 74
     0
 49
-1.5
 74
     0
 49
3.0
 74
     0
 49
-1.5
 74
     0
 49
3.0
 74
     0
 49
-1.5
 74
     0
  0
LTYPE
  5
4E
330
5
100
AcDbSymbolTableRecord
100
AcDbLinetypeTableRecord
  2
AMCONSTR
 70
     0
  3
_______________________
 72
    65
 73
     2
 40
9999.0
 49
9999.0
 74
     0
 49
0.0
 74
     0
  0
LTYPE
  5
4F
330
5
100
AcDbSymbolTableRecord
100
AcDbLinetypeTableRecord
  2
AM_ISO02W050X2
 70
     0
  3
 _ _ _ _ _ _ _ _ _ _ _ _
 72
    65
 73
     2
 40
3.75
 49
3.0
 74
     0
 49
-0.75
 74
     0
  0
LTYPE
  5
50
330
5
100
AcDbSymbolTableRecord
100
AcDbLinetypeTableRecord
  2
AM_ISO08W050X2
 70
     0
  3
__ . __ . __ . __ . __ . __
 72
    65
 73
     4
 40
9.0
 49
6.0
 74
     0
 49
-0.75
 74
     0
 49
1.5
 74
     0
 49
-0.75
 74
     0
  0
LTYPE
  5
53
330
5
100
AcDbSymbolTableRecord
100
AcDbLinetypeTableRecord
  2
AMZIGZAG
 70
     0
  3
/\/-/\/-/\/-/\/-/\/-/\/
 72
    65
 73
     2
 40
11.00009999999999
 49
0.0001
 74
     4
 75
   135
340
52
 46
0.04
 50
0.0
 44
0.0
 45
0.0
 49
-11.0
 74
     0
  0
LTYPE
  5
166
330
5
100
AcDbSymbolTableRecord
100
AcDbLinetypeTableRecord
  2
ACJISTGL
 70
     0
  3
_ _ _ _ _
 72
    65
 73
     2
 40
3.0
 49
2.0
 74
     0
 49
-1.0
 74
     0
  0
LTYPE
  5
26A
330
5
100
AcDbSymbolTableRecord
100
AcDbLinetypeTableRecord
  2
ACJISTGB
 70
     0
  3
__ . . __ . .
 72
    65
 73
     6
 40
9.0
 49
4.0
 74
     0
 49
-1.0
 74
     0
 49
1.0
 74
     0
 49
-1.0
 74
     0
 49
1.0
 74
     0
 49
-1.0
 74
     0
  0
ENDTAB
  0
TABLE
  2
LAYER
  5
2
330
0
100
AcDbSymbolTable
 70
     7
  0
LAYER
  5
10
330
2
100
AcDbSymbolTableRecord
100
AcDbLayerTableRecord
  2
0
 70
     0
 62
     7
  6
CONTINUOUS
  0
LAYER
  5
3F9
330
2
100
AcDbSymbolTableRecord
100
AcDbLayerTableRecord
  2
AM_0
 70
     0
 62
     7
  6
CONTINUOUS
  0
LAYER
  5
C7C
330
2
100
AcDbSymbolTableRecord
100
AcDbLayerTableRecord
  2
AM_7
 70
     0
 62
     4
  6
AM_ISO08W050
  0
LAYER
  5
C97
330
2
100
AcDbSymbolTableRecord
100
AcDbLayerTableRecord
  2
AM_11
 70
     0
 62
     3
  6
AM_ISO09W050
  0
LAYER
  5
CC5
330
2
100
AcDbSymbolTableRecord
100
AcDbLayerTableRecord
  2
AM_5
 70
     0
 62
     3
  6
CONTINUOUS
  0
LAYER
  5
CC7
330
2
100
AcDbSymbolTableRecord
100
AcDbLayerTableRecord
  2
DEFPOINTS
 70
     0
 62
     7
  6
CONTINUOUS
  0
LAYER
  5
19BC
330
2
100
AcDbSymbolTableRecord
100
AcDbLayerTableRecord
  2
AM_6
 70
     0
 62
     2
  6
CONTINUOUS
  0
ENDTAB
  0
TABLE
  2
STYLE
  5
3
330
0
100
AcDbSymbolTable
 70
     5
  0
STYLE
  5
11
330
3
100
AcDbSymbolTableRecord
100
AcDbTextStyleTableRecord
  2
STANDARD
 70
     0
 40
0.0
 41
1.0
 50
0.0
 71
     0
 42
2.5
  3
simplex.shx
  4
EXTFONT.SHX
  0
STYLE
  5
52
330
3
100
AcDbSymbolTableRecord
100
AcDbTextStyleTableRecord
  2

 70
     1
 40
0.0
 41
1.0
 50
0.0
 71
     0
 42
2.5
  3
ltypeshp.shx
  4

  0
STYLE
  5
6B
330
3
100
AcDbSymbolTableRecord
100
AcDbTextStyleTableRecord
  2
ASAMI
 70
     0
 40
0.0
 41
1.0
 50
0.0
 71
     0
 42
2.5
  3
simplex.shx
  4
EXTFONT.SHX
  0
STYLE
  5
262
330
3
100
AcDbSymbolTableRecord
100
AcDbTextStyleTableRecord
  2
ACJISTS
 70
     0
 40
1.0
 41
1.0
 50
0.0
 71
     0
 42
2.5
  3
simplex.shx
  4
bigfont.shx
  0
STYLE
  5
269
330
3
100
AcDbSymbolTableRecord
100
AcDbTextStyleTableRecord
  2
ACJISGDT
 70
     0
 40
0.0
 41
1.0
 50
0.0
 71
     0
 42
2.5
  3
amgdtans.shx
  4

  0
ENDTAB
  0
TABLE
  2
VIEW
  5
6
330
0
100
AcDbSymbolTable
 70
     0
  0
ENDTAB
  0
TABLE
  2
UCS
  5
7
330
0
100
AcDbSymbolTable
 70
     0
  0
ENDTAB
  0
TABLE
  2
APPID
  5
9
330
0
100
AcDbSymbolTable
 70
    16
  0
APPID
  5
12
330
9
100
AcDbSymbolTableRecord
100
AcDbRegAppTableRecord
  2
ACAD
 70
     0
  0
APPID
  5
30
330
9
100
AcDbSymbolTableRecord
100
AcDbRegAppTableRecord
  2
MCAD_NO_VIS
 70
     0
  0
APPID
  5
31
330
9
100
AcDbSymbolTableRecord
100
AcDbRegAppTableRecord
  2
ACAD_TEMP_GRAPHIC
 70
     0
  0
APPID
  5
2C2
330
9
100
AcDbSymbolTableRecord
100
AcDbRegAppTableRecord
  2
GENIUS_GENDTOL_13
 70
     0
  0
APPID
  5
339
330
9
100
AcDbSymbolTableRecord
100
AcDbRegAppTableRecord
  2
GENIUS_GENODEF_13
 70
     0
  0
APPID
  5
33A
330
9
100
AcDbSymbolTableRecord
100
AcDbRegAppTableRecord
  2
GENIUS_GENOBJ-N-RSBK_13
 70
     0
  0
APPID
  5
33B
330
9
100
AcDbSymbolTableRecord
100
AcDbRegAppTableRecord
  2
GENIUS_GENOBJ-N-LIB_13
 70
     0
  0
APPID
  5
33C
330
9
100
AcDbSymbolTableRecord
100
AcDbRegAppTableRecord
  2
GENIUS_GENSCALE_13
 70
     0
  0
APPID
  5
378
330
9
100
AcDbSymbolTableRecord
100
AcDbRegAppTableRecord
  2
GENIUS_GENDIMSH_14
 70
     0
  0
APPID
  5
C82
330
9
100
AcDbSymbolTableRecord
100
AcDbRegAppTableRecord
  2
GENIUS_GENOBJ-N-CRS_13
 70
     0
  0
APPID
  5
C83
330
9
100
AcDbSymbolTableRecord
100
AcDbRegAppTableRecord
  2
GENIUS_GENOENT_13
 70
     0
  0
APPID
  5
C84
330
9
100
AcDbSymbolTableRecord
100
AcDbRegAppTableRecord
  2
GENIUS_GENOREF_13
 70
     0
  0
APPID
  5
C85
330
9
100
AcDbSymbolTableRecord
100
AcDbRegAppTableRecord
  2
GENIUS_GENOLIS_13
 70
     0
  0
APPID
  5
CA0
330
9
100
AcDbSymbolTableRecord
100
AcDbRegAppTableRecord
  2
GENIUS_GENOBJ-N-CEN_13
 70
     0
  0
APPID
  5
2796
330
9
100
AcDbSymbolTableRecord
100
AcDbRegAppTableRecord
  2
GENIUS_GENFIL_13
 70
     0
  0
APPID
  5
2797
330
9
100
AcDbSymbolTableRecord
100
AcDbRegAppTableRecord
  2
GENIUS_GENOBJ-N-CHA_13
 70
     0
  0
ENDTAB
  0
TABLE
  2
DIMSTYLE
  5
A
330
0
100
AcDbSymbolTable
 70
     9
  0
DIMSTYLE
105
58
330
A
100
AcDbSymbolTableRecord
100
AcDbDimStyleTableRecord
  2
AM_JIS
 70
     0
  3

  4
"
  5
OPEN30
  6

  7

 40
1.0
 41
2.5
 42
1.0
 43
12.0
 44
1.0
 45
0.0
 46
0.0
 47
0.1
 48
0.1
140
3.2
141
0.0
142
0.0
143
0.0393701
144
1.0
145
0.0
146
0.71
147
1.5
 71
     0
 72
     0
 73
     0
 74
     0
 75
     0
 76
     0
 77
     3
 78
     8
170
     0
171
     2
172
     1
173
     0
174
     0
175
     0
176
   256
177
   256
178
     2
270
     2
271
     3
272
     3
273
     2
274
     2
340
6B
275
     0
280
     0
281
     0
282
     0
283
     0
284
     0
285
     0
286
     0
287
     3
288
     0
  0
DIMSTYLE
105
5F
330
A
100
AcDbSymbolTableRecord
100
AcDbDimStyleTableRecord
  2
AM_JIS$3
 70
     0
  3

  4
"
  5
OPEN30
  6

  7

 40
1.0
 41
2.5
 42
1.0
 43
10.0
 44
1.0
 45
0.0
 46
0.0
 47
0.1
 48
0.1
140
3.2
141
0.0
142
0.0
143
0.0393701
144
1.0
145
0.0
146
0.71
147
1.5
 71
     0
 72
     0
 73
     0
 74
     1
 75
     0
 76
     0
 77
     3
 78
     8
170
     0
171
     2
172
     0
173
     0
174
     0
175
     0
176
   256
177
   256
178
     2
270
     2
271
     2
272
     3
273
     2
274
     2
340
6B
275
     0
280
     0
281
     0
282
     0
283
     0
284
     0
285
     0
286
     0
287
     0
288
     1
  0
DIMSTYLE
105
60
330
A
100
AcDbSymbolTableRecord
100
AcDbDimStyleTableRecord
  2
AM_JIS$4
 70
     0
  3

  4
"
  5
OPEN30
  6

  7

 40
1.0
 41
2.5
 42
1.0
 43
10.0
 44
1.0
 45
0.0
 46
0.0
 47
0.1
 48
0.1
140
3.2
141
0.0
142
0.0
143
0.0393701
144
1.0
145
0.0
146
0.71
147
1.5
 71
     0
 72
     0
 73
     0
 74
     1
 75
     0
 76
     0
 77
     3
 78
     8
170
     0
171
     2
172
     0
173
     0
174
     0
175
     0
176
   256
177
   256
178
     2
270
     2
271
     2
272
     3
273
     2
274
     2
340
6B
275
     0
280
     0
281
     0
282
     0
283
     0
284
     0
285
     0
286
     0
287
     0
288
     1
  0
DIMSTYLE
105
61
330
A
100
AcDbSymbolTableRecord
100
AcDbDimStyleTableRecord
  2
AM_JIS$6
 70
     0
  3

  4
"
  5
OPEN30
  6

  7

 40
1.0
 41
2.5
 42
1.0
 43
10.0
 44
1.0
 45
0.0
 46
0.0
 47
0.1
 48
0.1
140
3.2
141
0.0
142
0.0
143
0.0393701
144
1.0
145
0.0
146
0.71
147
1.5
 71
     0
 72
     0
 73
     0
 74
     0
 75
     0
 76
     0
 77
     0
 78
     8
170
     0
171
     2
172
     1
173
     0
174
     0
175
     0
176
   256
177
   256
178
     2
270
     2
271
     2
272
     2
273
     2
274
     2
340
6B
275
     0
280
     0
281
     0
282
     0
283
     0
284
     0
285
     0
286
     0
287
     3
288
     0
  0
DIMSTYLE
105
62
330
A
100
AcDbSymbolTableRecord
100
AcDbDimStyleTableRecord
  2
AM_JIS$7
 70
     0
  3

  4
"
  5
OPEN30
  6

  7

 40
1.0
 41
2.5
 42
1.0
 43
10.0
 44
1.0
 45
0.0
 46
0.0
 47
0.1
 48
0.1
140
3.2
141
0.0
142
0.0
143
0.0393701
144
1.0
145
0.0
146
0.71
147
1.5
 71
     0
 72
     0
 73
     0
 74
     0
 75
     0
 76
     0
 77
     3
 78
     8
170
     0
171
     2
172
     1
173
     0
174
     0
175
     0
176
   256
177
   256
178
     2
270
     2
271
     2
272
     3
273
     2
274
     2
340
6B
275
     0
280
     0
281
     0
282
     0
283
     0
284
     0
285
     0
286
     0
287
     3
288
     0
  0
DIMSTYLE
105
63
330
A
100
AcDbSymbolTableRecord
100
AcDbDimStyleTableRecord
  2
AM_JIS$SF
 70
     0
  3

  4
"
  5
OPEN30
  6

  7

 40
1.0
 41
2.5
 42
1.0
 43
10.0
 44
1.0
 45
0.0
 46
0.0
 47
0.1
 48
0.1
140
3.2
141
0.0
142
0.0
143
0.0393701
144
1.0
145
0.0
146
0.71
147
1.5
 71
     0
 72
     0
 73
     0
 74
     0
 75
     1
 76
     1
 77
     3
 78
     8
170
     0
171
     2
172
     1
173
     0
174
     0
175
     0
176
   256
177
   256
178
     2
270
     2
271
     2
272
     2
273
     2
274
     2
340
6B
275
     0
280
     0
281
     0
282
     0
283
     0
284
     0
285
     0
286
     0
287
     3
288
     0
  0
DIMSTYLE
105
68
330
A
100
AcDbSymbolTableRecord
100
AcDbDimStyleTableRecord
  2
AM_JIS$SH
 70
     0
  3

  4
"
  5

  6
GENAXEH
  7
OPEN30
 40
1.0
 41
2.5
 42
1.0
 43
10.0
 44
1.0
 45
0.0
 46
0.0
 47
0.1
 48
0.1
140
3.2
141
0.0
142
0.0
143
0.0393701
144
2.0
145
0.0
146
0.71
147
1.5
 71
     0
 72
     0
 73
     0
 74
     0
 75
     1
 76
     1
 77
     3
 78
     8
170
     0
171
     2
172
     1
173
     1
174
     0
175
     0
176
   256
177
   256
178
     2
270
     2
271
     2
272
     2
273
     2
274
     2
340
6B
275
     0
280
     0
281
     0
282
     0
283
     0
284
     0
285
     0
286
     0
287
     3
288
     0
  0
DIMSTYLE
105
B34
102
{ACAD_REACTORS
330
409D
102
}
330
A
100
AcDbSymbolTableRecord
100
AcDbDimStyleTableRecord
  2
AM_JIS$2
 70
     0
  3

  4
"
  5
OPEN30
  6

  7

 40
1.0
 41
2.5
 42
1.0
 43
12.0
 44
1.0
 45
0.0
 46
0.0
 47
0.1
 48
0.1
140
3.2
141
0.0
142
0.0
143
0.0393701
144
1.0
145
0.0
146
0.71
147
1.5
 71
     0
 72
     0
 73
     0
 74
     0
 75
     0
 76
     0
 77
     3
 78
     8
170
     0
171
     2
172
     1
173
     0
174
     0
175
     0
176
   256
177
   256
178
     2
270
     2
271
     3
272
     3
273
     2
274
     2
340
6B
275
     0
280
     0
281
     0
282
     0
283
     0
284
     0
285
     0
286
     0
287
     3
288
     0
  0
DIMSTYLE
105
BA5
102
{ACAD_REACTORS
330
CC6
330
2069
330
2D60
330
3C5B
102
}
330
A
100
AcDbSymbolTableRecord
100
AcDbDimStyleTableRecord
  2
AM_JIS$0
 70
     0
  3

  4
"
  5
OPEN30
  6

  7

 40
1.0
 41
2.5
 42
0.0
 43
10.0
 44
1.0
 45
0.0
 46
0.0
 47
0.1
 48
0.1000000001
140
3.799999999999999
141
0.0
142
0.0
143
0.0393701
144
1.0
145
0.0
146
0.71
147
1.5
 71
     0
 72
     0
 73
     0
 74
     0
 75
     0
 76
     0
 77
     3
 78
     1
170
     0
171
     2
172
     1
173
     0
174
     0
175
     0
176
     3
177
     3
178
     2
270
     2
271
     2
272
     2
273
     2
274
     2
340
11
275
     1
280
     0
281
     0
282
     0
283
     0
284
     8
285
     0
286
     0
287
     0
288
     0
  0
ENDTAB
  0
TABLE
  2
BLOCK_RECORD
  5
1
330
0
100
AcDbSymbolTable
 70
    10
  0
BLOCK_RECORD
  5
1F
102
{ACAD_XDICTIONARY
360
74
102
}
330
1
100
AcDbSymbolTableRecord
100
AcDbBlockTableRecord
  2
*MODEL_SPACE
  0
BLOCK_RECORD
  5
101
102
{ACAD_XDICTIONARY
360
475F
102
}
330
1
100
AcDbSymbolTableRecord
100
AcDbBlockTableRecord
  2
*PAPER_SPACE
  0
BLOCK_RECORD
  5
59
330
1
100
AcDbSymbolTableRecord
100
AcDbBlockTableRecord
  2
_OPEN30
  0
BLOCK_RECORD
  5
64
330
1
100
AcDbSymbolTableRecord
100
AcDbBlockTableRecord
  2
GENAXEH
  0
BLOCK_RECORD
  5
CC8
330
1
100
AcDbSymbolTableRecord
100
AcDbBlockTableRecord
  2
*D5
  0
BLOCK_RECORD
  5
206A
330
1
100
AcDbSymbolTableRecord
100
AcDbBlockTableRecord
  2
*D6
  0
BLOCK_RECORD
  5
2D61
330
1
100
AcDbSymbolTableRecord
100
AcDbBlockTableRecord
  2
*D7
  0
BLOCK_RECORD
  5
3C5C
330
1
100
AcDbSymbolTableRecord
100
AcDbBlockTableRecord
  2
*D8
  0
BLOCK_RECORD
  5
409E
330
1
100
AcDbSymbolTableRecord
100
AcDbBlockTableRecord
  2
*D9
  0
ENDTAB
  0
ENDSEC
  0
SECTION
  2
BLOCKS
  0
BLOCK
  5
20
330
1F
100
AcDbEntity
  8
0
100
AcDbBlockBegin
  2
*MODEL_SPACE
 70
     0
 10
0.0
 20
0.0
 30
0.0
  3
*MODEL_SPACE
  1

  0
ENDBLK
  5
21
330
1F
100
AcDbEntity
  8
0
100
AcDbBlockEnd
  0
BLOCK
  5
103
330
101
100
AcDbEntity
 67
     1
  8
0
100
AcDbBlockBegin
  2
*PAPER_SPACE
 70
     0
 10
0.0
 20
0.0
 30
0.0
  3
*PAPER_SPACE
  1

  0
ENDBLK
  5
104
330
101
100
AcDbEntity
 67
     1
  8
0
100
AcDbBlockEnd
  0
BLOCK
  5
5D
330
59
100
AcDbEntity
  8
0
100
AcDbBlockBegin
  2
_OPEN30
 70
     0
 10
0.0
 20
0.0
 30
0.0
  3
_OPEN30
  1

  0
LINE
  5
5A
330
59
100
AcDbEntity
  8
0
 62
     0
100
AcDbLine
 10
-1.0
 20
0.26794919
 30
0.0
 11
0.0
 21
0.0
 31
0.0
  0
LINE
  5
5B
330
59
100
AcDbEntity
  8
0
 62
     0
100
AcDbLine
 10
0.0
 20
0.0
 30
0.0
 11
-1.0
 21
-0.26794919
 31
0.0
  0
LINE
  5
5C
330
59
100
AcDbEntity
  8
0
 62
     0
100
AcDbLine
 10
0.0
 20
0.0
 30
0.0
 11
-1.0
 21
0.0
 31
0.0
  0
ENDBLK
  5
5E
330
59
100
AcDbEntity
  8
0
100
AcDbBlockEnd
  0
BLOCK
  5
66
330
64
100
AcDbEntity
  8
0
100
AcDbBlockBegin
  2
GENAXEH
 70
     0
 10
0.0
 20
0.0
 30
0.0
  3
GENAXEH
  1

  0
LINE
  5
65
330
64
100
AcDbEntity
  8
0
100
AcDbLine
 10
-1.0
 20
0.0
 30
0.0
 11
1.0
 21
0.0
 31
0.0
  0
ENDBLK
  5
67
330
64
100
AcDbEntity
  8
0
100
AcDbBlockEnd
  0
BLOCK
  5
CD2
330
CC8
100
AcDbEntity
  8
0
100
AcDbBlockBegin
  2
*D5
 70
     1
 10
0.0
 20
0.0
 30
0.0
  3
*D5
  1

  0
LINE
  5
46ED
330
CC8
100
AcDbEntity
  8
AM_5
 62
     3
100
AcDbLine
 10
-149.0
 20
-7.249999999999434
 30
0.0
 11
-149.0
 21
-33.00000099999953
 31
0.0
  0
LINE
  5
46EE
330
CC8
100
AcDbEntity
  8
AM_5
 62
     3
100
AcDbLine
 10
-3.000000073929525
 20
-7.950000124138787
 30
0.0
 11
-3.000000073929526
 21
-33.00000099999953
 31
0.0
  0
LINE
  5
46EF
330
CC8
100
AcDbEntity
  8
AM_5
 62
     3
100
AcDbLine
 10
-146.5
 20
-32.00000099999952
 30
0.0
 11
-5.500000073929527
 21
-32.00000099999952
 31
0.0
  0
INSERT
  5
46F0
330
CC8
100
AcDbEntity
  8
AM_5
 62
     3
100
AcDbBlockReference
  2
_OPEN30
 10
-149.0
 20
-32.00000099999952
 30
0.0
 41
2.5
 42
2.5
 43
2.5
 50
180.0
  0
INSERT
  5
46F1
330
CC8
100
AcDbEntity
  8
AM_5
 62
     3
100
AcDbBlockReference
  2
_OPEN30
 10
-3.000000073929526
 20
-32.00000099999952
 30
0.0
 41
2.5
 42
2.5
 43
2.5
  0
MTEXT
  5
46F2
330
CC8
100
AcDbEntity
  8
AM_5
 62
     2
100
AcDbMText
 10
-76.0000000369648
 20
-28.60000099999952
 30
0.0
 40
3.799999999999999
 41
0.0
 71
     5
 72
     1
  1
146
1001
ACAD
1000
MTEXTBEGIN
1070
    73
1070
     1
1070
    44
1040
1.0
1070
    74
1070
     0
1000
MTEXTEND
  0
POINT
  5
46F3
330
CC8
100
AcDbEntity
  8
DEFPOINTS
 62
     0
100
AcDbPoint
 10
-149.0
 20
-7.249999999999434
 30
0.0
  0
POINT
  5
46F4
330
CC8
100
AcDbEntity
  8
DEFPOINTS
 62
     0
100
AcDbPoint
 10
-3.000000073929525
 20
-7.950000124138787
 30
0.0
  0
POINT
  5
46F5
330
CC8
100
AcDbEntity
  8
DEFPOINTS
 62
     0
100
AcDbPoint
 10
-3.000000073929526
 20
-32.00000099999952
 30
0.0
  0
ENDBLK
  5
CD3
330
CC8
100
AcDbEntity
  8
0
100
AcDbBlockEnd
  0
BLOCK
  5
2074
330
206A
100
AcDbEntity
  8
0
100
AcDbBlockBegin
  2
*D6
 70
     1
 10
0.0
 20
0.0
 30
0.0
  3
*D6
  1

  0
LINE
  5
46E4
330
206A
100
AcDbEntity
  8
AM_5
 62
     3
100
AcDbLine
 10
-82.99999999999974
 20
-7.999999999999676
 30
0.0
 11
-82.99999999999968
 21
-23.00000099999966
 31
0.0
  0
LINE
  5
46E5
330
206A
100
AcDbEntity
  8
AM_5
 62
     3
100
AcDbLine
 10
-3.000000073929502
 20
-7.950000124138796
 30
0.0
 11
-3.000000073929459
 21
-23.00000099999943
 31
0.0
  0
LINE
  5
46E6
330
206A
100
AcDbEntity
  8
AM_5
 62
     3
100
AcDbLine
 10
-80.49999999999968
 20
-22.00000099999966
 30
0.0
 11
-5.500000073929462
 21
-22.00000099999944
 31
0.0
  0
INSERT
  5
46E7
330
206A
100
AcDbEntity
  8
AM_5
 62
     3
100
AcDbBlockReference
  2
_OPEN30
 10
-82.99999999999968
 20
-22.00000099999966
 30
0.0
 41
2.5
 42
2.5
 43
2.5
 50
180.0000000000001
  0
INSERT
  5
46E8
330
206A
100
AcDbEntity
  8
AM_5
 62
     3
100
AcDbBlockReference
  2
_OPEN30
 10
-3.000000073929462
 20
-22.00000099999943
 30
0.0
 41
2.5
 42
2.5
 43
2.5
 50
0.0000000000001527
  0
MTEXT
  5
46E9
330
206A
100
AcDbEntity
  8
AM_5
 62
     2
100
AcDbMText
 10
-43.00000003696458
 20
-18.60000099999955
 30
0.0
 40
3.799999999999999
 41
0.0
 71
     5
 72
     1
  1
80
1001
ACAD
1000
MTEXTBEGIN
1070
    73
1070
     1
1070
    44
1040
1.0
1070
    74
1070
     0
1000
MTEXTEND
  0
POINT
  5
46EA
330
206A
100
AcDbEntity
  8
DEFPOINTS
 62
     0
100
AcDbPoint
 10
-82.99999999999975
 20
-7.999999999999435
 30
0.0
  0
POINT
  5
46EB
330
206A
100
AcDbEntity
  8
DEFPOINTS
 62
     0
100
AcDbPoint
 10
-3.000000073929525
 20
-7.950000124138787
 30
0.0
  0
POINT
  5
46EC
330
206A
100
AcDbEntity
  8
DEFPOINTS
 62
     0
100
AcDbPoint
 10
-3.000000073929526
 20
-22.00000099999942
 30
0.0
  0
ENDBLK
  5
2075
330
206A
100
AcDbEntity
  8
0
100
AcDbBlockEnd
  0
BLOCK
  5
2D6B
330
2D61
100
AcDbEntity
  8
0
100
AcDbBlockBegin
  2
*D7
 70
     1
 10
0.0
 20
0.0
 30
0.0
  3
*D7
  1

  0
LINE
  5
470A
330
2D61
100
AcDbEntity
  8
AM_5
 62
     3
100
AcDbLine
 10
-3.000000070748125
 20
7.950000000000017
 30
0.0
 11
16.31992893666516
 21
7.949932184039866
 31
0.0
  0
LINE
  5
470B
330
2D61
100
AcDbEntity
  8
AM_5
 62
     3
100
AcDbLine
 10
-3.000000073929502
 20
-7.950000124138796
 30
0.0
 11
16.31987312518809
 21
-7.950067939903051
 31
0.0
  0
LINE
  5
470C
330
2D61
100
AcDbEntity
  8
AM_5
 62
     3
100
AcDbLine
 10
15.31992016128191
 20
5.44993569421103
 30
0.0
 11
15.31988190058366
 21
-5.450064429762689
 31
0.0
  0
INSERT
  5
470D
330
2D61
100
AcDbEntity
  8
AM_5
 62
     3
100
AcDbBlockReference
  2
_OPEN30
 10
15.31992893667132
 20
7.949935694195628
 30
0.0
 41
2.5
 42
2.5
 43
2.5
 50
89.99979888288931
  0
INSERT
  5
470E
330
2D61
100
AcDbEntity
  8
AM_5
 62
     3
100
AcDbBlockReference
  2
_OPEN30
 10
15.31987312519425
 20
-7.950064429747288
 30
0.0
 41
2.5
 42
2.5
 43
2.5
 50
269.9997988828893
  0
MTEXT
  5
470F
330
2D61
100
AcDbEntity
  8
AM_5
 62
     2
100
AcDbMText
 10
11.91990103095373
 20
-0.0000524332462349
 30
0.0
 40
3.799999999999999
 41
0.0
 71
     5
 72
     1
  1
%%c15.9
 11
0.0000035101557632
 21
0.9999999999938395
 31
0.0
1001
ACAD
1000
MTEXTBEGIN
1070
    73
1070
     1
1070
    44
1040
1.0
1070
    74
1070
     0
1000
MTEXTEND
  0
POINT
  5
4710
330
2D61
100
AcDbEntity
  8
DEFPOINTS
 62
     0
100
AcDbPoint
 10
-3.000000070748102
 20
7.950000000000025
 30
0.0
  0
POINT
  5
4711
330
2D61
100
AcDbEntity
  8
DEFPOINTS
 62
     0
100
AcDbPoint
 10
-3.000000073929526
 20
-7.950000124138789
 30
0.0
  0
POINT
  5
4712
330
2D61
100
AcDbEntity
  8
DEFPOINTS
 62
     0
100
AcDbPoint
 10
15.31987312519423
 20
-7.950064429747333
 30
0.0
  0
ENDBLK
  5
2D6C
330
2D61
100
AcDbEntity
  8
0
100
AcDbBlockEnd
  0
BLOCK
  5
3C66
330
3C5C
100
AcDbEntity
  8
0
100
AcDbBlockBegin
  2
*D8
 70
     1
 10
0.0
 20
0.0
 30
0.0
  3
*D8
  1

  0
LINE
  5
46F6
330
3C5C
100
AcDbEntity
  8
AM_5
 62
     3
100
AcDbLine
 10
-148.25
 20
8.000000000000103
 30
0.0
 11
-166.500001
 21
8.000000000000051
 31
0.0
  0
LINE
  5
46F7
330
3C5C
100
AcDbEntity
  8
AM_5
 62
     3
100
AcDbLine
 10
-148.25
 20
-7.999999999999896
 30
0.0
 11
-166.5000009999999
 21
-7.999999999999947
 31
0.0
  0
LINE
  5
46F8
330
3C5C
100
AcDbEntity
  8
AM_5
 62
     3
100
AcDbLine
 10
-165.500001
 20
5.500000000000055
 30
0.0
 11
-165.500001
 21
-5.499999999999944
 31
0.0
  0
INSERT
  5
46F9
330
3C5C
100
AcDbEntity
  8
AM_5
 62
     3
100
AcDbBlockReference
  2
_OPEN30
 10
-165.500001
 20
8.000000000000055
 30
0.0
 41
2.5
 42
2.5
 43
2.5
 50
90.00000000000017
  0
INSERT
  5
46FA
330
3C5C
100
AcDbEntity
  8
AM_5
 62
     3
100
AcDbBlockReference
  2
_OPEN30
 10
-165.500001
 20
-7.999999999999944
 30
0.0
 41
2.5
 42
2.5
 43
2.5
 50
270.0000000000001
  0
MTEXT
  5
46FB
330
3C5C
100
AcDbEntity
  8
AM_5
 62
     2
100
AcDbMText
 10
-168.900001
 20
0.000000000000052
 30
0.0
 40
3.799999999999999
 41
0.0
 71
     5
 72
     1
  1
%%c16
 11
-0.0000000000000028
 21
1.0
 31
0.0
1001
ACAD
1000
MTEXTBEGIN
1070
    73
1070
     1
1070
    44
1040
1.0
1070
    74
1070
     0
1000
MTEXTEND
  0
POINT
  5
46FC
330
3C5C
100
AcDbEntity
  8
DEFPOINTS
 62
     0
100
AcDbPoint
 10
-148.25
 20
8.000000000000564
 30
0.0
  0
POINT
  5
46FD
330
3C5C
100
AcDbEntity
  8
DEFPOINTS
 62
     0
100
AcDbPoint
 10
-148.25
 20
-7.999999999999435
 30
0.0
  0
POINT
  5
46FE
330
3C5C
100
AcDbEntity
  8
DEFPOINTS
 62
     0
100
AcDbPoint
 10
-165.500001
 20
-7.99999999999943
 30
0.0
  0
ENDBLK
  5
3C67
330
3C5C
100
AcDbEntity
  8
0
100
AcDbBlockEnd
  0
BLOCK
  5
40AC
330
409E
100
AcDbEntity
  8
0
100
AcDbBlockBegin
  2
*D9
 70
     1
 10
0.0
 20
0.0
 30
0.0
  3
*D9
  1

  0
LINE
  5
4761
330
409E
100
AcDbEntity
  8
AM_5
100
AcDbLine
 10
0.3420201408160808
 20
-0.9396926216993215
 30
0.0
 11
8.837806897179213
 21
-24.28167508926637
 31
0.0
  0
LINE
  5
4762
330
409E
100
AcDbEntity
  8
AM_5
100
AcDbLine
 10
0.3420222223659084
 20
0.9396918640745198
 30
0.0
 11
8.837860684466061
 21
24.28165551222765
 31
0.0
  0
ARC
  5
4763
330
409E
100
AcDbEntity
  8
AM_5
100
AcDbCircle
 10
-0.0000000000000596
 20
-0.0000000000000094
 30
0.0
 40
24.84001888336245
100
AcDbArc
 50
295.7689154344516
 51
64.2309576473782
  0
INSERT
  5
4764
330
409E
100
AcDbEntity
  8
AM_5
100
AcDbBlockReference
  2
_OPEN30
 10
8.495786756363074
 20
-23.34198246756707
 30
0.0
 41
2.5
 42
2.5
 43
2.5
 50
202.884457640719
  0
INSERT
  5
4765
330
409E
100
AcDbEntity
  8
AM_5
100
AcDbBlockReference
  2
_OPEN30
 10
8.495838462100097
 20
23.34196364815313
 30
0.0
 41
2.5
 42
2.5
 43
2.5
 50
157.1154154411107
  0
MTEXT
  5
4766
330
409E
100
AcDbEntity
  8
AM_5
 62
     2
100
AcDbMText
 10
21.74001888334905
 20
-0.0000240785921969
 30
0.0
 40
3.2
 41
0.0
 71
     5
 72
     1
  1
140°
  7
ASAMI
 11
0.0000011075699751
 21
0.9999999999993868
 31
0.0
  0
POINT
  5
4767
330
409E
100
AcDbEntity
  8
DEFPOINTS
 62
     0
100
AcDbPoint
 10
22.80849816050231
 20
-9.838645729375731
 30
0.0
  0
POINT
  5
4768
330
409E
100
AcDbEntity
  8
DEFPOINTS
 62
     0
100
AcDbPoint
 10
-0.0000000000000564
 20
-0.0000000000000005
 30
0.0
  0
POINT
  5
4769
330
409E
100
AcDbEntity
  8
DEFPOINTS
 62
     0
100
AcDbPoint
 10
-0.0000000000000564
 20
-0.0000000000000183
 30
0.0
  0
POINT
  5
476A
330
409E
100
AcDbEntity
  8
DEFPOINTS
 62
     0
100
AcDbPoint
 10
-0.9401823436292486
 20
2.583129780755382
 30
0.0
  0
POINT
  5
476B
330
409E
100
AcDbEntity
  8
DEFPOINTS
 62
     0
100
AcDbPoint
 10
-0.9402011369209033
 20
-2.583163610967884
 30
0.0
  0
ENDBLK
  5
40AD
330
409E
100
AcDbEntity
  8
0
100
AcDbBlockEnd
  0
ENDSEC
  0
SECTION
  2
ENTITIES
  0
LINE
  5
C1D
330
1F
100
AcDbEntity
  8
AM_0
 48
0.5
100
AcDbLine
 10
-0.0000000000000564
 20
-0.0000000000000183
 30
0.0
 11
-0.9401823436292486
 21
2.583129780755381
 31
0.0
  0
LINE
  5
C20
330
1F
100
AcDbEntity
  8
AM_0
 48
0.5
100
AcDbLine
 10
-0.0000000000000564
 20
-0.0000000000000005
 30
0.0
 11
-0.9402011369209033
 21
-2.583163610967883
 31
0.0
  0
DIMENSION
  5
CC6
330
1F
100
AcDbEntity
  8
AM_5
100
AcDbDimension
  2
*D5
 10
-3.000000073929526
 20
-32.00000099999952
 30
0.0
 11
-76.0000000369648
 21
-28.60000099999952
 31
0.0
 70
    32
  1
<>
  3
AM_JIS$0
100
AcDbAlignedDimension
 13
-149.0
 23
-7.249999999999434
 33
0.0
 14
-3.000000073929525
 24
-7.950000124138787
 34
0.0
 50
0.0000000000001132
100
AcDbRotatedDimension
1001
GENIUS_GENDTOL_13
1000

1000
h7
1000

1040
0.0
1001
ACAD
1000
DSTYLE
1002
{
1070
   271
1070
     0
1002
}
  0
TEXT
  5
19BD
330
1F
100
AcDbEntity
  8
AM_6
100
AcDbText
 10
-98.02380956077426
 20
-54.50000099999958
 30
0.0
 40
5.0
  1
MDW159MHK
 50
0.0000000000001527
 72
     4
 11
-76.00000003696472
 21
-52.00000099999953
 31
0.0
100
AcDbText
  0
DIMENSION
  5
2069
330
1F
100
AcDbEntity
  8
AM_5
100
AcDbDimension
  2
*D6
 10
-3.000000073929526
 20
-22.00000099999942
 30
0.0
 11
-43.00000003696464
 21
-18.60000099999942
 31
0.0
 70
    32
  1
<>
 51
359.9999999999998
  3
AM_JIS$0
100
AcDbAlignedDimension
 13
-82.99999999999975
 23
-7.999999999999435
 33
0.0
 14
-3.000000073929525
 24
-7.950000124138787
 34
0.0
 50
0.0000000000001527
100
AcDbRotatedDimension
1001
ACAD
1000
DSTYLE
1002
{
1070
   271
1070
     0
1070
   174
1070
     1
1002
}
1001
GENIUS_GENDTOL_13
1000

1000
h7
1000

1040
0.0
  0
LINE
  5
23EF
330
1F
100
AcDbEntity
  8
AM_7
100
AcDbLine
 10
-151.5
 20
0.0000000000005836
 30
0.0
 11
1.319900031072474
 21
-0.0000000000000051
 31
0.0
1001
GENIUS_GENODEF_13
1002
{
1000
HIER
1070
     0
1002
}
1002
{
1000
MANEDIT
1070
     0
1002
}
1002
{
1000
NOSEL
1070
     0
1002
}
1002
{
1000
BEHIND
1070
     0
1002
}
1002
{
1000
REACTOR
1002
}
1001
GENIUS_GENOBJ-N-CEN_13
1002
{
1000
OWNER
1000
GEN
1002
}
  0
LINE
  5
24A7
330
1F
100
AcDbEntity
  8
AM_0
 48
0.5
100
AcDbLine
 10
-2.160139395277655
 20
5.930398752170278
 30
0.0
 11
-3.000000070748102
 21
7.950000000000025
 31
0.0
  0
ELLIPSE
  5
24B7
330
1F
100
AcDbEntity
  8
AM_11
 48
0.5
100
AcDbEllipse
 10
-22.82772746713178
 20
29.23228696282773
 30
0.0
 11
-33.74145762125605
 21
0.0000000000002568
 31
0.0
210
0.0
220
0.0
230
1.0
 40
0.9578947368421058
 41
1.130070686340284
 42
2.011520147323574
  0
ELLIPSE
  5
24B8
330
1F
100
AcDbEntity
  8
AM_11
 48
0.5
100
AcDbEllipse
 10
-22.82772746713339
 20
-29.23228277631147
 30
0.0
 11
-33.74145762125601
 21
0.0000000000001519
 31
0.0
210
0.0
220
0.0
230
1.0
 40
0.9578947368421054
 41
4.271664206181664
 42
5.153113667164971
  0
ELLIPSE
  5
24B9
330
1F
100
AcDbEntity
  8
AM_11
 48
0.5
100
AcDbEllipse
 10
5.960151320747032
 20
29.23228696282697
 30
0.0
 11
-33.74145762125597
 21
0.0000000000026393
 31
0.0
210
0.0
220
0.0
230
1.0
 40
0.9578947368421141
 41
1.130070686340349
 42
1.291800737381041
  0
ELLIPSE
  5
24BE
330
1F
100
AcDbEntity
  8
AM_0
 48
0.5
100
AcDbEllipse
 10
7.409306118672517
 20
7.863701352879896
 30
0.0
 11
8.815841836576007
 21
4.493796925570525
 31
0.0
210
0.0
220
0.0
230
1.0
 40
0.8518863252772563
 41
2.825112492637462
 42
3.25008581321566
  0
ELLIPSE
  5
24C7
330
1F
100
AcDbEntity
  8
AM_11
 48
0.5
100
AcDbEllipse
 10
-109.19136383076
 20
29.23228696282993
 30
0.0
 11
-33.74145762125605
 21
0.0000000000007513
 31
0.0
210
0.0
220
0.0
230
1.0
 40
0.9578947368421058
 41
1.130070686340301
 42
2.011520147323591
  0
ELLIPSE
  5
24C8
330
1F
100
AcDbEntity
  8
AM_11
 48
0.5
100
AcDbEllipse
 10
-109.1913638307617
 20
-29.23228277630927
 30
0.0
 11
33.74145762125601
 21
0.000000000000564
 31
0.0
210
0.0
220
0.0
230
1.0
 40
0.957894736842107
 41
1.13007155259185
 42
2.011521013575156
  0
ELLIPSE
  5
24D4
330
1F
100
AcDbEntity
  8
AM_11
 48
0.5
100
AcDbEllipse
 10
-80.40348504288127
 20
29.23228696282923
 30
0.0
 11
-33.7414576212561
 21
0.0000000000001969
 31
0.0
210
0.0
220
0.0
230
1.0
 40
0.9578947368421049
 41
1.130070686340283
 42
2.011520147323574
  0
ELLIPSE
  5
24D5
330
1F
100
AcDbEntity
  8
AM_11
 48
0.5
100
AcDbEllipse
 10
-80.40348504288289
 20
-29.23228277630997
 30
0.0
 11
-33.74145762125595
 21
0.0000000000006089
 31
0.0
210
0.0
220
0.0
230
1.0
 40
0.9578947368421083
 41
4.271664206181676
 42
5.153113667164986
  0
ELLIPSE
  5
24E6
330
1F
100
AcDbEntity
  8
AM_11
 48
0.5
100
AcDbEllipse
 10
-51.61560625501217
 20
-29.23228277631075
 30
0.0
 11
-33.74145762125599
 21
0.0000000000009161
 31
0.0
210
0.0
220
0.0
230
1.0
 40
0.9578947368421058
 41
4.271664206181685
 42
5.153113667164993
  0
ELLIPSE
  5
24E7
330
1F
100
AcDbEntity
  8
AM_11
 48
0.5
100
AcDbEllipse
 10
-51.61560625501056
 20
29.23228696282846
 30
0.0
 11
33.74145762125607
 21
0.0000000000000545
 31
0.0
210
0.0
220
0.0
230
1.0
 40
0.9578947368421049
 41
4.271663339930067
 42
5.153112800913361
  0
ELLIPSE
  5
2BF3
330
1F
100
AcDbEntity
  8
AM_11
 48
0.5
100
AcDbEllipse
 10
-137.979242618627
 20
29.23228696282903
 30
0.0
 11
-33.7414576212561
 21
0.0000000000001969
 31
0.0
210
0.0
220
0.0
230
1.0
 40
0.9578947368421049
 41
1.238067260939289
 42
2.011520147323574
  0
ELLIPSE
  5
2BF5
330
1F
100
AcDbEntity
  8
AM_11
 48
0.5
100
AcDbEllipse
 10
-137.9792426186286
 20
-29.23228277631017
 30
0.0
 11
-33.74145762125595
 21
0.0000000000006089
 31
0.0
210
0.0
220
0.0
230
1.0
 40
0.9578947368421083
 41
4.271664206181676
 42
5.045118046240271
  0
LINE
  5
2C0E
330
1F
100
AcDbEntity
  8
AM_0
 48
0.5
100
AcDbLine
 10
-83.00000000000014
 20
-7.999999999999434
 30
0.0
 11
-83.00000000000014
 21
8.000000000000561
 31
0.0
  0
DIMENSION
  5
2D60
330
1F
100
AcDbEntity
  8
AM_5
100
AcDbDimension
  2
*D7
 10
15.31987312519423
 20
-7.950064429747333
 30
0.0
 11
15.31990103093279
 21
-0.0000643677758745
 31
0.0
 70
   160
  1
%%c<>
 51
359.9999999999998
  3
AM_JIS$0
100
AcDbAlignedDimension
 13
-3.000000070748102
 23
7.950000000000025
 33
0.0
 14
-3.000000073929525
 24
-7.950000124138787
 34
0.0
 50
89.99979888288933
100
AcDbRotatedDimension
1001
ACAD
1000
DSTYLE
1002
{
1070
   271
1070
     1
1002
}
1001
GENIUS_GENDTOL_13
1000

1000
h7
1000

1040
0.0
  0
LINE
  5
2FB7
330
1F
100
AcDbEntity
  8
AM_0
100
AcDbLine
 10
-83.00000000000014
 20
8.00000000000054
 30
0.0
 11
-82.91349902168363
 21
7.950058636884342
 31
0.0
  0
LINE
  5
2FB9
330
1F
100
AcDbEntity
  8
AM_0
100
AcDbLine
 10
-83.00000000000011
 20
-7.999999999999638
 30
0.0
 11
-82.91339705398263
 21
-7.949999765803813
 31
0.0
  0
LINE
  5
324C
330
1F
100
AcDbEntity
  8
AM_0
100
AcDbLine
 10
-148.25
 20
-7.999999999999435
 30
0.0
 11
-83.00000000000016
 21
-7.999999999999435
 31
0.0
  0
LINE
  5
325C
330
1F
100
AcDbEntity
  8
AM_0
 48
0.5
100
AcDbLine
 10
-148.25
 20
-7.999999999999467
 30
0.0
 11
-148.25
 21
8.000000000000563
 31
0.0
  0
LINE
  5
325D
330
1F
100
AcDbEntity
  8
AM_0
 48
0.5
100
AcDbLine
 10
-149.0
 20
-7.249999999999458
 30
0.0
 11
-149.0
 21
7.250000000000579
 31
0.0
  0
LINE
  5
325E
330
1F
100
AcDbEntity
  8
AM_0
100
AcDbLine
 10
-83.00000000000014
 20
8.000000000000563
 30
0.0
 11
-148.25
 21
8.000000000000564
 31
0.0
  0
LINE
  5
3921
330
1F
100
AcDbEntity
  8
AM_0
 48
0.5
100
AcDbLine
 10
-148.25
 20
8.000000000000564
 30
0.0
 11
-149.0
 21
7.250000000000563
 31
0.0
1001
GENIUS_GENFIL_13
1070
     0
1040
0.75
1040
0.75
1040
20.0
1040
0.0
1002
{
1002
}
1001
GENIUS_GENODEF_13
1002
{
1000
HIER
1070
     0
1002
}
1002
{
1000
MANEDIT
1070
     0
1002
}
1002
{
1000
NOSEL
1070
     0
1002
}
1002
{
1000
BEHIND
1070
     0
1002
}
1002
{
1000
REACTOR
1002
}
1001
GENIUS_GENOBJ-N-CHA_13
1002
{
1000
OWNER
1000
GEN
1002
}
  0
LINE
  5
3924
330
1F
100
AcDbEntity
  8
AM_0
100
AcDbLine
 10
-149.0
 20
-7.249999999999434
 30
0.0
 11
-148.25
 21
-7.999999999999435
 31
0.0
1001
GENIUS_GENFIL_13
1070
     0
1040
0.75
1040
0.75
1040
20.0
1040
0.0
1002
{
1002
}
1001
GENIUS_GENODEF_13
1002
{
1000
HIER
1070
     0
1002
}
1002
{
1000
MANEDIT
1070
     0
1002
}
1002
{
1000
NOSEL
1070
     0
1002
}
1002
{
1000
BEHIND
1070
     0
1002
}
1002
{
1000
REACTOR
1002
}
1001
GENIUS_GENOBJ-N-CHA_13
1002
{
1000
OWNER
1000
GEN
1002
}
  0
DIMENSION
  5
3C5B
330
1F
100
AcDbEntity
  8
AM_5
100
AcDbDimension
  2
*D8
 10
-165.500001
 20
-7.99999999999943
 30
0.0
 11
-168.900001
 21
0.0000000000005435
 31
0.0
 70
    32
  1
%%c<>
 51
359.9999999999998
  3
AM_JIS$0
100
AcDbAlignedDimension
 13
-148.25
 23
8.000000000000564
 33
0.0
 14
-148.25
 24
-7.999999999999435
 34
0.0
 50
270.0
100
AcDbRotatedDimension
1001
ACAD
1000
DSTYLE
1002
{
1070
   271
1070
     0
1002
}
1001
GENIUS_GENDTOL_13
1000

1000
h7
1000

1040
0.0
  0
ELLIPSE
  5
4071
330
1F
100
AcDbEntity
  8
AM_0
 48
0.5
100
AcDbEllipse
 10
7.409306118672457
 20
-7.863701352879953
 30
0.0
 11
8.815841836575973
 21
-4.493796925570594
 31
0.0
210
0.0
220
0.0
230
-1.0
 40
0.8518863252772563
 41
2.825112492637462
 42
3.25008581321566
  0
LINE
  5
4072
330
1F
100
AcDbEntity
  8
AM_0
 48
0.5
100
AcDbLine
 10
-2.1601393952777
 20
-5.930398752170262
 30
0.0
 11
-3.000000073929525
 21
-7.950000124138787
 31
0.0
  0
DIMENSION
  5
409D
330
1F
100
AcDbEntity
  8
AM_5
100
AcDbDimension
  2
*D9
 10
-0.9402011369209033
 20
-2.583163610967883
 30
0.0
 11
21.74001888334905
 21
-0.0000240785922612
 31
0.0
 70
    34
  1
<>
 51
359.9999999999998
  3
AM_JIS$2
100
AcDb2LineAngularDimension
 13
-0.0000000000000564
 23
-0.0000000000000183
 33
0.0
 14
-0.9401823436292486
 24
2.583129780755381
 34
0.0
 15
-0.0000000000000564
 25
-0.0000000000000005
 35
0.0
 16
22.80849816050231
 26
-9.838645729375731
 36
0.0
1001
GENIUS_GENDTOL_13
1000

1000
h7
1000

1040
0.0
1001
ACAD
1000
DSTYLE
1002
{
1070
   271
1070
     0
1002
}
  0
LINE
  5
4671
330
1F
100
AcDbEntity
  8
AM_0
100
AcDbLine
 10
-82.91352664375839
 20
-0.6830578673659441
 30
0.0
 11
-82.91353985285772
 21
-4.81148392390286
 31
0.0
  0
LINE
  5
4672
330
1F
100
AcDbEntity
  8
AM_0
100
AcDbLine
 10
-82.91354323852925
 20
-5.869655589155934
 30
0.0
 11
-82.91354989465331
 21
-7.949987900030839
 31
0.0
  0
LINE
  5
4673
330
1F
100
AcDbEntity
  8
AM_0
 48
0.5
100
AcDbLine
 10
-82.91339705398263
 20
-7.949999765803813
 30
0.0
 11
-80.22506894708552
 21
-7.949999887693158
 31
0.0
  0
ELLIPSE
  5
4674
330
1F
100
AcDbEntity
  8
AM_0
 48
0.5
100
AcDbEllipse
 10
-80.32202923775988
 20
-5.300404357906862
 30
0.0
 11
-2.168866127146554
 21
1.651667646940596
 31
0.0
210
0.0
220
0.0
230
1.0
 40
0.9552941903935948
 41
0.6842631468234886
 42
2.235893377336016
  0
ELLIPSE
  5
4675
330
1F
100
AcDbEntity
  8
AM_0
 48
0.5
100
AcDbEllipse
 10
-80.99205465472243
 20
-5.381144523617168
 30
0.0
 11
1.84422423647134
 21
0.8043033499674157
 31
0.0
210
0.0
220
0.0
230
1.0
 40
0.9906869264376773
 41
0.8731362985498805
 42
2.701382480811695
  0
SPLINE
  5
4676
330
1F
100
AcDbEntity
  8
AM_0
 48
0.5
100
AcDbSpline
210
0.0
220
0.0
230
1.0
 70
     8
 71
     3
 72
    26
 73
    22
 74
     0
 42
0.0000000001
 43
0.0000000001
 40
0.0
 40
0.0
 40
0.0
 40
0.0
 40
0.8422864037471089
 40
1.685694647057321
 40
2.531315797913884
 40
3.380177287502886
 40
4.233214169721234
 40
5.09125020057522
 40
5.954967768899448
 40
6.824900391836836
 40
7.701419186604396
 40
8.584724417931369
 40
9.47485577056355
 40
10.37165251267315
 40
11.27486274211709
 40
12.18400675634887
 40
13.09851504074504
 40
14.01768673654235
 40
14.94071745659532
 40
15.8667176994736
 40
16.76607142455336
 40
16.76607142455336
 40
16.76607142455336
 40
16.76607142455336
 10
-57.33039700204961
 20
-7.950404357908003
 30
0.0
 10
-57.78157417670306
 20
-7.945674300714626
 30
0.0
 10
-58.68452944797924
 20
-7.936207886374227
 30
0.0
 10
-60.03863375127953
 20
-7.859897952982211
 30
0.0
 10
-61.39268025690334
 20
-7.738585110022071
 30
0.0
 10
-62.74664294552064
 20
-7.568560485705427
 30
0.0
 10
-64.10050837726749
 20
-7.352128506988745
 30
0.0
 10
-65.45424957789254
 20
-7.090250604861665
 30
0.0
 10
-66.80786564681207
 20
-6.784696128040232
 30
0.0
 10
-68.1613473523943
 20
-6.437320860527119
 30
0.0
 10
-69.51469149487746
 20
-6.050280207817292
 30
0.0
 10
-70.86790921233431
 20
-5.625983143126064
 30
0.0
 10
-72.22099489747266
 20
-5.167049564062474
 30
0.0
 10
-73.57396388113432
 20
-4.676294683003982
 30
0.0
 10
-74.9268342534469
 20
-4.156793513489779
 30
0.0
 10
-76.27960893745529
 20
-3.611697483491363
 30
0.0
 10
-77.63229801738389
 20
-3.04439314986849
 30
0.0
 10
-78.98492633377575
 20
-2.458380657877787
 30
0.0
 10
-80.33747153294681
 20
-1.85718921589039
 30
0.0
 10
-81.67612315435498
 20
-1.251127097797141
 30
0.0
 10
-82.56303021885027
 20
-0.8439703155862934
 30
0.0
 10
-83.00000000000013
 20
-0.6433587074247355
 30
0.0
  0
LINE
  5
4677
330
1F
100
AcDbEntity
  8
AM_0
100
AcDbLine
 10
-82.91349902168365
 20
7.95005863688434
 30
0.0
 11
-82.91352644338273
 21
-0.6204316495399213
 31
0.0
  0
LINE
  5
4678
330
1F
100
AcDbEntity
  8
AM_0
 48
0.5
100
AcDbLine
 10
-66.53549500599146
 20
3.721937156520283
 30
0.0
 11
-83.00000000000013
 21
-0.6433587074247369
 31
0.0
  0
LINE
  5
4679
330
1F
100
AcDbEntity
  8
AM_0
 48
0.5
100
AcDbLine
 10
-79.24447070995686
 20
7.950124782120562
 30
0.0
 11
-82.91349902168365
 21
7.950058636884341
 31
0.0
  0
LINE
  5
467A
330
1F
100
AcDbEntity
  8
AM_0
 48
0.5
100
AcDbLine
 10
-8.836924059384253
 20
7.950000000000339
 30
0.0
 11
-3.000000070748102
 21
7.950000000000025
 31
0.0
  0
LINE
  5
467B
330
1F
100
AcDbEntity
  8
AM_0
 48
0.5
100
AcDbLine
 10
-8.83692405758828
 20
-7.949999177972397
 30
0.0
 11
-3.00000007392962
 21
-7.950000124138787
 31
0.0
  0
LINE
  5
467C
330
1F
100
AcDbEntity
  8
AM_0
 48
0.5
100
AcDbLine
 10
-0.0000000000000757
 20
0.0000000000000343
 30
0.0
 11
-5.121528314057948
 21
3.052559339482903
 31
0.0
  0
LINE
  5
467D
330
1F
100
AcDbEntity
  8
AM_0
 48
0.5
100
AcDbLine
 10
-62.96615904334927
 20
7.950000822030379
 30
0.0
 11
-34.34476226024732
 21
7.950000000001645
 31
0.0
  0
LINE
  5
467E
330
1F
100
AcDbEntity
  8
AM_0
 48
0.5
100
AcDbLine
 10
-61.12082875632015
 20
-7.949999177970011
 30
0.0
 11
-34.34476766683367
 21
-7.949999999999254
 31
0.0
  0
LINE
  5
467F
330
1F
100
AcDbEntity
  8
AM_11
 48
0.5
100
AcDbLine
 10
-34.34476766683367
 20
-7.949999999999254
 30
0.0
 11
-8.83692405758828
 21
-7.949999177972397
 31
0.0
  0
LINE
  5
4680
330
1F
100
AcDbEntity
  8
AM_11
 48
0.5
100
AcDbLine
 10
-34.34476226024732
 20
7.950000000001645
 30
0.0
 11
-8.836924059384253
 21
7.95000000000034
 31
0.0
  0
SPLINE
  5
4681
330
1F
100
AcDbEntity
  8
AM_0
 48
0.5
100
AcDbSpline
210
0.0
220
0.0
230
1.0
 70
     8
 71
     3
 72
    10
 73
     6
 74
     0
 42
0.0000000001
 43
0.0000000001
 40
0.0
 40
0.0
 40
0.0
 40
0.0
 40
2.69986029516136
 40
4.147722969032201
 40
6.285750005020438
 40
6.285750005020438
 40
6.285750005020438
 40
6.285750005020438
 10
-10.41608653922704
 20
1.438908445318519
 30
0.0
 10
-9.272718659100462
 20
0.7002985083424739
 30
0.0
 10
-7.820257709054501
 20
-0.4344081304571028
 30
0.0
 10
-4.385382674786811
 20
0.1149232317688867
 30
0.0
 10
-5.032269553239531
 20
1.96514394710495
 30
0.0
 10
-5.121528314057948
 20
3.052559339482903
 30
0.0
  0
ELLIPSE
  5
4682
330
1F
100
AcDbEntity
  8
AM_0
 48
0.5
100
AcDbEllipse
 10
-19.52304927798653
 20
35.41950796160749
 30
0.0
 11
-0.0000000000072859
 21
40.95299184003548
 31
0.0
210
0.0
220
0.0
230
1.0
 40
0.9496855345911908
 41
3.579847691616889
 42
3.667473607413977
  0
ELLIPSE
  5
4683
330
1F
100
AcDbEntity
  8
AM_0
 48
0.5
100
AcDbEllipse
 10
-10.20512567888692
 20
8.110503013848155
 30
0.0
 11
0.0000000000014791
 21
12.35150684927536
 31
0.0
210
0.0
220
0.0
230
1.0
 40
0.9496855345911995
 41
3.51705450908278
 42
3.681821570856279
  0
ELLIPSE
  5
4684
330
1F
100
AcDbEntity
  8
AM_0
 48
0.5
100
AcDbEllipse
 10
-3.596154227280959
 20
-2.069063960395924
 30
0.0
 11
-0.2248199620810907
 21
1.304998725993904
 31
0.0
210
0.0
220
0.0
230
1.0
 40
0.4951655066753872
 41
1.806480596309002
 42
4.941822486020978
  0
ELLIPSE
  5
4685
330
1F
100
AcDbEntity
  8
AM_0
 48
0.5
100
AcDbEllipse
 10
-3.596267484831388
 20
-2.071883619348926
 30
0.0
 11
-1.135995037904279
 21
0.6653631887456731
 31
0.0
210
0.0
220
0.0
230
1.0
 40
0.5021329948741108
 41
4.488841374858573
 42
7.632281716188087
  0
ELLIPSE
  5
4686
330
1F
100
AcDbEntity
  8
AM_0
 48
0.5
100
AcDbEllipse
 10
3.484744945091403
 20
9.544464933355056
 30
0.0
 11
-13.29141094272996
 21
12.74050161816103
 31
0.0
210
0.0
220
0.0
230
1.0
 40
0.8656617379618882
 41
1.328007496159776
 42
1.688732955994227
  0
ELLIPSE
  5
4687
330
1F
100
AcDbEntity
  8
AM_0
 48
0.5
100
AcDbEllipse
 10
6.642387516945946
 20
-2.123164566925624
 30
0.0
 11
-12.06711527758023
 21
8.079981473945498
 31
0.0
210
0.0
220
0.0
230
1.0
 40
0.74409612138272
 41
0.8370263193024127
 42
1.236111554342036
  0
SPLINE
  5
4688
330
1F
100
AcDbEntity
  8
AM_0
100
AcDbSpline
210
0.0
220
0.0
230
1.0
 70
     8
 71
     3
 72
    22
 73
    18
 74
     0
 42
0.0000000001
 43
0.0000000001
 40
17.17441611292
 40
17.17441611292
 40
17.17441611292
 40
17.17441611292
 40
17.38177636558528
 40
18.41823744757437
 40
19.46215659509824
 40
20.51397914882054
 40
21.57394542641293
 40
22.64209583141747
 40
23.71826625065247
 40
24.80210429862395
 40
25.8930771157021
 40
26.99048705697709
 40
28.09349309193389
 40
29.20112995599786
 40
30.31233024745139
 40
31.42594771747373
 40
32.5407895042663
 40
32.54078950426994
 40
32.54078950426994
 40
32.54078950426994
 10
-39.51307841448817
 20
-7.139156717280846
 30
0.0
 10
-39.60375116717202
 20
-7.120753247030916
 30
0.0
 10
-40.14728480023719
 20
-7.008655698189683
 30
0.0
 10
-41.14300778801431
 20
-6.783885522942206
 30
0.0
 10
-42.49648960092704
 20
-6.436511739205284
 30
0.0
 10
-43.84983349688416
 20
-6.049470076332242
 30
0.0
 10
-45.20304903041768
 20
-5.62517654435092
 30
0.0
 10
-46.556134414024
 20
-5.166232689938217
 30
0.0
 10
-47.90910630261523
 20
-4.675494732775629
 30
0.0
 10
-49.26197096083146
 20
-4.155978590452581
 30
0.0
 10
-50.61474090588779
 20
-3.610888090552597
 30
0.0
 10
-51.9674311797284
 20
-3.043586096193981
 30
0.0
 10
-53.3200535228888
 20
-2.457560964495673
 30
0.0
 10
-54.67262155169954
 20
-1.856418021094233
 30
0.0
 10
-56.02514725549904
 20
-1.243853614636899
 30
0.0
 10
-57.37765067077948
 20
-0.6236475986074686
 30
0.0
 10
-58.27914262748411
 20
-0.207688579545137
 30
0.0
 10
-58.73013625216723
 20
0.0004051799413256
 30
0.0
  0
SPLINE
  5
4689
330
1F
100
AcDbEntity
  8
AM_0
100
AcDbSpline
210
0.0
220
0.0
230
1.0
 70
     8
 71
     3
 72
    17
 73
    13
 74
     0
 42
0.0000000001
 43
0.0000000001
 40
1.580019955310467
 40
1.580019955310467
 40
1.580019955310467
 40
1.580019955310467
 40
2.030549285115227
 40
3.082371838836284
 40
4.126290986361125
 40
5.162752068350215
 40
6.192395305374981
 40
7.216039564037012
 40
8.234688489606833
 40
9.249433870634691
 40
10.26152376260694
 40
11.27226744710342
 40
11.27226744710342
 40
11.27226744710342
 40
11.27226744710352
 10
-21.58984810489392
 20
-5.867333278365106
 30
0.0
 10
-21.78143126187099
 20
-5.92776194538236
 30
0.0
 10
-22.42138337087248
 20
-6.125824972933642
 30
0.0
 10
-23.51394032241959
 20
-6.436493918465912
 30
0.0
 10
-24.86723373376072
 20
-6.784401924407306
 30
0.0
 10
-26.22089970551099
 20
-7.089818961305489
 30
0.0
 10
-27.57462770176351
 20
-7.351719370107129
 30
0.0
 10
-28.92850318425507
 20
-7.568198074590673
 30
0.0
 10
-30.28247220211875
 20
-7.73801972624354
 30
0.0
 10
-31.63652552893188
 20
-7.860083823940007
 30
0.0
 10
-32.99062980432704
 20
-7.93360462690764
 30
0.0
 10
-33.89358508980447
 20
-7.949999223461446
 30
0.0
 10
-34.34476766683368
 20
-7.949999999999257
 30
0.0
  0
SPLINE
  5
468A
330
1F
100
AcDbEntity
  8
AM_0
100
AcDbSpline
210
0.0
220
0.0
230
1.0
 70
     8
 71
     3
 72
    11
 73
     7
 74
     0
 42
0.0000000001
 43
0.0000000001
 40
11.27226913003534
 40
11.27226913003534
 40
11.27226913003534
 40
11.2722691300354
 40
12.28301561507924
 40
13.29510212255852
 40
14.30984805882082
 40
15.18258238371378
 40
15.18258238371378
 40
15.18258238371378
 40
15.18258238371378
 10
-34.34476766683375
 20
-7.949999999999257
 30
0.0
 10
-34.79422382938349
 20
-7.911089567716155
 30
0.0
 10
-35.69229920125689
 20
-7.816891094704343
 30
0.0
 10
-37.03477476527198
 20
-7.6268694747025
 30
0.0
 10
-38.30880774705262
 20
-7.399909484668346
 30
0.0
 10
-39.13277749543265
 20
-7.225438585566486
 30
0.0
 10
-39.51248621800331
 20
-7.139254780470058
 30
0.0
  0
SPLINE
  5
468B
330
1F
100
AcDbEntity
  8
AM_0
 48
0.5
100
AcDbSpline
210
0.0
220
0.0
230
1.0
 70
     8
 71
     3
 72
    25
 73
    21
 74
     0
 42
0.0000000001
 43
0.0000000001
 40
6.846175049578289
 40
6.846175049578289
 40
6.846175049578289
 40
6.846175049578289
 40
7.604337694224321
 40
8.711974558287883
 40
9.814980593243754
 40
10.91239053451967
 40
12.0033633515982
 40
13.08720139956839
 40
14.16337181880432
 40
15.23152222380919
 40
16.29148850140128
 40
17.34331105512262
 40
18.38723020264746
 40
19.42369128463655
 40
20.45333379090873
 40
21.47697865721768
 40
22.49561244472435
 40
23.5103574802404
 40
24.52244778960836
 40
25.53320666051913
 40
25.53320666051913
 40
25.53320666051913
 40
25.53320666051913
 10
-10.41615049652637
 20
1.439002869491846
 30
0.0
 10
-10.72375664192614
 20
1.578590730468916
 30
0.0
 10
-11.48140701115611
 20
1.92071249983504
 30
0.0
 10
-12.69022755323594
 20
2.45796683567371
 30
0.0
 10
-14.04284982247425
 20
3.043992132966343
 30
0.0
 10
-15.39554011596496
 20
3.611294083229904
 30
0.0
 10
-16.74831005583864
 20
4.156384595043691
 30
0.0
 10
-18.10117471529087
 20
4.675900733470149
 30
0.0
 10
-19.45414660407023
 20
5.166638694376358
 30
0.0
 10
-20.8072319857241
 20
5.625582537791496
 30
0.0
 10
-22.16044752679314
 20
6.049876109608112
 30
0.0
 10
-23.51379139486197
 20
6.436917625702498
 30
0.0
 10
-24.8672733107157
 20
6.784291951066633
 30
0.0
 10
-26.22088849785432
 20
7.089849240160633
 30
0.0
 10
-27.57463166837285
 20
7.351716645418343
 30
0.0
 10
-28.92849528932677
 20
7.568158388213836
 30
0.0
 10
-30.28245829514176
 20
7.738183872554919
 30
0.0
 10
-31.63650576377143
 20
7.859483730522611
 30
0.0
 10
-32.99061571494513
 20
7.935814985154436
 30
0.0
 10
-33.89357818711855
 20
7.945274285106477
 30
0.0
 10
-34.34476226024732
 20
7.950000000001645
 30
0.0
  0
SPLINE
  5
468C
330
1F
100
AcDbEntity
  8
AM_0
 48
0.5
100
AcDbSpline
210
0.0
220
0.0
230
1.0
 70
     8
 71
     3
 72
    17
 73
    13
 74
     0
 42
0.0000000001
 43
0.0000000001
 40
0.0
 40
0.0
 40
0.0
 40
0.0
 40
1.010743614677189
 40
2.022833924044153
 40
3.037578959561199
 40
4.056212747067873
 40
5.079857613375832
 40
6.109500119648989
 40
7.14596120163808
 40
8.18989512056258
 40
9.241717674284874
 40
9.693948937866434
 40
9.693948937866434
 40
9.693948937866434
 40
9.693948937866434
 10
-8.836924059384253
 20
7.950000000000339
 30
0.0
 10
-9.288101316092278
 20
7.945273351310253
 30
0.0
 10
-10.19105696911188
 20
7.935813756237431
 30
0.0
 10
-11.54516013245769
 20
7.859482944462554
 30
0.0
 10
-12.89920754816227
 20
7.73818292970068
 30
0.0
 10
-14.25317075364092
 20
7.568158016159097
 30
0.0
 10
-15.60703362358416
 20
7.351714131933697
 30
0.0
 10
-16.96077962189536
 20
7.089854788333819
 30
0.0
 10
-18.31439057902801
 20
6.784265660554171
 30
0.0
 10
-19.66791902052078
 20
6.43700405330442
 30
0.0
 10
-20.76052247347694
 20
6.124173837772961
 30
0.0
 10
-21.40216328157295
 20
5.928609966112366
 30
0.0
 10
-21.59474942770846
 20
5.868749174159082
 30
0.0
  0
SPLINE
  5
468D
330
1F
100
AcDbEntity
  8
AM_0
100
AcDbSpline
210
0.0
220
0.0
230
1.0
 70
     8
 71
     3
 72
    46
 73
    42
 74
     0
 42
0.0000000001
 43
0.0000000001
 40
0.0
 40
0.0
 40
0.0
 40
0.0
 40
1.685415058684571
 40
2.531036209541119
 40
3.379897699130121
 40
4.232934581347655
 40
5.090970612202441
 40
5.954688180526682
 40
6.824620803463246
 40
7.701151815239689
 40
8.584457046566678
 40
9.474582384070741
 40
10.37139106676737
 40
11.27458944007583
 40
12.18373345430765
 40
13.09824173870457
 40
14.01741343450111
 40
14.9404441545541
 40
15.86644439743314
 40
16.79446029130534
 40
17.7234937712985
 40
18.65252725129241
 40
19.58054314516461
 40
20.50654338804289
 40
21.42957410809586
 40
22.34874580389317
 40
23.26325408828901
 40
24.17239810252111
 40
25.07560240389441
 40
25.97241108659103
 40
26.8625364240951
 40
27.74584165542183
 40
28.62236045019041
 40
29.49229307312697
 40
30.35601064145121
 40
31.21404606334468
 40
32.06708345193547
 40
32.91595755657689
 40
33.76157841950693
 40
34.60498701064689
 40
35.44727335621125
 40
35.44727335621125
 40
35.44727335621125
 40
35.44727335621125
 10
-5.046352111584345
 20
-7.949999177972597
 30
0.0
 10
-5.949351499707051
 20
-7.931888463430275
 30
0.0
 10
-7.305411620776476
 20
-7.904691083146372
 30
0.0
 10
-9.108623899153574
 20
-7.737241809163275
 30
0.0
 10
-10.46260114640242
 20
-7.568408397506884
 30
0.0
 10
-11.81646266082866
 20
-7.351654975976712
 30
0.0
 10
-13.17020487589745
 20
-7.089863793328865
 30
0.0
 10
-14.52382083716958
 20
-6.784286434441724
 30
0.0
 10
-15.87730827754169
 20
-6.436913541829066
 30
0.0
 10
-17.23066117351659
 20
-6.049878036473756
 30
0.0
 10
-18.58388223012216
 20
-5.625580456109608
 30
0.0
 10
-19.93696780760523
 20
-5.166637168600433
 30
0.0
 10
-21.28993964400945
 20
-4.675899058566444
 30
0.0
 10
-22.64280431504855
 20
-4.15638295484668
 30
0.0
 10
-23.99557426157478
 20
-3.611292455047924
 30
0.0
 10
-25.34826451642139
 20
-3.043990420953946
 30
0.0
 10
-26.70088693463422
 20
-2.457965449286035
 30
0.0
 10
-28.0534546806422
 20
-1.856821902103692
 30
0.0
 10
-29.40598209551923
 20
-1.244259465694081
 30
0.0
 10
-30.7584815346915
 20
-0.6240449684474788
 30
0.0
 10
-32.11096960451476
 20
0.000000821902524
 30
0.0
 10
-33.46345767404089
 20
0.6240466130108685
 30
0.0
 10
-34.81595711410441
 20
1.244261107983555
 30
0.0
 10
-36.16848452572384
 20
1.856823552703316
 30
0.0
 10
-37.52105228381103
 20
2.457967069066334
 30
0.0
 10
-38.87367465723532
 20
3.043992155009179
 30
0.0
 10
-40.22636507794924
 20
3.611293765902887
 30
0.0
 10
-41.57913735179883
 20
4.156387016126868
 30
0.0
 10
-42.93200727941735
 20
4.675898399779475
 30
0.0
 10
-44.28498152931603
 20
5.166639026150435
 30
0.0
 10
-45.63806707529539
 20
5.625582450219661
 30
0.0
 10
-46.99128257302262
 20
6.04987613165164
 30
0.0
 10
-48.34462645188546
 20
6.436917624118358
 30
0.0
 10
-49.69810836741263
 20
6.784291935787297
 30
0.0
 10
-51.0517235452829
 20
7.089849302199367
 30
0.0
 10
-52.40546675283266
 20
7.351716414606355
 30
0.0
 10
-53.75933690770754
 20
7.56816030947122
 30
0.0
 10
-55.11330717825489
 20
7.73818227689343
 30
0.0
 10
-56.46736121828396
 20
7.859483997952069
 30
0.0
 10
-57.8214644094675
 20
7.935814520555001
 30
0.0
 10
-58.72442005878288
 20
7.945274154111229
 30
0.0
 10
-59.17559731363986
 20
7.950000822030184
 30
0.0
  0
SPLINE
  5
468E
330
1F
100
AcDbEntity
  8
AM_0
100
AcDbSpline
210
0.0
220
0.0
230
1.0
 70
     8
 71
     3
 72
    13
 73
     9
 74
     0
 42
0.0000000001
 43
0.0000000001
 40
16.03460056234195
 40
16.03460056234195
 40
16.03460056234195
 40
16.03460056234195
 40
16.35212717791071
 40
17.38177067057215
 40
18.41822498539278
 40
19.46214186516937
 40
20.5139635832251
 40
21.34083983469381
 40
21.34083983469381
 40
21.34083983469381
 40
21.34083983469381
 10
-80.22507019592671
 20
-7.949999999998277
 30
0.0
 10
-79.9391769329755
 20
-7.924290365758943
 30
0.0
 10
-79.34953502767446
 20
-7.80742250695329
 30
0.0
 10
-78.31087588713744
 20
-7.57842881760837
 30
0.0
 10
-76.96580867860342
 20
-7.237922625448542
 30
0.0
 10
-75.62199104671559
 20
-6.855589612481588
 30
0.0
 10
-74.37851766250123
 20
-6.464810957827291
 30
0.0
 10
-73.58520354082004
 20
-6.195732043824354
 30
0.0
 10
-73.23718139030359
 20
-6.074105922847508
 30
0.0
  0
SPLINE
  5
468F
330
1F
100
AcDbEntity
  8
AM_0
100
AcDbSpline
210
0.0
220
0.0
230
1.0
 70
     8
 71
     3
 72
    55
 73
    51
 74
     0
 42
0.0000000001
 43
0.0000000001
 40
0.0
 40
0.0
 40
0.0
 40
0.0
 40
1.010743684496582
 40
2.022833576467832
 40
3.037578957496688
 40
4.056212745003489
 40
5.079857003664532
 40
6.109500240690281
 40
7.145961322679372
 40
8.189895241603872
 40
9.241717795325891
 40
10.30168407291828
 40
11.36983447792315
 40
12.44600489715814
 40
13.52984294512926
 40
14.62081576220742
 40
15.7182257034828
 40
16.82123173843959
 40
17.92886860250316
 40
19.0400688939571
 40
20.15368796660465
 40
21.26852814259644
 40
22.38336992938901
 40
23.49698739941135
 40
24.6081876908653
 40
25.71582455492886
 40
26.81883757994213
 40
27.91624752121713
 40
29.00722033829659
 40
30.09105838626677
 40
31.16722880550176
 40
32.23537921050758
 40
33.29534548809967
 40
34.347168041821
 40
35.39108718934584
 40
36.42754827133493
 40
37.45720575381954
 40
38.48085062012849
 40
39.49948440763516
 40
40.51422944315121
 40
41.52631975251916
 40
42.53706336719636
 40
43.54780698187354
 40
44.55989729124051
 40
45.57464232675757
 40
46.59327611426424
 40
47.6169209805722
 40
48.64656348684535
 40
49.68302456883444
 40
50.58557219878025
 40
50.58557219878025
 40
50.58557219878025
 40
50.58557219878025
 10
-8.836924057588273
 20
-7.949999177972397
 30
0.0
 10
-9.288101232187445
 20
-7.945269120572899
 30
0.0
 10
-10.1910565033546
 20
-7.935802705820022
 30
0.0
 10
-11.54516080747106
 20
-7.859492775527556
 30
0.0
 10
-12.89920730998038
 20
-7.738179920740368
 30
0.0
 10
-14.25317001030482
 20
-7.568155340880881
 30
0.0
 10
-15.60703539802801
 20
-7.351723194987322
 30
0.0
 10
-16.96077676441286
 20
-7.089845922321678
 30
0.0
 10
-18.31439863766424
 20
-6.784287621533591
 30
0.0
 10
-19.66788901389177
 20
-6.436919385458653
 30
0.0
 10
-21.02123867335918
 20
-6.049874033993634
 30
0.0
 10
-22.37445436176642
 20
-5.625581010800302
 30
0.0
 10
-23.72753970329493
 20
-5.166637018268201
 30
0.0
 10
-25.0805116036622
 20
-4.675899099330575
 30
0.0
 10
-26.43337625727766
 20
-4.156382943643
 30
0.0
 10
-27.78614620890055
 20
-3.611292458718744
 30
0.0
 10
-29.13883646093267
 20
-3.043990417548585
 30
0.0
 10
-30.49145888530601
 20
-2.457965459275406
 30
0.0
 10
-31.84402660937519
 20
-1.856821865361918
 30
0.0
 10
-33.19655410618969
 20
-1.244259603209237
 30
0.0
 10
-34.5490532387031
 20
-0.6240444538640433
 30
0.0
 10
-35.90154310629822
 20
-0.0000008000598031
 30
0.0
 10
-37.2540269023455
 20
0.6240540869191137
 30
0.0
 10
-38.60653056814119
 20
1.244259577873925
 30
0.0
 10
-39.95905639524233
 20
1.8568236942177
 30
0.0
 10
-41.31162653092483
 20
2.457969578220339
 30
0.0
 10
-42.66425456662482
 20
3.043989535253618
 30
0.0
 10
-44.01694695355955
 20
3.611294453434459
 30
0.0
 10
-45.3697171004774
 20
4.156384496346539
 30
0.0
 10
-46.72258170486643
 20
4.675900761286411
 30
0.0
 10
-48.07555360869817
 20
5.16663868094189
 30
0.0
 10
-49.4286389846908
 20
5.625582563733559
 30
0.0
 10
-50.78185453343141
 20
6.049876020169105
 30
0.0
 10
-52.13519837669917
 20
6.436917954028624
 30
0.0
 10
-53.48868038315199
 20
6.784290739760782
 30
0.0
 10
-54.84230175427988
 20
7.089855184941893
 30
0.0
 10
-56.19605278683179
 20
7.35170254758776
 30
0.0
 10
-57.54992264734363
 20
7.568201683805773
 30
0.0
 10
-58.9038857490432
 20
7.738024721471362
 30
0.0
 10
-60.25793319238518
 20
7.860074265033436
 30
0.0
 10
-61.61203634838258
 20
7.933618137038202
 30
0.0
 10
-62.96616925997562
 20
7.958186711178099
 30
0.0
 10
-64.32030216957622
 20
7.933618136999815
 30
0.0
 10
-65.67440533156243
 20
7.860074265188229
 30
0.0
 10
-67.02845275285524
 20
7.738024720889344
 30
0.0
 10
-68.38241593722284
 20
7.568201685994752
 30
0.0
 10
-69.73627888658064
 20
7.351703594827299
 30
0.0
 10
-71.09002458586878
 20
7.089857862190423
 30
0.0
 10
-72.38209973084308
 20
6.798161431032569
 30
0.0
 10
-73.22041279947247
 20
6.584841073324001
 30
0.0
 10
-73.60934120289704
 20
6.480879656618876
 30
0.0
  0
SPLINE
  5
4690
330
1F
100
AcDbEntity
  8
AM_0
100
AcDbSpline
210
0.0
220
0.0
230
1.0
 70
     8
 71
     3
 72
    23
 73
    19
 74
     0
 42
0.0000000001
 43
0.0000000001
 40
16.03460024169435
 40
16.03460024169435
 40
16.03460024169435
 40
16.03460024169435
 40
16.35212704903564
 40
17.38177054169784
 40
18.41822485651776
 40
19.46214173629503
 40
20.51396345435107
 40
21.57393551351153
 40
22.64208202342361
 40
23.7182574881101
 40
24.80209208578934
 40
25.89306333925047
 40
26.99048218457928
 40
28.09348763352352
 40
29.20111863782268
 40
30.31232390128032
 40
31.42594612798585
 40
32.5407912310448
 40
32.5407912310486
 40
32.5407912310486
 40
32.5407912310486
 10
-79.24426148272373
 20
7.950000000001709
 30
0.0
 10
-79.10514390676309
 20
7.923162199993647
 30
0.0
 10
-78.51550248937821
 20
7.806291134622731
 30
0.0
 10
-77.47684278265174
 20
7.577300118801582
 30
0.0
 10
-76.13177574338838
 20
7.236792982496905
 30
0.0
 10
-74.78795806565862
 20
6.854460225220218
 30
0.0
 10
-73.44531034220442
 20
6.4325145939606
 30
0.0
 10
-72.10378492007859
 20
5.973308445058448
 30
0.0
 10
-70.76330426232686
 20
5.479466794514146
 30
0.0
 10
-69.42377502297121
 20
4.953863676860721
 30
0.0
 10
-68.08512108514921
 20
4.399475551908831
 30
0.0
 10
-66.74723512412057
 20
3.819528274982234
 30
0.0
 10
-65.41000871918928
 20
3.217392750219703
 30
0.0
 10
-64.07335277477383
 20
2.596531004457226
 30
0.0
 10
-62.73715545449501
 20
1.960553263722861
 30
0.0
 10
-61.40129299818198
 20
1.313173171432911
 30
0.0
 10
-60.06565662892126
 20
0.6581421199178481
 30
0.0
 10
-59.17547155038937
 20
0.2189796166047111
 30
0.0
 10
-58.73013625216127
 20
-0.0007250838685643
 30
0.0
  0
LINE
  5
4691
330
1F
100
AcDbEntity
  8
AM_11
 48
0.5
100
AcDbLine
 10
-79.24426148272374
 20
7.950000000001712
 30
0.0
 11
-62.96613707359824
 21
7.950000000001359
 31
0.0
  0
SPLINE
  5
4692
330
1F
100
AcDbEntity
  8
AM_0
 48
0.5
100
AcDbSpline
210
0.0
220
0.0
230
1.0
 70
     8
 71
     3
 72
    22
 73
    18
 74
     0
 42
0.0000000001
 43
0.0000000001
 40
0.0
 40
0.0
 40
0.0
 40
0.0
 40
1.010743684496582
 40
2.022833993863546
 40
3.037578683882831
 40
4.056212471389632
 40
5.079857945358201
 40
6.109499720892564
 40
7.145961650132166
 40
8.189873411961459
 40
9.241710626092514
 40
10.30166235592959
 40
11.36982472628033
 40
12.44598212828784
 40
13.52983440361964
 40
14.62080578343036
 40
14.90544694398022
 40
14.90544694398022
 40
14.90544694398022
 40
14.90544694398022
 10
-61.12074294696725
 20
-7.949999999998691
 30
0.0
 10
-61.57214620886493
 20
-7.945675713622555
 30
0.0
 10
-62.47510183888913
 20
-7.936212125027563
 30
0.0
 10
-63.82920472415861
 20
-7.859880937725662
 30
0.0
 10
-65.18325269188941
 20
-7.738588506389492
 30
0.0
 10
-66.53721611216326
 20
-7.568563769791924
 30
0.0
 10
-67.8910778124075
 20
-7.352111431720794
 30
0.0
 10
-69.24482366873184
 20
-7.090256172076494
 30
0.0
 10
-70.59843384395472
 20
-6.784690591719479
 30
0.0
 10
-71.95191764597203
 20
-6.437310294924643
 30
0.0
 10
-73.30526288467003
 20
-6.050284266191077
 30
0.0
 10
-74.6584766324981
 20
-5.625967989525592
 30
0.0
 10
-76.0115676127128
 20
-5.16706158339638
 30
0.0
 10
-77.36453480898399
 20
-4.676293226960896
 30
0.0
 10
-78.71740356755807
 20
-4.156789336846657
 30
0.0
 10
-79.73417898408503
 20
-3.747104311249581
 30
0.0
 10
-80.30076172794593
 20
-3.512941519589184
 30
0.0
 10
-80.41791219906583
 20
-3.464284575775348
 30
0.0
  0
LINE
  5
4693
330
1F
100
AcDbEntity
  8
AM_11
 48
0.5
100
AcDbLine
 10
-80.22506894708552
 20
-7.949999887693158
 30
0.0
 11
-61.12082875632015
 21
-7.949999177970011
 31
0.0
  0
VIEWPORT
  5
110
330
101
100
AcDbEntity
 67
     1
  8
0
100
AcDbViewport
 10
420.5
 20
297.0
 30
0.0
 40
948.9782706766916
 41
628.452
 68
     1
 69
     1
1001
ACAD
1000
MVIEW
1002
{
1070
    16
1010
0.0
1020
0.0
1030
0.0
1010
0.0
1020
0.0
1030
1.0
1040
0.0
1040
628.452
1040
420.5
1040
297.0
1040
50.0
1040
0.0
1040
0.0
1070
     0
1070
   100
1070
     1
1070
     1
1070
     0
1070
     0
1070
     0
1070
     0
1040
0.0
1040
0.0
1040
0.0
1040
10.0
1040
10.0
1040
10.0
1040
10.0
1070
     0
1002
{
1002
}
1002
}
  0
ENDSEC
  0
SECTION
  2
OBJECTS
  0
DICTIONARY
  5
C
330
0
100
AcDbDictionary
  3
ACAD_GROUP
350
D
  3
ACAD_LAYOUT
350
1A
  3
ACAD_MLINESTYLE
350
17
  3
ACAD_PLOTSETTINGS
350
19
  3
ACAD_PLOTSTYLENAME
350
E
  3
ACDBVARIABLEDICTIONARY
350
34
  3
ACMDICTIONARY
350
43
  3
AMG
350
2B
  3
AMGSNAPSETTINGS
350
6E
  3
DWGPROPS
350
472B
  3
ACDBHEADERROUNDTRIPXREC
350
4737
  0
DICTIONARY
  5
74
330
1F
100
AcDbDictionary
280
     1
  3
ACAD_INDEX
360
472D
  3
ACAD_LAYOUTSELFREF
360
475A
  0
DICTIONARY
  5
475F
330
101
100
AcDbDictionary
280
     1
  3
ACAD_LAYOUTSELFREF
360
4760
  0
DICTIONARY
  5
D
102
{ACAD_REACTORS
330
C
102
}
330
C
100
AcDbDictionary
  0
DICTIONARY
  5
1A
102
{ACAD_REACTORS
330
C
102
}
330
C
100
AcDbDictionary
  0
DICTIONARY
  5
17
102
{ACAD_REACTORS
330
C
102
}
330
C
100
AcDbDictionary
  3
STANDARD
350
18
  0
DICTIONARY
  5
19
102
{ACAD_REACTORS
330
C
102
}
330
C
100
AcDbDictionary
  0
ACDBDICTIONARYWDFLT
  5
E
102
{ACAD_REACTORS
330
C
102
}
330
C
100
AcDbDictionary
281
     1
  3
Normal
350
F
100
AcDbDictionaryWithDefault
340
F
  0
DICTIONARY
  5
34
102
{ACAD_REACTORS
330
C
102
}
330
C
100
AcDbDictionary
  3
INDEXCTL
350
35
  3
SORTENTS
350
B5E
  0
DICTIONARY
  5
43
102
{ACAD_REACTORS
330
C
102
}
330
C
100
AcDbDictionary
  3
ACMSTDDICTIONARY
350
260
  0
DICTIONARY
  5
2B
102
{ACAD_REACTORS
330
C
102
}
330
C
100
AcDbDictionary
  3
ACMGSETTINGS
350
2C
  0
DICTIONARY
  5
6E
102
{ACAD_REACTORS
330
C
102
}
330
C
100
AcDbDictionary
  0
XRECORD
  5
472B
102
{ACAD_REACTORS
330
C
102
}
330
C
100
AcDbXrecord
  1
DWGPROPS COOKIE
  2

  3

  4

  6

  7

  8

  9

300
AmdtFileType=82
301
=
302
=
303
=
304
=
305
=
306
=
307
=
308
=
309
=
 40
0.1003415856481481
 41
2452800.443498622
 42
2452946.642690428
  1

 90
        1
  0
DICTIONARY
  5
4737
102
{ACAD_REACTORS
330
C
102
}
330
C
100
AcDbDictionary
  3
TSTACKALIGN
350
4738
  3
TSTACKSIZE
350
4739
  3
HYPERLINKBASE
350
473A
  3
STYLESHEET
350
473B
  3
LAYOUTDICT
350
473C
  3
PLOTSETDICT
350
473D
  3
PLOTSTYLNAMDICT
350
473E
  3
LWETCUNION
350
473F
  3
INSUNITS
350
4740
  3
CEPSNTYPE
350
4741
  3
FINGERPRINTGUID
350
4742
  3
VERSIONGUID
350
4743
  3
PSVPSCALE
350
4744
  3
DIMSTYLEDATA
350
4745
  3
PUCSORTHOREF
350
4746
  3
PUCSORTHOVIEW
350
4747
  3
PUCSBASE
350
4748
  3
PUCSORGTOP
350
4749
  3
PUCSORGBOTTOM
350
474A
  3
PUCSORGLEFT
350
474B
  3
PUCSORGRIGHT
350
474C
  3
PUCSORGFRONT
350
474D
  3
PUCSORGBACK
350
474E
  3
UCSORTHOREF
350
474F
  3
UCSORTHOVIEW
350
4750
  3
UCSBASE
350
4751
  3
UCSORGTOP
350
4752
  3
UCSORGBOTTOM
350
4753
  3
UCSORGLEFT
350
4754
  3
UCSORGRIGHT
350
4755
  3
UCSORGFRONT
350
4756
  3
UCSORGBACK
350
4757
  0
DICTIONARY
  5
472D
102
{ACAD_REACTORS
330
74
102
}
330
74
100
AcDbDictionary
  3
*A1
350
472E
  0
XRECORD
  5
475A
102
{ACAD_REACTORS
330
74
102
}
330
74
100
AcDbXrecord
340
1F
  0
XRECORD
  5
4760
102
{ACAD_REACTORS
330
475F
102
}
330
475F
100
AcDbXrecord
340
101
  0
MLINESTYLE
  5
18
102
{ACAD_REACTORS
330
17
102
}
330
17
100
AcDbMlineStyle
  2
STANDARD
 70
     0
  3

 62
   256
 51
90.0
 52
90.0
 71
     2
 49
0.5
 62
   256
  6
BYLAYER
 49
-0.5
 62
   256
  6
BYLAYER
  0
ACDBPLACEHOLDER
  5
F
102
{ACAD_REACTORS
330
E
102
}
330
E
100
AcDbPlaceHolder
280
     0
  0
DICTIONARYVAR
  5
35
102
{ACAD_REACTORS
330
34
102
}
330
34
100
DictionaryVariables
280
     0
  1
1
  0
DICTIONARYVAR
  5
B5E
102
{ACAD_REACTORS
330
34
102
}
330
34
100
DictionaryVariables
280
     0
  1
96
  0
DICTIONARY
  5
260
102
{ACAD_REACTORS
330
43
102
}
330
43
100
AcDbDictionary
  0
DICTIONARY
  5
2C
102
{ACAD_REACTORS
330
2B
102
}
330
2B
100
AcDbDictionary
  3
DWGSETTINGS
350
2D
  0
XRECORD
  5
4738
102
{ACAD_REACTORS
330
4737
102
}
330
4737
100
AcDbXrecord
 90
        1
  0
XRECORD
  5
4739
102
{ACAD_REACTORS
330
4737
102
}
330
4737
100
AcDbXrecord
 90
       70
  0
XRECORD
  5
473A
102
{ACAD_REACTORS
330
4737
102
}
330
4737
100
AcDbXrecord
  1

  0
XRECORD
  5
473B
102
{ACAD_REACTORS
330
4737
102
}
330
4737
100
AcDbXrecord
  1
ASAMI.ctb
  0
XRECORD
  5
473C
102
{ACAD_REACTORS
330
4737
102
}
330
4737
100
AcDbXrecord
340
1A
  0
XRECORD
  5
473D
102
{ACAD_REACTORS
330
4737
102
}
330
4737
100
AcDbXrecord
340
19
  0
XRECORD
  5
473E
102
{ACAD_REACTORS
330
4737
102
}
330
4737
100
AcDbXrecord
340
E
  0
XRECORD
  5
473F
102
{ACAD_REACTORS
330
4737
102
}
330
4737
100
AcDbXrecord
 90
    10781
  0
XRECORD
  5
4740
102
{ACAD_REACTORS
330
4737
102
}
330
4737
100
AcDbXrecord
 90
        4
  0
XRECORD
  5
4741
102
{ACAD_REACTORS
330
4737
102
}
330
4737
100
AcDbXrecord
 90
        0
  0
XRECORD
  5
4742
102
{ACAD_REACTORS
330
4737
102
}
330
4737
100
AcDbXrecord
  1
{AFB28963-8C59-40AE-9337-C84526B81ACE}
  0
XRECORD
  5
4743
102
{ACAD_REACTORS
330
4737
102
}
330
4737
100
AcDbXrecord
  1
{F19C14A9-EC48-4177-B97F-3592869233CB}
  0
XRECORD
  5
4744
102
{ACAD_REACTORS
330
4737
102
}
330
4737
100
AcDbXrecord
 40
0.0
  0
XRECORD
  5
4745
102
{ACAD_REACTORS
330
4737
102
}
330
4737
100
AcDbXrecord
1000
DSTYLE
1002
{
1070
    79
 70
     2
1070
   341
340
59
1070
   342
340
59
1070
   371
 70
    -1
1070
   372
 70
    -1
1002
}
  0
XRECORD
  5
4746
102
{ACAD_REACTORS
330
4737
102
}
330
4737
100
AcDbXrecord
340
0
  0
XRECORD
  5
4747
102
{ACAD_REACTORS
330
4737
102
}
330
4737
100
AcDbXrecord
 70
     0
  0
XRECORD
  5
4748
102
{ACAD_REACTORS
330
4737
102
}
330
4737
100
AcDbXrecord
340
0
  0
XRECORD
  5
4749
102
{ACAD_REACTORS
330
4737
102
}
330
4737
100
AcDbXrecord
 10
0.0
 20
0.0
 30
0.0
  0
XRECORD
  5
474A
102
{ACAD_REACTORS
330
4737
102
}
330
4737
100
AcDbXrecord
 10
0.0
 20
0.0
 30
0.0
  0
XRECORD
  5
474B
102
{ACAD_REACTORS
330
4737
102
}
330
4737
100
AcDbXrecord
 10
0.0
 20
0.0
 30
0.0
  0
XRECORD
  5
474C
102
{ACAD_REACTORS
330
4737
102
}
330
4737
100
AcDbXrecord
 10
0.0
 20
0.0
 30
0.0
  0
XRECORD
  5
474D
102
{ACAD_REACTORS
330
4737
102
}
330
4737
100
AcDbXrecord
 10
0.0
 20
0.0
 30
0.0
  0
XRECORD
  5
474E
102
{ACAD_REACTORS
330
4737
102
}
330
4737
100
AcDbXrecord
 10
0.0
 20
0.0
 30
0.0
  0
XRECORD
  5
474F
102
{ACAD_REACTORS
330
4737
102
}
330
4737
100
AcDbXrecord
340
0
  0
XRECORD
  5
4750
102
{ACAD_REACTORS
330
4737
102
}
330
4737
100
AcDbXrecord
 70
     0
  0
XRECORD
  5
4751
102
{ACAD_REACTORS
330
4737
102
}
330
4737
100
AcDbXrecord
340
0
  0
XRECORD
  5
4752
102
{ACAD_REACTORS
330
4737
102
}
330
4737
100
AcDbXrecord
 10
0.0
 20
0.0
 30
0.0
  0
XRECORD
  5
4753
102
{ACAD_REACTORS
330
4737
102
}
330
4737
100
AcDbXrecord
 10
0.0
 20
0.0
 30
0.0
  0
XRECORD
  5
4754
102
{ACAD_REACTORS
330
4737
102
}
330
4737
100
AcDbXrecord
 10
0.0
 20
0.0
 30
0.0
  0
XRECORD
  5
4755
102
{ACAD_REACTORS
330
4737
102
}
330
4737
100
AcDbXrecord
 10
0.0
 20
0.0
 30
0.0
  0
XRECORD
  5
4756
102
{ACAD_REACTORS
330
4737
102
}
330
4737
100
AcDbXrecord
 10
0.0
 20
0.0
 30
0.0
  0
XRECORD
  5
4757
102
{ACAD_REACTORS
330
4737
102
}
330
4737
100
AcDbXrecord
 10
0.0
 20
0.0
 30
0.0
  0
LAYER_INDEX
  5
472E
102
{ACAD_REACTORS
330
472D
102
}
330
472D
100
AcDbIndex
 40
2453151.566689803
100
AcDbLayerIndex
  8
0
360
472F
 90
        0
  8
AM_0
360
4730
 90
       46
  8
AM_7
360
4731
 90
        1
  8
AM_11
360
4732
 90
       15
  8
AM_5
360
4733
 90
        5
  8
Defpoints
360
4734
 90
        0
  8
AM_6
360
4735
 90
        1
  0
XRECORD
  5
2D
102
{ACAD_REACTORS
330
2C
102
}
330
2C
100
AcDbXrecord
  1
VERSION
140
15.0
  1
PRODUCT
  2
AutoCAD Mechanical 2000
  0
IDBUFFER
  5
472F
330
0
100
AcDbIdBuffer
  0
IDBUFFER
  5
4730
330
0
100
AcDbIdBuffer
330
4672
330
4673
330
4674
330
4675
330
4676
330
4677
330
4678
330
4679
330
467A
330
467B
330
467C
330
467D
330
467E
330
4681
330
4682
330
4683
330
4684
330
4685
330
4686
330
4687
330
4688
330
4689
330
468A
330
468B
330
468C
330
468D
330
468E
330
468F
330
4690
330
4692
330
C1D
330
C20
330
24A7
330
24BE
330
2C0E
330
2FB7
330
2FB9
330
324C
330
325C
330
325D
330
325E
330
3921
330
3924
330
4071
330
4072
330
4671
  0
IDBUFFER
  5
4731
330
0
100
AcDbIdBuffer
330
23EF
  0
IDBUFFER
  5
4732
330
0
100
AcDbIdBuffer
330
24B7
330
24B8
330
24B9
330
24C7
330
24C8
330
24D4
330
24D5
330
24E6
330
24E7
330
2BF3
330
2BF5
330
467F
330
4680
330
4691
330
4693
  0
IDBUFFER
  5
4733
330
0
100
AcDbIdBuffer
330
CC6
330
2069
330
2D60
330
3C5B
330
409D
  0
IDBUFFER
  5
4734
330
0
100
AcDbIdBuffer
  0
IDBUFFER
  5
4735
330
0
100
AcDbIdBuffer
330
19BD
  0
ENDSEC
  0
EOF
