  0
SECTION
  2
HEADER
  9
$ACADVER
  1
AC1014
  9
$ACADMAINTVER
 70
     9
  9
$DWGCODEPAGE
  3
ANSI_932
  9
$INSBASE
 10
0.0
 20
0.0
 30
0.0
  9
$EXTMIN
 10
-218.3000009999988
 20
-54.50000305448106
 30
-0.00000001
  9
$EXTMAX
 10
27.0320407440437
 20
26.34147859166833
 30
0.00000001
  9
$LIMMIN
 10
-235.3243199069245
 20
-84.95978435839356
  9
$LIMMAX
 10
43.00602480537361
 20
55.45771548967673
  9
$ORTHOMODE
 70
     0
  9
$REGENMODE
 70
     1
  9
$FILLMODE
 70
     1
  9
$QTEXTMODE
 70
     0
  9
$MIRRTEXT
 70
     0
  9
$DRAGMODE
 70
     2
  9
$LTSCALE
 40
1.0
  9
$OSMODE
 70
    55
  9
$ATTMODE
 70
     1
  9
$TEXTSIZE
 40
2.5
  9
$TRACEWID
 40
1.0
  9
$TEXTSTYLE
  7
STANDARD
  9
$CLAYER
  8
AM_0
  9
$CELTYPE
  6
BYLAYER
  9
$CECOLOR
 62
   256
  9
$CELTSCALE
 40
1.0
  9
$DELOBJ
 70
     1
  9
$DISPSILH
 70
     0
  9
$DIMSCALE
 40
1.0
  9
$DIMASZ
 40
2.5
  9
$DIMEXO
 40
1.0
  9
$DIMDLI
 40
12.0
  9
$DIMRND
 40
0.0
  9
$DIMDLE
 40
0.0
  9
$DIMEXE
 40
1.0
  9
$DIMTP
 40
0.1
  9
$DIMTM
 40
0.1
  9
$DIMTXT
 40
3.2
  9
$DIMCEN
 40
0.0
  9
$DIMTSZ
 40
0.0
  9
$DIMTOL
 70
     0
  9
$DIMLIM
 70
     0
  9
$DIMTIH
 70
     0
  9
$DIMTOH
 70
     0
  9
$DIMSE1
 70
     0
  9
$DIMSE2
 70
     0
  9
$DIMTAD
 70
     3
  9
$DIMZIN
 70
     8
  9
$DIMBLK
  1
OPEN30
  9
$DIMASO
 70
     1
  9
$DIMSHO
 70
     1
  9
$DIMPOST
  1

  9
$DIMAPOST
  1
"
  9
$DIMALT
 70
     0
  9
$DIMALTD
 70
     2
  9
$DIMALTF
 40
0.0393701
  9
$DIMLFAC
 40
1.0
  9
$DIMTOFL
 70
     1
  9
$DIMTVP
 40
0.0
  9
$DIMTIX
 70
     0
  9
$DIMSOXD
 70
     0
  9
$DIMSAH
 70
     0
  9
$DIMBLK1
  1

  9
$DIMBLK2
  1

  9
$DIMSTYLE
  2
AM_JIS
  9
$DIMCLRD
 70
   256
  9
$DIMCLRE
 70
   256
  9
$DIMCLRT
 70
     2
  9
$DIMTFAC
 40
0.71
  9
$DIMGAP
 40
1.5
  9
$DIMJUST
 70
     0
  9
$DIMSD1
 70
     0
  9
$DIMSD2
 70
     0
  9
$DIMTOLJ
 70
     0
  9
$DIMTZIN
 70
     0
  9
$DIMALTZ
 70
     0
  9
$DIMALTTZ
 70
     0
  9
$DIMFIT
 70
     3
  9
$DIMUPT
 70
     0
  9
$DIMUNIT
 70
     2
  9
$DIMDEC
 70
     3
  9
$DIMTDEC
 70
     3
  9
$DIMALTU
 70
     2
  9
$DIMALTTD
 70
     2
  9
$DIMTXSTY
  7
ASAMI
  9
$DIMAUNIT
 70
     0
  9
$LUNITS
 70
     2
  9
$LUPREC
 70
     2
  9
$SKETCHINC
 40
1.0
  9
$FILLETRAD
 40
2.5
  9
$AUNITS
 70
     0
  9
$AUPREC
 70
     0
  9
$MENU
  1
.
  9
$ELEVATION
 40
0.0
  9
$PELEVATION
 40
0.0
  9
$THICKNESS
 40
0.0
  9
$LIMCHECK
 70
     0
  9
$BLIPMODE
 70
     0
  9
$CHAMFERA
 40
0.5
  9
$CHAMFERB
 40
0.5
  9
$CHAMFERC
 40
20.0
  9
$CHAMFERD
 40
0.0
  9
$SKPOLY
 70
     0
  9
$TDCREATE
 40
2452800.443498622
  9
$TDUPDATE
 40
2453151.672540312
  9
$TDINDWG
 40
0.1082235764
  9
$TDUSRTIMER
 40
0.1082235764
  9
$USRTIMER
 70
     1
  9
$ANGBASE
 50
0.0
  9
$ANGDIR
 70
     0
  9
$PDMODE
 70
     3
  9
$PDSIZE
 40
0.0
  9
$PLINEWID
 40
0.0
  9
$COORDS
 70
     1
  9
$SPLFRAME
 70
     0
  9
$SPLINETYPE
 70
     6
  9
$SPLINESEGS
 70
     8
  9
$ATTDIA
 70
     1
  9
$ATTREQ
 70
     1
  9
$HANDLING
 70
 12289
  9
$HANDSEED
  5
4A4B
  9
$SURFTAB1
 70
     6
  9
$SURFTAB2
 70
     6
  9
$SURFTYPE
 70
     6
  9
$SURFU
 70
     6
  9
$SURFV
 70
     6
  9
$UCSNAME
  2

  9
$UCSORG
 10
0.0
 20
0.0
 30
0.0
  9
$UCSXDIR
 10
1.0
 20
0.0000000000000027
 30
0.0
  9
$UCSYDIR
 10
-0.0000000000000027
 20
1.0
 30
0.0
  9
$PUCSNAME
  2

  9
$PUCSORG
 10
0.0
 20
0.0
 30
0.0
  9
$PUCSXDIR
 10
1.0
 20
0.0
 30
0.0
  9
$PUCSYDIR
 10
0.0
 20
1.0
 30
0.0
  9
$USERI1
 70
     0
  9
$USERI2
 70
     0
  9
$USERI3
 70
     0
  9
$USERI4
 70
     0
  9
$USERI5
 70
     0
  9
$USERR1
 40
0.0
  9
$USERR2
 40
0.0
  9
$USERR3
 40
0.0
  9
$USERR4
 40
0.0
  9
$USERR5
 40
0.0
  9
$WORLDVIEW
 70
     1
  9
$SHADEDGE
 70
     3
  9
$SHADEDIF
 70
    70
  9
$TILEMODE
 70
     1
  9
$MAXACTVP
 70
    64
  9
$PINSBASE
 10
0.0
 20
0.0
 30
0.0
  9
$PLIMCHECK
 70
     0
  9
$PEXTMIN
 10
1.000000000000000E+20
 20
1.000000000000000E+20
 30
1.000000000000000E+20
  9
$PEXTMAX
 10
-1.000000000000000E+20
 20
-1.000000000000000E+20
 30
-1.000000000000000E+20
  9
$PLIMMIN
 10
0.0
 20
0.0
  9
$PLIMMAX
 10
841.0
 20
594.0
  9
$UNITMODE
 70
     0
  9
$VISRETAIN
 70
     1
  9
$PLINEGEN
 70
     0
  9
$PSLTSCALE
 70
     0
  9
$TREEDEPTH
 70
  3020
  9
$PICKSTYLE
 70
     0
  9
$CMLSTYLE
  2
STANDARD
  9
$CMLJUST
 70
     0
  9
$CMLSCALE
 40
20.0
  9
$PROXYGRAPHICS
 70
     1
  9
$MEASUREMENT
 70
     1
  0
ENDSEC
  0
SECTION
  2
CLASSES
  0
CLASS
  1
ACDBDICTIONARYWDFLT
  2
AcDbDictionaryWithDefault
  3
AutoCAD 2000
 90
        0
280
     0
281
     0
  0
CLASS
  1
ACDBPLACEHOLDER
  2
AcDbPlaceHolder
  3
AutoCAD 2000
 90
        0
280
     0
281
     0
  0
CLASS
  1
LAYOUT
  2
AcDbLayout
  3
AutoCAD 2000
 90
        0
280
     0
281
     0
  0
CLASS
  1
AMGSETTINGSOBJ
  2
AmgSettingsObj
  3
"AcadM|Product Description: AutoCAD Mechanical 2000|Company: Autodesk"
 90
        0
280
     0
281
     0
  0
CLASS
  1
ACME_DOCUMENT
  2
AcMeDbDoc
  3
AcMeServices
 90
        0
280
     0
281
     0
  0
CLASS
  1
ACMESCOPE
  2
AcMeScope
  3
AcMeServices
 90
        0
280
     0
281
     0
  0
CLASS
  1
ACMECOMMANDHISTORY
  2
AcMeCommandHistory
  3
AcMeServices
 90
        0
280
     0
281
     0
  0
CLASS
  1
DICTIONARYVAR
  2
AcDbDictionaryVar
  3
AutoCAD 2000
 90
        0
280
     0
281
     0
  0
CLASS
  1
ACIMSYSVARMAN
  2
AcImSysVarManager
  3
AcMeServices
 90
        0
280
     0
281
     0
  0
CLASS
  1
ACIMREALSYSVAR
  2
AcImRealSysVar
  3
AcMeServices
 90
        0
280
     0
281
     0
  0
CLASS
  1
ACIMINTSYSVAR
  2
AcImIntSysVar
  3
AcMeServices
 90
        0
280
     0
281
     0
  0
CLASS
  1
ACMEDRAWINGMAN
  2
AcMeDrawingMan
  3
AcMeServices
 90
        0
280
     0
281
     0
  0
CLASS
  1
ACMEVIEW
  2
AcMeView
  3
AcMeServices
 90
        0
280
     0
281
     0
  0
CLASS
  1
ACDBENTITYCACHE
  2
AcMeEntityCache
  3
AcMeServices
 90
        0
280
     0
281
     0
  0
CLASS
  1
GSMANAGER
  2
AcMeGSManager
  3
AcMeServices
 90
        0
280
     0
281
     0
  0
CLASS
  1
AmdtInternalReactor
  2
AmdtInternalReactor
  3
AcMeServices
 90
        0
280
     0
281
     0
  0
CLASS
  1
ACMESTATEMGR
  2
AcMeStateMgr
  3
AcMeServices
 90
        0
280
     0
281
     0
  0
CLASS
  1
ACME_DATABASE
  2
AcMeDbDatabase
  3
AcMeServices
 90
        0
280
     0
281
     0
  0
CLASS
  1
ACRFINSADJUSTERMGR
  2
AcRfInsAdjusterMgr
  3
AcMeServices
 90
        0
280
     0
281
     0
  0
CLASS
  1
ACMDATADICTIONARY
  2
AcmDataDictionary
  3
"AcmSymBB|Product Description: AutoCAD Mechanical 2000|Company: Autodesk"
 90
        0
280
     0
281
     0
  0
CLASS
  1
ACMDATAENTRYBLOCK
  2
AcmDataEntryBlock
  3
"AcmSymBB|Product Description: AutoCAD Mechanical 2000|Company: Autodesk"
 90
        0
280
     0
281
     0
  0
CLASS
  1
AMGOBJPROPCFG
  2
AmgObjPropCfg
  3
"AmgLay|Product Description: AutoCAD Mechanical 2000|Company: Autodesk"
 90
        1
280
     0
281
     0
  0
CLASS
  1
ACAMGFILTERDAT
  2
AcAmgFilterDat
  3
"AcadM|Product Description: AutoCAD Mechanical 2000|Company: Autodesk"
 90
        0
280
     0
281
     0
  0
CLASS
  1
LAYER_INDEX
  2
AcDbLayerIndex
  3
AutoCAD 2000
 90
        0
280
     0
281
     0
  0
CLASS
  1
IDBUFFER
  2
AcDbIdBuffer
  3
AutoCAD 2000
 90
        0
280
     0
281
     0
  0
CLASS
  1
ACIMSTRSYSVAR
  2
AcImStrSysVar
  3
AcMeServices
 90
        0
280
     0
281
     0
  0
CLASS
  1
ACMSTANDARDJIS
  2
AcmStandardJIS
  3
"AcmSymBB|Product Description: AutoCAD Mechanical 2000|Company: Autodesk"
 90
        0
280
     0
281
     0
  0
CLASS
  1
ACMSURFSTANDARDJIS
  2
AcmSurfTextStdJIS
  3
"AcmSymBB|Product Description: AutoCAD Mechanical 2000|Company: Autodesk"
 90
        0
280
     0
281
     0
  0
CLASS
  1
ACMFCFSTANDARDJIS
  2
AcmFCFStdJIS
  3
"AcmSymBB|Product Description: AutoCAD Mechanical 2000|Company: Autodesk"
 90
        0
280
     0
281
     0
  0
CLASS
  1
ACMWELDSTANDARDJIS
  2
AcmWeldingStdJIS
  3
"AcmSymBB|Product Description: AutoCAD Mechanical 2000|Company: Autodesk"
 90
        0
280
     0
281
     0
  0
CLASS
  1
ACMIDSTANDARDJIS
  2
AcmIdStdJIS
  3
"AcmSymBB|Product Description: AutoCAD Mechanical 2000|Company: Autodesk"
 90
        0
280
     0
281
     0
  0
CLASS
  1
ACMDATUMSTANDARDJIS
  2
AcmDatumStdJIS
  3
"AcmSymBB|Product Description: AutoCAD Mechanical 2000|Company: Autodesk"
 90
        0
280
     0
281
     0
  0
CLASS
  1
ACMBOMSTANDARDJIS
  2
AcmBOMStdJIS
  3
"AcmSymBB|Product Description: AutoCAD Mechanical 2000|Company: Autodesk"
 90
        0
280
     0
281
     0
  0
CLASS
  1
ACMSTANDARDANSI
  2
AcmStandardANSI
  3
"AcmSymBB|Product Description: AutoCAD Mechanical 2000|Company: Autodesk"
 90
        0
280
     0
281
     0
  0
CLASS
  1
ACMSURFSTANDARDANSI
  2
AcmSurfTextStdANSI
  3
"AcmSymBB|Product Description: AutoCAD Mechanical 2000|Company: Autodesk"
 90
        0
280
     0
281
     0
  0
CLASS
  1
ACMFCFSTANDARDANSI
  2
AcmFCFStdANSI
  3
"AcmSymBB|Product Description: AutoCAD Mechanical 2000|Company: Autodesk"
 90
        0
280
     0
281
     0
  0
CLASS
  1
ACMWELDSTANDARDANSI
  2
AcmWeldingStdANSI
  3
"AcmSymBB|Product Description: AutoCAD Mechanical 2000|Company: Autodesk"
 90
        0
280
     0
281
     0
  0
CLASS
  1
ACMIDSTANDARDANSI
  2
AcmIdStdANSI
  3
"AcmSymBB|Product Description: AutoCAD Mechanical 2000|Company: Autodesk"
 90
        0
280
     0
281
     0
  0
CLASS
  1
ACMDATUMSTANDARDANSI
  2
AcmDatumStdANSI
  3
"AcmSymBB|Product Description: AutoCAD Mechanical 2000|Company: Autodesk"
 90
        0
280
     0
281
     0
  0
CLASS
  1
ACMBOMSTANDARDANSI
  2
AcmBOMStdANSI
  3
"AcmSymBB|Product Description: AutoCAD Mechanical 2000|Company: Autodesk"
 90
        0
280
     0
281
     0
  0
CLASS
  1
ACMSTANDARDBSI
  2
AcmStandardBSI
  3
"AcmSymBB|Product Description: AutoCAD Mechanical 2000|Company: Autodesk"
 90
        0
280
     0
281
     0
  0
CLASS
  1
ACMSURFSTANDARDBSI
  2
AcmSurfTextStdBSI
  3
"AcmSymBB|Product Description: AutoCAD Mechanical 2000|Company: Autodesk"
 90
        0
280
     0
281
     0
  0
CLASS
  1
ACMFCFSTANDARDBSI
  2
AcmFCFStdBSI
  3
"AcmSymBB|Product Description: AutoCAD Mechanical 2000|Company: Autodesk"
 90
        0
280
     0
281
     0
  0
CLASS
  1
ACMWELDSTANDARDBSI
  2
AcmWeldingStdBSI
  3
"AcmSymBB|Product Description: AutoCAD Mechanical 2000|Company: Autodesk"
 90
        0
280
     0
281
     0
  0
CLASS
  1
ACMIDSTANDARDBSI
  2
AcmIdStdBSI
  3
"AcmSymBB|Product Description: AutoCAD Mechanical 2000|Company: Autodesk"
 90
        0
280
     0
281
     0
  0
CLASS
  1
ACMDATUMSTANDARDBSI
  2
AcmDatumStdBSI
  3
"AcmSymBB|Product Description: AutoCAD Mechanical 2000|Company: Autodesk"
 90
        0
280
     0
281
     0
  0
CLASS
  1
ACMBOMSTANDARDBSI
  2
AcmBOMStdBSI
  3
"AcmSymBB|Product Description: AutoCAD Mechanical 2000|Company: Autodesk"
 90
        0
280
     0
281
     0
  0
CLASS
  1
LONG_TRANSACTION
  2
AcDbLongTransaction
  3
AutoCAD 2000
 90
        0
280
     0
281
     0
  0
CLASS
  1
LWPOLYLINE
  2
AcDbPolyline
  3
AutoCAD 2000
 90
        0
280
     0
281
     1
  0
CLASS
  1
HATCH
  2
AcDbHatch
  3
AutoCAD 2000
 90
        0
280
     0
281
     1
  0
CLASS
  1
XRECORD
  2
AcDbXrecord
  3
AutoCAD 2000
 90
        0
280
     0
281
     0
  0
ENDSEC
  0
SECTION
  2
TABLES
  0
TABLE
  2
VPORT
  5
8
330
0
100
AcDbSymbolTable
 70
     3
  0
VPORT
  5
4A15
330
8
100
AcDbSymbolTableRecord
100
AcDbViewportTableRecord
  2
*ACTIVE
 70
     0
 10
0.0
 20
0.0
 11
1.0
 21
1.0
 12
-91.08207272190856
 22
-14.08147129074856
 13
0.0
 23
0.0
 14
2.5
 24
2.5
 15
10.0
 25
10.0
 16
0.0
 26
0.0
 36
1.0
 17
0.0
 27
0.0
 37
0.0
 40
163.2876135772242
 41
1.56570841889117
 42
50.0
 43
0.0
 44
0.0
 50
0.0
 51
0.0
 71
     0
 72
   100
 73
     1
 74
     1
 75
     0
 76
     0
 77
     0
 78
     0
  0
ENDTAB
  0
TABLE
  2
LTYPE
  5
5
330
0
100
AcDbSymbolTable
 70
    10
  0
LTYPE
  5
14
330
5
100
AcDbSymbolTableRecord
100
AcDbLinetypeTableRecord
  2
BYBLOCK
 70
     0
  3

 72
    65
 73
     0
 40
0.0
  0
LTYPE
  5
15
330
5
100
AcDbSymbolTableRecord
100
AcDbLinetypeTableRecord
  2
BYLAYER
 70
     0
  3

 72
    65
 73
     0
 40
0.0
  0
LTYPE
  5
16
330
5
100
AcDbSymbolTableRecord
100
AcDbLinetypeTableRecord
  2
CONTINUOUS
 70
     0
  3
Solid line
 72
    65
 73
     0
 40
0.0
  0
LTYPE
  5
4B
330
5
100
AcDbSymbolTableRecord
100
AcDbLinetypeTableRecord
  2
AM_ISO02W050
 70
     0
  3
__ __ __ __ __ __ __ __ __ __ __ __ __ __ __
 72
    65
 73
     2
 40
7.5
 49
6.0
 74
     0
 49
-1.5
 74
     0
  0
LTYPE
  5
4C
330
5
100
AcDbSymbolTableRecord
100
AcDbLinetypeTableRecord
  2
AM_ISO08W050
 70
     0
  3
____ . ____ . ____ . ____ . ____ . ____ . ____
 72
    65
 73
     4
 40
18.0
 49
12.0
 74
     0
 49
-1.5
 74
     0
 49
3.0
 74
     0
 49
-1.5
 74
     0
  0
LTYPE
  5
4D
330
5
100
AcDbSymbolTableRecord
100
AcDbLinetypeTableRecord
  2
AM_ISO09W050
 70
     0
  3
_____ . . _____ . . _____ . . ____ .. ____
 72
    65
 73
     6
 40
22.5
 49
12.0
 74
     0
 49
-1.5
 74
     0
 49
3.0
 74
     0
 49
-1.5
 74
     0
 49
3.0
 74
     0
 49
-1.5
 74
     0
  0
LTYPE
  5
4E
330
5
100
AcDbSymbolTableRecord
100
AcDbLinetypeTableRecord
  2
AMCONSTR
 70
     0
  3
_______________________
 72
    65
 73
     2
 40
9999.0
 49
9999.0
 74
     0
 49
0.0
 74
     0
  0
LTYPE
  5
4F
330
5
100
AcDbSymbolTableRecord
100
AcDbLinetypeTableRecord
  2
AM_ISO02W050X2
 70
     0
  3
 _ _ _ _ _ _ _ _ _ _ _ _
 72
    65
 73
     2
 40
3.75
 49
3.0
 74
     0
 49
-0.75
 74
     0
  0
LTYPE
  5
50
330
5
100
AcDbSymbolTableRecord
100
AcDbLinetypeTableRecord
  2
AM_ISO08W050X2
 70
     0
  3
__ . __ . __ . __ . __ . __
 72
    65
 73
     4
 40
9.0
 49
6.0
 74
     0
 49
-0.75
 74
     0
 49
1.5
 74
     0
 49
-0.75
 74
     0
  0
LTYPE
  5
53
330
5
100
AcDbSymbolTableRecord
100
AcDbLinetypeTableRecord
  2
AMZIGZAG
 70
     0
  3
/\/-/\/-/\/-/\/-/\/-/\/
 72
    65
 73
     2
 40
11.00009999999999
 49
0.0001
 74
     4
 75
   135
340
52
 46
0.04
 50
0.0
 44
0.0
 45
0.0
 49
-11.0
 74
     0
  0
LTYPE
  5
166
330
5
100
AcDbSymbolTableRecord
100
AcDbLinetypeTableRecord
  2
ACJISTGL
 70
     0
  3
_ _ _ _ _
 72
    65
 73
     2
 40
3.0
 49
2.0
 74
     0
 49
-1.0
 74
     0
  0
LTYPE
  5
26A
330
5
100
AcDbSymbolTableRecord
100
AcDbLinetypeTableRecord
  2
ACJISTGB
 70
     0
  3
__ . . __ . .
 72
    65
 73
     6
 40
9.0
 49
4.0
 74
     0
 49
-1.0
 74
     0
 49
1.0
 74
     0
 49
-1.0
 74
     0
 49
1.0
 74
     0
 49
-1.0
 74
     0
  0
ENDTAB
  0
TABLE
  2
LAYER
  5
2
330
0
100
AcDbSymbolTable
 70
     8
  0
LAYER
  5
10
330
2
100
AcDbSymbolTableRecord
100
AcDbLayerTableRecord
  2
0
 70
     0
 62
     7
  6
CONTINUOUS
  0
LAYER
  5
3F9
330
2
100
AcDbSymbolTableRecord
100
AcDbLayerTableRecord
  2
AM_0
 70
     0
 62
     7
  6
CONTINUOUS
  0
LAYER
  5
C7C
330
2
100
AcDbSymbolTableRecord
100
AcDbLayerTableRecord
  2
AM_7
 70
     0
 62
     4
  6
AM_ISO08W050
  0
LAYER
  5
C97
330
2
100
AcDbSymbolTableRecord
100
AcDbLayerTableRecord
  2
AM_11
 70
     0
 62
     3
  6
AM_ISO09W050
  0
LAYER
  5
CC5
330
2
100
AcDbSymbolTableRecord
100
AcDbLayerTableRecord
  2
AM_5
 70
     0
 62
     3
  6
CONTINUOUS
  0
LAYER
  5
CC7
330
2
100
AcDbSymbolTableRecord
100
AcDbLayerTableRecord
  2
DEFPOINTS
 70
     0
 62
     7
  6
CONTINUOUS
  0
LAYER
  5
19BC
330
2
100
AcDbSymbolTableRecord
100
AcDbLayerTableRecord
  2
AM_6
 70
     0
 62
     2
  6
CONTINUOUS
  0
LAYER
  5
4885
330
2
100
AcDbSymbolTableRecord
100
AcDbLayerTableRecord
  2
AM_CL
 70
     0
 62
     1
  6
AMCONSTR
  0
ENDTAB
  0
TABLE
  2
STYLE
  5
3
330
0
100
AcDbSymbolTable
 70
     5
  0
STYLE
  5
11
330
3
100
AcDbSymbolTableRecord
100
AcDbTextStyleTableRecord
  2
STANDARD
 70
     0
 40
0.0
 41
1.0
 50
0.0
 71
     0
 42
2.5
  3
simplex.shx
  4
EXTFONT.SHX
  0
STYLE
  5
52
330
3
100
AcDbSymbolTableRecord
100
AcDbTextStyleTableRecord
  2

 70
     1
 40
0.0
 41
1.0
 50
0.0
 71
     0
 42
2.5
  3
ltypeshp.shx
  4

  0
STYLE
  5
6B
330
3
100
AcDbSymbolTableRecord
100
AcDbTextStyleTableRecord
  2
ASAMI
 70
     0
 40
0.0
 41
1.0
 50
0.0
 71
     0
 42
2.5
  3
simplex.shx
  4
EXTFONT.SHX
  0
STYLE
  5
262
330
3
100
AcDbSymbolTableRecord
100
AcDbTextStyleTableRecord
  2
ACJISTS
 70
     0
 40
1.0
 41
1.0
 50
0.0
 71
     0
 42
2.5
  3
simplex.shx
  4
bigfont.shx
  0
STYLE
  5
269
330
3
100
AcDbSymbolTableRecord
100
AcDbTextStyleTableRecord
  2
ACJISGDT
 70
     0
 40
0.0
 41
1.0
 50
0.0
 71
     0
 42
2.5
  3
amgdtans.shx
  4

  0
ENDTAB
  0
TABLE
  2
VIEW
  5
6
330
0
100
AcDbSymbolTable
 70
     0
  0
ENDTAB
  0
TABLE
  2
UCS
  5
7
330
0
100
AcDbSymbolTable
 70
     0
  0
ENDTAB
  0
TABLE
  2
APPID
  5
9
330
0
100
AcDbSymbolTable
 70
    16
  0
APPID
  5
12
330
9
100
AcDbSymbolTableRecord
100
AcDbRegAppTableRecord
  2
ACAD
 70
     0
  0
APPID
  5
30
330
9
100
AcDbSymbolTableRecord
100
AcDbRegAppTableRecord
  2
MCAD_NO_VIS
 70
     0
  0
APPID
  5
31
330
9
100
AcDbSymbolTableRecord
100
AcDbRegAppTableRecord
  2
ACAD_TEMP_GRAPHIC
 70
     0
  0
APPID
  5
2C2
330
9
100
AcDbSymbolTableRecord
100
AcDbRegAppTableRecord
  2
GENIUS_GENDTOL_13
 70
     0
  0
APPID
  5
339
330
9
100
AcDbSymbolTableRecord
100
AcDbRegAppTableRecord
  2
GENIUS_GENODEF_13
 70
     0
  0
APPID
  5
33A
330
9
100
AcDbSymbolTableRecord
100
AcDbRegAppTableRecord
  2
GENIUS_GENOBJ-N-RSBK_13
 70
     0
  0
APPID
  5
33B
330
9
100
AcDbSymbolTableRecord
100
AcDbRegAppTableRecord
  2
GENIUS_GENOBJ-N-LIB_13
 70
     0
  0
APPID
  5
33C
330
9
100
AcDbSymbolTableRecord
100
AcDbRegAppTableRecord
  2
GENIUS_GENSCALE_13
 70
     0
  0
APPID
  5
378
330
9
100
AcDbSymbolTableRecord
100
AcDbRegAppTableRecord
  2
GENIUS_GENDIMSH_14
 70
     0
  0
APPID
  5
C82
330
9
100
AcDbSymbolTableRecord
100
AcDbRegAppTableRecord
  2
GENIUS_GENOBJ-N-CRS_13
 70
     0
  0
APPID
  5
C83
330
9
100
AcDbSymbolTableRecord
100
AcDbRegAppTableRecord
  2
GENIUS_GENOENT_13
 70
     0
  0
APPID
  5
C84
330
9
100
AcDbSymbolTableRecord
100
AcDbRegAppTableRecord
  2
GENIUS_GENOREF_13
 70
     0
  0
APPID
  5
C85
330
9
100
AcDbSymbolTableRecord
100
AcDbRegAppTableRecord
  2
GENIUS_GENOLIS_13
 70
     0
  0
APPID
  5
CA0
330
9
100
AcDbSymbolTableRecord
100
AcDbRegAppTableRecord
  2
GENIUS_GENOBJ-N-CEN_13
 70
     0
  0
APPID
  5
1E1E
330
9
100
AcDbSymbolTableRecord
100
AcDbRegAppTableRecord
  2
GENIUS_GENFIL_13
 70
     0
  0
APPID
  5
1E1F
330
9
100
AcDbSymbolTableRecord
100
AcDbRegAppTableRecord
  2
GENIUS_GENOBJ-N-CHA_13
 70
     0
  0
ENDTAB
  0
TABLE
  2
DIMSTYLE
  5
A
330
0
100
AcDbSymbolTable
 70
     9
  0
DIMSTYLE
105
58
330
A
100
AcDbSymbolTableRecord
100
AcDbDimStyleTableRecord
  2
AM_JIS
 70
     0
  3

  4
"
  5
OPEN30
  6

  7

 40
1.0
 41
2.5
 42
1.0
 43
12.0
 44
1.0
 45
0.0
 46
0.0
 47
0.1
 48
0.1
140
3.2
141
0.0
142
0.0
143
0.0393701
144
1.0
145
0.0
146
0.71
147
1.5
 71
     0
 72
     0
 73
     0
 74
     0
 75
     0
 76
     0
 77
     3
 78
     8
170
     0
171
     2
172
     1
173
     0
174
     0
175
     0
176
   256
177
   256
178
     2
270
     2
271
     3
272
     3
273
     2
274
     2
340
6B
275
     0
280
     0
281
     0
282
     0
283
     0
284
     0
285
     0
286
     0
287
     3
288
     0
  0
DIMSTYLE
105
5F
330
A
100
AcDbSymbolTableRecord
100
AcDbDimStyleTableRecord
  2
AM_JIS$3
 70
     0
  3

  4
"
  5
OPEN30
  6

  7

 40
1.0
 41
2.5
 42
1.0
 43
10.0
 44
1.0
 45
0.0
 46
0.0
 47
0.1
 48
0.1
140
3.2
141
0.0
142
0.0
143
0.0393701
144
1.0
145
0.0
146
0.71
147
1.5
 71
     0
 72
     0
 73
     0
 74
     1
 75
     0
 76
     0
 77
     3
 78
     8
170
     0
171
     2
172
     0
173
     0
174
     0
175
     0
176
   256
177
   256
178
     2
270
     2
271
     2
272
     3
273
     2
274
     2
340
6B
275
     0
280
     0
281
     0
282
     0
283
     0
284
     0
285
     0
286
     0
287
     0
288
     1
  0
DIMSTYLE
105
60
330
A
100
AcDbSymbolTableRecord
100
AcDbDimStyleTableRecord
  2
AM_JIS$4
 70
     0
  3

  4
"
  5
OPEN30
  6

  7

 40
1.0
 41
2.5
 42
1.0
 43
10.0
 44
1.0
 45
0.0
 46
0.0
 47
0.1
 48
0.1
140
3.2
141
0.0
142
0.0
143
0.0393701
144
1.0
145
0.0
146
0.71
147
1.5
 71
     0
 72
     0
 73
     0
 74
     1
 75
     0
 76
     0
 77
     3
 78
     8
170
     0
171
     2
172
     0
173
     0
174
     0
175
     0
176
   256
177
   256
178
     2
270
     2
271
     2
272
     3
273
     2
274
     2
340
6B
275
     0
280
     0
281
     0
282
     0
283
     0
284
     0
285
     0
286
     0
287
     0
288
     1
  0
DIMSTYLE
105
61
330
A
100
AcDbSymbolTableRecord
100
AcDbDimStyleTableRecord
  2
AM_JIS$6
 70
     0
  3

  4
"
  5
OPEN30
  6

  7

 40
1.0
 41
2.5
 42
1.0
 43
10.0
 44
1.0
 45
0.0
 46
0.0
 47
0.1
 48
0.1
140
3.2
141
0.0
142
0.0
143
0.0393701
144
1.0
145
0.0
146
0.71
147
1.5
 71
     0
 72
     0
 73
     0
 74
     0
 75
     0
 76
     0
 77
     0
 78
     8
170
     0
171
     2
172
     1
173
     0
174
     0
175
     0
176
   256
177
   256
178
     2
270
     2
271
     2
272
     2
273
     2
274
     2
340
6B
275
     0
280
     0
281
     0
282
     0
283
     0
284
     0
285
     0
286
     0
287
     3
288
     0
  0
DIMSTYLE
105
62
330
A
100
AcDbSymbolTableRecord
100
AcDbDimStyleTableRecord
  2
AM_JIS$7
 70
     0
  3

  4
"
  5
OPEN30
  6

  7

 40
1.0
 41
2.5
 42
1.0
 43
10.0
 44
1.0
 45
0.0
 46
0.0
 47
0.1
 48
0.1
140
3.2
141
0.0
142
0.0
143
0.0393701
144
1.0
145
0.0
146
0.71
147
1.5
 71
     0
 72
     0
 73
     0
 74
     0
 75
     0
 76
     0
 77
     3
 78
     8
170
     0
171
     2
172
     1
173
     0
174
     0
175
     0
176
   256
177
   256
178
     2
270
     2
271
     2
272
     3
273
     2
274
     2
340
6B
275
     0
280
     0
281
     0
282
     0
283
     0
284
     0
285
     0
286
     0
287
     3
288
     0
  0
DIMSTYLE
105
63
330
A
100
AcDbSymbolTableRecord
100
AcDbDimStyleTableRecord
  2
AM_JIS$SF
 70
     0
  3

  4
"
  5
OPEN30
  6

  7

 40
1.0
 41
2.5
 42
1.0
 43
10.0
 44
1.0
 45
0.0
 46
0.0
 47
0.1
 48
0.1
140
3.2
141
0.0
142
0.0
143
0.0393701
144
1.0
145
0.0
146
0.71
147
1.5
 71
     0
 72
     0
 73
     0
 74
     0
 75
     1
 76
     1
 77
     3
 78
     8
170
     0
171
     2
172
     1
173
     0
174
     0
175
     0
176
   256
177
   256
178
     2
270
     2
271
     2
272
     2
273
     2
274
     2
340
6B
275
     0
280
     0
281
     0
282
     0
283
     0
284
     0
285
     0
286
     0
287
     3
288
     0
  0
DIMSTYLE
105
68
330
A
100
AcDbSymbolTableRecord
100
AcDbDimStyleTableRecord
  2
AM_JIS$SH
 70
     0
  3

  4
"
  5

  6
GENAXEH
  7
OPEN30
 40
1.0
 41
2.5
 42
1.0
 43
10.0
 44
1.0
 45
0.0
 46
0.0
 47
0.1
 48
0.1
140
3.2
141
0.0
142
0.0
143
0.0393701
144
2.0
145
0.0
146
0.71
147
1.5
 71
     0
 72
     0
 73
     0
 74
     0
 75
     1
 76
     1
 77
     3
 78
     8
170
     0
171
     2
172
     1
173
     1
174
     0
175
     0
176
   256
177
   256
178
     2
270
     2
271
     2
272
     2
273
     2
274
     2
340
6B
275
     0
280
     0
281
     0
282
     0
283
     0
284
     0
285
     0
286
     0
287
     3
288
     0
  0
DIMSTYLE
105
B34
102
{ACAD_REACTORS
330
48CF
102
}
330
A
100
AcDbSymbolTableRecord
100
AcDbDimStyleTableRecord
  2
AM_JIS$2
 70
     0
  3

  4
"
  5
OPEN30
  6

  7

 40
1.0
 41
2.5
 42
1.0
 43
12.0
 44
1.0
 45
0.0
 46
0.0
 47
0.1
 48
0.1
140
3.2
141
0.0
142
0.0
143
0.0393701
144
1.0
145
0.0
146
0.71
147
1.5
 71
     0
 72
     0
 73
     0
 74
     0
 75
     0
 76
     0
 77
     3
 78
     8
170
     0
171
     2
172
     1
173
     0
174
     0
175
     0
176
   256
177
   256
178
     2
270
     2
271
     3
272
     3
273
     2
274
     2
340
6B
275
     0
280
     0
281
     0
282
     0
283
     0
284
     0
285
     0
286
     0
287
     3
288
     0
  0
DIMSTYLE
105
BA5
102
{ACAD_REACTORS
330
CC6
330
DF5
330
2216
330
47AE
102
}
330
A
100
AcDbSymbolTableRecord
100
AcDbDimStyleTableRecord
  2
AM_JIS$0
 70
     0
  3

  4
"
  5
OPEN30
  6

  7

 40
1.0
 41
2.5
 42
0.0
 43
10.0
 44
1.0
 45
0.0
 46
0.0
 47
0.1
 48
0.1000000001
140
3.799999999999999
141
0.0
142
0.0
143
0.0393701
144
1.0
145
0.0
146
0.71
147
1.5
 71
     0
 72
     0
 73
     0
 74
     0
 75
     0
 76
     0
 77
     3
 78
     1
170
     0
171
     2
172
     1
173
     0
174
     0
175
     0
176
     3
177
     3
178
     2
270
     2
271
     2
272
     2
273
     2
274
     2
340
11
275
     1
280
     0
281
     0
282
     0
283
     0
284
     8
285
     0
286
     0
287
     0
288
     0
  0
ENDTAB
  0
TABLE
  2
BLOCK_RECORD
  5
1
330
0
100
AcDbSymbolTable
 70
    11
  0
BLOCK_RECORD
  5
1F
102
{ACAD_XDICTIONARY
360
74
102
}
330
1
100
AcDbSymbolTableRecord
100
AcDbBlockTableRecord
  2
*MODEL_SPACE
  0
BLOCK_RECORD
  5
101
102
{ACAD_XDICTIONARY
360
4A3E
102
}
330
1
100
AcDbSymbolTableRecord
100
AcDbBlockTableRecord
  2
*PAPER_SPACE
  0
BLOCK_RECORD
  5
59
330
1
100
AcDbSymbolTableRecord
100
AcDbBlockTableRecord
  2
_OPEN30
  0
BLOCK_RECORD
  5
64
330
1
100
AcDbSymbolTableRecord
100
AcDbBlockTableRecord
  2
GENAXEH
  0
BLOCK_RECORD
  5
CC8
330
1
100
AcDbSymbolTableRecord
100
AcDbBlockTableRecord
  2
*D5
  0
BLOCK_RECORD
  5
DF6
330
1
100
AcDbSymbolTableRecord
100
AcDbBlockTableRecord
  2
*D6
  0
BLOCK_RECORD
  5
2217
330
1
100
AcDbSymbolTableRecord
100
AcDbBlockTableRecord
  2
*D7
  0
BLOCK_RECORD
  5
47AF
330
1
100
AcDbSymbolTableRecord
100
AcDbBlockTableRecord
  2
*D8
  0
BLOCK_RECORD
  5
48D0
330
1
100
AcDbSymbolTableRecord
100
AcDbBlockTableRecord
  2
*D9
  0
BLOCK_RECORD
  5
49C0
330
1
100
AcDbSymbolTableRecord
100
AcDbBlockTableRecord
  2
A$C6FDE1A3D
  0
ENDTAB
  0
ENDSEC
  0
SECTION
  2
BLOCKS
  0
BLOCK
  5
20
330
1F
100
AcDbEntity
  8
0
100
AcDbBlockBegin
  2
*MODEL_SPACE
 70
     0
 10
0.0
 20
0.0
 30
0.0
  3
*MODEL_SPACE
  1

  0
ENDBLK
  5
21
330
1F
100
AcDbEntity
  8
0
100
AcDbBlockEnd
  0
BLOCK
  5
103
330
101
100
AcDbEntity
 67
     1
  8
0
100
AcDbBlockBegin
  2
*PAPER_SPACE
 70
     0
 10
0.0
 20
0.0
 30
0.0
  3
*PAPER_SPACE
  1

  0
ENDBLK
  5
104
330
101
100
AcDbEntity
 67
     1
  8
0
100
AcDbBlockEnd
  0
BLOCK
  5
5D
330
59
100
AcDbEntity
  8
0
100
AcDbBlockBegin
  2
_OPEN30
 70
     0
 10
0.0
 20
0.0
 30
0.0
  3
_OPEN30
  1

  0
LINE
  5
5A
330
59
100
AcDbEntity
  8
0
 62
     0
100
AcDbLine
 10
-1.0
 20
0.26794919
 30
0.0
 11
0.0
 21
0.0
 31
0.0
  0
LINE
  5
5B
330
59
100
AcDbEntity
  8
0
 62
     0
100
AcDbLine
 10
0.0
 20
0.0
 30
0.0
 11
-1.0
 21
-0.26794919
 31
0.0
  0
LINE
  5
5C
330
59
100
AcDbEntity
  8
0
 62
     0
100
AcDbLine
 10
0.0
 20
0.0
 30
0.0
 11
-1.0
 21
0.0
 31
0.0
  0
ENDBLK
  5
5E
330
59
100
AcDbEntity
  8
0
100
AcDbBlockEnd
  0
BLOCK
  5
66
330
64
100
AcDbEntity
  8
0
100
AcDbBlockBegin
  2
GENAXEH
 70
     0
 10
0.0
 20
0.0
 30
0.0
  3
GENAXEH
  1

  0
LINE
  5
65
330
64
100
AcDbEntity
  8
0
100
AcDbLine
 10
-1.0
 20
0.0
 30
0.0
 11
1.0
 21
0.0
 31
0.0
  0
ENDBLK
  5
67
330
64
100
AcDbEntity
  8
0
100
AcDbBlockEnd
  0
BLOCK
  5
CD2
330
CC8
100
AcDbEntity
  8
0
100
AcDbBlockBegin
  2
*D5
 70
     1
 10
0.0
 20
0.0
 30
0.0
  3
*D5
  1

  0
LINE
  5
489C
330
CC8
100
AcDbEntity
  8
AM_5
 62
     3
100
AcDbLine
 10
-196.9999999999988
 20
-7.500002054481179
 30
0.0
 11
-196.9999999999988
 21
-33.0011382431896
 31
0.0
  0
LINE
  5
489D
330
CC8
100
AcDbEntity
  8
AM_5
 62
     3
100
AcDbLine
 10
-2.999999999998345
 20
-8.00000069800715
 30
0.0
 11
-2.999999999998347
 21
-33.0011382431896
 31
0.0
  0
LINE
  5
489E
330
CC8
100
AcDbEntity
  8
AM_5
 62
     3
100
AcDbLine
 10
-194.4999999999988
 20
-32.0011382431896
 30
0.0
 11
-5.499999999998347
 21
-32.0011382431896
 31
0.0
  0
INSERT
  5
489F
330
CC8
100
AcDbEntity
  8
AM_5
 62
     3
100
AcDbBlockReference
  2
_OPEN30
 10
-196.9999999999988
 20
-32.0011382431896
 30
0.0
 41
2.5
 42
2.5
 43
2.5
 50
180.0
  0
INSERT
  5
48A0
330
CC8
100
AcDbEntity
  8
AM_5
 62
     3
100
AcDbBlockReference
  2
_OPEN30
 10
-2.999999999998347
 20
-32.0011382431896
 30
0.0
 41
2.5
 42
2.5
 43
2.5
  0
MTEXT
  5
48A1
330
CC8
100
AcDbEntity
  8
AM_5
 62
     2
100
AcDbMText
 10
-99.99999999999859
 20
-28.6011382431896
 30
0.0
 40
3.799999999999999
 41
0.0
 71
     5
 72
     1
  1
194
1001
ACAD
1000
MTEXTBEGIN
1070
    73
1070
     1
1070
    44
1040
1.0
1070
    74
1070
     0
1000
MTEXTEND
  0
POINT
  5
48A2
330
CC8
100
AcDbEntity
  8
DEFPOINTS
 62
     0
100
AcDbPoint
 10
-196.9999999999988
 20
-7.500002054481179
 30
0.0
  0
POINT
  5
48A3
330
CC8
100
AcDbEntity
  8
DEFPOINTS
 62
     0
100
AcDbPoint
 10
-2.999999999998345
 20
-8.00000069800715
 30
0.0
  0
POINT
  5
48A4
330
CC8
100
AcDbEntity
  8
DEFPOINTS
 62
     0
100
AcDbPoint
 10
-2.999999999998347
 20
-32.0011382431896
 30
0.0
  0
ENDBLK
  5
CD3
330
CC8
100
AcDbEntity
  8
0
100
AcDbBlockEnd
  0
BLOCK
  5
E00
330
DF6
100
AcDbEntity
  8
0
100
AcDbBlockBegin
  2
*D6
 70
     1
 10
0.0
 20
0.0
 30
0.0
  3
*D6
  1

  0
LINE
  5
4893
330
DF6
100
AcDbEntity
  8
AM_5
 62
     3
100
AcDbLine
 10
-130.9999807595517
 20
-8.000002054481154
 30
0.0
 11
-130.9999807595517
 21
-23.00113824318951
 31
0.0
  0
LINE
  5
4894
330
DF6
100
AcDbEntity
  8
AM_5
 62
     3
100
AcDbLine
 10
-2.9999999999983
 20
-8.00000069800704
 30
0.0
 11
-2.999999999998301
 21
-23.00113824318951
 31
0.0
  0
LINE
  5
4895
330
DF6
100
AcDbEntity
  8
AM_5
 62
     3
100
AcDbLine
 10
-128.4999807595517
 20
-22.00113824318951
 30
0.0
 11
-5.499999999998301
 21
-22.00113824318951
 31
0.0
  0
INSERT
  5
4896
330
DF6
100
AcDbEntity
  8
AM_5
 62
     3
100
AcDbBlockReference
  2
_OPEN30
 10
-130.9999807595517
 20
-22.00113824318951
 30
0.0
 41
2.5
 42
2.5
 43
2.5
 50
180.0
  0
INSERT
  5
4897
330
DF6
100
AcDbEntity
  8
AM_5
 62
     3
100
AcDbBlockReference
  2
_OPEN30
 10
-2.999999999998301
 20
-22.00113824318951
 30
0.0
 41
2.5
 42
2.5
 43
2.5
  0
MTEXT
  5
4898
330
DF6
100
AcDbEntity
  8
AM_5
 62
     2
100
AcDbMText
 10
-66.99999037977502
 20
-18.60113824318951
 30
0.0
 40
3.799999999999999
 41
0.0
 71
     5
 72
     1
  1
128
1001
ACAD
1000
MTEXTBEGIN
1070
    73
1070
     1
1070
    44
1040
1.0
1070
    74
1070
     0
1000
MTEXTEND
  0
POINT
  5
4899
330
DF6
100
AcDbEntity
  8
DEFPOINTS
 62
     0
100
AcDbPoint
 10
-130.9999807595517
 20
-8.000002054481154
 30
0.0
  0
POINT
  5
489A
330
DF6
100
AcDbEntity
  8
DEFPOINTS
 62
     0
100
AcDbPoint
 10
-2.9999999999983
 20
-8.00000069800704
 30
0.0
  0
POINT
  5
489B
330
DF6
100
AcDbEntity
  8
DEFPOINTS
 62
     0
100
AcDbPoint
 10
-2.999999999998301
 20
-22.00113824318951
 30
0.0
  0
ENDBLK
  5
E01
330
DF6
100
AcDbEntity
  8
0
100
AcDbBlockEnd
  0
BLOCK
  5
2221
330
2217
100
AcDbEntity
  8
0
100
AcDbBlockBegin
  2
*D7
 70
     1
 10
0.0
 20
0.0
 30
0.0
  3
*D7
  1

  0
LINE
  5
48A5
330
2217
100
AcDbEntity
  8
AM_5
 62
     3
100
AcDbLine
 10
-196.4999999999993
 20
7.999999999998558
 30
0.0
 11
-214.0000009999988
 21
7.999999999998508
 31
0.0
  0
LINE
  5
48A6
330
2217
100
AcDbEntity
  8
AM_5
 62
     3
100
AcDbLine
 10
-196.4999999999993
 20
-8.000002054481278
 30
0.0
 11
-214.0000009999988
 21
-8.000002054481328
 31
0.0
  0
LINE
  5
48A7
330
2217
100
AcDbEntity
  8
AM_5
 62
     3
100
AcDbLine
 10
-213.0000009999988
 20
5.499999999998512
 30
0.0
 11
-213.0000009999988
 21
-5.500002054481324
 31
0.0
  0
INSERT
  5
48A8
330
2217
100
AcDbEntity
  8
AM_5
 62
     3
100
AcDbBlockReference
  2
_OPEN30
 10
-213.0000009999988
 20
7.999999999998512
 30
0.0
 41
2.5
 42
2.5
 43
2.5
 50
90.00000000000017
  0
INSERT
  5
48A9
330
2217
100
AcDbEntity
  8
AM_5
 62
     3
100
AcDbBlockReference
  2
_OPEN30
 10
-213.0000009999988
 20
-8.000002054481324
 30
0.0
 41
2.5
 42
2.5
 43
2.5
 50
270.0000000000001
  0
MTEXT
  5
48AA
330
2217
100
AcDbEntity
  8
AM_5
 62
     2
100
AcDbMText
 10
-216.4000009999988
 20
-0.0000010272414077
 30
0.0
 40
3.799999999999999
 41
0.0
 71
     5
 72
     1
  1
%%c16
 11
-0.0000000000000028
 21
1.0
 31
0.0
1001
ACAD
1000
MTEXTBEGIN
1070
    73
1070
     1
1070
    44
1040
1.0
1070
    74
1070
     0
1000
MTEXTEND
  0
POINT
  5
48AB
330
2217
100
AcDbEntity
  8
DEFPOINTS
 62
     0
100
AcDbPoint
 10
-196.4999999999993
 20
7.999999999999169
 30
0.0
  0
POINT
  5
48AC
330
2217
100
AcDbEntity
  8
DEFPOINTS
 62
     0
100
AcDbPoint
 10
-196.4999999999993
 20
-8.000002054480667
 30
0.0
  0
POINT
  5
48AD
330
2217
100
AcDbEntity
  8
DEFPOINTS
 62
     0
100
AcDbPoint
 10
-213.0000009999988
 20
-8.000002054480662
 30
0.0
  0
ENDBLK
  5
2222
330
2217
100
AcDbEntity
  8
0
100
AcDbBlockEnd
  0
BLOCK
  5
47B9
330
47AF
100
AcDbEntity
  8
0
100
AcDbBlockBegin
  2
*D8
 70
     1
 10
0.0
 20
0.0
 30
0.0
  3
*D8
  1

  0
LINE
  5
48B9
330
47AF
100
AcDbEntity
  8
AM_5
 62
     3
100
AcDbLine
 10
-2.999999999998409
 20
-8.000000698006974
 30
0.0
 11
15.55592102485919
 21
-8.000000698006923
 31
0.0
  0
LINE
  5
48BA
330
47AF
100
AcDbEntity
  8
AM_5
 62
     3
100
AcDbLine
 10
-2.999999999998507
 20
7.999999301993773
 30
0.0
 11
15.55592102485915
 21
7.999999301993827
 31
0.0
  0
LINE
  5
48BB
330
47AF
100
AcDbEntity
  8
AM_5
 62
     3
100
AcDbLine
 10
14.55592102485919
 20
-5.500000698006926
 30
0.0
 11
14.55592102485915
 21
5.499999301993823
 31
0.0
  0
INSERT
  5
48BC
330
47AF
100
AcDbEntity
  8
AM_5
 62
     3
100
AcDbBlockReference
  2
_OPEN30
 10
14.55592102485919
 20
-8.000000698006925
 30
0.0
 41
2.5
 42
2.5
 43
2.5
 50
270.0000000000001
  0
INSERT
  5
48BD
330
47AF
100
AcDbEntity
  8
AM_5
 62
     3
100
AcDbBlockReference
  2
_OPEN30
 10
14.55592102485915
 20
7.999999301993823
 30
0.0
 41
2.5
 42
2.5
 43
2.5
 50
90.00000000000015
  0
MTEXT
  5
48BE
330
47AF
100
AcDbEntity
  8
AM_5
 62
     2
100
AcDbMText
 10
11.15592102485917
 20
-0.000000698006561
 30
0.0
 40
3.799999999999999
 41
0.0
 71
     5
 72
     1
  1
%%c16
 11
-0.0000000000000028
 21
1.0
 31
0.0
1001
ACAD
1000
MTEXTBEGIN
1070
    73
1070
     1
1070
    44
1040
1.0
1070
    74
1070
     0
1000
MTEXTEND
  0
POINT
  5
48BF
330
47AF
100
AcDbEntity
  8
DEFPOINTS
 62
     0
100
AcDbPoint
 10
-2.999999999998434
 20
-8.000000698006966
 30
0.0
  0
POINT
  5
48C0
330
47AF
100
AcDbEntity
  8
DEFPOINTS
 62
     0
100
AcDbPoint
 10
-2.999999999998482
 20
7.999999301993783
 30
0.0
  0
POINT
  5
48C1
330
47AF
100
AcDbEntity
  8
DEFPOINTS
 62
     0
100
AcDbPoint
 10
14.55592102485917
 20
7.999999301993778
 30
0.0
  0
ENDBLK
  5
47BA
330
47AF
100
AcDbEntity
  8
0
100
AcDbBlockEnd
  0
BLOCK
  5
48DE
330
48D0
100
AcDbEntity
  8
0
100
AcDbBlockBegin
  2
*D9
 70
     1
 10
0.0
 20
0.0
 30
0.0
  3
*D9
  1

  0
LINE
  5
4A40
330
48D0
100
AcDbEntity
  8
AM_5
100
AcDbLine
 10
0.342020140817278
 20
-0.9396926216993124
 30
0.0
 11
9.587522522649159
 21
-26.34150185836963
 31
0.0
  0
LINE
  5
4A41
330
48D0
100
AcDbEntity
  8
AM_5
100
AcDbLine
 10
0.3420224212254653
 20
0.9396917916955347
 30
0.0
 11
9.587586447145227
 21
26.34147859166833
 31
0.0
  0
ARC
  5
4A42
330
48D0
100
AcDbEntity
  8
AM_5
100
AcDbCircle
 10
0.0000000000011065
 20
0.0000000000000728
 30
0.0
 40
27.03204074406247
100
AcDbArc
 50
295.3007666938309
 51
64.69909426301693
  0
INSERT
  5
4A43
330
48D0
100
AcDbEntity
  8
AM_5
100
AcDbBlockReference
  2
_OPEN30
 10
9.245502381833018
 20
-25.40180923667033
 30
0.0
 41
2.5
 42
2.5
 43
2.5
 50
202.6503832704089
  0
INSERT
  5
4A44
330
48D0
100
AcDbEntity
  8
AM_5
100
AcDbBlockReference
  2
_OPEN30
 10
9.245564025920868
 20
25.40178679997287
 30
0.0
 41
2.5
 42
2.5
 43
2.5
 50
157.3494776864389
  0
MTEXT
  5
4A45
330
48D0
100
AcDbEntity
  8
AM_5
 62
     2
100
AcDbMText
 10
23.93204074404596
 20
-0.0000290386691765
 30
0.0
 40
3.2
 41
0.0
 71
     5
 72
     1
  1
140°
  7
ASAMI
 11
0.0000012133804031
 21
0.999999999999264
 31
0.0
  0
POINT
  5
4A46
330
48D0
100
AcDbEntity
  8
DEFPOINTS
 62
     0
100
AcDbPoint
 10
24.82124654252031
 20
-10.7068644739779
 30
0.0
  0
POINT
  5
4A47
330
48D0
100
AcDbEntity
  8
DEFPOINTS
 62
     0
100
AcDbPoint
 10
0.00000000000108
 20
0.0
 30
0.0
  0
POINT
  5
4A48
330
48D0
100
AcDbEntity
  8
DEFPOINTS
 62
     0
100
AcDbPoint
 10
0.0000000000011369
 20
-0.0000000000000105
 30
0.0
  0
POINT
  5
4A49
330
48D0
100
AcDbEntity
  8
DEFPOINTS
 62
     0
100
AcDbPoint
 10
-0.6568967178310855
 20
1.804808914154737
 30
0.0
  0
POINT
  5
4A4A
330
48D0
100
AcDbEntity
  8
DEFPOINTS
 62
     0
100
AcDbPoint
 10
-0.6569101001214343
 20
-1.804832053867124
 30
0.0
  0
ENDBLK
  5
48DF
330
48D0
100
AcDbEntity
  8
0
100
AcDbBlockEnd
  0
BLOCK
  5
49D0
330
49C0
100
AcDbEntity
  8
0
100
AcDbBlockBegin
  2
A$C6FDE1A3D
 70
     0
 10
0.0
 20
0.0
 30
0.0
  3
A$C6FDE1A3D
  1

  0
ELLIPSE
  5
49C1
330
49C0
100
AcDbEntity
  8
AM_11
 48
0.5
100
AcDbEllipse
 10
-11.31603210919314
 20
31.80222969724344
 30
0.0
 11
-35.51732381184845
 21
0.0000000000008697
 31
0.0
210
0.0
220
0.0
230
1.0
 40
0.9899999999999995
 41
1.895054800108161
 42
2.011520147323624
  0
ELLIPSE
  5
49C2
330
49C0
100
AcDbEntity
  8
AM_11
 48
0.5
100
AcDbEllipse
 10
-11.31603210919286
 20
-31.80208243654532
 30
0.0
 11
-35.51732381184842
 21
0.0000000000017056
 31
0.0
210
0.0
220
0.0
230
1.0
 40
0.9900000000000011
 41
4.271664206181739
 42
4.388130507071504
  0
ELLIPSE
  5
49C3
330
49C0
100
AcDbEntity
  8
AM_11
 48
0.5
100
AcDbEllipse
 10
18.98706368060791
 20
-31.80211301555271
 30
0.0
 11
-35.51732381184836
 21
0.0000000000013744
 31
0.0
210
0.0
220
0.0
230
1.0
 40
0.9900000000000032
 41
4.271664206181728
 42
5.153113667165039
  0
ELLIPSE
  5
49C4
330
49C0
100
AcDbEntity
  8
AM_11
 48
0.5
100
AcDbEllipse
 10
18.98706368060754
 20
31.80219911823607
 30
0.0
 11
-35.51732381184845
 21
-0.0000000000001319
 31
0.0
210
0.0
220
0.0
230
1.0
 40
0.99
 41
1.130070686340306
 42
2.011520147323597
  0
ELLIPSE
  5
49C5
330
49C0
100
AcDbEntity
  8
AM_11
 48
0.5
100
AcDbEllipse
 10
49.29009398363792
 20
31.80219911823625
 30
0.0
 11
-35.51732381184845
 21
0.0000000000008697
 31
0.0
210
0.0
220
0.0
230
1.0
 40
0.9899999999999995
 41
1.130070686340335
 42
2.011520147323624
  0
ELLIPSE
  5
49C6
330
49C0
100
AcDbEntity
  8
AM_11
 48
0.5
100
AcDbEllipse
 10
49.2900939836382
 20
-31.80211301555252
 30
0.0
 11
-35.51732381184842
 21
0.0000000000017056
 31
0.0
210
0.0
220
0.0
230
1.0
 40
0.9900000000000011
 41
4.271664206181739
 42
5.153113667165048
  0
ELLIPSE
  5
49C7
330
49C0
100
AcDbEntity
  8
AM_11
 48
0.5
100
AcDbEllipse
 10
109.8962200764689
 20
31.80216853922905
 30
0.0
 11
-35.51732381184845
 21
0.0000000000008697
 31
0.0
210
0.0
220
0.0
230
1.0
 40
0.9899999999999995
 41
1.130070686340335
 42
2.011520147323624
  0
ELLIPSE
  5
49C8
330
49C0
100
AcDbEntity
  8
AM_11
 48
0.5
100
AcDbEllipse
 10
109.8962200764692
 20
-31.80214359455972
 30
0.0
 11
-35.51732381184842
 21
0.0000000000017056
 31
0.0
210
0.0
220
0.0
230
1.0
 40
0.9900000000000011
 41
4.271664206181739
 42
5.153113667165048
  0
ELLIPSE
  5
49C9
330
49C0
100
AcDbEntity
  8
AM_11
 48
0.5
100
AcDbEllipse
 10
79.59318977343897
 20
-31.80214359455991
 30
0.0
 11
-35.51732381184836
 21
0.0000000000013744
 31
0.0
210
0.0
220
0.0
230
1.0
 40
0.9900000000000032
 41
4.271664206181728
 42
5.153113667165039
  0
ELLIPSE
  5
49CA
330
49C0
100
AcDbEntity
  8
AM_11
 48
0.5
100
AcDbEllipse
 10
79.59318977343859
 20
31.80216853922887
 30
0.0
 11
-35.51732381184845
 21
-0.0000000000001319
 31
0.0
210
0.0
220
0.0
230
1.0
 40
0.99
 41
1.130070686340306
 42
2.011520147323597
  0
ELLIPSE
  5
49CB
330
49C0
100
AcDbEntity
  8
AM_11
 48
0.5
100
AcDbEllipse
 10
170.5022806825304
 20
-31.80214359455961
 30
0.0
 11
-35.51732381184842
 21
0.0000000000017056
 31
0.0
210
0.0
220
0.0
230
1.0
 40
0.9900000000000011
 41
4.271664206181739
 42
5.153113667165048
  0
ELLIPSE
  5
49CC
330
49C0
100
AcDbEntity
  8
AM_11
 48
0.5
100
AcDbEllipse
 10
170.5022806825301
 20
31.80216853922916
 30
0.0
 11
-35.51732381184845
 21
0.0000000000008697
 31
0.0
210
0.0
220
0.0
230
1.0
 40
0.9899999999999995
 41
1.130070686340335
 42
2.011520147323624
  0
ELLIPSE
  5
49CD
330
49C0
100
AcDbEntity
  8
AM_11
 48
0.5
100
AcDbEllipse
 10
140.1992503794997
 20
31.80216853922898
 30
0.0
 11
-35.51732381184845
 21
-0.0000000000001319
 31
0.0
210
0.0
220
0.0
230
1.0
 40
0.99
 41
1.130070686340306
 42
2.011520147323597
  0
ELLIPSE
  5
49CE
330
49C0
100
AcDbEntity
  8
AM_11
 48
0.5
100
AcDbEllipse
 10
140.1992503795001
 20
-31.80214359455979
 30
0.0
 11
-35.51732381184836
 21
0.0000000000013744
 31
0.0
210
0.0
220
0.0
230
1.0
 40
0.9900000000000032
 41
4.271664206181728
 42
5.153113667165039
  0
ELLIPSE
  5
49CF
330
49C0
100
AcDbEntity
  8
AM_11
 48
0.5
100
AcDbEllipse
 10
200.8053109855604
 20
31.8021685392293
 30
0.0
 11
-35.51732381184908
 21
0.0000000000327072
 31
0.0
210
0.0
220
0.0
230
1.0
 40
0.989999999999986
 41
1.130070686341231
 42
1.291800737381917
  0
ENDBLK
  5
49D1
330
49C0
100
AcDbEntity
  8
0
100
AcDbBlockEnd
  0
ENDSEC
  0
SECTION
  2
ENTITIES
  0
LINE
  5
C9F
330
1F
100
AcDbEntity
  8
AM_7
100
AcDbLine
 10
-198.9999999999988
 20
-0.0000000000003755
 30
0.0
 11
0.5559200248591907
 21
0.000000000000001
 31
0.0
1001
GENIUS_GENODEF_13
1002
{
1000
HIER
1070
     0
1002
}
1002
{
1000
MANEDIT
1070
     0
1002
}
1002
{
1000
NOSEL
1070
     0
1002
}
1002
{
1000
BEHIND
1070
     0
1002
}
1002
{
1000
REACTOR
1002
}
1001
GENIUS_GENOBJ-N-CEN_13
1002
{
1000
OWNER
1000
GEN
1002
}
  0
DIMENSION
  5
CC6
330
1F
100
AcDbEntity
  8
AM_5
100
AcDbDimension
  2
*D5
 10
-2.999999999998347
 20
-32.0011382431896
 30
0.0
 11
-99.99999999999859
 21
-28.6011382431896
 31
0.0
 70
    32
  1
<>
  3
AM_JIS$0
100
AcDbAlignedDimension
 13
-196.9999999999988
 23
-7.500002054481179
 33
0.0
 14
-2.999999999998345
 24
-8.00000069800715
 34
0.0
 50
0.0000000000001132
100
AcDbRotatedDimension
1001
GENIUS_GENDTOL_13
1000

1000
h7
1000

1040
0.0
1001
ACAD
1000
DSTYLE
1002
{
1070
   271
1070
     0
1002
}
  0
DIMENSION
  5
DF5
330
1F
100
AcDbEntity
  8
AM_5
100
AcDbDimension
  2
*D6
 10
-2.999999999998301
 20
-22.00113824318951
 30
0.0
 11
-66.99999037977502
 21
-18.60113824318951
 31
0.0
 70
    32
  1
<>
  3
AM_JIS$0
100
AcDbAlignedDimension
 13
-130.9999807595517
 23
-8.000002054481154
 33
0.0
 14
-2.9999999999983
 24
-8.00000069800704
 34
0.0
 50
0.0000000000001527
100
AcDbRotatedDimension
1001
GENIUS_GENDTOL_13
1000

1000
h7
1000

1040
0.0
1001
ACAD
1000
DSTYLE
1002
{
1070
   271
1070
     0
1002
}
  0
TEXT
  5
19BD
330
1F
100
AcDbEntity
  8
AM_6
100
AcDbText
 10
-121.1904761904746
 20
-54.50000305448106
 30
0.0
 40
5.0
  1
MDW160LHK
 50
0.0000000000001527
 72
     4
 11
-99.99999999999845
 21
-52.00000305448101
 31
0.0
100
AcDbText
  0
LINE
  5
21D8
330
1F
100
AcDbEntity
  8
AM_0
 48
0.5
100
AcDbLine
 10
-196.4999999999988
 20
7.999999999999624
 30
0.0
 11
-129.5892041132416
 21
7.999999301999527
 31
0.0
1001
GENIUS_GENODEF_13
1002
{
1000
HIER
1070
     0
1002
}
1002
{
1000
MANEDIT
1070
     0
1002
}
1002
{
1000
NOSEL
1070
     0
1002
}
1002
{
1000
BEHIND
1070
     0
1002
}
1002
{
1000
REACTOR
1002
}
1001
GENIUS_GENOBJ-N-CEN_13
1002
{
1000
OWNER
1000
GEN
1002
}
  0
LINE
  5
21D9
330
1F
100
AcDbEntity
  8
AM_0
 48
0.5
100
AcDbLine
 10
-196.4999999999988
 20
-8.000002054481207
 30
0.0
 11
-74.63804149030853
 21
-8.000002054481107
 31
0.0
1001
GENIUS_GENODEF_13
1002
{
1000
HIER
1070
     0
1002
}
1002
{
1000
MANEDIT
1070
     0
1002
}
1002
{
1000
NOSEL
1070
     0
1002
}
1002
{
1000
BEHIND
1070
     0
1002
}
1002
{
1000
REACTOR
1002
}
1001
GENIUS_GENOBJ-N-CEN_13
1002
{
1000
OWNER
1000
GEN
1002
}
  0
LINE
  5
21DC
330
1F
100
AcDbEntity
  8
AM_0
100
AcDbLine
 10
-196.4999999999993
 20
-8.000002054481207
 30
0.0
 11
-196.4999999999992
 21
7.999999999999625
 31
0.0
  0
LINE
  5
21DD
330
1F
100
AcDbEntity
  8
AM_0
 48
0.5
100
AcDbLine
 10
-196.9999999999988
 20
-7.500002054481208
 30
0.0
 11
-196.9999999999988
 21
7.499999999999624
 31
0.0
  0
DIMENSION
  5
2216
330
1F
100
AcDbEntity
  8
AM_5
100
AcDbDimension
  2
*D7
 10
-213.0000009999988
 20
-8.000002054480662
 30
0.0
 11
-216.4000009999988
 21
-0.0000010272407781
 31
0.0
 70
    32
  1
%%c<>
 51
359.9999999999998
  3
AM_JIS$0
100
AcDbAlignedDimension
 13
-196.4999999999993
 23
7.999999999999169
 33
0.0
 14
-196.4999999999993
 24
-8.000002054480667
 34
0.0
 50
269.9999999999999
100
AcDbRotatedDimension
1001
ACAD
1000
DSTYLE
1002
{
1070
   271
1070
     0
1002
}
1001
GENIUS_GENDTOL_13
1000

1000
h7
1000

1040
0.0
  0
ELLIPSE
  5
2694
330
1F
100
AcDbEntity
  8
AM_0
 48
0.5
100
AcDbEllipse
 10
9.217248688529364
 20
7.401657934614789
 30
0.0
 11
11.3780264168592
 21
0.0000000000011224
 31
0.0
210
0.0
220
0.0
230
1.0
 40
0.9899999999999971
 41
3.323896559076802
 42
3.661579236128986
  0
LINE
  5
2695
330
1F
100
AcDbEntity
  8
AM_0
 48
0.5
100
AcDbLine
 10
-1.97222807005653
 20
5.359497651709183
 30
0.0
 11
-2.999999999998031
 21
7.999999301992624
 31
0.0
  0
LINE
  5
2696
330
1F
100
AcDbEntity
  8
AM_0
 48
0.5
100
AcDbLine
 10
0.0000000000011369
 20
-0.0000000000000105
 30
0.0
 11
-0.6568967178310854
 21
1.804808914154737
 31
0.0
  0
LINE
  5
2699
330
1F
100
AcDbEntity
  8
AM_0
 48
0.5
100
AcDbLine
 10
0.00000000000108
 20
0.0
 30
0.0
 11
-0.6569101001214342
 21
-1.804832053867123
 31
0.0
  0
ELLIPSE
  5
3366
330
1F
100
AcDbEntity
  8
AM_0
 48
0.5
100
AcDbEllipse
 10
9.217248688529387
 20
-7.401657934614764
 30
0.0
 11
11.3780264168592
 21
-0.0000000000010845
 31
0.0
210
0.0
220
0.0
230
-1.0
 40
0.9899999999999971
 41
3.323896559076802
 42
3.661579236128986
  0
LINE
  5
3367
330
1F
100
AcDbEntity
  8
AM_0
 48
0.5
100
AcDbLine
 10
-1.972228070056514
 20
-5.359497651709205
 30
0.0
 11
-2.9999999999983
 21
-8.00000069800704
 31
0.0
  0
LINE
  5
3F18
330
1F
100
AcDbEntity
  8
AM_0
 48
0.5
100
AcDbLine
 10
-196.4999999999988
 20
7.999999999999624
 30
0.0
 11
-196.9999999999988
 21
7.499999999999624
 31
0.0
1001
GENIUS_GENFIL_13
1070
     0
1040
0.5
1040
0.5
1040
20.0
1040
0.0
1002
{
1002
}
1001
GENIUS_GENODEF_13
1002
{
1000
HIER
1070
     0
1002
}
1002
{
1000
MANEDIT
1070
     0
1002
}
1002
{
1000
NOSEL
1070
     0
1002
}
1002
{
1000
BEHIND
1070
     0
1002
}
1002
{
1000
REACTOR
1002
}
1001
GENIUS_GENOBJ-N-CHA_13
1002
{
1000
OWNER
1000
GEN
1002
}
  0
LINE
  5
3F1B
330
1F
100
AcDbEntity
  8
AM_0
 48
0.5
100
AcDbLine
 10
-196.9999999999988
 20
-7.500002054481208
 30
0.0
 11
-196.4999999999988
 21
-8.000002054481207
 31
0.0
1001
GENIUS_GENFIL_13
1070
     0
1040
0.5
1040
0.5
1040
20.0
1040
0.0
1002
{
1002
}
1001
GENIUS_GENODEF_13
1002
{
1000
HIER
1070
     0
1002
}
1002
{
1000
MANEDIT
1070
     0
1002
}
1002
{
1000
NOSEL
1070
     0
1002
}
1002
{
1000
BEHIND
1070
     0
1002
}
1002
{
1000
REACTOR
1002
}
1001
GENIUS_GENOBJ-N-CHA_13
1002
{
1000
OWNER
1000
GEN
1002
}
  0
LINE
  5
4739
330
1F
100
AcDbEntity
  8
AM_0
 48
0.5
100
AcDbLine
 10
-8.720114055762087
 20
7.999999301992941
 30
0.0
 11
-2.999999999998031
 21
7.999999301992624
 31
0.0
  0
LINE
  5
473A
330
1F
100
AcDbEntity
  8
AM_0
 48
0.5
100
AcDbLine
 10
0.00000000000108
 20
-0.0000000000005663
 30
0.0
 11
-5.757492088543412
 21
3.071756300690114
 31
0.0
  0
LINE
  5
473B
330
1F
100
AcDbEntity
  8
AM_0
 48
0.5
100
AcDbLine
 10
-8.720114055762888
 20
-8.000000698007065
 30
0.0
 11
-2.999999999998363
 21
-8.00000069800699
 31
0.0
  0
LINE
  5
473C
330
1F
100
AcDbEntity
  8
AM_0
 48
0.5
100
AcDbLine
 10
-51.84565315863754
 20
-8.000000698004773
 30
0.0
 11
-31.53973782832345
 21
-8.000000698005754
 31
0.0
  0
LINE
  5
473D
330
1F
100
AcDbEntity
  8
AM_11
 48
0.5
100
AcDbLine
 10
-71.70737852786344
 20
8.001135847181469
 30
0.0
 11
-57.14476950493926
 21
7.999999301995682
 31
0.0
  0
LINE
  5
473E
330
1F
100
AcDbEntity
  8
AM_0
 48
0.5
100
AcDbLine
 10
-57.144789159347
 20
7.999999301995682
 30
0.0
 11
-31.53973782832262
 21
7.999999301994231
 31
0.0
  0
LINE
  5
473F
330
1F
100
AcDbEntity
  8
AM_11
 48
0.5
100
AcDbLine
 10
-74.66527693119513
 20
-8.000000698003473
 30
0.0
 11
-51.84565315863756
 21
-8.001137243189695
 31
0.0
  0
LINE
  5
4740
330
1F
100
AcDbEntity
  8
AM_11
 48
0.5
100
AcDbLine
 10
-31.53973782832262
 20
7.999999301994231
 30
0.0
 11
-8.720114055762087
 21
7.999999301992941
 31
0.0
  0
LINE
  5
4741
330
1F
100
AcDbEntity
  8
AM_11
 48
0.5
100
AcDbLine
 10
-31.53973782832345
 20
-8.000000698005754
 30
0.0
 11
-8.720114055762888
 21
-8.000000698007065
 31
0.0
  0
ELLIPSE
  5
4742
330
1F
100
AcDbEntity
  8
AM_0
 48
0.5
100
AcDbEllipse
 10
-4.366565105284166
 20
-2.084915859140646
 30
0.0
 11
-1.015010921963334
 21
0.7039219145229091
 31
0.0
210
0.0
220
0.0
230
0.9999999999999998
 40
0.5234370203642101
 41
4.551019789096942
 42
7.694460130426451
  0
SPLINE
  5
4743
330
1F
100
AcDbEntity
  8
AM_0
100
AcDbSpline
210
0.0
220
0.0
230
1.0
 70
     8
 71
     3
 72
    23
 73
    19
 74
     0
 42
0.0000000001
 43
0.0000000001
 40
16.03460024169435
 40
16.03460024169435
 40
16.03460024169435
 40
16.03460024169435
 40
16.35212704903564
 40
17.38177054169784
 40
18.41822485651776
 40
19.46214173629503
 40
20.51396345435107
 40
21.57393551351153
 40
22.64208202342361
 40
23.7182574881101
 40
24.80209208578934
 40
25.89306333925047
 40
26.99048218457928
 40
28.09348763352352
 40
29.20111863782268
 40
30.31232390128032
 40
31.42594612798585
 40
32.5407912310448
 40
32.5407912310486
 40
32.5407912310486
 40
32.5407912310486
 10
-71.70737852786344
 20
8.001135847181465
 30
0.0
 10
-71.5829222443253
 20
7.974129255978378
 30
0.0
 10
-71.05542182663064
 20
7.856523152460472
 30
0.0
 10
-70.12622416007132
 20
7.626091941571267
 30
0.0
 10
-68.9229107493792
 20
7.283443250950209
 30
0.0
 10
-67.72071503278292
 20
6.898705885137191
 30
0.0
 10
-66.51956597157886
 20
6.474106507769027
 30
0.0
 10
-65.31942093485827
 20
6.012012269880072
 30
0.0
 10
-64.12021055711431
 20
5.515064697005302
 30
0.0
 10
-62.92185132989429
 20
4.986155899366632
 30
0.0
 10
-61.72427515812288
 20
4.428281056647756
 30
0.0
 10
-60.52738602777589
 20
3.844686312570683
 30
0.0
 10
-59.33108694437358
 20
3.238763771929145
 30
0.0
 10
-58.13529820192012
 20
2.613997235312819
 30
0.0
 10
-56.93991975022374
 20
1.974019634573835
 30
0.0
 10
-55.74484087192359
 20
1.3225679693764
 30
0.0
 10
-54.54996425386322
 20
0.6634172257134469
 30
0.0
 10
-53.75359380411818
 20
0.2214926940775856
 30
0.0
 10
-53.35519140411146
 20
0.0004062030352961
 30
0.0
  0
SPLINE
  5
4744
330
1F
100
AcDbEntity
  8
AM_0
100
AcDbSpline
210
0.0
220
0.0
230
1.0
 70
     8
 71
     3
 72
    11
 73
     7
 74
     0
 42
0.0000000001
 43
0.0000000001
 40
11.27226913003534
 40
11.27226913003534
 40
11.27226913003534
 40
11.2722691300354
 40
12.28301561507924
 40
13.29510212255852
 40
14.30984805882082
 40
15.18258238371378
 40
15.18258238371378
 40
15.18258238371378
 40
15.18258238371378
 10
-74.66527693119799
 20
-8.000000698003471
 30
0.0
 10
-75.06737074519076
 20
-7.960846373218633
 30
0.0
 10
-75.87079994778228
 20
-7.86605545698034
 30
0.0
 10
-77.07179499304818
 20
-7.67483873245017
 30
0.0
 10
-78.21156046784584
 20
-7.446451321095056
 30
0.0
 10
-78.9486938740538
 20
-7.270883120740981
 30
0.0
 10
-79.28838593748896
 20
-7.184157279134506
 30
0.0
  0
SPLINE
  5
4745
330
1F
100
AcDbEntity
  8
AM_0
100
AcDbSpline
210
0.0
220
0.0
230
1.0
 70
     8
 71
     3
 72
    17
 73
    13
 74
     0
 42
0.0000000001
 43
0.0000000001
 40
1.580019955310467
 40
1.580019955310467
 40
1.580019955310467
 40
1.580019955310467
 40
2.030549285115227
 40
3.082371838836284
 40
4.126290986361125
 40
5.162752068350215
 40
6.192395305374981
 40
7.216039564037012
 40
8.234688489606833
 40
9.249433870634691
 40
10.26152376260694
 40
11.27226744710342
 40
11.27226744710342
 40
11.27226744710342
 40
11.27226744710352
 10
-63.2545748582314
 20
-5.904236270727011
 30
0.0
 10
-63.42596749170152
 20
-5.965044992253802
 30
0.0
 10
-63.99847646893723
 20
-6.164353699223641
 30
0.0
 10
-64.97589126936343
 20
-6.476976537495108
 30
0.0
 10
-66.18656409304648
 20
-6.827072644102802
 30
0.0
 10
-67.39757021382442
 20
-7.134410542868272
 30
0.0
 10
-68.60863182248005
 20
-7.397958124052323
 30
0.0
 10
-69.81982537412746
 20
-7.615798329821925
 30
0.0
 10
-71.03110260366179
 20
-7.786688042177003
 30
0.0
 10
-72.24245525701263
 20
-7.909519838601124
 30
0.0
 10
-73.4538534895876
 20
-7.983503036555977
 30
0.0
 10
-74.26164832252419
 20
-8.000000743779919
 30
0.0
 10
-74.66527693119792
 20
-8.000000698003471
 30
0.0
  0
SPLINE
  5
4746
330
1F
100
AcDbEntity
  8
AM_0
 48
0.5
100
AcDbSpline
210
0.0
220
0.0
230
1.0
 70
     8
 71
     3
 72
    17
 73
    13
 74
     0
 42
0.0000000001
 43
0.0000000001
 40
0.0
 40
0.0
 40
0.0
 40
0.0
 40
1.010743614677189
 40
2.022833924044153
 40
3.037578959561199
 40
4.056212747067873
 40
5.079857613375832
 40
6.109500119648989
 40
7.14596120163808
 40
8.18989512056258
 40
9.241717674284874
 40
9.693948937866434
 40
9.693948937866434
 40
9.693948937866434
 40
9.693948937866434
 10
-8.720114055762088
 20
7.999999301992938
 30
0.0
 10
-9.123742743216471
 20
7.995242925952589
 30
0.0
 10
-9.931537904960784
 20
7.985723836571136
 30
0.0
 10
-11.14293514268279
 20
7.908912956797678
 30
0.0
 10
-12.35428250788369
 20
7.786850048861206
 30
0.0
 10
-13.5655545375874
 20
7.615755796240744
 30
0.0
 10
-14.77673680589496
 20
7.397950629724614
 30
0.0
 10
-15.98781451941228
 20
7.134444372014055
 30
0.0
 10
-17.19877142344099
 20
6.826933300034532
 30
0.0
 10
-18.4096545079699
 20
6.47748765751905
 30
0.0
 10
-19.38711090912492
 20
6.162689956355309
 30
0.0
 10
-19.96113061720734
 20
5.965896123237739
 30
0.0
 10
-20.13342053703562
 20
5.905658848316195
 30
0.0
  0
SPLINE
  5
4748
330
1F
100
AcDbEntity
  8
AM_0
 48
0.5
100
AcDbSpline
210
0.0
220
0.0
230
1.0
 70
     8
 71
     3
 72
    25
 73
    21
 74
     0
 42
0.0000000001
 43
0.0000000001
 40
6.846175049578289
 40
6.846175049578289
 40
6.846175049578289
 40
6.846175049578289
 40
7.604337694224321
 40
8.711974558287883
 40
9.814980593243754
 40
10.91239053451967
 40
12.0033633515982
 40
13.08720139956839
 40
14.16337181880432
 40
15.23152222380919
 40
16.29148850140128
 40
17.34331105512262
 40
18.38723020264746
 40
19.42369128463655
 40
20.45333379090873
 40
21.47697865721768
 40
22.49561244472435
 40
23.5103574802404
 40
24.52244778960836
 40
25.53320666051913
 40
25.53320666051913
 40
25.53320666051913
 40
25.53320666051913
 10
-10.13290932694457
 20
1.448051676799728
 30
0.0
 10
-10.40809754371445
 20
1.588517448852125
 30
0.0
 10
-11.08590082288001
 20
1.932790927459546
 30
0.0
 10
-12.16732645219386
 20
2.473424221385251
 30
0.0
 10
-13.37739886395005
 20
3.063135212371548
 30
0.0
 10
-14.58753213103374
 20
3.634005099429215
 30
0.0
 10
-15.79773665074495
 20
4.182523853455659
 30
0.0
 10
-17.00802590774864
 20
4.705307388979139
 30
0.0
 10
-18.21841109341879
 20
5.199131752155197
 30
0.0
 10
-19.4288978112014
 20
5.6609620348371
 30
0.0
 10
-20.63950097118742
 20
6.087924119684004
 30
0.0
 10
-21.85021893407571
 20
6.477399859150048
 30
0.0
 10
-23.06106039619935
 20
6.826958928698878
 30
0.0
 10
-24.27202108444312
 20
7.134437961749434
 30
0.0
 10
-25.48309626818252
 20
7.397952331820071
 30
0.0
 10
-26.69427920835343
 20
7.615755343438188
 30
0.0
 10
-27.90555105943559
 20
7.786850170448079
 30
0.0
 10
-29.11689847198392
 20
7.908912920604254
 30
0.0
 10
-30.3283017821797
 20
7.985724246019921
 30
0.0
 10
-31.13610304442236
 20
7.995243038424492
 30
0.0
 10
-31.53973782832261
 20
7.999999301994233
 30
0.0
  0
SPLINE
  5
4749
330
1F
100
AcDbEntity
  8
AM_0
 48
0.5
100
AcDbSpline
210
0.0
220
0.0
230
1.0
 70
     8
 71
     3
 72
    10
 73
     6
 74
     0
 42
0.0000000001
 43
0.0000000001
 40
0.0
 40
0.0
 40
0.0
 40
0.0
 40
2.69986029516136
 40
4.147722969032201
 40
6.285750005020438
 40
6.285750005020438
 40
6.285750005020438
 40
6.285750005020438
 10
-10.13271565103299
 20
1.447956658763703
 30
0.0
 10
-9.270539053112063
 20
0.7047013762720864
 30
0.0
 10
-7.946000266802451
 20
-0.4371417822683717
 30
0.0
 10
-4.813643965677674
 20
0.1156444941854459
 30
0.0
 10
-5.403557767379707
 20
1.977501817794065
 30
0.0
 10
-5.793335116407061
 20
3.112361200195648
 30
0.0
  0
SPLINE
  5
474A
330
1F
100
AcDbEntity
  8
AM_0
100
AcDbSpline
210
0.0
220
0.0
230
1.0
 70
     8
 71
     3
 72
    55
 73
    51
 74
     0
 42
0.0000000001
 43
0.0000000001
 40
0.0
 40
0.0
 40
0.0
 40
0.0
 40
1.010743684496582
 40
2.022833576467832
 40
3.037578957496688
 40
4.056212745003489
 40
5.079857003664532
 40
6.109500240690281
 40
7.145961322679372
 40
8.189895241603872
 40
9.241717795325891
 40
10.30168407291828
 40
11.36983447792315
 40
12.44600489715814
 40
13.52984294512926
 40
14.62081576220742
 40
15.7182257034828
 40
16.82123173843959
 40
17.92886860250316
 40
19.0400688939571
 40
20.15368796660465
 40
21.26852814259644
 40
22.38336992938901
 40
23.49698739941135
 40
24.6081876908653
 40
25.71582455492886
 40
26.81883757994213
 40
27.91624752121713
 40
29.00722033829659
 40
30.09105838626677
 40
31.16722880550176
 40
32.23537921050758
 40
33.29534548809967
 40
34.347168041821
 40
35.39108718934584
 40
36.42754827133493
 40
37.45720575381954
 40
38.48085062012849
 40
39.49948440763516
 40
40.51422944315121
 40
41.52631975251916
 40
42.53706336719636
 40
43.54780698187354
 40
44.55989729124051
 40
45.57464232675757
 40
46.59327611426424
 40
47.6169209805722
 40
48.64656348684535
 40
49.68302456883444
 40
50.58557219878025
 40
50.58557219878025
 40
50.58557219878025
 40
50.58557219878025
 10
-8.72011405576289
 20
-8.000000698007058
 30
0.0
 10
-9.123742669761686
 20
-7.995240891818887
 30
0.0
 10
-9.931537489896141
 20
-7.9857149398663
 30
0.0
 10
-11.14293574816552
 20
-7.908925072905331
 30
0.0
 10
-12.35428229641078
 20
-7.786849244188663
 30
0.0
 10
-13.56555387419734
 20
-7.615755327348925
 30
0.0
 10
-14.77673839494161
 20
-7.397961972990628
 30
0.0
 10
-15.98781196468102
 20
-7.134437673452873
 30
0.0
 10
-17.19877863440296
 20
-6.826957622345365
 30
0.0
 10
-18.40962766528039
 20
-6.477404680383174
 30
0.0
 10
-19.62035080922461
 20
-6.087925081424667
 30
0.0
 10
-20.83095410102119
 20
-5.6609635486515
 30
0.0
 10
-22.04144078290718
 20
-5.199133115914798
 30
0.0
 10
-23.25182597894402
 20
-4.705308794971275
 30
0.0
 10
-24.46211523072604
 20
-4.182525242078114
 30
0.0
 10
-25.67231976094824
 20
-3.634006515110308
 30
0.0
 10
-26.88245299094258
 20
-3.063136536574295
 30
0.0
 10
-28.09252554148446
 20
-2.473425886739653
 30
0.0
 10
-29.30254915646577
 20
-1.86850151550596
 30
0.0
 10
-30.51253678365347
 20
-1.25208666050955
 30
0.0
 10
-31.72249903579078
 20
-0.6279707869546386
 30
0.0
 10
-32.93245299941896
 20
-0.0000023302962855
 30
0.0
 10
-34.14240153136626
 20
0.6279774301856436
 30
0.0
 10
-35.35236783903332
 20
1.252083584605578
 30
0.0
 10
-36.562353972475
 20
1.868500305454659
 30
0.0
 10
-37.77237974491507
 20
2.473426981180582
 30
0.0
 10
-38.98245731541834
 20
3.063132598320989
 30
0.0
 10
-40.19259245532269
 20
3.634005471962086
 30
0.0
 10
-41.40279716025812
 20
4.18252375413776
 30
0.0
 10
-42.61308636800159
 20
4.705307416970331
 30
0.0
 10
-43.82347156713774
 20
5.199131738636216
 30
0.0
 10
-45.03395827985577
 20
5.660962060942297
 30
0.0
 10
-46.24456144670489
 20
6.087924029682466
 30
0.0
 10
-47.45527938740582
 20
6.477400189541104
 30
0.0
 10
-48.66612093058053
 20
6.826957709774726
 30
0.0
 10
-49.87708715109663
 20
7.134443943919239
 30
0.0
 10
-51.08816936830725
 20
7.397938145323887
 30
0.0
 10
-52.29935789046293
 20
7.615798911329433
 30
0.0
 10
-53.51062982732457
 20
7.786690018414294
 30
0.0
 10
-54.72197721725025
 20
7.909507169168587
 30
0.0
 10
-55.93337444839825
 20
7.983513581248856
 30
0.0
 10
-57.14479829926579
 20
8.008236674722963
 30
0.0
 10
-58.35622214835086
 20
7.983513581210231
 30
0.0
 10
-59.56761938485659
 20
7.909507169324337
 30
0.0
 10
-60.7789667550567
 20
7.786690017828614
 30
0.0
 10
-61.99023876587418
 20
7.615798913532168
 30
0.0
 10
-63.20142110522701
 20
7.39793919914983
 30
0.0
 10
-64.41249855123465
 20
7.134446638005796
 30
0.0
 10
-65.56840476570933
 20
6.840915638098525
 30
0.0
 10
-66.3183698814946
 20
6.626253642920096
 30
0.0
 10
-66.66630998409058
 20
6.521638380826885
 30
0.0
  0
SPLINE
  5
474B
330
1F
100
AcDbEntity
  8
AM_0
100
AcDbSpline
210
0.0
220
0.0
230
1.0
 70
     8
 71
     3
 72
    11
 73
     7
 74
     0
 42
0.0000000001
 43
0.0000000001
 40
11.27226913003534
 40
11.27226913003534
 40
11.27226913003534
 40
11.2722691300354
 40
12.28301561507924
 40
13.29510212255852
 40
14.30984805882082
 40
15.18258238371378
 40
15.18258238371378
 40
15.18258238371378
 40
15.18258238371378
 10
-31.53973782832341
 20
-8.000000698005761
 30
0.0
 10
-31.94183164231619
 20
-7.960846373220925
 30
0.0
 10
-32.74526084490773
 20
-7.866055456982623
 30
0.0
 10
-33.94625589017363
 20
-7.674838732452453
 30
0.0
 10
-35.08602136497126
 20
-7.446451321097333
 30
0.0
 10
-35.82315477117921
 20
-7.270883120743273
 30
0.0
 10
-36.16284683461437
 20
-7.184157279136799
 30
0.0
  0
SPLINE
  5
474C
330
1F
100
AcDbEntity
  8
AM_0
100
AcDbSpline
210
0.0
220
0.0
230
1.0
 70
     8
 71
     3
 72
    22
 73
    18
 74
     0
 42
0.0000000001
 43
0.0000000001
 40
17.17441611292
 40
17.17441611292
 40
17.17441611292
 40
17.17441611292
 40
17.38177636558528
 40
18.41823744757437
 40
19.46215659509824
 40
20.51397914882054
 40
21.57394542641293
 40
22.64209583141747
 40
23.71826625065247
 40
24.80210429862395
 40
25.8930771157021
 40
26.99048705697709
 40
28.09349309193389
 40
29.20112995599786
 40
30.31233024745139
 40
31.42594771747373
 40
32.5407895042663
 40
32.54078950426994
 40
32.54078950426994
 40
32.54078950426994
 10
-36.16337662082668
 20
-7.184058599197972
 30
0.0
 10
-36.24449357344235
 20
-7.165539383852125
 30
0.0
 10
-36.73074540382523
 20
-7.052736818980448
 30
0.0
 10
-37.62153135690512
 20
-6.826552994832036
 30
0.0
 10
-38.83237272693648
 20
-6.476994470316904
 30
0.0
 10
-40.04309071477396
 20
-6.087518583149066
 30
0.0
 10
-41.25369386801867
 20
-5.660556538387992
 30
0.0
 10
-42.46418058754797
 20
-5.198726244639352
 30
0.0
 10
-43.67456577304976
 20
-4.70490188523045
 30
0.0
 10
-44.8848550289477
 20
-4.182118345785883
 30
0.0
 10
-46.09505955329537
 20
-3.633599603748159
 30
0.0
 10
-47.3051928027999
 20
-3.062729672318106
 30
0.0
 10
-48.51526528068766
 20
-2.47301884796761
 30
0.0
 10
-49.72528916829458
 20
-1.868095131337232
 30
0.0
 10
-50.93527519142908
 20
-1.251678118549977
 30
0.0
 10
-52.14524127498211
 20
-0.6275714357530676
 30
0.0
 10
-52.95172699611595
 20
-0.2089963222312254
 30
0.0
 10
-53.35519140411682
 20
0.0004062030381705
 30
0.0
  0
SPLINE
  5
474D
330
1F
100
AcDbEntity
  8
AM_0
100
AcDbSpline
210
0.0
220
0.0
230
1.0
 70
     8
 71
     3
 72
    17
 73
    13
 74
     0
 42
0.0000000001
 43
0.0000000001
 40
1.580019955310467
 40
1.580019955310467
 40
1.580019955310467
 40
1.580019955310467
 40
2.030549285115227
 40
3.082371838836284
 40
4.126290986361125
 40
5.162752068350215
 40
6.192395305374981
 40
7.216039564037012
 40
8.234688489606833
 40
9.249433870634691
 40
10.26152376260694
 40
11.27226744710342
 40
11.27226744710342
 40
11.27226744710342
 40
11.27226744710352
 10
-20.12903575535671
 20
-5.904236270729293
 30
0.0
 10
-20.30042838882684
 20
-5.965044992256086
 30
0.0
 10
-20.87293736606258
 20
-6.164353699225933
 30
0.0
 10
-21.85035216648879
 20
-6.476976537497401
 30
0.0
 10
-23.06102499017186
 20
-6.827072644105083
 30
0.0
 10
-24.27203111094979
 20
-7.134410542870563
 30
0.0
 10
-25.48309271960544
 20
-7.397958124054603
 30
0.0
 10
-26.69428627125287
 20
-7.615798329824206
 30
0.0
 10
-27.90556350078723
 20
-7.786688042179296
 30
0.0
 10
-29.11691615413809
 20
-7.909519838603408
 30
0.0
 10
-30.32831438671304
 20
-7.983503036558264
 30
0.0
 10
-31.13610921964961
 20
-8.00000074378221
 30
0.0
 10
-31.53973782832334
 20
-8.000000698005761
 30
0.0
  0
SPLINE
  5
474E
330
1F
100
AcDbEntity
  8
AM_0
100
AcDbSpline
210
0.0
220
0.0
230
1.0
 70
     8
 71
     3
 72
    46
 73
    42
 74
     0
 42
0.0000000001
 43
0.0000000001
 40
0.0
 40
0.0
 40
0.0
 40
0.0
 40
1.348332046947657
 40
2.024828967632895
 40
2.703918159304097
 40
3.386347665078124
 40
4.072776489761952
 40
4.763750544421347
 40
5.459696642770596
 40
6.160921452191754
 40
6.867565637253344
 40
7.579665907256596
 40
8.297112853413899
 40
9.019671552060676
 40
9.746986763446127
 40
10.47859339096366
 40
11.21393074760089
 40
11.95235532364328
 40
12.69315551794651
 40
13.43556823304427
 40
14.1787950170388
 40
14.92202180103393
 40
15.66443451613169
 40
16.40523471043432
 40
17.14365928647669
 40
17.87899664311455
 40
18.61060327063121
 40
19.3379184820169
 40
20.06048192311554
 40
20.77792886927283
 40
21.49002913927608
 40
22.19667332433747
 40
22.89788836015233
 40
23.59383445850158
 40
24.28480851316097
 40
24.97123685067576
 40
25.65366676154838
 40
26.33276604526152
 40
27.00926273560555
 40
27.68398960851751
 40
28.357818684969
 40
28.357818684969
 40
28.357818684969
 40
28.357818684969
 10
-5.329022070252904
 20
-8.00000069800725
 30
0.0
 10
-6.13685635795492
 20
-7.981776079599891
 30
0.0
 10
-7.350004313971442
 20
-7.954407646609801
 30
0.0
 10
-8.963180054330134
 20
-7.785905232538751
 30
0.0
 10
-10.17446464597304
 20
-7.616009975526039
 30
0.0
 10
-11.38564570161853
 20
-7.397893324929641
 30
0.0
 10
-12.59672003060097
 20
-7.134455656856344
 30
0.0
 10
-13.80768141139402
 20
-6.826956427787512
 30
0.0
 10
-15.01852781581932
 20
-6.477398800001188
 30
0.0
 10
-16.22925385518269
 20
-6.087929109077617
 30
0.0
 10
-17.43986194943509
 20
-5.660962990472188
 30
0.0
 10
-18.6503488424089
 20
-5.199133267192505
 30
0.0
 10
-19.86073398122362
 20
-4.705308753950761
 30
0.0
 10
-21.07102324859305
 20
-4.182525253352259
 30
0.0
 10
-22.28122777425574
 20
-3.634006511416397
 30
0.0
 10
-23.49136100676791
 20
-3.06313654000108
 30
0.0
 10
-24.70143355179856
 20
-2.473425876687449
 30
0.0
 10
-25.91145718640657
 20
-1.868501552478812
 30
0.0
 10
-27.121444740292
 20
-1.252086522129515
 30
0.0
 10
-28.33140726677008
 20
-0.6279713047744455
 30
0.0
 10
-29.54135962208959
 20
-0.0000006981329354
 30
0.0
 10
-30.75131197714329
 20
0.6279699092716861
 30
0.0
 10
-31.96127450441869
 20
1.252085124338542
 30
0.0
 10
-33.17126205538981
 20
1.868500163050248
 30
0.0
 10
-34.38128570080408
 20
2.473424456245743
 30
0.0
 10
-35.5913582057663
 20
3.063135234553
 30
0.0
 10
-36.80149158666547
 20
3.634004780106419
 30
0.0
 10
-38.01169819438006
 20
4.182526289765765
 30
0.0
 10
-39.22199216434968
 20
4.705305040611152
 30
0.0
 10
-40.432379462306
 20
5.199132086015892
 30
0.0
 10
-41.64286632709619
 20
5.660961946714478
 30
0.0
 10
-42.85346944830812
 20
6.087924141866153
 30
0.0
 10
-44.06418742085286
 20
6.477399857555941
 30
0.0
 10
-45.27502888268435
 20
6.826958913323419
 30
0.0
 10
-46.48598956263652
 20
7.134438024178336
 30
0.0
 10
-47.69706477950456
 20
7.397952099556436
 30
0.0
 10
-48.908253565001
 20
7.615757276778936
 30
0.0
 10
-50.1195319152015
 20
7.786848564750966
 30
0.0
 10
-51.3308852066041
 20
7.908913189715644
 30
0.0
 10
-52.54228246923005
 20
7.985723778498456
 30
0.0
 10
-53.35007762766053
 20
7.995242906605359
 30
0.0
 10
-53.75370631345893
 20
7.999999301995498
 30
0.0
  0
ELLIPSE
  5
474F
330
1F
100
AcDbEntity
  8
AM_0
 48
0.5
100
AcDbEllipse
 10
-22.26133222196491
 20
54.91388260271019
 30
0.0
 11
0.0022379730768174
 21
59.9793493063477
 31
0.0
210
0.0
220
0.0
230
1.0
 40
0.922784154507752
 41
3.480492654822133
 42
3.555558881052636
  0
ELLIPSE
  5
4750
330
1F
100
AcDbEntity
  8
AM_0
 48
0.5
100
AcDbEllipse
 10
-14.66730222103828
 20
13.42689952985724
 30
0.0
 11
-0.0000000000071767
 21
19.2888476053863
 31
0.0
210
0.0
220
0.0
230
1.0
 40
0.8984613363362814
 41
3.652175978817765
 42
3.740670756497269
  0
ELLIPSE
  5
4751
330
1F
100
AcDbEntity
  8
AM_0
 48
0.5
100
AcDbEllipse
 10
2.363340231663797
 20
9.60449148949227
 30
0.0
 11
0.0000000000003374
 21
16.12355804443331
 31
0.0
210
0.0
220
0.0
230
1.0
 40
0.8984613363363362
 41
2.101163880028952
 42
2.509284810223849
  0
ELLIPSE
  5
4752
330
1F
100
AcDbEntity
  8
AM_0
 48
0.5
100
AcDbEllipse
 10
-4.366565105284166
 20
-2.084915859140646
 30
0.0
 11
-0.1956882208192846
 21
1.315200822959942
 31
0.0
210
0.0
220
0.0
230
1.0
 40
0.4516993831691794
 41
1.826689407338125
 42
4.962031297050104
  0
ELLIPSE
  5
4753
330
1F
100
AcDbEntity
  8
AM_0
 48
0.5
100
AcDbEllipse
 10
5.209180687192374
 20
-1.778290492929231
 30
0.0
 11
11.31284862869274
 21
2.354302306292204
 31
0.0
210
0.0
220
0.0
230
1.0
 40
0.6448861463827141
 41
3.042839786766561
 42
3.776325079272206
  0
LINE
  5
4755
330
1F
100
AcDbEntity
  8
AM_11
 48
0.5
100
AcDbLine
 10
-129.5892041132403
 20
7.99999930199904
 30
0.0
 11
-100.2704946016674
 21
7.999999301997974
 31
0.0
  0
POLYLINE
  5
4756
330
1F
100
AcDbEntity
  8
AM_0
100
AcDb2dPolyline
 66
     1
 10
0.0
 20
0.0
 30
0.0
 70
     2
  0
VERTEX
  5
4757
330
4756
100
AcDbEntity
  8
AM_0
100
AcDbVertex
100
AcDb2dVertex
 10
-126.1832840986738
 20
6.940347587840284
 30
0.0
 42
0.0862297278188617
  0
VERTEX
  5
4758
330
4756
100
AcDbEntity
  8
AM_0
100
AcDbVertex
100
AcDb2dVertex
 10
-129.1278858375798
 20
6.683272520618407
 30
0.0
 42
0.0414024687830266
 70
     1
  0
VERTEX
  5
4759
330
4756
100
AcDbEntity
  8
AM_0
100
AcDbVertex
100
AcDb2dVertex
 10
-129.4838427886223
 20
6.545072872642594
 30
0.0
 42
0.0280074108471844
  0
VERTEX
  5
475A
330
4756
100
AcDbEntity
  8
AM_0
100
AcDbVertex
100
AcDb2dVertex
 10
-130.2954377586802
 20
6.086081057369609
 30
0.0
 42
0.0512701366748525
 70
     1
  0
VERTEX
  5
475B
330
4756
100
AcDbEntity
  8
AM_0
100
AcDbVertex
100
AcDb2dVertex
 10
-130.6967531653657
 20
5.763535250130078
 30
0.0
 42
0.0658714570033076
  0
VERTEX
  5
475C
330
4756
100
AcDbEntity
  8
AM_0
100
AcDbVertex
100
AcDb2dVertex
 10
-130.9486232947431
 20
5.438744669824813
 30
0.0
 42
0.1411961588081283
 70
     1
  0
VERTEX
  5
475D
330
4756
100
AcDbEntity
  8
AM_0
100
AcDbVertex
100
AcDb2dVertex
 10
-130.9999807595517
 20
5.246947749543575
 30
0.0
 42
0.1226739033459629
  0
VERTEX
  5
475E
330
4756
100
AcDbEntity
  8
AM_0
100
AcDbVertex
100
AcDb2dVertex
 10
-130.9498782376979
 20
5.036069065646745
 30
0.0
 42
0.0555312784770531
 70
     1
  0
VERTEX
  5
475F
330
4756
100
AcDbEntity
  8
AM_0
100
AcDbVertex
100
AcDb2dVertex
 10
-130.6967531653658
 20
4.644846369007173
 30
0.0
 42
0.0351528005485752
  0
VERTEX
  5
4760
330
4756
100
AcDbEntity
  8
AM_0
100
AcDbVertex
100
AcDb2dVertex
 10
-130.2876673664212
 20
4.208507656727426
 30
0.0
 42
0.0198940146009696
 70
     1
  0
VERTEX
  5
4761
330
4756
100
AcDbEntity
  8
AM_0
100
AcDbVertex
100
AcDb2dVertex
 10
-129.4512249767382
 20
3.580388178608506
 30
0.0
 42
0.0358460074876439
  0
VERTEX
  5
4762
330
4756
100
AcDbEntity
  8
AM_0
100
AcDbVertex
100
AcDb2dVertex
 10
-129.1215365763924
 20
3.357607394600034
 30
0.0
 42
0.021710998496176
 70
     1
  0
VERTEX
  5
4763
330
4756
100
AcDbEntity
  8
AM_0
100
AcDbVertex
100
AcDb2dVertex
 10
-128.5415421941807
 20
3.058896416832865
 30
0.0
  0
SEQEND
  5
4764
330
4756
100
AcDbEntity
  8
AM_0
  0
ELLIPSE
  5
4765
330
1F
100
AcDbEntity
  8
AM_0
100
AcDbEllipse
 10
-129.7970901531176
 20
-9.62510608053402
 30
0.0
 11
-0.0000000000036138
 21
3.962237683019809
 31
0.0
210
0.0
220
0.0
230
1.0
 40
0.9226510067109876
 41
0.0952766170350623
 42
0.2313492321867727
  0
ELLIPSE
  5
4766
330
1F
100
AcDbEntity
  8
AM_0
100
AcDbEllipse
 10
-129.4747497889699
 20
-2.512216343567287
 30
0.0
 11
0.0000000000047394
 21
4.052786114956943
 31
0.0
210
0.0
220
0.0
230
1.0
 40
0.9226510067110679
 41
2.827283645646714
 42
2.960363693372339
  0
ELLIPSE
  5
4767
330
1F
100
AcDbEntity
  8
AM_0
100
AcDbEllipse
 10
-130.5028787924927
 20
-6.504379334997524
 30
0.0
 11
-0.0000000000000987
 21
0.7498176550135464
 31
0.0
210
0.0
220
0.0
230
1.0
 40
0.9226510067113377
 41
0.1926332863329869
 42
0.5061117441976486
  0
ELLIPSE
  5
4768
330
1F
100
AcDbEntity
  8
AM_0
100
AcDbEllipse
 10
-130.6145195863398
 20
-6.289442555221105
 30
0.0
 11
-0.0000000000045519
 21
0.5031704438323001
 31
0.0
210
0.0
220
0.0
230
1.0
 40
0.92265100671123
 41
0.5028645116569237
 42
0.8675868530598309
  0
ELLIPSE
  5
4769
330
1F
100
AcDbEntity
  8
AM_0
100
AcDbEllipse
 10
-130.8666442591868
 20
-6.057161407581586
 30
0.0
 11
0.0000000000008482
 21
0.1445265748926447
 31
0.0
210
0.0
220
0.0
230
1.0
 40
0.9226510067105385
 41
0.8708229448584571
 42
1.557899568962172
  0
ELLIPSE
  5
476A
330
1F
100
AcDbEntity
  8
AM_0
100
AcDbEllipse
 10
-130.8629722062485
 20
-6.055378577859611
 30
0.0
 11
-0.0000000000002045
 21
0.1484944715946483
 31
0.0
210
0.0
220
0.0
230
1.0
 40
0.9226510067114663
 41
1.570250563377515
 42
2.246594350019485
  0
ELLIPSE
  5
476B
330
1F
100
AcDbEntity
  8
AM_0
100
AcDbEllipse
 10
-130.5808276296348
 20
-5.807700294285305
 30
0.0
 11
0.0000000000035017
 21
0.5420115983173839
 31
0.0
210
0.0
220
0.0
230
1.0
 40
0.9226510067110746
 41
2.250206732582475
 42
2.600849383088704
  0
ELLIPSE
  5
476C
330
1F
100
AcDbEntity
  8
AM_0
100
AcDbEllipse
 10
-130.4417588551251
 20
-5.560987032492246
 30
0.0
 11
0.0000000000053191
 21
0.8311187776079979
 31
0.0
210
0.0
220
0.0
230
1.0
 40
0.9226510067103699
 41
2.598176912244188
 42
2.892513815375508
  0
ELLIPSE
  5
476D
330
1F
100
AcDbEntity
  8
AM_0
100
AcDbEllipse
 10
-130.0863241288166
 20
-6.987734350729746
 30
0.0
 11
-0.0000000000001374
 21
1.308435333234533
 31
0.0
210
0.0
220
0.0
230
1.0
 40
0.9226510067117041
 41
-0.1305094391970754
 42
0.0485168534967504
  0
ELLIPSE
  5
476E
330
1F
100
AcDbEntity
  8
AM_0
100
AcDbEllipse
 10
-130.0219534096021
 20
-5.22568233919844
 30
0.0
 11
-2.302728892521304
 21
0.1667784123498655
 31
0.0
210
0.0
220
0.0
230
1.0
 40
0.5539428557412908
 41
1.55586207706843
 42
1.649723516161703
  0
ELLIPSE
  5
476F
330
1F
100
AcDbEntity
  8
AM_0
100
AcDbEllipse
 10
-129.8346104282662
 20
-4.636890864869101
 30
0.0
 11
0.0000000000001021
 21
1.876238073893635
 31
0.0
210
0.0
220
0.0
230
1.0
 40
0.9750000000002746
 41
3.088060236649474
 42
3.196956952929343
  0
ELLIPSE
  5
4770
330
1F
100
AcDbEntity
  8
AM_0
100
AcDbEllipse
 10
-130.1784078885439
 20
-7.79668793587566
 30
0.0
 11
0.000000000001614
 21
2.123507113279831
 31
0.0
210
0.0
220
0.0
230
1.0
 40
0.9226510067110682
 41
-0.2679377313993108
 42
-0.1275323195054403
  0
SPLINE
  5
4771
330
1F
100
AcDbEntity
  8
AM_0
100
AcDbSpline
210
0.0
220
0.0
230
1.0
 70
     8
 71
     3
 72
    17
 73
    13
 74
     0
 42
0.0000000001
 43
0.0000000001
 40
4.004329625082316
 40
4.004329625082316
 40
4.004329625082316
 40
4.004329625082316
 40
4.232934581347659
 40
5.09097061220244
 40
5.954688180526682
 40
6.824620803463244
 40
7.701151815239697
 40
8.58445704656667
 40
9.47458238407075
 40
10.37139106676736
 40
11.27458944007584
 40
12.17321262433756
 40
12.17321262433756
 40
12.17321262433756
 40
12.17321262433756
 10
-114.5691192339268
 20
-8.000128778019156
 30
0.0
 10
-114.7431615254227
 20
-7.972148648702142
 30
0.0
 10
-115.32030667727
 20
-7.879289100042472
 30
0.0
 10
-116.352334572157
 20
-7.692816044570361
 30
0.0
 10
-117.7146521674329
 20
-7.405467051137391
 30
0.0
 10
-119.0768404156205
 20
-7.078815720025515
 30
0.0
 10
-124.0265975144921
 20
-6.119332879241911
 30
0.0
 10
-125.3885176664821
 20
-5.720345588175276
 30
0.0
 10
-126.7503014684306
 20
-5.288779283037906
 30
0.0
 10
-128.111970798123
 20
-4.827314786875614
 30
0.0
 10
-129.4682447290683
 20
-4.340686129501677
 30
0.0
 10
-130.3678954180761
 20
-4.002072103033374
 30
0.0
 10
-130.9999807595978
 20
-3.830301744931373
 30
0.0
  0
SPLINE
  5
4772
330
1F
100
AcDbEntity
  8
AM_0
100
AcDbSpline
210
0.0
220
0.0
230
1.0
 70
     8
 71
     3
 72
    14
 73
    10
 74
     0
 42
0.0000000001
 43
0.0000000001
 40
4.826907296497788
 40
4.826907296497788
 40
4.826907296497788
 40
4.826907296497788
 40
5.079857003664532
 40
6.109500240690281
 40
7.145961322679372
 40
8.189895241603872
 40
9.241717795325891
 40
10.30168407291828
 40
10.55450228288433
 40
10.55450228288433
 40
10.55450228288433
 40
10.55450228288433
 10
-117.8197422689919
 20
-8.000157895494774
 30
0.0
 10
-118.1588959367174
 20
-7.97011445941631
 30
0.0
 10
-120.0395752776826
 20
-7.871381118499935
 30
0.0
 10
-123.7549781706058
 20
-7.241640174461388
 30
0.0
 10
-125.1173017158658
 20
-6.957537541283108
 30
0.0
 10
-126.4794929187816
 20
-6.634560779411999
 30
0.0
 10
-127.8415425003487
 20
-6.274692946572845
 30
0.0
 10
-128.8542641174777
 20
-5.981342184763198
 30
0.0
 10
-129.4138391524208
 20
-5.811100383919364
 30
0.0
 10
-129.6597079637433
 20
-5.748949853166693
 30
0.0
  0
SPLINE
  5
4773
330
1F
100
AcDbEntity
  8
AM_0
100
AcDbSpline
210
0.0
220
0.0
230
1.0
 70
     8
 71
     3
 72
    15
 73
    11
 74
     0
 42
0.0000000001
 43
0.0000000001
 40
5.241236682593577
 40
5.241236682593577
 40
5.241236682593577
 40
5.241236682593577
 40
5.954688180526682
 40
6.824620803463244
 40
7.701151815239697
 40
8.58445704656667
 40
9.47458238407075
 40
10.37139106676736
 40
11.27458944007584
 40
12.17321262433756
 40
12.17321262433756
 40
12.17321262433756
 40
12.17321262433756
 10
-120.1731510896021
 20
-0.6164336798781998
 30
0.0
 10
-120.5489900216252
 20
-0.6919625475179896
 30
0.0
 10
-121.3807765290439
 20
-0.8694763574213013
 30
0.0
 10
-122.6645446756117
 20
-1.177322629383519
 30
0.0
 10
-124.026597514492
 20
-1.541270610646425
 30
0.0
 10
-125.3885176664819
 20
-1.940257901712951
 30
0.0
 10
-126.7503014684304
 20
-2.371824206850225
 30
0.0
 10
-128.1119707981229
 20
-2.833288703012394
 30
0.0
 10
-129.4682447290683
 20
-3.319917360386215
 30
0.0
 10
-130.367895418076
 20
-3.658531386854436
 30
0.0
 10
-130.9999807595978
 20
-3.830301744956399
 30
0.0
  0
ELLIPSE
  5
4774
330
1F
100
AcDbEntity
  8
AM_0
100
AcDbEllipse
 10
-126.3418675436457
 20
26.4677978885498
 30
0.0
 11
-16.55562502963412
 21
15.39382310671577
 31
0.0
210
0.0
220
0.0
230
1.0
 40
0.7799300315786775
 41
2.038771545951777
 42
2.20598870703904
  0
SPLINE
  5
4775
330
1F
100
AcDbEntity
  8
AM_0
100
AcDbSpline
210
0.0
220
0.0
230
1.0
 70
     8
 71
     3
 72
     9
 73
     5
 74
     0
 42
0.0000000001
 43
0.0000000001
 40
1.580019955310467
 40
1.580019955310467
 40
1.580019955310467
 40
1.580019955310467
 40
2.030549285115227
 40
2.43907978603305
 40
2.43907978603305
 40
2.43907978603305
 40
2.43907978603305
 10
-128.4144069870877
 20
-6.106019957423368
 30
0.0
 10
-128.6072217241887
 20
-6.162205449274786
 30
0.0
 10
-128.9755051039531
 20
-6.267507379559051
 30
0.0
 10
-129.3453281277228
 20
-6.368321544832654
 30
0.0
 10
-129.5215050709469
 20
-6.415329062335919
 30
0.0
  0
SPLINE
  5
4776
330
1F
100
AcDbEntity
  8
AM_0
100
AcDbSpline
210
0.0
220
0.0
230
1.0
 70
     8
 71
     3
 72
    13
 73
     9
 74
     0
 42
0.0000000001
 43
0.0000000001
 40
26.13201924531566
 40
26.13201924531566
 40
26.13201924531566
 40
26.13201924531566
 40
26.99048218457928
 40
28.09348763352352
 40
29.20111863782268
 40
30.31232390128032
 40
31.42594612798585
 40
32.5407912310448
 40
32.5407912310486
 40
32.5407912310486
 40
32.5407912310486
 10
-128.5415421941806
 20
3.058896416832865
 30
0.0
 10
-128.0377982652282
 20
2.855048806581856
 30
0.0
 10
-127.2362466955238
 20
2.520471272214444
 30
0.0
 10
-125.9881715755005
 20
1.984903707828776
 30
0.0
 10
-124.643384595842
 20
1.393582999736769
 30
0.0
 10
-123.2989346328011
 20
0.7916605894720134
 30
0.0
 10
-121.9547122101987
 20
0.1826244544071464
 30
0.0
 10
-121.0588046335798
 20
-0.225700972402147
 30
0.0
 10
-120.6106065257475
 20
-0.4299784663046831
 30
0.0
  0
SPLINE
  5
4777
330
1F
100
AcDbEntity
  8
AM_0
100
AcDbSpline
210
0.0
220
0.0
230
1.0
 70
     8
 71
     3
 72
    21
 73
    17
 74
     0
 42
0.0000000001
 43
0.0000000001
 40
17.52103074144743
 40
17.52103074144743
 40
17.52103074144743
 40
17.52103074144743
 40
18.41823744757437
 40
19.46215659509824
 40
20.51397914882054
 40
21.57394542641293
 40
22.64209583141747
 40
23.71826625065247
 40
24.80210429862395
 40
25.8930771157021
 40
26.99048705697709
 40
28.09349309193389
 40
29.20112995599786
 40
30.31233024745139
 40
31.42594771747373
 40
32.5407895042663
 40
32.54078950426994
 40
32.54078950426994
 40
32.54078950426994
 10
-98.43314960577234
 20
-8.000000698001997
 30
0.0
 10
-101.2177798540208
 20
-7.280639840207058
 30
0.0
 10
-102.9709815027915
 20
-6.72353097342022
 30
0.0
 10
-104.2726029108334
 20
-6.414908483135785
 30
0.0
 10
-105.6346466918399
 20
-6.055044079883351
 30
0.0
 10
-106.9965612852531
 20
-5.660543556200948
 30
0.0
 10
-108.3583448920785
 20
-5.233825783575102
 30
0.0
 10
-109.7200142742934
 20
-4.777546423888791
 30
0.0
 10
-111.0815757368096
 20
-4.294509623278512
 30
0.0
 10
-112.4430418773085
 20
-3.787694243226221
 30
0.0
 10
-113.8044278344302
 20
-3.260227013604635
 30
0.0
 10
-115.1657454241836
 20
-2.715351346359706
 30
0.0
 10
-116.5270083504311
 20
-2.156419408669252
 30
0.0
 10
-117.8882286795839
 20
-1.586867999275499
 30
0.0
 10
-119.2494265769371
 20
-1.01021155822151
 30
0.0
 10
-120.1567137172751
 20
-0.6234603153160953
 30
0.0
 10
-120.6106065257536
 20
-0.4299784663020377
 30
0.0
  0
ELLIPSE
  5
4778
330
1F
100
AcDbEntity
  8
AM_0
100
AcDbEllipse
 10
-129.0297334322507
 20
-8.251977994278872
 30
0.0
 11
1.680800000152955
 21
1.46920051585816
 31
0.0
210
0.0
220
0.0
230
1.0
 40
0.8248005535284484
 41
1.1857563371845
 42
2.202114060766547
  0
LINE
  5
4779
330
1F
100
AcDbEntity
  8
AM_0
100
AcDbLine
 10
-100.2704946016674
 20
7.999999301997974
 30
0.0
 11
-71.70737852786344
 21
8.001135847181469
 31
0.0
  0
SPLINE
  5
477A
330
1F
100
AcDbEntity
  8
AM_0
100
AcDbSpline
210
0.0
220
0.0
230
1.0
 70
     8
 71
     3
 72
    22
 73
    18
 74
     0
 42
0.0000000001
 43
0.0000000001
 40
17.17441611292
 40
17.17441611292
 40
17.17441611292
 40
17.17441611292
 40
17.38177636558528
 40
18.41823744757437
 40
19.46215659509824
 40
20.51397914882054
 40
21.57394542641293
 40
22.64209583141747
 40
23.71826625065247
 40
24.80210429862395
 40
25.8930771157021
 40
26.99048705697709
 40
28.09349309193389
 40
29.20112995599786
 40
30.31233024745139
 40
31.42594771747373
 40
32.5407895042663
 40
32.54078950426994
 40
32.54078950426994
 40
32.54078950426994
 10
-79.28891572370128
 20
-7.184058599195676
 30
0.0
 10
-79.37003267631692
 20
-7.165539383849834
 30
0.0
 10
-79.85628450669985
 20
-7.05273681897816
 30
0.0
 10
-80.74707045977978
 20
-6.826552994829756
 30
0.0
 10
-81.95791182981118
 20
-6.476994470314612
 30
0.0
 10
-83.16862981764865
 20
-6.087518583146779
 30
0.0
 10
-84.37923297089332
 20
-5.660556538385697
 30
0.0
 10
-85.58971969042266
 20
-5.198726244637067
 30
0.0
 10
-86.80010487592451
 20
-4.704901885228167
 30
0.0
 10
-88.01039413182246
 20
-4.182118345783593
 30
0.0
 10
-89.2205986561702
 20
-3.633599603745873
 30
0.0
 10
-90.43073190567458
 20
-3.06272967231582
 30
0.0
 10
-91.64080438356219
 20
-2.473018847965323
 30
0.0
 10
-92.85082827116907
 20
-1.868095131334944
 30
0.0
 10
-94.06081429430376
 20
-1.25167811854769
 30
0.0
 10
-95.27078037785679
 20
-0.62757143575078
 30
0.0
 10
-96.07726609899064
 20
-0.2089963222289382
 30
0.0
 10
-96.48073050699151
 20
0.0004062030404576
 30
0.0
  0
SPLINE
  5
477B
330
1F
100
AcDbEntity
  8
AM_0
100
AcDbSpline
210
0.0
220
0.0
230
1.0
 70
     8
 71
     3
 72
    46
 73
    42
 74
     0
 42
0.0000000001
 43
0.0000000001
 40
0.0
 40
0.0
 40
0.0
 40
0.0
 40
1.348332046947654
 40
2.024828967632893
 40
2.703918159304094
 40
3.386347665078122
 40
4.072776489761951
 40
4.763750544421345
 40
5.459696642770595
 40
6.160921452191748
 40
6.867565637253344
 40
7.579665907256597
 40
8.297112853413899
 40
9.019671552060666
 40
9.746986763446125
 40
10.47859339096365
 40
11.21393074760088
 40
11.95235532364327
 40
12.69315551794651
 40
13.43556823304427
 40
14.1787950170388
 40
14.92202180103393
 40
15.66443451613169
 40
16.40523471043432
 40
17.14365928647669
 40
17.87899664311455
 40
18.61060327063121
 40
19.33791848201689
 40
20.06048192311554
 40
20.77792886927282
 40
21.49002913927608
 40
22.19667332433747
 40
22.89788836015233
 40
23.59383445850157
 40
24.28480851316097
 40
24.97123685067575
 40
25.65366676154837
 40
26.33276604526151
 40
27.00926273560554
 40
27.68398960851752
 40
28.35781868496899
 40
28.35781868496899
 40
28.35781868496899
 40
28.35781868496899
 10
-48.45456117312757
 20
-8.000000698004964
 30
0.0
 10
-49.26239546082957
 20
-7.98177607959761
 30
0.0
 10
-50.47554341684609
 20
-7.954407646607516
 30
0.0
 10
-52.08871915720479
 20
-7.785905232536468
 30
0.0
 10
-53.30000374884772
 20
-7.616009975523752
 30
0.0
 10
-54.51118480449321
 20
-7.397893324927349
 30
0.0
 10
-55.72225913347567
 20
-7.134455656854052
 30
0.0
 10
-56.93322051426868
 20
-6.826956427785227
 30
0.0
 10
-58.14406691869393
 20
-6.477398799998902
 30
0.0
 10
-59.35479295805736
 20
-6.087929109075316
 30
0.0
 10
-60.5654010523098
 20
-5.660962990469902
 30
0.0
 10
-61.77588794528357
 20
-5.199133267190222
 30
0.0
 10
-62.98627308409832
 20
-4.705308753948477
 30
0.0
 10
-64.19656235146771
 20
-4.18252525334996
 30
0.0
 10
-65.40676687713046
 20
-3.634006511414125
 30
0.0
 10
-66.61690010964268
 20
-3.063136539998777
 30
0.0
 10
-67.82697265467316
 20
-2.473425876685175
 30
0.0
 10
-69.0369962892812
 20
-1.868501552476518
 30
0.0
 10
-70.24698384316659
 20
-1.252086522127233
 30
0.0
 10
-71.45694636964475
 20
-0.6279713047721575
 30
0.0
 10
-72.66689872496428
 20
-0.0000006981306464
 30
0.0
 10
-73.87685108001797
 20
0.6279699092739719
 30
0.0
 10
-75.08681360729344
 20
1.25208512434083
 30
0.0
 10
-76.29680115826461
 20
1.868500163052534
 30
0.0
 10
-77.50682480367888
 20
2.473424456248025
 30
0.0
 10
-78.71689730864098
 20
3.063135234555291
 30
0.0
 10
-79.92703068954
 20
3.634004780108707
 30
0.0
 10
-81.13723729725464
 20
4.182526289768054
 30
0.0
 10
-82.34753126722429
 20
4.705305040613446
 30
0.0
 10
-83.55791856518065
 20
5.199132086018173
 30
0.0
 10
-84.76840542997086
 20
5.660961946716768
 30
0.0
 10
-85.97900855118279
 20
6.087924141868445
 30
0.0
 10
-87.18972652372757
 20
6.477399857558225
 30
0.0
 10
-88.40056798555908
 20
6.826958913325712
 30
0.0
 10
-89.61152866551127
 20
7.134438024180624
 30
0.0
 10
-90.82260388237932
 20
7.397952099558717
 30
0.0
 10
-92.03379266787573
 20
7.615757276781226
 30
0.0
 10
-93.24507101807624
 20
7.786848564753253
 30
0.0
 10
-94.45642430947886
 20
7.908913189717935
 30
0.0
 10
-95.66782157210484
 20
7.985723778500748
 30
0.0
 10
-96.4756167305353
 20
7.995242906607646
 30
0.0
 10
-96.87924541633369
 20
7.999999301997784
 30
0.0
  0
SPLINE
  5
477C
330
1F
100
AcDbEntity
  8
AM_0
100
AcDbSpline
210
0.0
220
0.0
230
1.0
 70
     8
 71
     3
 72
    22
 73
    18
 74
     0
 42
0.0000000001
 43
0.0000000001
 40
30.51371389116273
 40
30.51371389116273
 40
30.51371389116273
 40
30.51371389116273
 40
31.16722880550176
 40
32.23537921050758
 40
33.29534548809967
 40
34.347168041821
 40
35.39108718934584
 40
36.42754827133493
 40
37.45720575381954
 40
38.48085062012849
 40
39.49948440763516
 40
40.51422944315121
 40
41.52631975251916
 40
42.53706336719636
 40
43.54780698187354
 40
44.55989729124051
 40
45.14939243453665
 40
45.14939243453665
 40
45.14939243453665
 40
45.14939243453665
 10
-96.48073050698888
 20
0.0004062030390883
 30
0.0
 10
-106.7224316048138
 20
4.189205422810275
 30
0.0
 10
-107.4497255781489
 20
4.429778290247911
 30
0.0
 10
-108.6318856553328
 20
4.800210675045326
 30
0.0
 10
-109.9938002640508
 20
5.194711128486594
 30
0.0
 10
-111.3558439920292
 20
5.554575783697391
 30
0.0
 10
-112.7180267713659
 20
5.877556775758275
 30
0.0
 10
-114.0803498112746
 20
6.16166512188312
 30
0.0
 10
-115.4428033461275
 20
6.405126107975148
 30
0.0
 10
-116.8053764728184
 20
6.60642312566939
 30
0.0
 10
-118.1680434400919
 20
6.764321543256783
 30
0.0
 10
-119.5307952911927
 20
6.877801022016671
 30
0.0
 10
-120.8936032130942
 20
6.946180796471473
 30
0.0
 10
-122.2564410818733
 20
6.969024216495022
 30
0.0
 10
-123.6192789486472
 20
6.946180796435796
 30
0.0
 10
-124.7912987745432
 20
6.887373939285637
 30
0.0
 10
-125.305431699308
 20
6.955283455558752
 30
0.0
 10
-126.1832840986657
 20
6.940347587839379
 30
0.0
  0
SPLINE
  5
477D
330
1F
100
AcDbEntity
  8
AM_0
100
AcDbSpline
210
0.0
220
0.0
230
1.0
 70
     8
 71
     3
 72
    55
 73
    51
 74
     0
 42
0.0000000001
 43
0.0000000001
 40
0.0
 40
0.0
 40
0.0
 40
0.0
 40
1.010743684496582
 40
2.022833576467832
 40
3.037578957496688
 40
4.056212745003489
 40
5.079857003664532
 40
6.109500240690281
 40
7.145961322679372
 40
8.189895241603872
 40
9.241717795325891
 40
10.30168407291828
 40
11.36983447792315
 40
12.44600489715814
 40
13.52984294512926
 40
14.62081576220742
 40
15.7182257034828
 40
16.82123173843959
 40
17.92886860250316
 40
19.0400688939571
 40
20.15368796660465
 40
21.26852814259644
 40
22.38336992938901
 40
23.49698739941135
 40
24.6081876908653
 40
25.71582455492886
 40
26.81883757994213
 40
27.91624752121713
 40
29.00722033829659
 40
30.09105838626677
 40
31.16722880550176
 40
32.23537921050758
 40
33.29534548809967
 40
34.347168041821
 40
35.39108718934584
 40
36.42754827133493
 40
37.45720575381954
 40
38.48085062012849
 40
39.49948440763516
 40
40.51422944315121
 40
41.52631975251916
 40
42.53706336719636
 40
43.54780698187354
 40
44.55989729124051
 40
45.57464232675757
 40
46.59327611426424
 40
47.6169209805722
 40
48.64656348684535
 40
49.68302456883444
 40
50.58557219878025
 40
50.58557219878025
 40
50.58557219878025
 40
50.58557219878025
 10
-51.84565315863755
 20
-8.000000698004777
 30
0.0
 10
-52.24928177263635
 20
-7.995240891816599
 30
0.0
 10
-53.0570765927708
 20
-7.985714939864003
 30
0.0
 10
-54.26847485104017
 20
-7.908925072903047
 30
0.0
 10
-55.47982139928543
 20
-7.786849244186379
 30
0.0
 10
-56.69109297707201
 20
-7.615755327346632
 30
0.0
 10
-57.90227749781629
 20
-7.397961972988345
 30
0.0
 10
-59.11335106755572
 20
-7.134437673450589
 30
0.0
 10
-60.3243177372776
 20
-6.82695762234308
 30
0.0
 10
-61.53516676815502
 20
-6.477404680380886
 30
0.0
 10
-62.74588991209928
 20
-6.08792508142238
 30
0.0
 10
-63.95649320389589
 20
-5.660963548649211
 30
0.0
 10
-65.16697988578187
 20
-5.199133115912512
 30
0.0
 10
-66.37736508181868
 20
-4.705308794968984
 30
0.0
 10
-67.58765433360074
 20
-4.182525242075827
 30
0.0
 10
-68.79785886382297
 20
-3.63400651510802
 30
0.0
 10
-70.00799209381733
 20
-3.063136536572013
 30
0.0
 10
-71.21806464435906
 20
-2.473425886737366
 30
0.0
 10
-72.4280882593404
 20
-1.868501515503671
 30
0.0
 10
-73.63807588652808
 20
-1.252086660507263
 30
0.0
 10
-74.84803813866545
 20
-0.6279707869523516
 30
0.0
 10
-76.05799210229365
 20
-0.0000023302939983
 30
0.0
 10
-77.26794063424091
 20
0.6279774301879304
 30
0.0
 10
-78.47790694190805
 20
1.252083584607865
 30
0.0
 10
-79.6878930753498
 20
1.868500305456947
 30
0.0
 10
-80.89791884778987
 20
2.47342698118287
 30
0.0
 10
-82.107996418293
 20
3.063132598323279
 30
0.0
 10
-83.31813155819721
 20
3.634005471964372
 30
0.0
 10
-84.52833626313269
 20
4.182523754140043
 30
0.0
 10
-85.73862547087621
 20
4.705307416972615
 30
0.0
 10
-86.94901067001239
 20
5.199131738638512
 30
0.0
 10
-88.15949738273046
 20
5.660962060944584
 30
0.0
 10
-89.37010054957955
 20
6.087924029684759
 30
0.0
 10
-90.58081849028047
 20
6.477400189543396
 30
0.0
 10
-91.79166003345525
 20
6.826957709777014
 30
0.0
 10
-93.00262625397138
 20
7.134443943921534
 30
0.0
 10
-94.21370847118202
 20
7.397938145326166
 30
0.0
 10
-95.42489699333769
 20
7.615798911331716
 30
0.0
 10
-96.63616893019936
 20
7.786690018416585
 30
0.0
 10
-97.847516320125
 20
7.909507169170868
 30
0.0
 10
-99.05891355127302
 20
7.983513581251144
 30
0.0
 10
-100.2703374021405
 20
8.008236674725244
 30
0.0
 10
-101.4817612512256
 20
7.983513581212514
 30
0.0
 10
-102.6931584877313
 20
7.909507169326635
 30
0.0
 10
-103.9045058579314
 20
7.786690017830897
 30
0.0
 10
-105.1157778687489
 20
7.615798913534459
 30
0.0
 10
-106.3269602081017
 20
7.39793919915212
 30
0.0
 10
-107.5380376541093
 20
7.134446638008079
 30
0.0
 10
-108.6939438685839
 20
6.840915638100814
 30
0.0
 10
-109.4439089843692
 20
6.626253642922378
 30
0.0
 10
-111.7049571541939
 20
5.634713015830157
 30
0.0
  0
DIMENSION
  5
47AE
330
1F
100
AcDbEntity
  8
AM_5
100
AcDbDimension
  2
*D8
 10
14.55592102485917
 20
7.999999301993778
 30
0.0
 11
11.15592102485917
 21
-0.0000006980065934
 31
0.0
 70
    32
  1
%%c<>
 51
359.9999999999998
  3
AM_JIS$0
100
AcDbAlignedDimension
 13
-2.999999999998434
 23
-8.000000698006966
 33
0.0
 14
-2.999999999998482
 24
7.999999301993783
 34
0.0
 50
90.00000000000076
100
AcDbRotatedDimension
1001
ACAD
1000
DSTYLE
1002
{
1070
   271
1070
     0
1002
}
1001
GENIUS_GENDTOL_13
1000

1000
h7
1000

1040
0.0
  0
DIMENSION
  5
48CF
330
1F
100
AcDbEntity
  8
AM_5
100
AcDbDimension
  2
*D9
 10
-0.6569101001214342
 20
-1.804832053867123
 30
0.0
 11
23.93204074404596
 21
-0.0000290386692473
 31
0.0
 70
    34
  1
<>
 51
359.9999999999998
  3
AM_JIS$2
100
AcDb2LineAngularDimension
 13
0.0000000000011369
 23
-0.0000000000000105
 33
0.0
 14
-0.6568967178310854
 24
1.804808914154737
 34
0.0
 15
0.00000000000108
 25
0.0
 35
0.0
 16
24.82124654252031
 26
-10.7068644739779
 36
0.0
1001
GENIUS_GENDTOL_13
1000

1000
h7
1000

1040
0.0
1001
ACAD
1000
DSTYLE
1002
{
1070
   271
1070
     0
1002
}
  0
ELLIPSE
  5
49D3
330
1F
100
AcDbEntity
  8
AM_11
 48
0.5
100
AcDbEllipse
 10
-208.316032109192
 20
31.80222969724304
 30
0.0
 11
-35.51732381184845
 21
0.000000000000775
 31
0.0
210
0.0
220
0.0
230
1.0
 40
0.9899999999999995
 41
1.895054800108161
 42
2.011520147323624
  0
ELLIPSE
  5
49D4
330
1F
100
AcDbEntity
  8
AM_11
 48
0.5
100
AcDbEllipse
 10
-208.3160321091916
 20
-31.80208243654572
 30
0.0
 11
-35.51732381184842
 21
0.000000000001611
 31
0.0
210
0.0
220
0.0
230
1.0
 40
0.9900000000000011
 41
4.271664206181739
 42
4.388130507071504
  0
ELLIPSE
  5
49D5
330
1F
100
AcDbEntity
  8
AM_11
 48
0.5
100
AcDbEllipse
 10
-178.0129363193908
 20
-31.80211301555303
 30
0.0
 11
-35.51732381184836
 21
0.0000000000012798
 31
0.0
210
0.0
220
0.0
230
1.0
 40
0.9900000000000032
 41
4.271664206181728
 42
5.153113667165039
  0
ELLIPSE
  5
49D6
330
1F
100
AcDbEntity
  8
AM_11
 48
0.5
100
AcDbEllipse
 10
-178.0129363193913
 20
31.80219911823574
 30
0.0
 11
-35.51732381184845
 21
-0.0000000000002265
 31
0.0
210
0.0
220
0.0
230
1.0
 40
0.99
 41
1.130070686340306
 42
2.011520147323597
  0
ELLIPSE
  5
49D7
330
1F
100
AcDbEntity
  8
AM_11
 48
0.5
100
AcDbEllipse
 10
-147.709906016361
 20
31.802199118236
 30
0.0
 11
-35.51732381184845
 21
0.000000000000775
 31
0.0
210
0.0
220
0.0
230
1.0
 40
0.9899999999999995
 41
1.130070686340335
 42
2.011520147323624
  0
ELLIPSE
  5
49D8
330
1F
100
AcDbEntity
  8
AM_11
 48
0.5
100
AcDbEllipse
 10
-147.7099060163605
 20
-31.80211301555276
 30
0.0
 11
-35.51732381184842
 21
0.000000000001611
 31
0.0
210
0.0
220
0.0
230
1.0
 40
0.9900000000000011
 41
4.271664206181739
 42
5.153113667165048
  0
ELLIPSE
  5
49D9
330
1F
100
AcDbEntity
  8
AM_11
 48
0.5
100
AcDbEllipse
 10
-87.10377992352997
 20
31.80216853922896
 30
0.0
 11
-35.51732381184845
 21
0.000000000000775
 31
0.0
210
0.0
220
0.0
230
1.0
 40
0.9899999999999995
 41
1.130070686340335
 42
2.011520147323624
  0
ELLIPSE
  5
49DA
330
1F
100
AcDbEntity
  8
AM_11
 48
0.5
100
AcDbEllipse
 10
-87.10377992352951
 20
-31.8021435945598
 30
0.0
 11
-35.51732381184842
 21
0.000000000001611
 31
0.0
210
0.0
220
0.0
230
1.0
 40
0.9900000000000011
 41
4.271664206181739
 42
5.153113667165048
  0
ELLIPSE
  5
49DB
330
1F
100
AcDbEntity
  8
AM_11
 48
0.5
100
AcDbEllipse
 10
-117.4068102265597
 20
-31.80214359456007
 30
0.0
 11
-35.51732381184836
 21
0.0000000000012798
 31
0.0
210
0.0
220
0.0
230
1.0
 40
0.9900000000000032
 41
4.271664206181728
 42
5.153113667165039
  0
ELLIPSE
  5
49DC
330
1F
100
AcDbEntity
  8
AM_11
 48
0.5
100
AcDbEllipse
 10
-117.4068102265603
 20
31.80216853922871
 30
0.0
 11
-35.51732381184845
 21
-0.0000000000002265
 31
0.0
210
0.0
220
0.0
230
1.0
 40
0.99
 41
1.130070686340306
 42
2.011520147323597
  0
ELLIPSE
  5
49DD
330
1F
100
AcDbEntity
  8
AM_11
 48
0.5
100
AcDbEllipse
 10
-26.49771931746832
 20
-31.80214359455952
 30
0.0
 11
-35.51732381184842
 21
0.000000000001611
 31
0.0
210
0.0
220
0.0
230
1.0
 40
0.9900000000000011
 41
4.271664206181739
 42
5.153113667165048
  0
ELLIPSE
  5
49DE
330
1F
100
AcDbEntity
  8
AM_11
 48
0.5
100
AcDbEllipse
 10
-26.49771931746878
 20
31.80216853922924
 30
0.0
 11
-35.51732381184845
 21
0.000000000000775
 31
0.0
210
0.0
220
0.0
230
1.0
 40
0.9899999999999995
 41
1.130070686340335
 42
2.011520147323624
  0
ELLIPSE
  5
49DF
330
1F
100
AcDbEntity
  8
AM_11
 48
0.5
100
AcDbEllipse
 10
-56.80074962049914
 20
31.80216853922898
 30
0.0
 11
-35.51732381184845
 21
-0.0000000000002265
 31
0.0
210
0.0
220
0.0
230
1.0
 40
0.99
 41
1.130070686340306
 42
2.011520147323597
  0
ELLIPSE
  5
49E0
330
1F
100
AcDbEntity
  8
AM_11
 48
0.5
100
AcDbEllipse
 10
-56.80074962049861
 20
-31.80214359455979
 30
0.0
 11
-35.51732381184836
 21
0.0000000000012798
 31
0.0
210
0.0
220
0.0
230
1.0
 40
0.9900000000000032
 41
4.271664206181728
 42
5.153113667165039
  0
ELLIPSE
  5
49E1
330
1F
100
AcDbEntity
  8
AM_11
 48
0.5
100
AcDbEllipse
 10
3.805310985561476
 20
31.80216853922946
 30
0.0
 11
-35.51732381184908
 21
0.0000000000326126
 31
0.0
210
0.0
220
0.0
230
1.0
 40
0.989999999999986
 41
1.130070686341231
 42
1.291800737381917
  0
VIEWPORT
  5
110
330
101
100
AcDbEntity
 67
     1
  8
0
100
AcDbViewport
 10
420.5
 20
297.0
 30
0.0
 40
948.9782706766916
 41
628.452
 68
     1
 69
     1
1001
ACAD
1000
MVIEW
1002
{
1070
    16
1010
0.0
1020
0.0
1030
0.0
1010
0.0
1020
0.0
1030
1.0
1040
0.0
1040
628.452
1040
420.5
1040
297.0
1040
50.0
1040
0.0
1040
0.0
1070
     0
1070
   100
1070
     1
1070
     1
1070
     0
1070
     0
1070
     0
1070
     0
1040
0.0
1040
0.0
1040
0.0
1040
10.0
1040
10.0
1040
10.0
1040
10.0
1070
     0
1002
{
1002
}
1002
}
  0
ENDSEC
  0
SECTION
  2
OBJECTS
  0
DICTIONARY
  5
C
330
0
100
AcDbDictionary
  3
ACAD_GROUP
350
D
  3
ACAD_LAYOUT
350
1A
  3
ACAD_MLINESTYLE
350
17
  3
ACAD_PLOTSETTINGS
350
19
  3
ACAD_PLOTSTYLENAME
350
E
  3
ACDBVARIABLEDICTIONARY
350
34
  3
ACMDICTIONARY
350
43
  3
AMG
350
2B
  3
AMGSNAPSETTINGS
350
6E
  3
DWGPROPS
350
4A09
  3
ACDBHEADERROUNDTRIPXREC
350
4A16
  0
DICTIONARY
  5
74
330
1F
100
AcDbDictionary
280
     1
  3
ACAD_INDEX
360
4A0B
  3
ACAD_LAYOUTSELFREF
360
4A39
  0
DICTIONARY
  5
4A3E
330
101
100
AcDbDictionary
280
     1
  3
ACAD_LAYOUTSELFREF
360
4A3F
  0
DICTIONARY
  5
D
102
{ACAD_REACTORS
330
C
102
}
330
C
100
AcDbDictionary
  0
DICTIONARY
  5
1A
102
{ACAD_REACTORS
330
C
102
}
330
C
100
AcDbDictionary
  0
DICTIONARY
  5
17
102
{ACAD_REACTORS
330
C
102
}
330
C
100
AcDbDictionary
  3
STANDARD
350
18
  0
DICTIONARY
  5
19
102
{ACAD_REACTORS
330
C
102
}
330
C
100
AcDbDictionary
  0
ACDBDICTIONARYWDFLT
  5
E
102
{ACAD_REACTORS
330
C
102
}
330
C
100
AcDbDictionary
281
     1
  3
Normal
350
F
100
AcDbDictionaryWithDefault
340
F
  0
DICTIONARY
  5
34
102
{ACAD_REACTORS
330
C
102
}
330
C
100
AcDbDictionary
  3
INDEXCTL
350
35
  3
SORTENTS
350
B5E
  0
DICTIONARY
  5
43
102
{ACAD_REACTORS
330
C
102
}
330
C
100
AcDbDictionary
  3
ACMSTDDICTIONARY
350
260
  0
DICTIONARY
  5
2B
102
{ACAD_REACTORS
330
C
102
}
330
C
100
AcDbDictionary
  3
ACMGSETTINGS
350
2C
  0
DICTIONARY
  5
6E
102
{ACAD_REACTORS
330
C
102
}
330
C
100
AcDbDictionary
  0
XRECORD
  5
4A09
102
{ACAD_REACTORS
330
C
102
}
330
C
100
AcDbXrecord
  1
DWGPROPS COOKIE
  2

  3

  4

  6

  7

  8

  9

300
AmdtFileType=82
301
=
302
=
303
=
304
=
305
=
306
=
307
=
308
=
309
=
 40
0.1080698611111111
 41
2452800.443498622
 42
2452948.671078738
  1

 90
        1
  0
DICTIONARY
  5
4A16
102
{ACAD_REACTORS
330
C
102
}
330
C
100
AcDbDictionary
  3
TSTACKALIGN
350
4A17
  3
TSTACKSIZE
350
4A18
  3
HYPERLINKBASE
350
4A19
  3
STYLESHEET
350
4A1A
  3
LAYOUTDICT
350
4A1B
  3
PLOTSETDICT
350
4A1C
  3
PLOTSTYLNAMDICT
350
4A1D
  3
LWETCUNION
350
4A1E
  3
INSUNITS
350
4A1F
  3
CEPSNTYPE
350
4A20
  3
FINGERPRINTGUID
350
4A21
  3
VERSIONGUID
350
4A22
  3
PSVPSCALE
350
4A23
  3
DIMSTYLEDATA
350
4A24
  3
PUCSORTHOREF
350
4A25
  3
PUCSORTHOVIEW
350
4A26
  3
PUCSBASE
350
4A27
  3
PUCSORGTOP
350
4A28
  3
PUCSORGBOTTOM
350
4A29
  3
PUCSORGLEFT
350
4A2A
  3
PUCSORGRIGHT
350
4A2B
  3
PUCSORGFRONT
350
4A2C
  3
PUCSORGBACK
350
4A2D
  3
UCSORTHOREF
350
4A2E
  3
UCSORTHOVIEW
350
4A2F
  3
UCSBASE
350
4A30
  3
UCSORGTOP
350
4A31
  3
UCSORGBOTTOM
350
4A32
  3
UCSORGLEFT
350
4A33
  3
UCSORGRIGHT
350
4A34
  3
UCSORGFRONT
350
4A35
  3
UCSORGBACK
350
4A36
  0
DICTIONARY
  5
4A0B
102
{ACAD_REACTORS
330
74
102
}
330
74
100
AcDbDictionary
  3
*A1
350
4A0C
  0
XRECORD
  5
4A39
102
{ACAD_REACTORS
330
74
102
}
330
74
100
AcDbXrecord
340
1F
  0
XRECORD
  5
4A3F
102
{ACAD_REACTORS
330
4A3E
102
}
330
4A3E
100
AcDbXrecord
340
101
  0
MLINESTYLE
  5
18
102
{ACAD_REACTORS
330
17
102
}
330
17
100
AcDbMlineStyle
  2
STANDARD
 70
     0
  3

 62
   256
 51
90.0
 52
90.0
 71
     2
 49
0.5
 62
   256
  6
BYLAYER
 49
-0.5
 62
   256
  6
BYLAYER
  0
ACDBPLACEHOLDER
  5
F
102
{ACAD_REACTORS
330
E
102
}
330
E
100
AcDbPlaceHolder
280
     0
  0
DICTIONARYVAR
  5
35
102
{ACAD_REACTORS
330
34
102
}
330
34
100
DictionaryVariables
280
     0
  1
1
  0
DICTIONARYVAR
  5
B5E
102
{ACAD_REACTORS
330
34
102
}
330
34
100
DictionaryVariables
280
     0
  1
96
  0
DICTIONARY
  5
260
102
{ACAD_REACTORS
330
43
102
}
330
43
100
AcDbDictionary
  0
DICTIONARY
  5
2C
102
{ACAD_REACTORS
330
2B
102
}
330
2B
100
AcDbDictionary
  3
DWGSETTINGS
350
2D
  0
XRECORD
  5
4A17
102
{ACAD_REACTORS
330
4A16
102
}
330
4A16
100
AcDbXrecord
 90
        1
  0
XRECORD
  5
4A18
102
{ACAD_REACTORS
330
4A16
102
}
330
4A16
100
AcDbXrecord
 90
       70
  0
XRECORD
  5
4A19
102
{ACAD_REACTORS
330
4A16
102
}
330
4A16
100
AcDbXrecord
  1

  0
XRECORD
  5
4A1A
102
{ACAD_REACTORS
330
4A16
102
}
330
4A16
100
AcDbXrecord
  1
ASAMI.ctb
  0
XRECORD
  5
4A1B
102
{ACAD_REACTORS
330
4A16
102
}
330
4A16
100
AcDbXrecord
340
1A
  0
XRECORD
  5
4A1C
102
{ACAD_REACTORS
330
4A16
102
}
330
4A16
100
AcDbXrecord
340
19
  0
XRECORD
  5
4A1D
102
{ACAD_REACTORS
330
4A16
102
}
330
4A16
100
AcDbXrecord
340
E
  0
XRECORD
  5
4A1E
102
{ACAD_REACTORS
330
4A16
102
}
330
4A16
100
AcDbXrecord
 90
    10781
  0
XRECORD
  5
4A1F
102
{ACAD_REACTORS
330
4A16
102
}
330
4A16
100
AcDbXrecord
 90
        4
  0
XRECORD
  5
4A20
102
{ACAD_REACTORS
330
4A16
102
}
330
4A16
100
AcDbXrecord
 90
        0
  0
XRECORD
  5
4A21
102
{ACAD_REACTORS
330
4A16
102
}
330
4A16
100
AcDbXrecord
  1
{AFB28963-8C59-40AE-9337-C84526B81ACE}
  0
XRECORD
  5
4A22
102
{ACAD_REACTORS
330
4A16
102
}
330
4A16
100
AcDbXrecord
  1
{FEB8E7E6-0FDA-4564-94C5-13303CB57A3D}
  0
XRECORD
  5
4A23
102
{ACAD_REACTORS
330
4A16
102
}
330
4A16
100
AcDbXrecord
 40
0.0
  0
XRECORD
  5
4A24
102
{ACAD_REACTORS
330
4A16
102
}
330
4A16
100
AcDbXrecord
1000
DSTYLE
1002
{
1070
    79
 70
     2
1070
   341
340
59
1070
   342
340
59
1070
   371
 70
    -1
1070
   372
 70
    -1
1002
}
  0
XRECORD
  5
4A25
102
{ACAD_REACTORS
330
4A16
102
}
330
4A16
100
AcDbXrecord
340
0
  0
XRECORD
  5
4A26
102
{ACAD_REACTORS
330
4A16
102
}
330
4A16
100
AcDbXrecord
 70
     0
  0
XRECORD
  5
4A27
102
{ACAD_REACTORS
330
4A16
102
}
330
4A16
100
AcDbXrecord
340
0
  0
XRECORD
  5
4A28
102
{ACAD_REACTORS
330
4A16
102
}
330
4A16
100
AcDbXrecord
 10
0.0
 20
0.0
 30
0.0
  0
XRECORD
  5
4A29
102
{ACAD_REACTORS
330
4A16
102
}
330
4A16
100
AcDbXrecord
 10
0.0
 20
0.0
 30
0.0
  0
XRECORD
  5
4A2A
102
{ACAD_REACTORS
330
4A16
102
}
330
4A16
100
AcDbXrecord
 10
0.0
 20
0.0
 30
0.0
  0
XRECORD
  5
4A2B
102
{ACAD_REACTORS
330
4A16
102
}
330
4A16
100
AcDbXrecord
 10
0.0
 20
0.0
 30
0.0
  0
XRECORD
  5
4A2C
102
{ACAD_REACTORS
330
4A16
102
}
330
4A16
100
AcDbXrecord
 10
0.0
 20
0.0
 30
0.0
  0
XRECORD
  5
4A2D
102
{ACAD_REACTORS
330
4A16
102
}
330
4A16
100
AcDbXrecord
 10
0.0
 20
0.0
 30
0.0
  0
XRECORD
  5
4A2E
102
{ACAD_REACTORS
330
4A16
102
}
330
4A16
100
AcDbXrecord
340
0
  0
XRECORD
  5
4A2F
102
{ACAD_REACTORS
330
4A16
102
}
330
4A16
100
AcDbXrecord
 70
     0
  0
XRECORD
  5
4A30
102
{ACAD_REACTORS
330
4A16
102
}
330
4A16
100
AcDbXrecord
340
0
  0
XRECORD
  5
4A31
102
{ACAD_REACTORS
330
4A16
102
}
330
4A16
100
AcDbXrecord
 10
0.0
 20
0.0
 30
0.0
  0
XRECORD
  5
4A32
102
{ACAD_REACTORS
330
4A16
102
}
330
4A16
100
AcDbXrecord
 10
0.0
 20
0.0
 30
0.0
  0
XRECORD
  5
4A33
102
{ACAD_REACTORS
330
4A16
102
}
330
4A16
100
AcDbXrecord
 10
0.0
 20
0.0
 30
0.0
  0
XRECORD
  5
4A34
102
{ACAD_REACTORS
330
4A16
102
}
330
4A16
100
AcDbXrecord
 10
0.0
 20
0.0
 30
0.0
  0
XRECORD
  5
4A35
102
{ACAD_REACTORS
330
4A16
102
}
330
4A16
100
AcDbXrecord
 10
0.0
 20
0.0
 30
0.0
  0
XRECORD
  5
4A36
102
{ACAD_REACTORS
330
4A16
102
}
330
4A16
100
AcDbXrecord
 10
0.0
 20
0.0
 30
0.0
  0
LAYER_INDEX
  5
4A0C
102
{ACAD_REACTORS
330
4A0B
102
}
330
4A0B
100
AcDbIndex
 40
2453151.672540312
100
AcDbLayerIndex
  8
0
360
4A0D
 90
        0
  8
AM_0
360
4A0E
 90
       60
  8
AM_7
360
4A0F
 90
        1
  8
AM_11
360
4A10
 90
       20
  8
AM_5
360
4A11
 90
        5
  8
Defpoints
360
4A12
 90
        0
  8
AM_6
360
4A13
 90
        1
  8
AM_CL
360
4A14
 90
        0
  0
XRECORD
  5
2D
102
{ACAD_REACTORS
330
2C
102
}
330
2C
100
AcDbXrecord
  1
VERSION
140
15.0
  1
PRODUCT
  2
AutoCAD Mechanical 2000
  0
IDBUFFER
  5
4A0D
330
0
100
AcDbIdBuffer
  0
IDBUFFER
  5
4A0E
330
0
100
AcDbIdBuffer
330
4772
330
4773
330
4774
330
4775
330
4776
330
4777
330
4778
330
4779
330
477A
330
477B
330
477C
330
477D
330
21D8
330
21D9
330
21DC
330
21DD
330
2694
330
2695
330
2696
330
2699
330
3366
330
3367
330
3F18
330
3F1B
330
4739
330
473A
330
473B
330
473C
330
473E
330
4742
330
4743
330
4744
330
4745
330
4746
330
4748
330
4749
330
474A
330
474B
330
474C
330
474D
330
474E
330
474F
330
4750
330
4751
330
4752
330
4753
330
4756
330
4765
330
4766
330
4767
330
4768
330
4769
330
476A
330
476B
330
476C
330
476D
330
476E
330
476F
330
4770
330
4771
  0
IDBUFFER
  5
4A0F
330
0
100
AcDbIdBuffer
330
C9F
  0
IDBUFFER
  5
4A10
330
0
100
AcDbIdBuffer
330
49DE
330
49DF
330
49E0
330
49E1
330
473D
330
473F
330
4740
330
4741
330
4755
330
49D3
330
49D4
330
49D5
330
49D6
330
49D7
330
49D8
330
49D9
330
49DA
330
49DB
330
49DC
330
49DD
  0
IDBUFFER
  5
4A11
330
0
100
AcDbIdBuffer
330
CC6
330
DF5
330
2216
330
47AE
330
48CF
  0
IDBUFFER
  5
4A12
330
0
100
AcDbIdBuffer
  0
IDBUFFER
  5
4A13
330
0
100
AcDbIdBuffer
330
19BD
  0
IDBUFFER
  5
4A14
330
0
100
AcDbIdBuffer
  0
ENDSEC
  0
EOF
