  0
SECTION
  2
HEADER
  9
$ACADVER
  1
AC1014
  9
$ACADMAINTVER
 70
     9
  9
$DWGCODEPAGE
  3
ANSI_932
  9
$INSBASE
 10
0.0
 20
0.0
 30
0.0
  9
$EXTMIN
 10
-227.3000009999996
 20
-55.00000305448122
 30
-0.00000001
  9
$EXTMAX
 10
24.873399480944
 20
24.31302111551692
 30
0.00000001
  9
$LIMMIN
 10
-235.3243199069245
 20
-84.95978435839356
  9
$LIMMAX
 10
43.00602480537361
 20
55.45771548967673
  9
$ORTHOMODE
 70
     0
  9
$REGENMODE
 70
     1
  9
$FILLMODE
 70
     1
  9
$QTEXTMODE
 70
     0
  9
$MIRRTEXT
 70
     0
  9
$DRAGMODE
 70
     2
  9
$LTSCALE
 40
1.0
  9
$OSMODE
 70
    55
  9
$ATTMODE
 70
     1
  9
$TEXTSIZE
 40
2.5
  9
$TRACEWID
 40
1.0
  9
$TEXTSTYLE
  7
STANDARD
  9
$CLAYER
  8
AM_0
  9
$CELTYPE
  6
BYLAYER
  9
$CECOLOR
 62
   256
  9
$CELTSCALE
 40
1.0
  9
$DELOBJ
 70
     1
  9
$DISPSILH
 70
     0
  9
$DIMSCALE
 40
1.0
  9
$DIMASZ
 40
2.5
  9
$DIMEXO
 40
1.0
  9
$DIMDLI
 40
12.0
  9
$DIMRND
 40
0.0
  9
$DIMDLE
 40
0.0
  9
$DIMEXE
 40
1.0
  9
$DIMTP
 40
0.1
  9
$DIMTM
 40
0.1
  9
$DIMTXT
 40
3.2
  9
$DIMCEN
 40
0.0
  9
$DIMTSZ
 40
0.0
  9
$DIMTOL
 70
     0
  9
$DIMLIM
 70
     0
  9
$DIMTIH
 70
     0
  9
$DIMTOH
 70
     0
  9
$DIMSE1
 70
     0
  9
$DIMSE2
 70
     0
  9
$DIMTAD
 70
     3
  9
$DIMZIN
 70
     8
  9
$DIMBLK
  1
OPEN30
  9
$DIMASO
 70
     1
  9
$DIMSHO
 70
     1
  9
$DIMPOST
  1

  9
$DIMAPOST
  1
"
  9
$DIMALT
 70
     0
  9
$DIMALTD
 70
     2
  9
$DIMALTF
 40
0.0393701
  9
$DIMLFAC
 40
1.0
  9
$DIMTOFL
 70
     1
  9
$DIMTVP
 40
0.0
  9
$DIMTIX
 70
     0
  9
$DIMSOXD
 70
     0
  9
$DIMSAH
 70
     0
  9
$DIMBLK1
  1

  9
$DIMBLK2
  1

  9
$DIMSTYLE
  2
AM_JIS
  9
$DIMCLRD
 70
   256
  9
$DIMCLRE
 70
   256
  9
$DIMCLRT
 70
     2
  9
$DIMTFAC
 40
0.71
  9
$DIMGAP
 40
1.5
  9
$DIMJUST
 70
     0
  9
$DIMSD1
 70
     0
  9
$DIMSD2
 70
     0
  9
$DIMTOLJ
 70
     0
  9
$DIMTZIN
 70
     0
  9
$DIMALTZ
 70
     0
  9
$DIMALTTZ
 70
     0
  9
$DIMFIT
 70
     3
  9
$DIMUPT
 70
     0
  9
$DIMUNIT
 70
     2
  9
$DIMDEC
 70
     3
  9
$DIMTDEC
 70
     3
  9
$DIMALTU
 70
     2
  9
$DIMALTTD
 70
     2
  9
$DIMTXSTY
  7
ASAMI
  9
$DIMAUNIT
 70
     0
  9
$LUNITS
 70
     2
  9
$LUPREC
 70
     2
  9
$SKETCHINC
 40
1.0
  9
$FILLETRAD
 40
2.5
  9
$AUNITS
 70
     0
  9
$AUPREC
 70
     0
  9
$MENU
  1
.
  9
$ELEVATION
 40
0.0
  9
$PELEVATION
 40
0.0
  9
$THICKNESS
 40
0.0
  9
$LIMCHECK
 70
     0
  9
$BLIPMODE
 70
     0
  9
$CHAMFERA
 40
0.5
  9
$CHAMFERB
 40
0.5
  9
$CHAMFERC
 40
20.0
  9
$CHAMFERD
 40
0.0
  9
$SKPOLY
 70
     0
  9
$TDCREATE
 40
2452800.443498622
  9
$TDUPDATE
 40
2453151.672724954
  9
$TDINDWG
 40
0.1123323495
  9
$TDUSRTIMER
 40
0.1123323495
  9
$USRTIMER
 70
     1
  9
$ANGBASE
 50
0.0
  9
$ANGDIR
 70
     0
  9
$PDMODE
 70
     3
  9
$PDSIZE
 40
0.0
  9
$PLINEWID
 40
0.0
  9
$COORDS
 70
     1
  9
$SPLFRAME
 70
     0
  9
$SPLINETYPE
 70
     6
  9
$SPLINESEGS
 70
     8
  9
$ATTDIA
 70
     1
  9
$ATTREQ
 70
     1
  9
$HANDLING
 70
 12289
  9
$HANDSEED
  5
4A00
  9
$SURFTAB1
 70
     6
  9
$SURFTAB2
 70
     6
  9
$SURFTYPE
 70
     6
  9
$SURFU
 70
     6
  9
$SURFV
 70
     6
  9
$UCSNAME
  2

  9
$UCSORG
 10
0.0
 20
0.0
 30
0.0
  9
$UCSXDIR
 10
1.0
 20
0.0000000000000027
 30
0.0
  9
$UCSYDIR
 10
-0.0000000000000027
 20
1.0
 30
0.0
  9
$PUCSNAME
  2

  9
$PUCSORG
 10
0.0
 20
0.0
 30
0.0
  9
$PUCSXDIR
 10
1.0
 20
0.0
 30
0.0
  9
$PUCSYDIR
 10
0.0
 20
1.0
 30
0.0
  9
$USERI1
 70
     0
  9
$USERI2
 70
     0
  9
$USERI3
 70
     0
  9
$USERI4
 70
     0
  9
$USERI5
 70
     0
  9
$USERR1
 40
0.0
  9
$USERR2
 40
0.0
  9
$USERR3
 40
0.0
  9
$USERR4
 40
0.0
  9
$USERR5
 40
0.0
  9
$WORLDVIEW
 70
     1
  9
$SHADEDGE
 70
     3
  9
$SHADEDIF
 70
    70
  9
$TILEMODE
 70
     1
  9
$MAXACTVP
 70
    64
  9
$PINSBASE
 10
0.0
 20
0.0
 30
0.0
  9
$PLIMCHECK
 70
     0
  9
$PEXTMIN
 10
1.000000000000000E+20
 20
1.000000000000000E+20
 30
1.000000000000000E+20
  9
$PEXTMAX
 10
-1.000000000000000E+20
 20
-1.000000000000000E+20
 30
-1.000000000000000E+20
  9
$PLIMMIN
 10
0.0
 20
0.0
  9
$PLIMMAX
 10
841.0
 20
594.0
  9
$UNITMODE
 70
     0
  9
$VISRETAIN
 70
     1
  9
$PLINEGEN
 70
     0
  9
$PSLTSCALE
 70
     0
  9
$TREEDEPTH
 70
  3020
  9
$PICKSTYLE
 70
     0
  9
$CMLSTYLE
  2
STANDARD
  9
$CMLJUST
 70
     0
  9
$CMLSCALE
 40
20.0
  9
$PROXYGRAPHICS
 70
     1
  9
$MEASUREMENT
 70
     1
  0
ENDSEC
  0
SECTION
  2
CLASSES
  0
CLASS
  1
ACDBDICTIONARYWDFLT
  2
AcDbDictionaryWithDefault
  3
AutoCAD 2000
 90
        0
280
     0
281
     0
  0
CLASS
  1
ACDBPLACEHOLDER
  2
AcDbPlaceHolder
  3
AutoCAD 2000
 90
        0
280
     0
281
     0
  0
CLASS
  1
LAYOUT
  2
AcDbLayout
  3
AutoCAD 2000
 90
        0
280
     0
281
     0
  0
CLASS
  1
AMGSETTINGSOBJ
  2
AmgSettingsObj
  3
"AcadM|Product Description: AutoCAD Mechanical 2000|Company: Autodesk"
 90
        0
280
     0
281
     0
  0
CLASS
  1
ACME_DOCUMENT
  2
AcMeDbDoc
  3
AcMeServices
 90
        0
280
     0
281
     0
  0
CLASS
  1
ACMESCOPE
  2
AcMeScope
  3
AcMeServices
 90
        0
280
     0
281
     0
  0
CLASS
  1
ACMECOMMANDHISTORY
  2
AcMeCommandHistory
  3
AcMeServices
 90
        0
280
     0
281
     0
  0
CLASS
  1
DICTIONARYVAR
  2
AcDbDictionaryVar
  3
AutoCAD 2000
 90
        0
280
     0
281
     0
  0
CLASS
  1
ACIMSYSVARMAN
  2
AcImSysVarManager
  3
AcMeServices
 90
        0
280
     0
281
     0
  0
CLASS
  1
ACIMREALSYSVAR
  2
AcImRealSysVar
  3
AcMeServices
 90
        0
280
     0
281
     0
  0
CLASS
  1
ACIMINTSYSVAR
  2
AcImIntSysVar
  3
AcMeServices
 90
        0
280
     0
281
     0
  0
CLASS
  1
ACMEDRAWINGMAN
  2
AcMeDrawingMan
  3
AcMeServices
 90
        0
280
     0
281
     0
  0
CLASS
  1
ACMEVIEW
  2
AcMeView
  3
AcMeServices
 90
        0
280
     0
281
     0
  0
CLASS
  1
ACDBENTITYCACHE
  2
AcMeEntityCache
  3
AcMeServices
 90
        0
280
     0
281
     0
  0
CLASS
  1
GSMANAGER
  2
AcMeGSManager
  3
AcMeServices
 90
        0
280
     0
281
     0
  0
CLASS
  1
AmdtInternalReactor
  2
AmdtInternalReactor
  3
AcMeServices
 90
        0
280
     0
281
     0
  0
CLASS
  1
ACMESTATEMGR
  2
AcMeStateMgr
  3
AcMeServices
 90
        0
280
     0
281
     0
  0
CLASS
  1
ACME_DATABASE
  2
AcMeDbDatabase
  3
AcMeServices
 90
        0
280
     0
281
     0
  0
CLASS
  1
ACRFINSADJUSTERMGR
  2
AcRfInsAdjusterMgr
  3
AcMeServices
 90
        0
280
     0
281
     0
  0
CLASS
  1
ACMDATADICTIONARY
  2
AcmDataDictionary
  3
"AcmSymBB|Product Description: AutoCAD Mechanical 2000|Company: Autodesk"
 90
        0
280
     0
281
     0
  0
CLASS
  1
ACMDATAENTRYBLOCK
  2
AcmDataEntryBlock
  3
"AcmSymBB|Product Description: AutoCAD Mechanical 2000|Company: Autodesk"
 90
        0
280
     0
281
     0
  0
CLASS
  1
AMGOBJPROPCFG
  2
AmgObjPropCfg
  3
"AmgLay|Product Description: AutoCAD Mechanical 2000|Company: Autodesk"
 90
        1
280
     0
281
     0
  0
CLASS
  1
ACAMGFILTERDAT
  2
AcAmgFilterDat
  3
"AcadM|Product Description: AutoCAD Mechanical 2000|Company: Autodesk"
 90
        0
280
     0
281
     0
  0
CLASS
  1
LAYER_INDEX
  2
AcDbLayerIndex
  3
AutoCAD 2000
 90
        0
280
     0
281
     0
  0
CLASS
  1
IDBUFFER
  2
AcDbIdBuffer
  3
AutoCAD 2000
 90
        0
280
     0
281
     0
  0
CLASS
  1
ACIMSTRSYSVAR
  2
AcImStrSysVar
  3
AcMeServices
 90
        0
280
     0
281
     0
  0
CLASS
  1
ACMSTANDARDJIS
  2
AcmStandardJIS
  3
"AcmSymBB|Product Description: AutoCAD Mechanical 2000|Company: Autodesk"
 90
        0
280
     0
281
     0
  0
CLASS
  1
ACMSURFSTANDARDJIS
  2
AcmSurfTextStdJIS
  3
"AcmSymBB|Product Description: AutoCAD Mechanical 2000|Company: Autodesk"
 90
        0
280
     0
281
     0
  0
CLASS
  1
ACMFCFSTANDARDJIS
  2
AcmFCFStdJIS
  3
"AcmSymBB|Product Description: AutoCAD Mechanical 2000|Company: Autodesk"
 90
        0
280
     0
281
     0
  0
CLASS
  1
ACMWELDSTANDARDJIS
  2
AcmWeldingStdJIS
  3
"AcmSymBB|Product Description: AutoCAD Mechanical 2000|Company: Autodesk"
 90
        0
280
     0
281
     0
  0
CLASS
  1
ACMIDSTANDARDJIS
  2
AcmIdStdJIS
  3
"AcmSymBB|Product Description: AutoCAD Mechanical 2000|Company: Autodesk"
 90
        0
280
     0
281
     0
  0
CLASS
  1
ACMDATUMSTANDARDJIS
  2
AcmDatumStdJIS
  3
"AcmSymBB|Product Description: AutoCAD Mechanical 2000|Company: Autodesk"
 90
        0
280
     0
281
     0
  0
CLASS
  1
ACMBOMSTANDARDJIS
  2
AcmBOMStdJIS
  3
"AcmSymBB|Product Description: AutoCAD Mechanical 2000|Company: Autodesk"
 90
        0
280
     0
281
     0
  0
CLASS
  1
ACMSTANDARDANSI
  2
AcmStandardANSI
  3
"AcmSymBB|Product Description: AutoCAD Mechanical 2000|Company: Autodesk"
 90
        0
280
     0
281
     0
  0
CLASS
  1
ACMSURFSTANDARDANSI
  2
AcmSurfTextStdANSI
  3
"AcmSymBB|Product Description: AutoCAD Mechanical 2000|Company: Autodesk"
 90
        0
280
     0
281
     0
  0
CLASS
  1
ACMFCFSTANDARDANSI
  2
AcmFCFStdANSI
  3
"AcmSymBB|Product Description: AutoCAD Mechanical 2000|Company: Autodesk"
 90
        0
280
     0
281
     0
  0
CLASS
  1
ACMWELDSTANDARDANSI
  2
AcmWeldingStdANSI
  3
"AcmSymBB|Product Description: AutoCAD Mechanical 2000|Company: Autodesk"
 90
        0
280
     0
281
     0
  0
CLASS
  1
ACMIDSTANDARDANSI
  2
AcmIdStdANSI
  3
"AcmSymBB|Product Description: AutoCAD Mechanical 2000|Company: Autodesk"
 90
        0
280
     0
281
     0
  0
CLASS
  1
ACMDATUMSTANDARDANSI
  2
AcmDatumStdANSI
  3
"AcmSymBB|Product Description: AutoCAD Mechanical 2000|Company: Autodesk"
 90
        0
280
     0
281
     0
  0
CLASS
  1
ACMBOMSTANDARDANSI
  2
AcmBOMStdANSI
  3
"AcmSymBB|Product Description: AutoCAD Mechanical 2000|Company: Autodesk"
 90
        0
280
     0
281
     0
  0
CLASS
  1
ACMSTANDARDBSI
  2
AcmStandardBSI
  3
"AcmSymBB|Product Description: AutoCAD Mechanical 2000|Company: Autodesk"
 90
        0
280
     0
281
     0
  0
CLASS
  1
ACMSURFSTANDARDBSI
  2
AcmSurfTextStdBSI
  3
"AcmSymBB|Product Description: AutoCAD Mechanical 2000|Company: Autodesk"
 90
        0
280
     0
281
     0
  0
CLASS
  1
ACMFCFSTANDARDBSI
  2
AcmFCFStdBSI
  3
"AcmSymBB|Product Description: AutoCAD Mechanical 2000|Company: Autodesk"
 90
        0
280
     0
281
     0
  0
CLASS
  1
ACMWELDSTANDARDBSI
  2
AcmWeldingStdBSI
  3
"AcmSymBB|Product Description: AutoCAD Mechanical 2000|Company: Autodesk"
 90
        0
280
     0
281
     0
  0
CLASS
  1
ACMIDSTANDARDBSI
  2
AcmIdStdBSI
  3
"AcmSymBB|Product Description: AutoCAD Mechanical 2000|Company: Autodesk"
 90
        0
280
     0
281
     0
  0
CLASS
  1
ACMDATUMSTANDARDBSI
  2
AcmDatumStdBSI
  3
"AcmSymBB|Product Description: AutoCAD Mechanical 2000|Company: Autodesk"
 90
        0
280
     0
281
     0
  0
CLASS
  1
ACMBOMSTANDARDBSI
  2
AcmBOMStdBSI
  3
"AcmSymBB|Product Description: AutoCAD Mechanical 2000|Company: Autodesk"
 90
        0
280
     0
281
     0
  0
CLASS
  1
LONG_TRANSACTION
  2
AcDbLongTransaction
  3
AutoCAD 2000
 90
        0
280
     0
281
     0
  0
CLASS
  1
LWPOLYLINE
  2
AcDbPolyline
  3
AutoCAD 2000
 90
        0
280
     0
281
     1
  0
CLASS
  1
HATCH
  2
AcDbHatch
  3
AutoCAD 2000
 90
        0
280
     0
281
     1
  0
CLASS
  1
XRECORD
  2
AcDbXrecord
  3
AutoCAD 2000
 90
        0
280
     0
281
     0
  0
ENDSEC
  0
SECTION
  2
TABLES
  0
TABLE
  2
VPORT
  5
8
330
0
100
AcDbSymbolTable
 70
     3
  0
VPORT
  5
49CA
330
8
100
AcDbSymbolTableRecord
100
AcDbViewportTableRecord
  2
*ACTIVE
 70
     0
 10
0.0
 20
0.0
 11
1.0
 21
1.0
 12
-96.54015801414164
 22
-15.34560588863075
 13
0.0
 23
0.0
 14
2.5
 24
2.5
 15
10.0
 25
10.0
 16
0.0
 26
0.0
 36
1.0
 17
0.0
 27
0.0
 37
0.0
 40
167.8382983306692
 41
1.56570841889117
 42
50.0
 43
0.0
 44
0.0
 50
0.0
 51
0.0
 71
     0
 72
   100
 73
     1
 74
     1
 75
     0
 76
     0
 77
     0
 78
     0
  0
ENDTAB
  0
TABLE
  2
LTYPE
  5
5
330
0
100
AcDbSymbolTable
 70
    10
  0
LTYPE
  5
14
330
5
100
AcDbSymbolTableRecord
100
AcDbLinetypeTableRecord
  2
BYBLOCK
 70
     0
  3

 72
    65
 73
     0
 40
0.0
  0
LTYPE
  5
15
330
5
100
AcDbSymbolTableRecord
100
AcDbLinetypeTableRecord
  2
BYLAYER
 70
     0
  3

 72
    65
 73
     0
 40
0.0
  0
LTYPE
  5
16
330
5
100
AcDbSymbolTableRecord
100
AcDbLinetypeTableRecord
  2
CONTINUOUS
 70
     0
  3
Solid line
 72
    65
 73
     0
 40
0.0
  0
LTYPE
  5
4B
330
5
100
AcDbSymbolTableRecord
100
AcDbLinetypeTableRecord
  2
AM_ISO02W050
 70
     0
  3
__ __ __ __ __ __ __ __ __ __ __ __ __ __ __
 72
    65
 73
     2
 40
7.5
 49
6.0
 74
     0
 49
-1.5
 74
     0
  0
LTYPE
  5
4C
330
5
100
AcDbSymbolTableRecord
100
AcDbLinetypeTableRecord
  2
AM_ISO08W050
 70
     0
  3
____ . ____ . ____ . ____ . ____ . ____ . ____
 72
    65
 73
     4
 40
18.0
 49
12.0
 74
     0
 49
-1.5
 74
     0
 49
3.0
 74
     0
 49
-1.5
 74
     0
  0
LTYPE
  5
4D
330
5
100
AcDbSymbolTableRecord
100
AcDbLinetypeTableRecord
  2
AM_ISO09W050
 70
     0
  3
_____ . . _____ . . _____ . . ____ .. ____
 72
    65
 73
     6
 40
22.5
 49
12.0
 74
     0
 49
-1.5
 74
     0
 49
3.0
 74
     0
 49
-1.5
 74
     0
 49
3.0
 74
     0
 49
-1.5
 74
     0
  0
LTYPE
  5
4E
330
5
100
AcDbSymbolTableRecord
100
AcDbLinetypeTableRecord
  2
AMCONSTR
 70
     0
  3
_______________________
 72
    65
 73
     2
 40
9999.0
 49
9999.0
 74
     0
 49
0.0
 74
     0
  0
LTYPE
  5
4F
330
5
100
AcDbSymbolTableRecord
100
AcDbLinetypeTableRecord
  2
AM_ISO02W050X2
 70
     0
  3
 _ _ _ _ _ _ _ _ _ _ _ _
 72
    65
 73
     2
 40
3.75
 49
3.0
 74
     0
 49
-0.75
 74
     0
  0
LTYPE
  5
50
330
5
100
AcDbSymbolTableRecord
100
AcDbLinetypeTableRecord
  2
AM_ISO08W050X2
 70
     0
  3
__ . __ . __ . __ . __ . __
 72
    65
 73
     4
 40
9.0
 49
6.0
 74
     0
 49
-0.75
 74
     0
 49
1.5
 74
     0
 49
-0.75
 74
     0
  0
LTYPE
  5
53
330
5
100
AcDbSymbolTableRecord
100
AcDbLinetypeTableRecord
  2
AMZIGZAG
 70
     0
  3
/\/-/\/-/\/-/\/-/\/-/\/
 72
    65
 73
     2
 40
11.00009999999999
 49
0.0001
 74
     4
 75
   135
340
52
 46
0.04
 50
0.0
 44
0.0
 45
0.0
 49
-11.0
 74
     0
  0
LTYPE
  5
166
330
5
100
AcDbSymbolTableRecord
100
AcDbLinetypeTableRecord
  2
ACJISTGL
 70
     0
  3
_ _ _ _ _
 72
    65
 73
     2
 40
3.0
 49
2.0
 74
     0
 49
-1.0
 74
     0
  0
LTYPE
  5
26A
330
5
100
AcDbSymbolTableRecord
100
AcDbLinetypeTableRecord
  2
ACJISTGB
 70
     0
  3
__ . . __ . .
 72
    65
 73
     6
 40
9.0
 49
4.0
 74
     0
 49
-1.0
 74
     0
 49
1.0
 74
     0
 49
-1.0
 74
     0
 49
1.0
 74
     0
 49
-1.0
 74
     0
  0
ENDTAB
  0
TABLE
  2
LAYER
  5
2
330
0
100
AcDbSymbolTable
 70
     8
  0
LAYER
  5
10
330
2
100
AcDbSymbolTableRecord
100
AcDbLayerTableRecord
  2
0
 70
     0
 62
     7
  6
CONTINUOUS
  0
LAYER
  5
3F9
330
2
100
AcDbSymbolTableRecord
100
AcDbLayerTableRecord
  2
AM_0
 70
     0
 62
     7
  6
CONTINUOUS
  0
LAYER
  5
C7C
330
2
100
AcDbSymbolTableRecord
100
AcDbLayerTableRecord
  2
AM_7
 70
     0
 62
     4
  6
AM_ISO08W050
  0
LAYER
  5
C97
330
2
100
AcDbSymbolTableRecord
100
AcDbLayerTableRecord
  2
AM_11
 70
     0
 62
     3
  6
AM_ISO09W050
  0
LAYER
  5
CC5
330
2
100
AcDbSymbolTableRecord
100
AcDbLayerTableRecord
  2
AM_5
 70
     0
 62
     3
  6
CONTINUOUS
  0
LAYER
  5
CC7
330
2
100
AcDbSymbolTableRecord
100
AcDbLayerTableRecord
  2
DEFPOINTS
 70
     0
 62
     7
  6
CONTINUOUS
  0
LAYER
  5
19BC
330
2
100
AcDbSymbolTableRecord
100
AcDbLayerTableRecord
  2
AM_6
 70
     0
 62
     2
  6
CONTINUOUS
  0
LAYER
  5
4851
330
2
100
AcDbSymbolTableRecord
100
AcDbLayerTableRecord
  2
AM_CL
 70
     0
 62
     1
  6
AMCONSTR
  0
ENDTAB
  0
TABLE
  2
STYLE
  5
3
330
0
100
AcDbSymbolTable
 70
     5
  0
STYLE
  5
11
330
3
100
AcDbSymbolTableRecord
100
AcDbTextStyleTableRecord
  2
STANDARD
 70
     0
 40
0.0
 41
1.0
 50
0.0
 71
     0
 42
2.5
  3
simplex.shx
  4
EXTFONT.SHX
  0
STYLE
  5
52
330
3
100
AcDbSymbolTableRecord
100
AcDbTextStyleTableRecord
  2

 70
     1
 40
0.0
 41
1.0
 50
0.0
 71
     0
 42
2.5
  3
ltypeshp.shx
  4

  0
STYLE
  5
6B
330
3
100
AcDbSymbolTableRecord
100
AcDbTextStyleTableRecord
  2
ASAMI
 70
     0
 40
0.0
 41
1.0
 50
0.0
 71
     0
 42
2.5
  3
simplex.shx
  4
EXTFONT.SHX
  0
STYLE
  5
262
330
3
100
AcDbSymbolTableRecord
100
AcDbTextStyleTableRecord
  2
ACJISTS
 70
     0
 40
1.0
 41
1.0
 50
0.0
 71
     0
 42
2.5
  3
simplex.shx
  4
bigfont.shx
  0
STYLE
  5
269
330
3
100
AcDbSymbolTableRecord
100
AcDbTextStyleTableRecord
  2
ACJISGDT
 70
     0
 40
0.0
 41
1.0
 50
0.0
 71
     0
 42
2.5
  3
amgdtans.shx
  4

  0
ENDTAB
  0
TABLE
  2
VIEW
  5
6
330
0
100
AcDbSymbolTable
 70
     0
  0
ENDTAB
  0
TABLE
  2
UCS
  5
7
330
0
100
AcDbSymbolTable
 70
     0
  0
ENDTAB
  0
TABLE
  2
APPID
  5
9
330
0
100
AcDbSymbolTable
 70
    16
  0
APPID
  5
12
330
9
100
AcDbSymbolTableRecord
100
AcDbRegAppTableRecord
  2
ACAD
 70
     0
  0
APPID
  5
30
330
9
100
AcDbSymbolTableRecord
100
AcDbRegAppTableRecord
  2
MCAD_NO_VIS
 70
     0
  0
APPID
  5
31
330
9
100
AcDbSymbolTableRecord
100
AcDbRegAppTableRecord
  2
ACAD_TEMP_GRAPHIC
 70
     0
  0
APPID
  5
2C2
330
9
100
AcDbSymbolTableRecord
100
AcDbRegAppTableRecord
  2
GENIUS_GENDTOL_13
 70
     0
  0
APPID
  5
339
330
9
100
AcDbSymbolTableRecord
100
AcDbRegAppTableRecord
  2
GENIUS_GENODEF_13
 70
     0
  0
APPID
  5
33A
330
9
100
AcDbSymbolTableRecord
100
AcDbRegAppTableRecord
  2
GENIUS_GENOBJ-N-RSBK_13
 70
     0
  0
APPID
  5
33B
330
9
100
AcDbSymbolTableRecord
100
AcDbRegAppTableRecord
  2
GENIUS_GENOBJ-N-LIB_13
 70
     0
  0
APPID
  5
33C
330
9
100
AcDbSymbolTableRecord
100
AcDbRegAppTableRecord
  2
GENIUS_GENSCALE_13
 70
     0
  0
APPID
  5
378
330
9
100
AcDbSymbolTableRecord
100
AcDbRegAppTableRecord
  2
GENIUS_GENDIMSH_14
 70
     0
  0
APPID
  5
C82
330
9
100
AcDbSymbolTableRecord
100
AcDbRegAppTableRecord
  2
GENIUS_GENOBJ-N-CRS_13
 70
     0
  0
APPID
  5
C83
330
9
100
AcDbSymbolTableRecord
100
AcDbRegAppTableRecord
  2
GENIUS_GENOENT_13
 70
     0
  0
APPID
  5
C84
330
9
100
AcDbSymbolTableRecord
100
AcDbRegAppTableRecord
  2
GENIUS_GENOREF_13
 70
     0
  0
APPID
  5
C85
330
9
100
AcDbSymbolTableRecord
100
AcDbRegAppTableRecord
  2
GENIUS_GENOLIS_13
 70
     0
  0
APPID
  5
CA0
330
9
100
AcDbSymbolTableRecord
100
AcDbRegAppTableRecord
  2
GENIUS_GENOBJ-N-CEN_13
 70
     0
  0
APPID
  5
1E1E
330
9
100
AcDbSymbolTableRecord
100
AcDbRegAppTableRecord
  2
GENIUS_GENFIL_13
 70
     0
  0
APPID
  5
1E1F
330
9
100
AcDbSymbolTableRecord
100
AcDbRegAppTableRecord
  2
GENIUS_GENOBJ-N-CHA_13
 70
     0
  0
ENDTAB
  0
TABLE
  2
DIMSTYLE
  5
A
330
0
100
AcDbSymbolTable
 70
     9
  0
DIMSTYLE
105
58
330
A
100
AcDbSymbolTableRecord
100
AcDbDimStyleTableRecord
  2
AM_JIS
 70
     0
  3

  4
"
  5
OPEN30
  6

  7

 40
1.0
 41
2.5
 42
1.0
 43
12.0
 44
1.0
 45
0.0
 46
0.0
 47
0.1
 48
0.1
140
3.2
141
0.0
142
0.0
143
0.0393701
144
1.0
145
0.0
146
0.71
147
1.5
 71
     0
 72
     0
 73
     0
 74
     0
 75
     0
 76
     0
 77
     3
 78
     8
170
     0
171
     2
172
     1
173
     0
174
     0
175
     0
176
   256
177
   256
178
     2
270
     2
271
     3
272
     3
273
     2
274
     2
340
6B
275
     0
280
     0
281
     0
282
     0
283
     0
284
     0
285
     0
286
     0
287
     3
288
     0
  0
DIMSTYLE
105
5F
330
A
100
AcDbSymbolTableRecord
100
AcDbDimStyleTableRecord
  2
AM_JIS$3
 70
     0
  3

  4
"
  5
OPEN30
  6

  7

 40
1.0
 41
2.5
 42
1.0
 43
10.0
 44
1.0
 45
0.0
 46
0.0
 47
0.1
 48
0.1
140
3.2
141
0.0
142
0.0
143
0.0393701
144
1.0
145
0.0
146
0.71
147
1.5
 71
     0
 72
     0
 73
     0
 74
     1
 75
     0
 76
     0
 77
     3
 78
     8
170
     0
171
     2
172
     0
173
     0
174
     0
175
     0
176
   256
177
   256
178
     2
270
     2
271
     2
272
     3
273
     2
274
     2
340
6B
275
     0
280
     0
281
     0
282
     0
283
     0
284
     0
285
     0
286
     0
287
     0
288
     1
  0
DIMSTYLE
105
60
330
A
100
AcDbSymbolTableRecord
100
AcDbDimStyleTableRecord
  2
AM_JIS$4
 70
     0
  3

  4
"
  5
OPEN30
  6

  7

 40
1.0
 41
2.5
 42
1.0
 43
10.0
 44
1.0
 45
0.0
 46
0.0
 47
0.1
 48
0.1
140
3.2
141
0.0
142
0.0
143
0.0393701
144
1.0
145
0.0
146
0.71
147
1.5
 71
     0
 72
     0
 73
     0
 74
     1
 75
     0
 76
     0
 77
     3
 78
     8
170
     0
171
     2
172
     0
173
     0
174
     0
175
     0
176
   256
177
   256
178
     2
270
     2
271
     2
272
     3
273
     2
274
     2
340
6B
275
     0
280
     0
281
     0
282
     0
283
     0
284
     0
285
     0
286
     0
287
     0
288
     1
  0
DIMSTYLE
105
61
330
A
100
AcDbSymbolTableRecord
100
AcDbDimStyleTableRecord
  2
AM_JIS$6
 70
     0
  3

  4
"
  5
OPEN30
  6

  7

 40
1.0
 41
2.5
 42
1.0
 43
10.0
 44
1.0
 45
0.0
 46
0.0
 47
0.1
 48
0.1
140
3.2
141
0.0
142
0.0
143
0.0393701
144
1.0
145
0.0
146
0.71
147
1.5
 71
     0
 72
     0
 73
     0
 74
     0
 75
     0
 76
     0
 77
     0
 78
     8
170
     0
171
     2
172
     1
173
     0
174
     0
175
     0
176
   256
177
   256
178
     2
270
     2
271
     2
272
     2
273
     2
274
     2
340
6B
275
     0
280
     0
281
     0
282
     0
283
     0
284
     0
285
     0
286
     0
287
     3
288
     0
  0
DIMSTYLE
105
62
330
A
100
AcDbSymbolTableRecord
100
AcDbDimStyleTableRecord
  2
AM_JIS$7
 70
     0
  3

  4
"
  5
OPEN30
  6

  7

 40
1.0
 41
2.5
 42
1.0
 43
10.0
 44
1.0
 45
0.0
 46
0.0
 47
0.1
 48
0.1
140
3.2
141
0.0
142
0.0
143
0.0393701
144
1.0
145
0.0
146
0.71
147
1.5
 71
     0
 72
     0
 73
     0
 74
     0
 75
     0
 76
     0
 77
     3
 78
     8
170
     0
171
     2
172
     1
173
     0
174
     0
175
     0
176
   256
177
   256
178
     2
270
     2
271
     2
272
     3
273
     2
274
     2
340
6B
275
     0
280
     0
281
     0
282
     0
283
     0
284
     0
285
     0
286
     0
287
     3
288
     0
  0
DIMSTYLE
105
63
330
A
100
AcDbSymbolTableRecord
100
AcDbDimStyleTableRecord
  2
AM_JIS$SF
 70
     0
  3

  4
"
  5
OPEN30
  6

  7

 40
1.0
 41
2.5
 42
1.0
 43
10.0
 44
1.0
 45
0.0
 46
0.0
 47
0.1
 48
0.1
140
3.2
141
0.0
142
0.0
143
0.0393701
144
1.0
145
0.0
146
0.71
147
1.5
 71
     0
 72
     0
 73
     0
 74
     0
 75
     1
 76
     1
 77
     3
 78
     8
170
     0
171
     2
172
     1
173
     0
174
     0
175
     0
176
   256
177
   256
178
     2
270
     2
271
     2
272
     2
273
     2
274
     2
340
6B
275
     0
280
     0
281
     0
282
     0
283
     0
284
     0
285
     0
286
     0
287
     3
288
     0
  0
DIMSTYLE
105
68
330
A
100
AcDbSymbolTableRecord
100
AcDbDimStyleTableRecord
  2
AM_JIS$SH
 70
     0
  3

  4
"
  5

  6
GENAXEH
  7
OPEN30
 40
1.0
 41
2.5
 42
1.0
 43
10.0
 44
1.0
 45
0.0
 46
0.0
 47
0.1
 48
0.1
140
3.2
141
0.0
142
0.0
143
0.0393701
144
2.0
145
0.0
146
0.71
147
1.5
 71
     0
 72
     0
 73
     0
 74
     0
 75
     1
 76
     1
 77
     3
 78
     8
170
     0
171
     2
172
     1
173
     1
174
     0
175
     0
176
   256
177
   256
178
     2
270
     2
271
     2
272
     2
273
     2
274
     2
340
6B
275
     0
280
     0
281
     0
282
     0
283
     0
284
     0
285
     0
286
     0
287
     3
288
     0
  0
DIMSTYLE
105
B34
102
{ACAD_REACTORS
330
489C
102
}
330
A
100
AcDbSymbolTableRecord
100
AcDbDimStyleTableRecord
  2
AM_JIS$2
 70
     0
  3

  4
"
  5
OPEN30
  6

  7

 40
1.0
 41
2.5
 42
1.0
 43
12.0
 44
1.0
 45
0.0
 46
0.0
 47
0.1
 48
0.1
140
3.2
141
0.0
142
0.0
143
0.0393701
144
1.0
145
0.0
146
0.71
147
1.5
 71
     0
 72
     0
 73
     0
 74
     0
 75
     0
 76
     0
 77
     3
 78
     8
170
     0
171
     2
172
     1
173
     0
174
     0
175
     0
176
   256
177
   256
178
     2
270
     2
271
     3
272
     3
273
     2
274
     2
340
6B
275
     0
280
     0
281
     0
282
     0
283
     0
284
     0
285
     0
286
     0
287
     3
288
     0
  0
DIMSTYLE
105
BA5
102
{ACAD_REACTORS
330
CC6
330
DF5
330
2216
330
4478
102
}
330
A
100
AcDbSymbolTableRecord
100
AcDbDimStyleTableRecord
  2
AM_JIS$0
 70
     0
  3

  4
"
  5
OPEN30
  6

  7

 40
1.0
 41
2.5
 42
0.0
 43
10.0
 44
1.0
 45
0.0
 46
0.0
 47
0.1
 48
0.1000000001
140
3.799999999999999
141
0.0
142
0.0
143
0.0393701
144
1.0
145
0.0
146
0.71
147
1.5
 71
     0
 72
     0
 73
     0
 74
     0
 75
     0
 76
     0
 77
     3
 78
     1
170
     0
171
     2
172
     1
173
     0
174
     0
175
     0
176
     3
177
     3
178
     2
270
     2
271
     2
272
     2
273
     2
274
     2
340
11
275
     1
280
     0
281
     0
282
     0
283
     0
284
     8
285
     0
286
     0
287
     0
288
     0
  0
ENDTAB
  0
TABLE
  2
BLOCK_RECORD
  5
1
330
0
100
AcDbSymbolTable
 70
    10
  0
BLOCK_RECORD
  5
1F
102
{ACAD_XDICTIONARY
360
74
102
}
330
1
100
AcDbSymbolTableRecord
100
AcDbBlockTableRecord
  2
*MODEL_SPACE
  0
BLOCK_RECORD
  5
101
102
{ACAD_XDICTIONARY
360
49F3
102
}
330
1
100
AcDbSymbolTableRecord
100
AcDbBlockTableRecord
  2
*PAPER_SPACE
  0
BLOCK_RECORD
  5
59
330
1
100
AcDbSymbolTableRecord
100
AcDbBlockTableRecord
  2
_OPEN30
  0
BLOCK_RECORD
  5
64
330
1
100
AcDbSymbolTableRecord
100
AcDbBlockTableRecord
  2
GENAXEH
  0
BLOCK_RECORD
  5
CC8
330
1
100
AcDbSymbolTableRecord
100
AcDbBlockTableRecord
  2
*D5
  0
BLOCK_RECORD
  5
DF6
330
1
100
AcDbSymbolTableRecord
100
AcDbBlockTableRecord
  2
*D6
  0
BLOCK_RECORD
  5
2217
330
1
100
AcDbSymbolTableRecord
100
AcDbBlockTableRecord
  2
*D7
  0
BLOCK_RECORD
  5
4479
330
1
100
AcDbSymbolTableRecord
100
AcDbBlockTableRecord
  2
*D8
  0
BLOCK_RECORD
  5
489D
330
1
100
AcDbSymbolTableRecord
100
AcDbBlockTableRecord
  2
*D9
  0
ENDTAB
  0
ENDSEC
  0
SECTION
  2
BLOCKS
  0
BLOCK
  5
20
330
1F
100
AcDbEntity
  8
0
100
AcDbBlockBegin
  2
*MODEL_SPACE
 70
     0
 10
0.0
 20
0.0
 30
0.0
  3
*MODEL_SPACE
  1

  0
ENDBLK
  5
21
330
1F
100
AcDbEntity
  8
0
100
AcDbBlockEnd
  0
BLOCK
  5
103
330
101
100
AcDbEntity
 67
     1
  8
0
100
AcDbBlockBegin
  2
*PAPER_SPACE
 70
     0
 10
0.0
 20
0.0
 30
0.0
  3
*PAPER_SPACE
  1

  0
ENDBLK
  5
104
330
101
100
AcDbEntity
 67
     1
  8
0
100
AcDbBlockEnd
  0
BLOCK
  5
5D
330
59
100
AcDbEntity
  8
0
100
AcDbBlockBegin
  2
_OPEN30
 70
     0
 10
0.0
 20
0.0
 30
0.0
  3
_OPEN30
  1

  0
LINE
  5
5A
330
59
100
AcDbEntity
  8
0
 62
     0
100
AcDbLine
 10
-1.0
 20
0.26794919
 30
0.0
 11
0.0
 21
0.0
 31
0.0
  0
LINE
  5
5B
330
59
100
AcDbEntity
  8
0
 62
     0
100
AcDbLine
 10
0.0
 20
0.0
 30
0.0
 11
-1.0
 21
-0.26794919
 31
0.0
  0
LINE
  5
5C
330
59
100
AcDbEntity
  8
0
 62
     0
100
AcDbLine
 10
0.0
 20
0.0
 30
0.0
 11
-1.0
 21
0.0
 31
0.0
  0
ENDBLK
  5
5E
330
59
100
AcDbEntity
  8
0
100
AcDbBlockEnd
  0
BLOCK
  5
66
330
64
100
AcDbEntity
  8
0
100
AcDbBlockBegin
  2
GENAXEH
 70
     0
 10
0.0
 20
0.0
 30
0.0
  3
GENAXEH
  1

  0
LINE
  5
65
330
64
100
AcDbEntity
  8
0
100
AcDbLine
 10
-1.0
 20
0.0
 30
0.0
 11
1.0
 21
0.0
 31
0.0
  0
ENDBLK
  5
67
330
64
100
AcDbEntity
  8
0
100
AcDbBlockEnd
  0
BLOCK
  5
CD2
330
CC8
100
AcDbEntity
  8
0
100
AcDbBlockBegin
  2
*D5
 70
     1
 10
0.0
 20
0.0
 30
0.0
  3
*D5
  1

  0
LINE
  5
4869
330
CC8
100
AcDbEntity
  8
AM_5
 62
     3
100
AcDbLine
 10
-205.9999999999995
 20
-8.000002054481385
 30
0.0
 11
-205.9999999999995
 21
-33.50000305448117
 31
0.0
  0
LINE
  5
486A
330
CC8
100
AcDbEntity
  8
AM_5
 62
     3
100
AcDbLine
 10
-2.99999999999917
 20
-8.25000074658449
 30
0.0
 11
-2.999999999999171
 21
-33.50000305448117
 31
0.0
  0
LINE
  5
486B
330
CC8
100
AcDbEntity
  8
AM_5
 62
     3
100
AcDbLine
 10
-203.4999999999995
 20
-32.50000305448117
 30
0.0
 11
-5.499999999999171
 21
-32.50000305448117
 31
0.0
  0
INSERT
  5
486C
330
CC8
100
AcDbEntity
  8
AM_5
 62
     3
100
AcDbBlockReference
  2
_OPEN30
 10
-205.9999999999995
 20
-32.50000305448117
 30
0.0
 41
2.5
 42
2.5
 43
2.5
 50
180.0
  0
INSERT
  5
486D
330
CC8
100
AcDbEntity
  8
AM_5
 62
     3
100
AcDbBlockReference
  2
_OPEN30
 10
-2.999999999999171
 20
-32.50000305448117
 30
0.0
 41
2.5
 42
2.5
 43
2.5
  0
MTEXT
  5
486E
330
CC8
100
AcDbEntity
  8
AM_5
 62
     2
100
AcDbMText
 10
-104.4999999999993
 20
-29.10000305448117
 30
0.0
 40
3.799999999999999
 41
0.0
 71
     5
 72
     1
  1
203
1001
ACAD
1000
MTEXTBEGIN
1070
    73
1070
     1
1070
    44
1040
1.0
1070
    74
1070
     0
1000
MTEXTEND
  0
POINT
  5
486F
330
CC8
100
AcDbEntity
  8
DEFPOINTS
 62
     0
100
AcDbPoint
 10
-205.9999999999995
 20
-8.000002054481385
 30
0.0
  0
POINT
  5
4870
330
CC8
100
AcDbEntity
  8
DEFPOINTS
 62
     0
100
AcDbPoint
 10
-2.99999999999917
 20
-8.25000074658449
 30
0.0
  0
POINT
  5
4871
330
CC8
100
AcDbEntity
  8
DEFPOINTS
 62
     0
100
AcDbPoint
 10
-2.999999999999171
 20
-32.50000305448117
 30
0.0
  0
ENDBLK
  5
CD3
330
CC8
100
AcDbEntity
  8
0
100
AcDbBlockEnd
  0
BLOCK
  5
E00
330
DF6
100
AcDbEntity
  8
0
100
AcDbBlockBegin
  2
*D6
 70
     1
 10
0.0
 20
0.0
 30
0.0
  3
*D6
  1

  0
LINE
  5
4860
330
DF6
100
AcDbEntity
  8
AM_5
 62
     3
100
AcDbLine
 10
-138.9999807595525
 20
-8.500002054481312
 30
0.0
 11
-138.9999807595525
 21
-23.50000305448102
 31
0.0
  0
LINE
  5
4861
330
DF6
100
AcDbEntity
  8
AM_5
 62
     3
100
AcDbLine
 10
-2.99999999999917
 20
-8.25000074658449
 30
0.0
 11
-2.99999999999917
 21
-23.50000305448102
 31
0.0
  0
LINE
  5
4862
330
DF6
100
AcDbEntity
  8
AM_5
 62
     3
100
AcDbLine
 10
-136.4999807595524
 20
-22.50000305448102
 30
0.0
 11
-5.49999999999917
 21
-22.50000305448102
 31
0.0
  0
INSERT
  5
4863
330
DF6
100
AcDbEntity
  8
AM_5
 62
     3
100
AcDbBlockReference
  2
_OPEN30
 10
-138.9999807595525
 20
-22.50000305448102
 30
0.0
 41
2.5
 42
2.5
 43
2.5
 50
180.0
  0
INSERT
  5
4864
330
DF6
100
AcDbEntity
  8
AM_5
 62
     3
100
AcDbBlockReference
  2
_OPEN30
 10
-2.99999999999917
 20
-22.50000305448102
 30
0.0
 41
2.5
 42
2.5
 43
2.5
  0
MTEXT
  5
4865
330
DF6
100
AcDbEntity
  8
AM_5
 62
     2
100
AcDbMText
 10
-70.99999037977584
 20
-19.10000305448102
 30
0.0
 40
3.799999999999999
 41
0.0
 71
     5
 72
     1
  1
136
1001
ACAD
1000
MTEXTBEGIN
1070
    73
1070
     1
1070
    44
1040
1.0
1070
    74
1070
     0
1000
MTEXTEND
  0
POINT
  5
4866
330
DF6
100
AcDbEntity
  8
DEFPOINTS
 62
     0
100
AcDbPoint
 10
-138.9999807595525
 20
-8.500002054481312
 30
0.0
  0
POINT
  5
4867
330
DF6
100
AcDbEntity
  8
DEFPOINTS
 62
     0
100
AcDbPoint
 10
-2.99999999999917
 20
-8.25000074658449
 30
0.0
  0
POINT
  5
4868
330
DF6
100
AcDbEntity
  8
DEFPOINTS
 62
     0
100
AcDbPoint
 10
-2.99999999999917
 20
-22.50000305448102
 30
0.0
  0
ENDBLK
  5
E01
330
DF6
100
AcDbEntity
  8
0
100
AcDbBlockEnd
  0
BLOCK
  5
2221
330
2217
100
AcDbEntity
  8
0
100
AcDbBlockBegin
  2
*D7
 70
     1
 10
0.0
 20
0.0
 30
0.0
  3
*D7
  1

  0
LINE
  5
4872
330
2217
100
AcDbEntity
  8
AM_5
 62
     3
100
AcDbLine
 10
-205.5
 20
8.499999999998381
 30
0.0
 11
-223.0000009999995
 21
8.499999999998333
 31
0.0
  0
LINE
  5
4873
330
2217
100
AcDbEntity
  8
AM_5
 62
     3
100
AcDbLine
 10
-205.5000000000001
 20
-8.500002054481456
 30
0.0
 11
-223.0000009999995
 21
-8.500002054481504
 31
0.0
  0
LINE
  5
4874
330
2217
100
AcDbEntity
  8
AM_5
 62
     3
100
AcDbLine
 10
-222.0000009999996
 20
5.999999999998335
 30
0.0
 11
-222.0000009999995
 21
-6.000002054481502
 31
0.0
  0
INSERT
  5
4875
330
2217
100
AcDbEntity
  8
AM_5
 62
     3
100
AcDbBlockReference
  2
_OPEN30
 10
-222.0000009999996
 20
8.499999999998335
 30
0.0
 41
2.5
 42
2.5
 43
2.5
 50
90.00000000000017
  0
INSERT
  5
4876
330
2217
100
AcDbEntity
  8
AM_5
 62
     3
100
AcDbBlockReference
  2
_OPEN30
 10
-222.0000009999995
 20
-8.500002054481502
 30
0.0
 41
2.5
 42
2.5
 43
2.5
 50
270.0000000000001
  0
MTEXT
  5
4877
330
2217
100
AcDbEntity
  8
AM_5
 62
     2
100
AcDbMText
 10
-225.4000009999995
 20
-0.0000010272415839
 30
0.0
 40
3.799999999999999
 41
0.0
 71
     5
 72
     1
  1
%%c17
 11
-0.0000000000000028
 21
1.0
 31
0.0
1001
ACAD
1000
MTEXTBEGIN
1070
    73
1070
     1
1070
    44
1040
1.0
1070
    74
1070
     0
1000
MTEXTEND
  0
POINT
  5
4878
330
2217
100
AcDbEntity
  8
DEFPOINTS
 62
     0
100
AcDbPoint
 10
-205.5
 20
8.499999999999021
 30
0.0
  0
POINT
  5
4879
330
2217
100
AcDbEntity
  8
DEFPOINTS
 62
     0
100
AcDbPoint
 10
-205.5000000000001
 20
-8.500002054480816
 30
0.0
  0
POINT
  5
487A
330
2217
100
AcDbEntity
  8
DEFPOINTS
 62
     0
100
AcDbPoint
 10
-222.0000009999995
 20
-8.500002054480811
 30
0.0
  0
ENDBLK
  5
2222
330
2217
100
AcDbEntity
  8
0
100
AcDbBlockEnd
  0
BLOCK
  5
4483
330
4479
100
AcDbEntity
  8
0
100
AcDbBlockBegin
  2
*D8
 70
     1
 10
0.0
 20
0.0
 30
0.0
  3
*D8
  1

  0
LINE
  5
4886
330
4479
100
AcDbEntity
  8
AM_5
 62
     3
100
AcDbLine
 10
-2.999999999999031
 20
8.249999253415088
 30
0.0
 11
15.55592102485774
 21
8.24999925341514
 31
0.0
  0
LINE
  5
4887
330
4479
100
AcDbEntity
  8
AM_5
 62
     3
100
AcDbLine
 10
-2.999999999999144
 20
-8.250000746584499
 30
0.0
 11
15.55592102485778
 21
-8.250000746584447
 31
0.0
  0
LINE
  5
4888
330
4479
100
AcDbEntity
  8
AM_5
 62
     3
100
AcDbLine
 10
14.55592102485774
 20
5.749999253415137
 30
0.0
 11
14.55592102485778
 21
-5.75000074658445
 31
0.0
  0
INSERT
  5
4889
330
4479
100
AcDbEntity
  8
AM_5
 62
     3
100
AcDbBlockReference
  2
_OPEN30
 10
14.55592102485774
 20
8.249999253415138
 30
0.0
 41
2.5
 42
2.5
 43
2.5
 50
90.00000000000017
  0
INSERT
  5
488A
330
4479
100
AcDbEntity
  8
AM_5
 62
     3
100
AcDbBlockReference
  2
_OPEN30
 10
14.55592102485779
 20
-8.250000746584449
 30
0.0
 41
2.5
 42
2.5
 43
2.5
 50
270.0000000000001
  0
MTEXT
  5
488B
330
4479
100
AcDbEntity
  8
AM_5
 62
     2
100
AcDbMText
 10
11.15592102485776
 20
-0.0000007465846661
 30
0.0
 40
3.799999999999999
 41
0.0
 71
     5
 72
     1
  1
%%c16.5
 11
-0.0000000000000028
 21
1.0
 31
0.0
1001
ACAD
1000
MTEXTBEGIN
1070
    73
1070
     1
1070
    44
1040
1.0
1070
    74
1070
     0
1000
MTEXTEND
  0
POINT
  5
488C
330
4479
100
AcDbEntity
  8
DEFPOINTS
 62
     0
100
AcDbPoint
 10
-2.999999999999005
 20
8.249999253415097
 30
0.0
  0
POINT
  5
488D
330
4479
100
AcDbEntity
  8
DEFPOINTS
 62
     0
100
AcDbPoint
 10
-2.99999999999917
 20
-8.25000074658449
 30
0.0
  0
POINT
  5
488E
330
4479
100
AcDbEntity
  8
DEFPOINTS
 62
     0
100
AcDbPoint
 10
14.55592102485776
 20
-8.250000746584495
 30
0.0
  0
ENDBLK
  5
4484
330
4479
100
AcDbEntity
  8
0
100
AcDbBlockEnd
  0
BLOCK
  5
48AB
330
489D
100
AcDbEntity
  8
0
100
AcDbBlockBegin
  2
*D9
 70
     1
 10
0.0
 20
0.0
 30
0.0
  3
*D9
  1

  0
LINE
  5
49F5
330
489D
100
AcDbEntity
  8
AM_5
100
AcDbLine
 10
0.3420201408165515
 20
-0.9396926216994955
 30
0.0
 11
8.849223733871253
 21
-24.3130425905386
 31
0.0
  0
LINE
  5
49F6
330
489D
100
AcDbEntity
  8
AM_5
100
AcDbLine
 10
0.3420224212248076
 20
0.9396917916952542
 30
0.0
 11
8.849282735785044
 21
24.31302111551692
 31
0.0
  0
ARC
  5
49F7
330
489D
100
AcDbEntity
  8
AM_5
100
AcDbCircle
 10
0.0000000000004104
 20
-0.0000000000001936
 30
0.0
 40
24.87339948096185
100
AcDbArc
 50
295.7611669008078
 51
64.23869405603766
  0
INSERT
  5
49F8
330
489D
100
AcDbEntity
  8
AM_5
100
AcDbBlockReference
  2
_OPEN30
 10
8.507203593055113
 20
-23.37334996883929
 30
0.0
 41
2.5
 42
2.5
 43
2.5
 50
202.8805833738973
  0
INSERT
  5
49F9
330
489D
100
AcDbEntity
  8
AM_5
100
AcDbBlockReference
  2
_OPEN30
 10
8.507260314560648
 20
23.37332932382147
 30
0.0
 41
2.5
 42
2.5
 43
2.5
 50
157.1192775829481
  0
MTEXT
  5
49FA
330
489D
100
AcDbEntity
  8
AM_5
 62
     2
100
AcDbMText
 10
21.77339948094623
 20
-0.0000264194168787
 30
0.0
 40
3.2
 41
0.0
 71
     5
 72
     1
  1
140°
  7
ASAMI
 11
0.0000012133804244
 21
0.999999999999264
 31
0.0
  0
POINT
  5
49FB
330
489D
100
AcDbEntity
  8
DEFPOINTS
 62
     0
100
AcDbPoint
 10
22.83914805814796
 20
-9.851868742402736
 30
0.0
  0
POINT
  5
49FC
330
489D
100
AcDbEntity
  8
DEFPOINTS
 62
     0
100
AcDbPoint
 10
0.0000000000003872
 20
-0.0000000000002572
 30
0.0
  0
POINT
  5
49FD
330
489D
100
AcDbEntity
  8
DEFPOINTS
 62
     0
100
AcDbPoint
 10
0.0000000000003979
 20
-0.0000000000001593
 30
0.0
  0
POINT
  5
49FE
330
489D
100
AcDbEntity
  8
DEFPOINTS
 62
     0
100
AcDbPoint
 10
-0.6823249778769425
 20
1.874672485025094
 30
0.0
  0
POINT
  5
49FF
330
489D
100
AcDbEntity
  8
DEFPOINTS
 62
     0
100
AcDbPoint
 10
-0.6823388781914339
 20
-1.87469652046858
 30
0.0
  0
ENDBLK
  5
48AC
330
489D
100
AcDbEntity
  8
0
100
AcDbBlockEnd
  0
ENDSEC
  0
SECTION
  2
ENTITIES
  0
LINE
  5
C9F
330
1F
100
AcDbEntity
  8
AM_7
100
AcDbLine
 10
-207.9999999999995
 20
-0.0000000000005528
 30
0.0
 11
2.614497280555838
 21
-0.0000000000001423
 31
0.0
1001
GENIUS_GENODEF_13
1002
{
1000
HIER
1070
     0
1002
}
1002
{
1000
MANEDIT
1070
     0
1002
}
1002
{
1000
NOSEL
1070
     0
1002
}
1002
{
1000
BEHIND
1070
     0
1002
}
1002
{
1000
REACTOR
1002
}
1001
GENIUS_GENOBJ-N-CEN_13
1002
{
1000
OWNER
1000
GEN
1002
}
  0
DIMENSION
  5
CC6
330
1F
100
AcDbEntity
  8
AM_5
100
AcDbDimension
  2
*D5
 10
-2.999999999999171
 20
-32.50000305448117
 30
0.0
 11
-104.4999999999993
 21
-29.10000305448117
 31
0.0
 70
    32
  1
<>
  3
AM_JIS$0
100
AcDbAlignedDimension
 13
-205.9999999999995
 23
-8.000002054481385
 33
0.0
 14
-2.99999999999917
 24
-8.25000074658449
 34
0.0
 50
0.0000000000001132
100
AcDbRotatedDimension
1001
GENIUS_GENDTOL_13
1000

1000
h7
1000

1040
0.0
1001
ACAD
1000
DSTYLE
1002
{
1070
   271
1070
     0
1002
}
  0
DIMENSION
  5
DF5
330
1F
100
AcDbEntity
  8
AM_5
100
AcDbDimension
  2
*D6
 10
-2.99999999999917
 20
-22.50000305448102
 30
0.0
 11
-70.99999037977584
 21
-19.10000305448102
 31
0.0
 70
    32
  1
<>
  3
AM_JIS$0
100
AcDbAlignedDimension
 13
-138.9999807595525
 23
-8.500002054481312
 33
0.0
 14
-2.99999999999917
 24
-8.25000074658449
 34
0.0
 50
0.0000000000001527
100
AcDbRotatedDimension
1001
GENIUS_GENDTOL_13
1000

1000
h7
1000

1040
0.0
1001
ACAD
1000
DSTYLE
1002
{
1070
   271
1070
     0
1002
}
  0
TEXT
  5
19BD
330
1F
100
AcDbEntity
  8
AM_6
100
AcDbText
 10
-125.6904761904753
 20
-55.00000305448122
 30
0.0
 40
5.0
  1
MDW165LHK
 50
0.0000000000001527
 72
     4
 11
-104.4999999999992
 21
-52.50000305448117
 31
0.0
100
AcDbText
  0
LINE
  5
1E25
330
1F
100
AcDbEntity
  8
AM_0
100
AcDbLine
 10
-138.9999807595526
 20
-8.500002054481388
 30
0.0
 11
-138.5661272389772
 21
-8.24951660758831
 31
0.0
  0
LINE
  5
1E26
330
1F
100
AcDbEntity
  8
AM_0
100
AcDbLine
 10
-138.5669667645505
 20
8.249999253422108
 30
0.0
 11
-138.9999999999995
 21
8.50001110847668
 31
0.0
  0
LINE
  5
1FD9
330
1F
100
AcDbEntity
  8
AM_0
100
AcDbLine
 10
-138.566960838782
 20
-8.249997886659986
 30
0.0
 11
-138.5669667645505
 21
8.249999253422123
 31
0.0
  0
LINE
  5
21D7
330
1F
100
AcDbEntity
  8
AM_0
 48
0.5
100
AcDbLine
 10
-138.9999807595526
 20
-8.500002054481313
 30
0.0
 11
-138.9999807595526
 21
8.49999999999952
 31
0.0
  0
LINE
  5
21D8
330
1F
100
AcDbEntity
  8
AM_0
 48
0.5
100
AcDbLine
 10
-205.4999999999996
 20
8.499999999999447
 30
0.0
 11
-138.9999807595526
 21
8.49999999999952
 31
0.0
1001
GENIUS_GENODEF_13
1002
{
1000
HIER
1070
     0
1002
}
1002
{
1000
MANEDIT
1070
     0
1002
}
1002
{
1000
NOSEL
1070
     0
1002
}
1002
{
1000
BEHIND
1070
     0
1002
}
1002
{
1000
REACTOR
1002
}
1001
GENIUS_GENOBJ-N-CEN_13
1002
{
1000
OWNER
1000
GEN
1002
}
  0
LINE
  5
21D9
330
1F
100
AcDbEntity
  8
AM_0
 48
0.5
100
AcDbLine
 10
-205.4999999999995
 20
-8.500002054481385
 30
0.0
 11
-138.9999807595526
 21
-8.500002054481312
 31
0.0
1001
GENIUS_GENODEF_13
1002
{
1000
HIER
1070
     0
1002
}
1002
{
1000
MANEDIT
1070
     0
1002
}
1002
{
1000
NOSEL
1070
     0
1002
}
1002
{
1000
BEHIND
1070
     0
1002
}
1002
{
1000
REACTOR
1002
}
1001
GENIUS_GENOBJ-N-CEN_13
1002
{
1000
OWNER
1000
GEN
1002
}
  0
LINE
  5
21DC
330
1F
100
AcDbEntity
  8
AM_0
100
AcDbLine
 10
-205.5000000000001
 20
-8.500002054480821
 30
0.0
 11
-205.5
 21
8.499999999999024
 31
0.0
  0
LINE
  5
21DD
330
1F
100
AcDbEntity
  8
AM_0
 48
0.5
100
AcDbLine
 10
-205.9999999999995
 20
-8.000002054481363
 30
0.0
 11
-205.9999999999996
 21
7.999999999999438
 31
0.0
  0
DIMENSION
  5
2216
330
1F
100
AcDbEntity
  8
AM_5
100
AcDbDimension
  2
*D7
 10
-222.0000009999995
 20
-8.500002054480811
 30
0.0
 11
-225.4000009999995
 21
-0.0000010272409281
 31
0.0
 70
    32
  1
%%c<>
 51
359.9999999999998
  3
AM_JIS$0
100
AcDbAlignedDimension
 13
-205.5
 23
8.499999999999021
 33
0.0
 14
-205.5000000000001
 24
-8.500002054480816
 34
0.0
 50
269.9999999999999
100
AcDbRotatedDimension
1001
ACAD
1000
DSTYLE
1002
{
1070
   271
1070
     0
1002
}
1001
GENIUS_GENDTOL_13
1000

1000
h7
1000

1040
0.0
  0
ELLIPSE
  5
2694
330
1F
100
AcDbEntity
  8
AM_0
 48
0.5
100
AcDbEllipse
 10
9.574045411955525
 20
7.688173725631989
 30
0.0
 11
11.81846614912472
 21
0.0000000000011659
 31
0.0
210
0.0
220
0.0
230
1.0
 40
0.9899999999999971
 41
3.323896559076802
 42
3.661579236128986
  0
LINE
  5
2695
330
1F
100
AcDbEntity
  8
AM_0
 48
0.5
100
AcDbLine
 10
-2.048572382446598
 20
5.566962076936488
 30
0.0
 11
-2.999999999999005
 21
8.249999253415097
 31
0.0
  0
LINE
  5
2696
330
1F
100
AcDbEntity
  8
AM_0
 48
0.5
100
AcDbLine
 10
0.0000000000003979
 20
-0.0000000000001593
 30
0.0
 11
-0.6823249778769427
 21
1.874672485025094
 31
0.0
  0
LINE
  5
2699
330
1F
100
AcDbEntity
  8
AM_0
 48
0.5
100
AcDbLine
 10
0.0000000000003872
 20
-0.0000000000002572
 30
0.0
 11
-0.682338878191434
 21
-1.87469652046858
 31
0.0
  0
ELLIPSE
  5
3366
330
1F
100
AcDbEntity
  8
AM_0
 48
0.5
100
AcDbEllipse
 10
9.574045411955548
 20
-7.688173725632258
 30
0.0
 11
11.81846614912472
 21
-0.0000000000011265
 31
0.0
210
0.0
220
0.0
230
-1.0
 40
0.9899999999999971
 41
3.323896559076802
 42
3.661579236128986
  0
LINE
  5
3367
330
1F
100
AcDbEntity
  8
AM_0
 48
0.5
100
AcDbLine
 10
-2.048572382446582
 20
-5.566962076936806
 30
0.0
 11
-2.99999999999917
 21
-8.25000074658449
 31
0.0
  0
LINE
  5
3F18
330
1F
100
AcDbEntity
  8
AM_0
 48
0.5
100
AcDbLine
 10
-205.4999999999996
 20
8.499999999999447
 30
0.0
 11
-205.9999999999996
 21
7.999999999999447
 31
0.0
1001
GENIUS_GENFIL_13
1070
     0
1040
0.5
1040
0.5
1040
20.0
1040
0.0
1002
{
1002
}
1001
GENIUS_GENODEF_13
1002
{
1000
HIER
1070
     0
1002
}
1002
{
1000
MANEDIT
1070
     0
1002
}
1002
{
1000
NOSEL
1070
     0
1002
}
1002
{
1000
BEHIND
1070
     0
1002
}
1002
{
1000
REACTOR
1002
}
1001
GENIUS_GENOBJ-N-CHA_13
1002
{
1000
OWNER
1000
GEN
1002
}
  0
LINE
  5
3F1B
330
1F
100
AcDbEntity
  8
AM_0
 48
0.5
100
AcDbLine
 10
-205.9999999999995
 20
-8.000002054481385
 30
0.0
 11
-205.4999999999995
 21
-8.500002054481385
 31
0.0
1001
GENIUS_GENFIL_13
1070
     0
1040
0.5
1040
0.5
1040
20.0
1040
0.0
1002
{
1002
}
1001
GENIUS_GENODEF_13
1002
{
1000
HIER
1070
     0
1002
}
1002
{
1000
MANEDIT
1070
     0
1002
}
1002
{
1000
NOSEL
1070
     0
1002
}
1002
{
1000
BEHIND
1070
     0
1002
}
1002
{
1000
REACTOR
1002
}
1001
GENIUS_GENOBJ-N-CHA_13
1002
{
1000
OWNER
1000
GEN
1002
}
  0
DIMENSION
  5
4478
330
1F
100
AcDbEntity
  8
AM_5
100
AcDbDimension
  2
*D8
 10
14.55592102485776
 20
-8.250000746584495
 30
0.0
 11
14.55592102485776
 21
-0.000000746584699
 31
0.0
 70
   160
  1
%%c<>
 51
359.9999999999998
  3
AM_JIS$0
100
AcDbAlignedDimension
 13
-2.999999999999005
 23
8.249999253415097
 33
0.0
 14
-2.99999999999917
 24
-8.25000074658449
 34
0.0
 50
89.99999999999763
100
AcDbRotatedDimension
1001
ACAD
1000
DSTYLE
1002
{
1070
   271
1070
     1
1002
}
1001
GENIUS_GENDTOL_13
1000

1000
h7
1000

1040
0.0
  0
LINE
  5
47EA
330
1F
100
AcDbEntity
  8
AM_0
100
AcDbLine
 10
-131.9608471488918
 20
-8.250064072969285
 30
0.0
 11
-138.5661272389772
 21
-8.24951660758831
 31
0.0
  0
LINE
  5
47EB
330
1F
100
AcDbEntity
  8
AM_0
100
AcDbLine
 10
-129.6133515699418
 20
8.249999253421561
 30
0.0
 11
-138.5669667645505
 21
8.249999253422108
 31
0.0
  0
LINE
  5
47EC
330
1F
100
AcDbEntity
  8
AM_0
 48
0.5
100
AcDbLine
 10
-9.057666857921429
 20
8.249999253415413
 30
0.0
 11
-2.999999999999005
 21
8.249999253415097
 31
0.0
  0
LINE
  5
47ED
330
1F
100
AcDbEntity
  8
AM_0
 48
0.5
100
AcDbLine
 10
0.0000000000004263
 20
-0.0000000000002374
 30
0.0
 11
-5.980362750036208
 21
3.167748658321878
 31
0.0
  0
LINE
  5
47EE
330
1F
100
AcDbEntity
  8
AM_0
 48
0.5
100
AcDbLine
 10
-9.05766685792221
 20
-8.250000746584596
 30
0.0
 11
-2.999999999999135
 21
-8.2500007465845
 31
0.0
  0
LINE
  5
47EF
330
1F
100
AcDbEntity
  8
AM_11
 48
0.5
100
AcDbLine
 10
-74.48314801926535
 20
8.251171315640906
 30
0.0
 11
-59.35682509867966
 21
8.249999253418103
 31
0.0
  0
LINE
  5
47F0
330
1F
100
AcDbEntity
  8
AM_11
 48
0.5
100
AcDbLine
 10
-77.55554571562932
 20
-8.25000074658107
 30
0.0
 11
-53.85258166800493
 21
-8.2511728088043
 31
0.0
  0
LINE
  5
47F1
330
1F
100
AcDbEntity
  8
AM_0
 48
0.5
100
AcDbLine
 10
-59.35684551390318
 20
8.249999253418103
 30
0.0
 11
-32.76063090554882
 21
8.24999925341668
 31
0.0
  0
LINE
  5
47F2
330
1F
100
AcDbEntity
  8
AM_0
 48
0.5
100
AcDbLine
 10
-53.85258166800492
 20
-8.250000746582349
 30
0.0
 11
-32.76063090554963
 21
-8.250000746583308
 31
0.0
  0
LINE
  5
47F3
330
1F
100
AcDbEntity
  8
AM_11
 48
0.5
100
AcDbLine
 10
-32.76063090554963
 20
-8.250000746583308
 30
0.0
 11
-9.05766685792221
 21
-8.250000746584596
 31
0.0
  0
LINE
  5
47F4
330
1F
100
AcDbEntity
  8
AM_11
 48
0.5
100
AcDbLine
 10
-32.76063090554882
 20
8.24999925341668
 30
0.0
 11
-9.057666857921429
 21
8.249999253415413
 31
0.0
  0
SPLINE
  5
47F5
330
1F
100
AcDbEntity
  8
AM_0
100
AcDbSpline
210
0.0
220
0.0
230
1.0
 70
     8
 71
     3
 72
    46
 73
    42
 74
     0
 42
0.0000000001
 43
0.0000000001
 40
0.0
 40
0.0
 40
0.0
 40
0.0
 40
1.348332046947657
 40
2.024828967632895
 40
2.703918159304097
 40
3.386347665078124
 40
4.072776489761952
 40
4.763750544421347
 40
5.459696642770596
 40
6.160921452191754
 40
6.867565637253344
 40
7.579665907256596
 40
8.297112853413899
 40
9.019671552060676
 40
9.746986763446127
 40
10.47859339096366
 40
11.21393074760089
 40
11.95235532364328
 40
12.69315551794651
 40
13.43556823304427
 40
14.1787950170388
 40
14.92202180103393
 40
15.66443451613169
 40
16.40523471043432
 40
17.14365928647669
 40
17.87899664311455
 40
18.61060327063121
 40
19.3379184820169
 40
20.06048192311554
 40
20.77792886927283
 40
21.49002913927608
 40
22.19667332433747
 40
22.89788836015233
 40
23.59383445850158
 40
24.28480851316097
 40
24.97123685067576
 40
25.65366676154838
 40
26.33276604526152
 40
27.00926273560555
 40
27.68398960851751
 40
28.357818684969
 40
28.357818684969
 40
28.357818684969
 40
28.357818684969
 10
-5.535306795553777
 20
-8.250000746584776
 30
0.0
 10
-6.374412087941035
 20
-8.231206608852188
 30
0.0
 10
-7.634520609996904
 20
-8.202982912331163
 30
0.0
 10
-9.310141862885613
 20
-8.029214797820394
 30
0.0
 10
-10.56831489033406
 20
-7.85401031402604
 30
0.0
 10
-11.82638037394001
 20
-7.629077518098507
 30
0.0
 10
-13.08433499952823
 20
-7.357407422897919
 30
0.0
 10
-14.34217230473907
 20
-7.040298842920692
 30
0.0
 10
-15.59989018288406
 20
-6.679817539266053
 30
0.0
 10
-16.85748303667441
 20
-6.27817692050112
 30
0.0
 10
-18.11495337973658
 20
-5.837868110689275
 30
0.0
 10
-19.37229782985776
 20
-5.361606208557106
 30
0.0
 10
-20.6295365869492
 20
-4.852349679276558
 30
0.0
 10
-21.88667576144258
 20
-4.313229194284359
 30
0.0
 10
-23.14372691390512
 20
-3.747569241663008
 30
0.0
 10
-24.40070401348229
 20
-3.158859583640963
 30
0.0
 10
-25.6576180763851
 20
-2.550720462098788
 30
0.0
 10
-26.91448133555857
 20
-1.926892252758633
 30
0.0
 10
-28.17130711733635
 20
-1.291214252710923
 30
0.0
 10
-29.4281069029039
 20
-0.6475954348135104
 30
0.0
 10
-30.68489612359062
 20
-0.0000007467144565
 30
0.0
 10
-31.94168534400123
 20
0.6475939421715561
 30
0.0
 10
-33.19848513039699
 20
1.291212757709248
 30
0.0
 10
-34.45531090914763
 20
1.926890766380691
 30
0.0
 10
-35.71217417954567
 20
2.550718943738542
 30
0.0
 10
-36.96908820082902
 20
3.158858183867897
 30
0.0
 10
-38.22606545453718
 20
3.747567402719859
 30
0.0
 10
-39.48311876964718
 20
4.313230209556055
 30
0.0
 10
-40.74026282877692
 20
4.852345796365361
 30
0.0
 10
-41.99750382858961
 20
5.361604936938996
 30
0.0
 10
-43.2548482494362
 20
5.837866980784404
 30
0.0
 10
-44.51231342695311
 20
6.278171744534568
 30
0.0
 10
-45.76989790166087
 20
6.679818576339661
 30
0.0
 10
-47.02761064588583
 20
7.040301352599873
 30
0.0
 10
-48.28544722312648
 20
7.357389185669
 30
0.0
 10
-49.54340277097006
 20
7.629138075902658
 30
0.0
 10
-50.801476283647
 20
7.853749664913362
 30
0.0
 10
-52.05964282804883
 20
8.030187555634514
 30
0.0
 10
-53.31788721460249
 20
8.156066700129331
 30
0.0
 10
-54.57617727449139
 20
8.235277619811606
 30
0.0
 10
-55.41524192292562
 20
8.245094220671843
 30
0.0
 10
-55.83449494494848
 20
8.249999253417927
 30
0.0
  0
SPLINE
  5
47F6
330
1F
100
AcDbEntity
  8
AM_0
100
AcDbSpline
210
0.0
220
0.0
230
1.0
 70
     8
 71
     3
 72
    17
 73
    13
 74
     0
 42
0.0000000001
 43
0.0000000001
 40
1.580019955310467
 40
1.580019955310467
 40
1.580019955310467
 40
1.580019955310467
 40
2.030549285115227
 40
3.082371838836284
 40
4.126290986361125
 40
5.162752068350215
 40
6.192395305374981
 40
7.216039564037012
 40
8.234688489606833
 40
9.249433870634691
 40
10.26152376260694
 40
11.27226744710342
 40
11.27226744710342
 40
11.27226744710342
 40
11.27226744710352
 10
-20.90822423621001
 20
-6.088743680954423
 30
0.0
 10
-21.08625142323383
 20
-6.15145267502893
 30
0.0
 10
-21.68092203829803
 20
-6.356989779091581
 30
0.0
 10
-22.69617225035364
 20
-6.679382081059035
 30
0.0
 10
-23.95370982850186
 20
-7.040418690998212
 30
0.0
 10
-25.21159360556797
 20
-7.357360899100116
 30
0.0
 10
-26.46953501842966
 20
-7.629144342196163
 30
0.0
 10
-27.72761348175374
 20
-7.853792054396071
 30
0.0
 10
-28.98577886210879
 20
-8.030022070262255
 30
0.0
 10
-30.24402258591194
 20
-8.156692360324628
 30
0.0
 10
-31.50231365329624
 20
-8.232987533215576
 30
0.0
 10
-32.3413779636368
 20
-8.250000793790272
 30
0.0
 10
-32.76063090554952
 20
-8.250000746583316
 30
0.0
  0
SPLINE
  5
47F7
330
1F
100
AcDbEntity
  8
AM_0
100
AcDbSpline
210
0.0
220
0.0
230
1.0
 70
     8
 71
     3
 72
    22
 73
    18
 74
     0
 42
0.0000000001
 43
0.0000000001
 40
17.17441611292
 40
17.17441611292
 40
17.17441611292
 40
17.17441611292
 40
17.38177636558528
 40
18.41823744757437
 40
19.46215659509824
 40
20.51397914882054
 40
21.57394542641293
 40
22.64209583141747
 40
23.71826625065247
 40
24.80210429862395
 40
25.8930771157021
 40
26.99048705697709
 40
28.09349309193389
 40
29.20112995599786
 40
30.31233024745139
 40
31.42594771747373
 40
32.5407895042663
 40
32.54078950426994
 40
32.54078950426994
 40
32.54078950426994
 10
-37.56324926421427
 20
-7.408560457187792
 30
0.0
 10
-37.64750622789894
 20
-7.389462516362383
 30
0.0
 10
-38.15258070978051
 20
-7.273134871338472
 30
0.0
 10
-39.07784869975383
 20
-7.039882802685426
 30
0.0
 10
-40.33556134862511
 20
-6.679400574279195
 30
0.0
 10
-41.5931458392176
 20
-6.277753565637371
 30
0.0
 10
-42.85061105000725
 20
-5.837448956977512
 30
0.0
 10
-44.10795531996995
 20
-5.361186466549231
 30
0.0
 10
-45.36519412555569
 20
-4.851930095908806
 30
0.0
 10
-46.62233328813355
 20
-4.312809570856596
 30
0.0
 10
-47.87938443923017
 20
-3.747149618130202
 30
0.0
 10
-49.13636155645744
 20
-3.158440001342963
 30
0.0
 10
-50.39327554961828
 20
-2.550300713731517
 30
0.0
 10
-51.65013907158417
 20
-1.926473130956444
 30
0.0
 10
-52.90696326335615
 20
-1.290793086519589
 30
0.0
 10
-54.16376674369188
 20
-0.6471830698852806
 30
0.0
 10
-55.00147126693413
 20
-0.2155274840658827
 30
0.0
 10
-55.4205536520189
 20
0.0004188701181807
 30
0.0
  0
SPLINE
  5
47F8
330
1F
100
AcDbEntity
  8
AM_0
100
AcDbSpline
210
0.0
220
0.0
230
1.0
 70
     8
 71
     3
 72
    11
 73
     7
 74
     0
 42
0.0000000001
 43
0.0000000001
 40
11.27226913003534
 40
11.27226913003534
 40
11.27226913003534
 40
11.2722691300354
 40
12.28301561507924
 40
13.29510212255852
 40
14.30984805882082
 40
15.18258238371378
 40
15.18258238371378
 40
15.18258238371378
 40
15.18258238371378
 10
-32.76063090554959
 20
-8.250000746583316
 30
0.0
 10
-33.17828964137435
 20
-8.209622849148949
 30
0.0
 10
-34.01281932922749
 20
-8.111869716778205
 30
0.0
 10
-35.26030450527788
 20
-7.914677469606473
 30
0.0
 10
-36.44418993393864
 20
-7.679152951646506
 30
0.0
 10
-37.20985753651594
 20
-7.498098245031383
 30
0.0
 10
-37.56269897014859
 20
-7.408662220874707
 30
0.0
  0
SPLINE
  5
47F9
330
1F
100
AcDbEntity
  8
AM_0
100
AcDbSpline
210
0.0
220
0.0
230
1.0
 70
     8
 71
     3
 72
    55
 73
    51
 74
     0
 42
0.0000000001
 43
0.0000000001
 40
0.0
 40
0.0
 40
0.0
 40
0.0
 40
1.010743684496582
 40
2.022833576467832
 40
3.037578957496688
 40
4.056212745003489
 40
5.079857003664532
 40
6.109500240690281
 40
7.145961322679372
 40
8.189895241603872
 40
9.241717795325891
 40
10.30168407291828
 40
11.36983447792315
 40
12.44600489715814
 40
13.52984294512926
 40
14.62081576220742
 40
15.7182257034828
 40
16.82123173843959
 40
17.92886860250316
 40
19.0400688939571
 40
20.15368796660465
 40
21.26852814259644
 40
22.38336992938901
 40
23.49698739941135
 40
24.6081876908653
 40
25.71582455492886
 40
26.81883757994213
 40
27.91624752121713
 40
29.00722033829659
 40
30.09105838626677
 40
31.16722880550176
 40
32.23537921050758
 40
33.29534548809967
 40
34.347168041821
 40
35.39108718934584
 40
36.42754827133493
 40
37.45720575381954
 40
38.48085062012849
 40
39.49948440763516
 40
40.51422944315121
 40
41.52631975251916
 40
42.53706336719636
 40
43.54780698187354
 40
44.55989729124051
 40
45.57464232675757
 40
46.59327611426424
 40
47.6169209805722
 40
48.64656348684535
 40
49.68302456883444
 40
50.58557219878025
 40
50.58557219878025
 40
50.58557219878025
 40
50.58557219878025
 10
-9.057666857922212
 20
-8.250000746584589
 30
0.0
 10
-9.476919805366122
 20
-8.245092196453034
 30
0.0
 10
-10.31598410240901
 20
-8.23526855850193
 30
0.0
 10
-11.57427519648236
 20
-8.156079008198435
 30
0.0
 10
-12.83251257885325
 20
-8.030188309834377
 30
0.0
 10
-14.09067208868316
 20
-7.853747708093399
 30
0.0
 10
-15.34874117152076
 20
-7.629148311411409
 30
0.0
 10
-16.60669500847589
 20
-7.357388877513105
 30
0.0
 10
-17.86453780734836
 20
-7.040300074808488
 30
0.0
 10
-19.12225841361459
 20
-6.679823603409982
 30
0.0
 10
-20.37984825990505
 20
-6.278172766984026
 30
0.0
 10
-21.63731361460988
 20
-5.837868686311697
 30
0.0
 10
-22.8946578454721
 20
-5.361606052551981
 30
0.0
 10
-24.1518966620007
 20
-4.852349721578972
 30
0.0
 10
-25.4090358203033
 20
-4.313229182657904
 30
0.0
 10
-26.66608697750185
 20
-3.747569245472361
 30
0.0
 10
-27.92306407446372
 20
-3.158859580107103
 30
0.0
 10
-29.17997814309109
 20
-2.550720472465132
 30
0.0
 10
-30.43684138187813
 20
-1.926892214630387
 30
0.0
 10
-31.69366723979568
 20
-1.291214395415343
 30
0.0
 10
-32.95046674040281
 20
-0.6475949008118441
 30
0.0
 10
-34.20725763165531
 20
-0.0000024298829206
 30
0.0
 10
-35.46404288096832
 20
0.6476016981140648
 30
0.0
 10
-36.72084659409346
 20
1.291211169859619
 30
0.0
 10
-37.97767090044256
 20
1.92689091323523
 30
0.0
 10
-39.23453638020289
 20
2.550721547577587
 30
0.0
 10
-40.49145566311275
 20
3.158855465253628
 30
0.0
 10
-41.74843474391662
 20
3.747568116196006
 30
0.0
 10
-43.00548608259149
 20
4.313227594689667
 30
0.0
 10
-44.26262519515084
 20
4.852348246985751
 30
0.0
 10
-45.51986401489871
 20
5.361604578703696
 30
0.0
 10
-46.77720827778647
 20
5.837867098581838
 30
0.0
 10
-48.03467350270717
 20
6.278171628845136
 30
0.0
 10
-49.29225794433846
 20
6.679818918699353
 30
0.0
 10
-50.54997077305541
 20
7.040300111440267
 30
0.0
 10
-51.80781310533344
 20
7.357395290401796
 30
0.0
 10
-53.0657759245006
 20
7.629123685600337
 30
0.0
 10
-54.32384916364295
 20
7.85379260054355
 30
0.0
 10
-55.58200904644763
 20
8.030024054724812
 30
0.0
 10
-56.8402473030801
 20
8.156679241440173
 30
0.0
 10
-58.09853733027255
 20
8.232998353897945
 30
0.0
 10
-59.35685500762527
 20
8.258494044043112
 30
0.0
 10
-60.61517268312655
 20
8.232998353858105
 30
0.0
 10
-61.87346271588411
 20
8.156679241600777
 30
0.0
 10
-63.13170095202746
 20
8.030024054120808
 30
0.0
 10
-64.38986091165078
 20
7.853792602815095
 30
0.0
 10
-65.647927728656
 20
7.629124772358308
 30
0.0
 10
-66.90588559192844
 20
7.357398068678516
 30
0.0
 10
-68.10653656309243
 20
7.054694225024143
 30
0.0
 10
-68.88553258658553
 20
6.833324042496381
 30
0.0
 10
-69.24694133831424
 20
6.725439553462756
 30
0.0
  0
SPLINE
  5
47FA
330
1F
100
AcDbEntity
  8
AM_0
 48
0.5
100
AcDbSpline
210
0.0
220
0.0
230
1.0
 70
     8
 71
     3
 72
    10
 73
     6
 74
     0
 42
0.0000000001
 43
0.0000000001
 40
0.0
 40
0.0
 40
0.0
 40
0.0
 40
2.69986029516136
 40
4.147722969032201
 40
6.285750005020438
 40
6.285750005020438
 40
6.285750005020438
 40
6.285750005020438
 10
-10.52494980526731
 20
1.493205277585256
 30
0.0
 10
-9.629398629362349
 20
0.7267232675157779
 30
0.0
 10
-8.253587373905263
 20
-0.4508024897290655
 30
0.0
 10
-4.999978570801465
 20
0.1192583578639425
 30
0.0
 10
-5.612727745472614
 20
2.039298722835329
 30
0.0
 10
-6.017593249946191
 20
3.209622460936959
 30
0.0
  0
SPLINE
  5
47FB
330
1F
100
AcDbEntity
  8
AM_0
 48
0.5
100
AcDbSpline
210
0.0
220
0.0
230
1.0
 70
     8
 71
     3
 72
    25
 73
    21
 74
     0
 42
0.0000000001
 43
0.0000000001
 40
6.846175049578289
 40
6.846175049578289
 40
6.846175049578289
 40
6.846175049578289
 40
7.604337694224321
 40
8.711974558287883
 40
9.814980593243754
 40
10.91239053451967
 40
12.0033633515982
 40
13.08720139956839
 40
14.16337181880432
 40
15.23152222380919
 40
16.29148850140128
 40
17.34331105512262
 40
18.38723020264746
 40
19.42369128463655
 40
20.45333379090873
 40
21.47697865721768
 40
22.49561244472435
 40
23.5103574802404
 40
24.52244778960836
 40
25.53320666051913
 40
25.53320666051913
 40
25.53320666051913
 40
25.53320666051913
 10
-10.52515097831095
 20
1.493303264934906
 30
0.0
 10
-10.8109916421816
 20
1.638158592363939
 30
0.0
 10
-11.51503246763745
 20
1.993190617177841
 30
0.0
 10
-12.63831973421507
 20
2.550718701538721
 30
0.0
 10
-13.8952336586844
 20
3.158858160993337
 30
0.0
 10
-15.15221079417132
 20
3.747567732021551
 30
0.0
 10
-16.40926194045201
 20
4.313227697111322
 30
0.0
 10
-17.66640110417841
 20
4.85234821811991
 30
0.0
 10
-18.92363990993904
 20
5.361604592645213
 30
0.0
 10
-20.18098417808741
 20
5.837867071660922
 30
0.0
 10
-21.43844939587935
 20
6.278171721659289
 30
0.0
 10
-22.69603386055687
 20
6.679818577983647
 30
0.0
 10
-23.9537466050853
 20
7.040301368455872
 30
0.0
 10
-25.2115831909385
 20
7.357389121289255
 30
0.0
 10
-26.46953870437103
 20
7.629138315424597
 30
0.0
 10
-27.7276061454518
 20
7.853747671155774
 30
0.0
 10
-28.98576593915649
 20
8.030189211509728
 30
0.0
 10
-30.24400421928734
 20
8.156066422608278
 30
0.0
 10
-31.50230056084554
 20
8.235278101943181
 30
0.0
 10
-32.34137154936856
 20
8.245094356610392
 30
0.0
 10
-32.76063090554881
 20
8.24999925341668
 30
0.0
  0
SPLINE
  5
47FD
330
1F
100
AcDbEntity
  8
AM_0
 48
0.5
100
AcDbSpline
210
0.0
220
0.0
230
1.0
 70
     8
 71
     3
 72
    17
 73
    13
 74
     0
 42
0.0000000001
 43
0.0000000001
 40
0.0
 40
0.0
 40
0.0
 40
0.0
 40
1.010743614677189
 40
2.022833924044153
 40
3.037578959561199
 40
4.056212747067873
 40
5.079857613375832
 40
6.109500119648989
 40
7.14596120163808
 40
8.18989512056258
 40
9.241717674284874
 40
9.693948937866434
 40
9.693948937866434
 40
9.693948937866434
 40
9.693948937866434
 10
-9.057666857921431
 20
8.24999925341541
 30
0.0
 10
-9.47691988166437
 20
8.245094240623805
 30
0.0
 10
-10.31598453354072
 20
8.235277679699178
 30
0.0
 10
-11.57427456756164
 20
8.156066459932793
 30
0.0
 10
-12.83251279851225
 20
8.030189086123302
 30
0.0
 10
-14.09067277775287
 20
7.85374813810845
 30
0.0
 10
-15.34873952096268
 20
7.629136560138687
 30
0.0
 10
-16.60669766210002
 20
7.357395731874665
 30
0.0
 10
-17.86453031725242
 20
7.040274938895782
 30
0.0
 10
-19.122286295376
 20
6.679909120051687
 30
0.0
 10
-20.1375797185112
 20
6.355273990726576
 30
0.0
 10
-20.73381954432583
 20
6.15233035032408
 30
0.0
 10
-20.91277875137328
 20
6.090210660561237
 30
0.0
  0
SPLINE
  5
47FE
330
1F
100
AcDbEntity
  8
AM_0
100
AcDbSpline
210
0.0
220
0.0
230
1.0
 70
     8
 71
     3
 72
    17
 73
    13
 74
     0
 42
0.0000000001
 43
0.0000000001
 40
1.580019955310467
 40
1.580019955310467
 40
1.580019955310467
 40
1.580019955310467
 40
2.030549285115227
 40
3.082371838836284
 40
4.126290986361125
 40
5.162752068350215
 40
6.192395305374981
 40
7.216039564037012
 40
8.234688489606833
 40
9.249433870634691
 40
10.26152376260694
 40
11.27226744710342
 40
11.27226744710342
 40
11.27226744710342
 40
11.27226744710352
 10
-65.70313904629275
 20
-6.088743680952185
 30
0.0
 10
-65.88116623331655
 20
-6.151452675026693
 30
0.0
 10
-66.47583684838074
 20
-6.356989779089341
 30
0.0
 10
-67.49108706043632
 20
-6.679382081056795
 30
0.0
 10
-68.74862463858455
 20
-7.04041869099598
 30
0.0
 10
-70.00650841565065
 20
-7.357360899097876
 30
0.0
 10
-71.26444982851231
 20
-7.629144342193928
 30
0.0
 10
-72.52252829183639
 20
-7.853792054393835
 30
0.0
 10
-73.7806936721914
 20
-8.030022070260011
 30
0.0
 10
-75.03893739599458
 20
-8.15669236032239
 30
0.0
 10
-76.29722846337891
 20
-8.232987533213334
 30
0.0
 10
-77.1362927737195
 20
-8.25000079378803
 30
0.0
 10
-77.55554571563222
 20
-8.25000074658107
 30
0.0
  0
SPLINE
  5
47FF
330
1F
100
AcDbEntity
  8
AM_0
100
AcDbSpline
210
0.0
220
0.0
230
1.0
 70
     8
 71
     3
 72
    11
 73
     7
 74
     0
 42
0.0000000001
 43
0.0000000001
 40
11.27226913003534
 40
11.27226913003534
 40
11.27226913003534
 40
11.2722691300354
 40
12.28301561507924
 40
13.29510212255852
 40
14.30984805882082
 40
15.18258238371378
 40
15.18258238371378
 40
15.18258238371378
 40
15.18258238371378
 10
-77.55554571563229
 20
-8.25000074658107
 30
0.0
 10
-77.97320445145704
 20
-8.209622849146709
 30
0.0
 10
-78.80773413931014
 20
-8.111869716775965
 30
0.0
 10
-80.05521931536049
 20
-7.914677469604234
 30
0.0
 10
-81.23910474402128
 20
-7.679152951644274
 30
0.0
 10
-82.00477234659858
 20
-7.498098245029138
 30
0.0
 10
-82.35761378023125
 20
-7.408662220872463
 30
0.0
  0
SPLINE
  5
4800
330
1F
100
AcDbEntity
  8
AM_0
100
AcDbSpline
210
0.0
220
0.0
230
1.0
 70
     8
 71
     3
 72
    23
 73
    19
 74
     0
 42
0.0000000001
 43
0.0000000001
 40
16.03460024169435
 40
16.03460024169435
 40
16.03460024169435
 40
16.03460024169435
 40
16.35212704903564
 40
17.38177054169784
 40
18.41822485651776
 40
19.46214173629503
 40
20.51396345435107
 40
21.57393551351153
 40
22.64208202342361
 40
23.7182574881101
 40
24.80209208578934
 40
25.89306333925047
 40
26.99048218457928
 40
28.09348763352352
 40
29.20111863782268
 40
30.31232390128032
 40
31.42594612798585
 40
32.5407912310448
 40
32.5407912310486
 40
32.5407912310486
 40
32.5407912310486
 10
-74.48314801926535
 20
8.251171315640903
 30
0.0
 10
-74.35387407313864
 20
8.223320768462723
 30
0.0
 10
-73.80595428443648
 20
8.102039474209885
 30
0.0
 10
-72.84078767594585
 20
7.864407287980395
 30
0.0
 10
-71.59089439129146
 20
7.51105082577743
 30
0.0
 10
-70.3421620663108
 20
7.114290417282759
 30
0.0
 10
-69.09451691241497
 20
6.676422309371844
 30
0.0
 10
-67.84791464846648
 20
6.199887626548859
 30
0.0
 10
-66.6022832238421
 20
5.687410442021757
 30
0.0
 10
-65.35753589750391
 20
5.141973244456887
 30
0.0
 10
-64.11360193843814
 20
4.566664812903046
 30
0.0
 10
-62.87038161594865
 20
3.964832733073566
 30
0.0
 10
-61.62777418093077
 20
3.339975113036983
 30
0.0
 10
-60.38569684199524
 20
2.6956846221514
 30
0.0
 10
-59.14404567603965
 20
2.035707721389324
 30
0.0
 10
-57.90270567986977
 20
1.363898191654474
 30
0.0
 10
-56.66157577336838
 20
0.6841489872520559
 30
0.0
 10
-55.8343780804074
 20
0.2284143140025763
 30
0.0
 10
-55.42055365201333
 20
0.0004188701152165
 30
0.0
  0
ELLIPSE
  5
4801
330
1F
100
AcDbEntity
  8
AM_0
 48
0.5
100
AcDbEllipse
 10
-4.535593431941105
 20
-2.150069506503589
 30
0.0
 11
-1.05614363500831
 21
0.7232563111291835
 31
0.0
210
0.0
220
0.0
230
1.0
 40
0.5220956471047908
 41
4.546174623385465
 42
7.689614964714973
  0
ELLIPSE
  5
4802
330
1F
100
AcDbEntity
  8
AM_0
 48
0.5
100
AcDbEllipse
 10
-23.1230612112032
 20
56.62994140728005
 30
0.0
 11
0.0024967709608505
 21
61.85370290133262
 31
0.0
210
0.0
220
0.0
230
0.9999999999999998
 40
0.9294591317097603
 41
3.480495693045825
 42
3.555561930000697
  0
ELLIPSE
  5
4803
330
1F
100
AcDbEntity
  8
AM_0
 48
0.5
100
AcDbEllipse
 10
-15.23506875862769
 20
13.84649011340046
 30
0.0
 11
-0.0000000000083232
 21
19.89162409305459
 31
0.0
210
0.0
220
0.0
230
1.0
 40
0.904960470147513
 41
3.65217597881772
 42
3.740670756497226
  0
ELLIPSE
  5
4804
330
1F
100
AcDbEntity
  8
AM_0
 48
0.5
100
AcDbEllipse
 10
2.454824369662877
 20
9.904631821774129
 30
0.0
 11
0.0000000000005617
 21
16.62741923332184
 31
0.0
210
0.0
220
0.0
230
1.0
 40
0.9049604701475665
 41
2.101163880028968
 42
2.509284810223864
  0
ELLIPSE
  5
4805
330
1F
100
AcDbEntity
  8
AM_0
 48
0.5
100
AcDbEllipse
 10
-4.535593431941105
 20
-2.150069506503589
 30
0.0
 11
-0.2040056382012221
 21
1.356190178430102
 31
0.0
210
0.0
220
0.0
230
1.0
 40
0.4548232536595441
 41
1.82548608425918
 42
4.960827973971158
  0
ELLIPSE
  5
4806
330
1F
100
AcDbEntity
  8
AM_0
 48
0.5
100
AcDbEllipse
 10
5.410826391211948
 20
-1.83386209759804
 30
0.0
 11
11.75279842044217
 21
2.454653181775178
 31
0.0
210
0.0
220
0.0
230
1.0
 40
0.6262262573608277
 41
3.037189778931439
 42
3.793403861820793
  0
LINE
  5
4807
330
1F
100
AcDbEntity
  8
AM_11
 48
0.5
100
AcDbLine
 10
-129.6133515699418
 20
8.249999253421561
 30
0.0
 11
-104.1519331023779
 21
8.249999253420357
 31
0.0
  0
LINE
  5
4808
330
1F
100
AcDbEntity
  8
AM_0
 48
0.5
100
AcDbLine
 10
-111.7763190365244
 20
4.931833201735047
 30
0.0
 11
-134.999999999999
 21
-0.2664709237936477
 31
0.0
  0
LINE
  5
4809
330
1F
100
AcDbEntity
  8
AM_11
 48
0.5
100
AcDbLine
 10
-131.9608471488918
 20
-8.250064072969285
 30
0.0
 11
-104.1519331023786
 21
-8.250000746579649
 31
0.0
  0
SPLINE
  5
480A
330
1F
100
AcDbEntity
  8
AM_0
 48
0.5
100
AcDbSpline
210
0.0
220
0.0
230
1.0
 70
     8
 71
     3
 72
    26
 73
    22
 74
     0
 42
0.0000000001
 43
0.0000000001
 40
0.0
 40
0.0
 40
0.0
 40
0.0
 40
0.4211432018735474
 40
0.8428473235286537
 40
1.265657898956934
 40
1.690088643751428
 40
2.116607084860617
 40
2.545625100287603
 40
2.977483884449724
 40
3.412450195918404
 40
3.850709593302191
 40
4.292362208965671
 40
4.737427885281768
 40
5.185826256336565
 40
5.637431371058531
 40
6.092003378174421
 40
6.549257520372505
 40
7.008843368271169
 40
7.470358728297647
 40
7.933358849736796
 40
8.383035712276667
 40
8.383035712276667
 40
8.383035712276667
 40
8.383035712276667
 10
-105.0099820722685
 20
-8.250419643460366
 30
0.0
 10
-105.5209293402952
 20
-8.245511093542697
 30
0.0
 10
-106.5435044059848
 20
-8.235687456019665
 30
0.0
 10
-108.076994868852
 20
-8.156497902499657
 30
0.0
 10
-109.6104198772448
 20
-8.030607216408979
 30
0.0
 10
-111.1437499648993
 20
-7.854166568533205
 30
0.0
 10
-112.676969911494
 20
-7.629567345336638
 30
0.0
 10
-114.2100491693396
 20
-7.357807258223645
 30
0.0
 10
-115.7429867185468
 20
-7.040722423786315
 30
0.0
 10
-117.2757721045153
 20
-6.680238655612344
 30
0.0
 10
-118.8084017035921
 20
-6.278592695253125
 30
0.0
 10
-120.3408881293758
 20
-5.838284420573554
 30
0.0
 10
-121.8732250317436
 20
-5.362032593243433
 30
0.0
 10
-123.4054297725037
 20
-4.852758660069501
 30
0.0
 10
-124.9375228382898
 20
-4.31365367283781
 30
0.0
 10
-126.4695075393792
 20
-3.74798798133003
 30
0.0
 10
-128.0013952959128
 20
-3.159275937004422
 30
0.0
 10
-129.5332142392068
 20
-2.551149766070698
 30
0.0
 10
-131.0649390542529
 20
-1.927271854574345
 30
0.0
 10
-132.4975635896553
 20
-1.298339467873819
 30
0.0
 10
-133.4624537206257
 20
-1.049693794957549
 30
0.0
 10
-134.999999999999
 20
-0.266470923793648
 30
0.0
  0
ELLIPSE
  5
480B
330
1F
100
AcDbEntity
  8
AM_0
 48
0.5
100
AcDbEllipse
 10
-132.6085731725116
 20
-5.448366028699424
 30
0.0
 11
2.340176891089417
 21
0.5747856909243209
 31
0.0
210
0.0
220
0.0
230
1.0
 40
0.8635863629323031
 41
0.9632754328202066
 42
2.906485368486003
  0
ELLIPSE
  5
480C
330
1F
100
AcDbEntity
  8
AM_0
 48
0.5
100
AcDbEllipse
 10
-131.9665155421854
 20
-5.50041964345933
 30
0.0
 11
-3.033755044761596
 21
0.0041562498974177
 31
0.0
210
0.0
220
0.0
230
1.0
 40
0.9064663819996384
 41
0.0146556197753112
 42
1.57203787290821
  0
SPLINE
  5
480D
330
1F
100
AcDbEntity
  8
AM_0
 48
0.5
100
AcDbSpline
210
0.0
220
0.0
230
1.0
 70
     8
 71
     3
 72
    19
 73
    15
 74
     0
 42
0.0000000001
 43
0.0000000001
 40
3.111699631838226
 40
3.111699631838226
 40
3.111699631838226
 40
3.111699631838226
 40
4.056212471389632
 40
5.079857945358201
 40
6.109499720892564
 40
7.145961650132166
 40
8.189873411961459
 40
9.241710626092514
 40
10.30166235592959
 40
11.36982472628033
 40
12.44598212828784
 40
13.52983440361964
 40
14.62080578343036
 40
14.90544694398022
 40
14.90544694398022
 40
14.90544694398022
 40
14.90544694398022
 10
-113.6324534580523
 20
-8.250072400676083
 30
0.0
 10
-114.5779190344805
 20
-8.124828367611129
 30
0.0
 10
-115.4783231728196
 20
-7.967880725390841
 30
0.0
 10
-117.1078022774779
 20
-7.712325564294548
 30
0.0
 10
-118.5076291778555
 20
-7.357813035522077
 30
0.0
 10
-120.0405600525933
 20
-7.040716678547839
 30
0.0
 10
-121.573347812724
 20
-6.680227691307928
 30
0.0
 10
-123.1059786532377
 20
-6.278596906773106
 30
0.0
 10
-124.6384605835126
 20
-5.838268695139126
 30
0.0
 10
-126.1708034824266
 20
-5.362045066137112
 30
0.0
 10
-127.7030061990102
 20
-4.852757149081438
 30
0.0
 10
-129.2350974372763
 20
-4.313649338585569
 30
0.0
 10
-130.386571072152
 20
-3.888504500701816
 30
0.0
 10
-131.0282123637557
 20
-3.645505377280621
 30
0.0
 10
-131.6802795183153
 20
-3.460930490317314
 30
0.0
  0
SPLINE
  5
480E
330
1F
100
AcDbEntity
  8
AM_0
100
AcDbSpline
210
0.0
220
0.0
230
1.0
 70
     8
 71
     3
 72
    13
 73
     9
 74
     0
 42
0.0000000001
 43
0.0000000001
 40
16.03460056234195
 40
16.03460056234195
 40
16.03460056234195
 40
16.03460056234195
 40
16.35212717791071
 40
17.38177067057215
 40
18.41822498539278
 40
19.46214186516937
 40
20.5139635832251
 40
21.34083983469381
 40
21.34083983469381
 40
21.34083983469381
 40
21.34083983469381
 10
-131.9665164942719
 20
-8.250419643459194
 30
0.0
 10
-131.5331247871836
 20
-8.223320217645456
 30
0.0
 10
-130.8653695514294
 20
-8.10204225096032
 30
0.0
 10
-129.6891131269416
 20
-7.864407290319381
 30
0.0
 10
-128.1658569559249
 20
-7.511051807889327
 30
0.0
 10
-126.6440159003204
 20
-7.1142911340557
 30
0.0
 10
-125.2358122849308
 20
-6.708766115074845
 30
0.0
 10
-124.3374031766435
 20
-6.429533279788762
 30
0.0
 10
-123.5233001762349
 20
-6.15607944038284
 30
0.0
  0
SPLINE
  5
480F
330
1F
100
AcDbEntity
  8
AM_0
100
AcDbSpline
210
0.0
220
0.0
230
1.0
 70
     8
 71
     3
 72
    23
 73
    19
 74
     0
 42
0.0000000001
 43
0.0000000001
 40
16.03460024169435
 40
16.03460024169435
 40
16.03460024169435
 40
16.03460024169435
 40
16.35212704903564
 40
17.38177054169784
 40
18.41822485651776
 40
19.46214173629503
 40
20.51396345435107
 40
21.57393551351153
 40
22.64208202342361
 40
23.7182574881101
 40
24.80209208578934
 40
25.89306333925047
 40
26.99048218457928
 40
28.09348763352352
 40
29.20111863782268
 40
30.31232390128032
 40
31.42594612798585
 40
32.5407912310448
 40
32.5407912310486
 40
32.5407912310486
 40
32.5407912310486
 10
-129.722918203237
 20
8.250752418762552
 30
0.0
 10
-125.6246103991216
 20
8.222901871584323
 30
0.0
 10
-122.7030811529983
 20
8.051831195219607
 30
0.0
 10
-121.4720965874577
 20
7.847438762929056
 30
0.0
 10
-119.9215925191417
 20
7.510631928898989
 30
0.0
 10
-118.3997514116225
 20
7.113871520404324
 30
0.0
 10
-116.8792352491012
 20
6.67600341249342
 30
0.0
 10
-115.3599900657648
 20
6.199468729670447
 30
0.0
 10
-113.8419280528828
 20
5.686991545143349
 30
0.0
 10
-112.3249434983862
 20
5.141554347578519
 30
0.0
 10
-110.8089502017645
 20
4.566245916024645
 30
0.0
 10
-109.2938266203379
 20
3.964413836195168
 30
0.0
 10
-107.7794499702832
 20
3.339556216158602
 30
0.0
 10
-106.2657193530035
 20
2.695265725273028
 30
0.0
 10
-104.7525081164963
 20
2.035288824510934
 30
0.0
 10
-103.2396761053537
 20
1.363479294776127
 30
0.0
 10
-101.7271001323447
 20
0.6837300903736901
 30
0.0
 10
-100.7189870019246
 20
0.2279954171242104
 30
0.0
 10
-100.2146555180451
 20
-0.0000000267631308
 30
0.0
  0
SPLINE
  5
4810
330
1F
100
AcDbEntity
  8
AM_0
100
AcDbSpline
210
0.0
220
0.0
230
1.0
 70
     8
 71
     3
 72
    46
 73
    42
 74
     0
 42
0.0000000001
 43
0.0000000001
 40
0.0
 40
0.0
 40
0.0
 40
0.0
 40
1.348332046947654
 40
2.024828967632893
 40
2.703918159304094
 40
3.386347665078122
 40
4.072776489761951
 40
4.763750544421345
 40
5.459696642770595
 40
6.160921452191748
 40
6.867565637253344
 40
7.579665907256597
 40
8.297112853413899
 40
9.019671552060666
 40
9.746986763446125
 40
10.47859339096365
 40
11.21393074760088
 40
11.95235532364327
 40
12.69315551794651
 40
13.43556823304427
 40
14.1787950170388
 40
14.92202180103393
 40
15.66443451613169
 40
16.40523471043432
 40
17.14365928647669
 40
17.87899664311455
 40
18.61060327063121
 40
19.33791848201689
 40
20.06048192311554
 40
20.77792886927282
 40
21.49002913927608
 40
22.19667332433747
 40
22.89788836015233
 40
23.59383445850157
 40
24.28480851316097
 40
24.97123685067575
 40
25.65366676154837
 40
26.33276604526151
 40
27.00926273560554
 40
27.68398960851752
 40
28.35781868496899
 40
28.35781868496899
 40
28.35781868496899
 40
28.35781868496899
 10
-50.33022160563649
 20
-8.250000746582538
 30
0.0
 10
-51.16932689802373
 20
-8.231206608849955
 30
0.0
 10
-52.4294354200796
 20
-8.202982912328923
 30
0.0
 10
-54.10505667296831
 20
-8.029214797818159
 30
0.0
 10
-55.36322970041677
 20
-7.8540103140238
 30
0.0
 10
-56.62129518402274
 20
-7.62907751809626
 30
0.0
 10
-57.87924980961097
 20
-7.357407422895681
 30
0.0
 10
-59.13708711482179
 20
-7.040298842918454
 30
0.0
 10
-60.39480499296672
 20
-6.679817539263812
 30
0.0
 10
-61.65239784675712
 20
-6.278176920498866
 30
0.0
 10
-62.90986818981934
 20
-5.837868110687037
 30
0.0
 10
-64.16721263994048
 20
-5.361606208554871
 30
0.0
 10
-65.42445139703193
 20
-4.852349679274325
 30
0.0
 10
-66.68159057152528
 20
-4.313229194282104
 30
0.0
 10
-67.9386417239879
 20
-3.747569241660783
 30
0.0
 10
-69.19561882356511
 20
-3.158859583638708
 30
0.0
 10
-70.45253288646773
 20
-2.55072046209656
 30
0.0
 10
-71.70939614564126
 20
-1.926892252756385
 30
0.0
 10
-72.96622192741899
 20
-1.291214252708689
 30
0.0
 10
-74.22302171298662
 20
-0.6475954348112697
 30
0.0
 10
-75.47981093367337
 20
-0.0000007467122151
 30
0.0
 10
-76.73660015408398
 20
0.6475939421737947
 30
0.0
 10
-77.99339994047977
 20
1.291212757711488
 30
0.0
 10
-79.25022571923048
 20
1.92689076638293
 30
0.0
 10
-80.50708898962852
 20
2.550718943740777
 30
0.0
 10
-81.76400301091176
 20
3.15885818387014
 30
0.0
 10
-83.02098026461978
 20
3.747567402722097
 30
0.0
 10
-84.27803357972981
 20
4.313230209558302
 30
0.0
 10
-85.5351776388596
 20
4.852345796367603
 30
0.0
 10
-86.79241863867231
 20
5.36160493694123
 30
0.0
 10
-88.04976305951894
 20
5.837866980786653
 30
0.0
 10
-89.30722823703582
 20
6.278171744536815
 30
0.0
 10
-90.56481271174364
 20
6.679818576341896
 30
0.0
 10
-91.82252545596861
 20
7.040301352602112
 30
0.0
 10
-93.08036203320929
 20
7.357389185671238
 30
0.0
 10
-94.33831758105288
 20
7.629138075904896
 30
0.0
 10
-95.59639109372978
 20
7.853749664915601
 30
0.0
 10
-96.85455763813161
 20
8.030187555636755
 30
0.0
 10
-98.11280202468527
 20
8.156066700131582
 30
0.0
 10
-99.37109208457417
 20
8.235277619813844
 30
0.0
 10
-100.2101567330083
 20
8.24509422067409
 30
0.0
 10
-100.6294097550312
 20
8.249999253420163
 30
0.0
  0
SPLINE
  5
4811
330
1F
100
AcDbEntity
  8
AM_0
100
AcDbSpline
210
0.0
220
0.0
230
1.0
 70
     8
 71
     3
 72
    22
 73
    18
 74
     0
 42
0.0000000001
 43
0.0000000001
 40
17.17441611292
 40
17.17441611292
 40
17.17441611292
 40
17.17441611292
 40
17.38177636558528
 40
18.41823744757437
 40
19.46215659509824
 40
20.51397914882054
 40
21.57394542641293
 40
22.64209583141747
 40
23.71826625065247
 40
24.80210429862395
 40
25.8930771157021
 40
26.99048705697709
 40
28.09349309193389
 40
29.20112995599786
 40
30.31233024745139
 40
31.42594771747373
 40
32.5407895042663
 40
32.54078950426994
 40
32.54078950426994
 40
32.54078950426994
 10
-82.35816407429693
 20
-7.408560457185545
 30
0.0
 10
-82.44242103798157
 20
-7.389462516360143
 30
0.0
 10
-82.94749551986319
 20
-7.273134871336226
 30
0.0
 10
-83.87276350983656
 20
-7.039882802683194
 30
0.0
 10
-85.13047615870787
 20
-6.679400574276955
 30
0.0
 10
-86.38806064930035
 20
-6.277753565635127
 30
0.0
 10
-87.64552586008997
 20
-5.837448956975265
 30
0.0
 10
-88.9028701300527
 20
-5.361186466546993
 30
0.0
 10
-90.16010893563848
 20
-4.85193009590657
 30
0.0
 10
-91.41724809821637
 20
-4.312809570854357
 30
0.0
 10
-92.67429924931304
 20
-3.747149618127965
 30
0.0
 10
-93.93127636654018
 20
-3.158440001340725
 30
0.0
 10
-95.18819035970087
 20
-2.550300713729279
 30
0.0
 10
-96.44505388166674
 20
-1.926473130954203
 30
0.0
 10
-97.70187807343887
 20
-1.290793086517351
 30
0.0
 10
-98.95868155377463
 20
-0.6471830698830407
 30
0.0
 10
-99.79638607701687
 20
-0.2155274840636432
 30
0.0
 10
-100.2154684621016
 20
0.0004188701204202
 30
0.0
  0
SPLINE
  5
4812
330
1F
100
AcDbEntity
  8
AM_0
100
AcDbSpline
210
0.0
220
0.0
230
1.0
 70
     8
 71
     3
 72
    55
 73
    51
 74
     0
 42
0.0000000001
 43
0.0000000001
 40
0.0
 40
0.0
 40
0.0
 40
0.0
 40
1.010743684496582
 40
2.022833576467832
 40
3.037578957496688
 40
4.056212745003489
 40
5.079857003664532
 40
6.109500240690281
 40
7.145961322679372
 40
8.189895241603872
 40
9.241717795325891
 40
10.30168407291828
 40
11.36983447792315
 40
12.44600489715814
 40
13.52984294512926
 40
14.62081576220742
 40
15.7182257034828
 40
16.82123173843959
 40
17.92886860250316
 40
19.0400688939571
 40
20.15368796660465
 40
21.26852814259644
 40
22.38336992938901
 40
23.49698739941135
 40
24.6081876908653
 40
25.71582455492886
 40
26.81883757994213
 40
27.91624752121713
 40
29.00722033829659
 40
30.09105838626677
 40
31.16722880550176
 40
32.23537921050758
 40
33.29534548809967
 40
34.347168041821
 40
35.39108718934584
 40
36.42754827133493
 40
37.45720575381954
 40
38.48085062012849
 40
39.49948440763516
 40
40.51422944315121
 40
41.52631975251916
 40
42.53706336719636
 40
43.54780698187354
 40
44.55989729124051
 40
45.57464232675757
 40
46.59327611426424
 40
47.6169209805722
 40
48.64656348684535
 40
49.68302456883444
 40
50.58557219878025
 40
50.58557219878025
 40
50.58557219878025
 40
50.58557219878025
 10
-53.85258166800493
 20
-8.250000746582353
 30
0.0
 10
-54.27183461544883
 20
-8.245092196450794
 30
0.0
 10
-55.11089891249173
 20
-8.235268558499686
 30
0.0
 10
-56.36919000656507
 20
-8.156079008196199
 30
0.0
 10
-57.62742738893596
 20
-8.030188309832137
 30
0.0
 10
-58.88558689876588
 20
-7.853747708091156
 30
0.0
 10
-60.14365598160349
 20
-7.629148311409172
 30
0.0
 10
-61.40160981855864
 20
-7.357388877510866
 30
0.0
 10
-62.65945261743105
 20
-7.04030007480625
 30
0.0
 10
-63.91717322369727
 20
-6.679823603407743
 30
0.0
 10
-65.17476306998777
 20
-6.278172766981786
 30
0.0
 10
-66.43222842469262
 20
-5.837868686309461
 30
0.0
 10
-67.68957265555484
 20
-5.361606052549739
 30
0.0
 10
-68.9468114720834
 20
-4.85234972157673
 30
0.0
 10
-70.20395063038605
 20
-4.313229182655666
 30
0.0
 10
-71.46100178758462
 20
-3.747569245470121
 30
0.0
 10
-72.71797888454653
 20
-3.158859580104866
 30
0.0
 10
-73.97489295317375
 20
-2.550720472462892
 30
0.0
 10
-75.23175619196081
 20
-1.926892214628147
 30
0.0
 10
-76.48858204987835
 20
-1.291214395413103
 30
0.0
 10
-77.74538155048553
 20
-0.647594900809605
 30
0.0
 10
-79.00217244173806
 20
-0.0000024298806811
 30
0.0
 10
-80.25895769105103
 20
0.6476016981163047
 30
0.0
 10
-81.51576140417624
 20
1.29121116986186
 30
0.0
 10
-82.77258571052541
 20
1.926890913237471
 30
0.0
 10
-84.02945119028576
 20
2.550721547579826
 30
0.0
 10
-85.28637047319547
 20
3.158855465255869
 30
0.0
 10
-86.54334955399921
 20
3.747568116198245
 30
0.0
 10
-87.80040089267412
 20
4.313227594691905
 30
0.0
 10
-89.05754000523351
 20
4.852348246987991
 30
0.0
 10
-90.31477882498142
 20
5.361604578705942
 30
0.0
 10
-91.57212308786922
 20
5.837867098584075
 30
0.0
 10
-92.82958831278987
 20
6.278171628847377
 30
0.0
 10
-94.08717275442118
 20
6.679818918701595
 30
0.0
 10
-95.34488558313819
 20
7.040300111442512
 30
0.0
 10
-96.60272791541624
 20
7.357395290404041
 30
0.0
 10
-97.86069073458342
 20
7.629123685602568
 30
0.0
 10
-99.11876397372576
 20
7.853792600545785
 30
0.0
 10
-100.3769238565304
 20
8.030024054727054
 30
0.0
 10
-101.6351621131628
 20
8.156679241442409
 30
0.0
 10
-102.8934521403553
 20
8.232998353900187
 30
0.0
 10
-104.1517698177079
 20
8.258494044045351
 30
0.0
 10
-105.4100874932093
 20
8.23299835386034
 30
0.0
 10
-106.6683775259668
 20
8.156679241603024
 30
0.0
 10
-107.9266157621102
 20
8.030024054123046
 30
0.0
 10
-109.1847757217335
 20
7.853792602817337
 30
0.0
 10
-110.4428425387387
 20
7.629124772360546
 30
0.0
 10
-111.7008004020111
 20
7.357398068680756
 30
0.0
 10
-112.9014513731751
 20
7.054694225026381
 30
0.0
 10
-113.6804473966682
 20
6.833324042498619
 30
0.0
 10
-115.3690064636877
 20
6.196349217431138
 30
0.0
  0
LINE
  5
4813
330
1F
100
AcDbEntity
  8
AM_0
 48
0.5
100
AcDbLine
 10
-104.1519425958359
 20
-8.250000746579525
 30
0.0
 11
-77.55554222340592
 21
-8.250000746580878
 31
0.0
  0
LINE
  5
4814
330
1F
100
AcDbEntity
  8
AM_0
100
AcDbLine
 10
-104.1519331023779
 20
8.249999253420357
 30
0.0
 11
-74.48314801926535
 21
8.251171315640906
 31
0.0
  0
DIMENSION
  5
489C
330
1F
100
AcDbEntity
  8
AM_5
100
AcDbDimension
  2
*D9
 10
-0.682338878191434
 20
-1.87469652046858
 30
0.0
 11
21.77339948094622
 21
-0.0000264194169456
 31
0.0
 70
    34
  1
<>
 51
359.9999999999998
  3
AM_JIS$2
100
AcDb2LineAngularDimension
 13
0.0000000000003979
 23
-0.0000000000001593
 33
0.0
 14
-0.6823249778769427
 24
1.874672485025094
 34
0.0
 15
0.0000000000003872
 25
-0.0000000000002572
 35
0.0
 16
22.83914805814796
 26
-9.851868742402736
 36
0.0
1001
GENIUS_GENDTOL_13
1000

1000
h7
1000

1040
0.0
1001
ACAD
1000
DSTYLE
1002
{
1070
   271
1070
     0
1002
}
  0
ELLIPSE
  5
4992
330
1F
100
AcDbEntity
  8
AM_11
 48
0.5
100
AcDbEllipse
 10
-28.15382677481263
 20
33.78980407293072
 30
0.0
 11
-37.73715655008898
 21
0.0000000000007229
 31
0.0
210
0.0
220
0.0
230
1.0
 40
0.9899999999999995
 41
1.130070686340335
 42
2.011520147323624
  0
ELLIPSE
  5
4993
330
1F
100
AcDbEntity
  8
AM_11
 48
0.5
100
AcDbEllipse
 10
-28.15382677481196
 20
-33.78977756921985
 30
0.0
 11
-37.73715655008894
 21
0.0000000000016111
 31
0.0
210
0.0
220
0.0
230
1.0
 40
0.9900000000000009
 41
4.271664206181739
 42
5.153113667165048
  0
ELLIPSE
  5
4994
330
1F
100
AcDbEntity
  8
AM_11
 48
0.5
100
AcDbEllipse
 10
-60.35079647178164
 20
-33.78977756922022
 30
0.0
 11
-37.73715655008887
 21
0.0000000000012592
 31
0.0
210
0.0
220
0.0
230
1.0
 40
0.9900000000000032
 41
4.271664206181728
 42
5.153113667165039
  0
ELLIPSE
  5
4995
330
1F
100
AcDbEntity
  8
AM_11
 48
0.5
100
AcDbEllipse
 10
-60.3507964717824
 20
33.78980407293036
 30
0.0
 11
-37.73715655008898
 21
-0.0000000000003412
 31
0.0
210
0.0
220
0.0
230
1.0
 40
0.99
 41
1.130070686340306
 42
2.011520147323597
  0
ELLIPSE
  5
4996
330
1F
100
AcDbEntity
  8
AM_11
 48
0.5
100
AcDbEllipse
 10
4.043104888196083
 20
33.78981189234523
 30
0.0
 11
-37.73715655008898
 21
0.0000000000007229
 31
0.0
210
0.0
220
0.0
230
1.0
 40
0.9899999999999995
 41
1.130070686340335
 42
1.247868474200389
  0
ELLIPSE
  5
4997
330
1F
100
AcDbEntity
  8
AM_11
 48
0.5
100
AcDbEllipse
 10
-92.5476881212092
 20
33.78980407293059
 30
0.0
 11
-37.73715655008898
 21
0.0000000000007229
 31
0.0
210
0.0
220
0.0
230
1.0
 40
0.9899999999999995
 41
1.130070686340335
 42
2.011520147323624
  0
ELLIPSE
  5
4998
330
1F
100
AcDbEntity
  8
AM_11
 48
0.5
100
AcDbEllipse
 10
-124.7446578181782
 20
-33.78977756922035
 30
0.0
 11
-37.73715655008887
 21
0.0000000000012592
 31
0.0
210
0.0
220
0.0
230
1.0
 40
0.9900000000000032
 41
4.271664206181728
 42
5.153113667165039
  0
ELLIPSE
  5
4999
330
1F
100
AcDbEntity
  8
AM_11
 48
0.5
100
AcDbEllipse
 10
-124.7446578181789
 20
33.78980407293023
 30
0.0
 11
-37.73715655008898
 21
-0.0000000000003412
 31
0.0
210
0.0
220
0.0
230
1.0
 40
0.99
 41
1.130070686340306
 42
2.011520147323597
  0
ELLIPSE
  5
499A
330
1F
100
AcDbEntity
  8
AM_11
 48
0.5
100
AcDbEllipse
 10
-92.54768812120852
 20
-33.78977756921997
 30
0.0
 11
-37.73715655008894
 21
0.0000000000016111
 31
0.0
210
0.0
220
0.0
230
1.0
 40
0.9900000000000009
 41
4.271664206181739
 42
5.153113667165048
  0
ELLIPSE
  5
499B
330
1F
100
AcDbEntity
  8
AM_11
 48
0.5
100
AcDbEllipse
 10
-156.9415778473223
 20
33.78981732477019
 30
0.0
 11
-37.73715655008898
 21
0.0000000000007229
 31
0.0
210
0.0
220
0.0
230
1.0
 40
0.9899999999999995
 41
1.130070686340335
 42
2.011520147323624
  0
ELLIPSE
  5
499C
330
1F
100
AcDbEntity
  8
AM_11
 48
0.5
100
AcDbEllipse
 10
-189.1385475442913
 20
-33.78976431738076
 30
0.0
 11
-37.73715655008887
 21
0.0000000000012592
 31
0.0
210
0.0
220
0.0
230
1.0
 40
0.9900000000000032
 41
4.271664206181728
 42
5.153113667165039
  0
ELLIPSE
  5
499D
330
1F
100
AcDbEntity
  8
AM_11
 48
0.5
100
AcDbEllipse
 10
-189.1385475442921
 20
33.78981732476983
 30
0.0
 11
-37.73715655008898
 21
-0.0000000000003412
 31
0.0
210
0.0
220
0.0
230
1.0
 40
0.99
 41
1.130070686340306
 42
2.011520147323597
  0
ELLIPSE
  5
499E
330
1F
100
AcDbEntity
  8
AM_11
 48
0.5
100
AcDbEllipse
 10
-156.9415778473216
 20
-33.78976431738038
 30
0.0
 11
-37.73715655008894
 21
0.0000000000016111
 31
0.0
210
0.0
220
0.0
230
1.0
 40
0.9900000000000009
 41
4.271664206181739
 42
5.153113667165048
  0
ELLIPSE
  5
499F
330
1F
100
AcDbEntity
  8
AM_11
 48
0.5
100
AcDbEllipse
 10
-221.3354108140067
 20
33.78980407293006
 30
0.0
 11
-37.73715655008898
 21
0.0000000000007229
 31
0.0
210
0.0
220
0.0
230
1.0
 40
0.9899999999999995
 41
1.989278755274948
 42
2.011520147323624
  0
ELLIPSE
  5
49A2
330
1F
100
AcDbEntity
  8
AM_11
 48
0.5
100
AcDbEllipse
 10
-221.3354108140061
 20
-33.78977756922051
 30
0.0
 11
-37.73715655008894
 21
0.0000000000016111
 31
0.0
210
0.0
220
0.0
230
1.0
 40
0.9900000000000009
 41
4.271664206181739
 42
4.293906551904719
  0
VIEWPORT
  5
110
330
101
100
AcDbEntity
 67
     1
  8
0
100
AcDbViewport
 10
420.5
 20
297.0
 30
0.0
 40
948.9782706766916
 41
628.452
 68
     1
 69
     1
1001
ACAD
1000
MVIEW
1002
{
1070
    16
1010
0.0
1020
0.0
1030
0.0
1010
0.0
1020
0.0
1030
1.0
1040
0.0
1040
628.452
1040
420.5
1040
297.0
1040
50.0
1040
0.0
1040
0.0
1070
     0
1070
   100
1070
     1
1070
     1
1070
     0
1070
     0
1070
     0
1070
     0
1040
0.0
1040
0.0
1040
0.0
1040
10.0
1040
10.0
1040
10.0
1040
10.0
1070
     0
1002
{
1002
}
1002
}
  0
ENDSEC
  0
SECTION
  2
OBJECTS
  0
DICTIONARY
  5
C
330
0
100
AcDbDictionary
  3
ACAD_GROUP
350
D
  3
ACAD_LAYOUT
350
1A
  3
ACAD_MLINESTYLE
350
17
  3
ACAD_PLOTSETTINGS
350
19
  3
ACAD_PLOTSTYLENAME
350
E
  3
ACDBVARIABLEDICTIONARY
350
34
  3
ACMDICTIONARY
350
43
  3
AMG
350
2B
  3
AMGSNAPSETTINGS
350
6E
  3
DWGPROPS
350
49BE
  3
ACDBHEADERROUNDTRIPXREC
350
49CB
  0
DICTIONARY
  5
74
330
1F
100
AcDbDictionary
280
     1
  3
ACAD_INDEX
360
49C0
  3
ACAD_LAYOUTSELFREF
360
49EE
  0
DICTIONARY
  5
49F3
330
101
100
AcDbDictionary
280
     1
  3
ACAD_LAYOUTSELFREF
360
49F4
  0
DICTIONARY
  5
D
102
{ACAD_REACTORS
330
C
102
}
330
C
100
AcDbDictionary
  0
DICTIONARY
  5
1A
102
{ACAD_REACTORS
330
C
102
}
330
C
100
AcDbDictionary
  0
DICTIONARY
  5
17
102
{ACAD_REACTORS
330
C
102
}
330
C
100
AcDbDictionary
  3
STANDARD
350
18
  0
DICTIONARY
  5
19
102
{ACAD_REACTORS
330
C
102
}
330
C
100
AcDbDictionary
  0
ACDBDICTIONARYWDFLT
  5
E
102
{ACAD_REACTORS
330
C
102
}
330
C
100
AcDbDictionary
281
     1
  3
Normal
350
F
100
AcDbDictionaryWithDefault
340
F
  0
DICTIONARY
  5
34
102
{ACAD_REACTORS
330
C
102
}
330
C
100
AcDbDictionary
  3
INDEXCTL
350
35
  3
SORTENTS
350
B5E
  0
DICTIONARY
  5
43
102
{ACAD_REACTORS
330
C
102
}
330
C
100
AcDbDictionary
  3
ACMSTDDICTIONARY
350
260
  0
DICTIONARY
  5
2B
102
{ACAD_REACTORS
330
C
102
}
330
C
100
AcDbDictionary
  3
ACMGSETTINGS
350
2C
  0
DICTIONARY
  5
6E
102
{ACAD_REACTORS
330
C
102
}
330
C
100
AcDbDictionary
  0
XRECORD
  5
49BE
102
{ACAD_REACTORS
330
C
102
}
330
C
100
AcDbXrecord
  1
DWGPROPS COOKIE
  2

  3

  4

  6

  7

  8

  9

300
AmdtFileType=82
301
=
302
=
303
=
304
=
305
=
306
=
307
=
308
=
309
=
 40
0.112180625
 41
2452800.443498622
 42
2452948.672330185
  1

 90
        1
  0
DICTIONARY
  5
49CB
102
{ACAD_REACTORS
330
C
102
}
330
C
100
AcDbDictionary
  3
TSTACKALIGN
350
49CC
  3
TSTACKSIZE
350
49CD
  3
HYPERLINKBASE
350
49CE
  3
STYLESHEET
350
49CF
  3
LAYOUTDICT
350
49D0
  3
PLOTSETDICT
350
49D1
  3
PLOTSTYLNAMDICT
350
49D2
  3
LWETCUNION
350
49D3
  3
INSUNITS
350
49D4
  3
CEPSNTYPE
350
49D5
  3
FINGERPRINTGUID
350
49D6
  3
VERSIONGUID
350
49D7
  3
PSVPSCALE
350
49D8
  3
DIMSTYLEDATA
350
49D9
  3
PUCSORTHOREF
350
49DA
  3
PUCSORTHOVIEW
350
49DB
  3
PUCSBASE
350
49DC
  3
PUCSORGTOP
350
49DD
  3
PUCSORGBOTTOM
350
49DE
  3
PUCSORGLEFT
350
49DF
  3
PUCSORGRIGHT
350
49E0
  3
PUCSORGFRONT
350
49E1
  3
PUCSORGBACK
350
49E2
  3
UCSORTHOREF
350
49E3
  3
UCSORTHOVIEW
350
49E4
  3
UCSBASE
350
49E5
  3
UCSORGTOP
350
49E6
  3
UCSORGBOTTOM
350
49E7
  3
UCSORGLEFT
350
49E8
  3
UCSORGRIGHT
350
49E9
  3
UCSORGFRONT
350
49EA
  3
UCSORGBACK
350
49EB
  0
DICTIONARY
  5
49C0
102
{ACAD_REACTORS
330
74
102
}
330
74
100
AcDbDictionary
  3
*A1
350
49C1
  0
XRECORD
  5
49EE
102
{ACAD_REACTORS
330
74
102
}
330
74
100
AcDbXrecord
340
1F
  0
XRECORD
  5
49F4
102
{ACAD_REACTORS
330
49F3
102
}
330
49F3
100
AcDbXrecord
340
101
  0
MLINESTYLE
  5
18
102
{ACAD_REACTORS
330
17
102
}
330
17
100
AcDbMlineStyle
  2
STANDARD
 70
     0
  3

 62
   256
 51
90.0
 52
90.0
 71
     2
 49
0.5
 62
   256
  6
BYLAYER
 49
-0.5
 62
   256
  6
BYLAYER
  0
ACDBPLACEHOLDER
  5
F
102
{ACAD_REACTORS
330
E
102
}
330
E
100
AcDbPlaceHolder
280
     0
  0
DICTIONARYVAR
  5
35
102
{ACAD_REACTORS
330
34
102
}
330
34
100
DictionaryVariables
280
     0
  1
1
  0
DICTIONARYVAR
  5
B5E
102
{ACAD_REACTORS
330
34
102
}
330
34
100
DictionaryVariables
280
     0
  1
96
  0
DICTIONARY
  5
260
102
{ACAD_REACTORS
330
43
102
}
330
43
100
AcDbDictionary
  0
DICTIONARY
  5
2C
102
{ACAD_REACTORS
330
2B
102
}
330
2B
100
AcDbDictionary
  3
DWGSETTINGS
350
2D
  0
XRECORD
  5
49CC
102
{ACAD_REACTORS
330
49CB
102
}
330
49CB
100
AcDbXrecord
 90
        1
  0
XRECORD
  5
49CD
102
{ACAD_REACTORS
330
49CB
102
}
330
49CB
100
AcDbXrecord
 90
       70
  0
XRECORD
  5
49CE
102
{ACAD_REACTORS
330
49CB
102
}
330
49CB
100
AcDbXrecord
  1

  0
XRECORD
  5
49CF
102
{ACAD_REACTORS
330
49CB
102
}
330
49CB
100
AcDbXrecord
  1
ASAMI.ctb
  0
XRECORD
  5
49D0
102
{ACAD_REACTORS
330
49CB
102
}
330
49CB
100
AcDbXrecord
340
1A
  0
XRECORD
  5
49D1
102
{ACAD_REACTORS
330
49CB
102
}
330
49CB
100
AcDbXrecord
340
19
  0
XRECORD
  5
49D2
102
{ACAD_REACTORS
330
49CB
102
}
330
49CB
100
AcDbXrecord
340
E
  0
XRECORD
  5
49D3
102
{ACAD_REACTORS
330
49CB
102
}
330
49CB
100
AcDbXrecord
 90
    10781
  0
XRECORD
  5
49D4
102
{ACAD_REACTORS
330
49CB
102
}
330
49CB
100
AcDbXrecord
 90
        4
  0
XRECORD
  5
49D5
102
{ACAD_REACTORS
330
49CB
102
}
330
49CB
100
AcDbXrecord
 90
        0
  0
XRECORD
  5
49D6
102
{ACAD_REACTORS
330
49CB
102
}
330
49CB
100
AcDbXrecord
  1
{AFB28963-8C59-40AE-9337-C84526B81ACE}
  0
XRECORD
  5
49D7
102
{ACAD_REACTORS
330
49CB
102
}
330
49CB
100
AcDbXrecord
  1
{9867C741-23D8-4FBE-9E4E-891BF6226912}
  0
XRECORD
  5
49D8
102
{ACAD_REACTORS
330
49CB
102
}
330
49CB
100
AcDbXrecord
 40
0.0
  0
XRECORD
  5
49D9
102
{ACAD_REACTORS
330
49CB
102
}
330
49CB
100
AcDbXrecord
1000
DSTYLE
1002
{
1070
    79
 70
     2
1070
   341
340
59
1070
   342
340
59
1070
   371
 70
    -1
1070
   372
 70
    -1
1002
}
  0
XRECORD
  5
49DA
102
{ACAD_REACTORS
330
49CB
102
}
330
49CB
100
AcDbXrecord
340
0
  0
XRECORD
  5
49DB
102
{ACAD_REACTORS
330
49CB
102
}
330
49CB
100
AcDbXrecord
 70
     0
  0
XRECORD
  5
49DC
102
{ACAD_REACTORS
330
49CB
102
}
330
49CB
100
AcDbXrecord
340
0
  0
XRECORD
  5
49DD
102
{ACAD_REACTORS
330
49CB
102
}
330
49CB
100
AcDbXrecord
 10
0.0
 20
0.0
 30
0.0
  0
XRECORD
  5
49DE
102
{ACAD_REACTORS
330
49CB
102
}
330
49CB
100
AcDbXrecord
 10
0.0
 20
0.0
 30
0.0
  0
XRECORD
  5
49DF
102
{ACAD_REACTORS
330
49CB
102
}
330
49CB
100
AcDbXrecord
 10
0.0
 20
0.0
 30
0.0
  0
XRECORD
  5
49E0
102
{ACAD_REACTORS
330
49CB
102
}
330
49CB
100
AcDbXrecord
 10
0.0
 20
0.0
 30
0.0
  0
XRECORD
  5
49E1
102
{ACAD_REACTORS
330
49CB
102
}
330
49CB
100
AcDbXrecord
 10
0.0
 20
0.0
 30
0.0
  0
XRECORD
  5
49E2
102
{ACAD_REACTORS
330
49CB
102
}
330
49CB
100
AcDbXrecord
 10
0.0
 20
0.0
 30
0.0
  0
XRECORD
  5
49E3
102
{ACAD_REACTORS
330
49CB
102
}
330
49CB
100
AcDbXrecord
340
0
  0
XRECORD
  5
49E4
102
{ACAD_REACTORS
330
49CB
102
}
330
49CB
100
AcDbXrecord
 70
     0
  0
XRECORD
  5
49E5
102
{ACAD_REACTORS
330
49CB
102
}
330
49CB
100
AcDbXrecord
340
0
  0
XRECORD
  5
49E6
102
{ACAD_REACTORS
330
49CB
102
}
330
49CB
100
AcDbXrecord
 10
0.0
 20
0.0
 30
0.0
  0
XRECORD
  5
49E7
102
{ACAD_REACTORS
330
49CB
102
}
330
49CB
100
AcDbXrecord
 10
0.0
 20
0.0
 30
0.0
  0
XRECORD
  5
49E8
102
{ACAD_REACTORS
330
49CB
102
}
330
49CB
100
AcDbXrecord
 10
0.0
 20
0.0
 30
0.0
  0
XRECORD
  5
49E9
102
{ACAD_REACTORS
330
49CB
102
}
330
49CB
100
AcDbXrecord
 10
0.0
 20
0.0
 30
0.0
  0
XRECORD
  5
49EA
102
{ACAD_REACTORS
330
49CB
102
}
330
49CB
100
AcDbXrecord
 10
0.0
 20
0.0
 30
0.0
  0
XRECORD
  5
49EB
102
{ACAD_REACTORS
330
49CB
102
}
330
49CB
100
AcDbXrecord
 10
0.0
 20
0.0
 30
0.0
  0
LAYER_INDEX
  5
49C1
102
{ACAD_REACTORS
330
49C0
102
}
330
49C0
100
AcDbIndex
 40
2453151.672724954
100
AcDbLayerIndex
  8
0
360
49C2
 90
        0
  8
AM_0
360
49C3
 90
       52
  8
AM_7
360
49C4
 90
        1
  8
AM_11
360
49C5
 90
       21
  8
AM_5
360
49C6
 90
        5
  8
Defpoints
360
49C7
 90
        0
  8
AM_6
360
49C8
 90
        1
  8
AM_CL
360
49C9
 90
        0
  0
XRECORD
  5
2D
102
{ACAD_REACTORS
330
2C
102
}
330
2C
100
AcDbXrecord
  1
VERSION
140
15.0
  1
PRODUCT
  2
AutoCAD Mechanical 2000
  0
IDBUFFER
  5
49C2
330
0
100
AcDbIdBuffer
  0
IDBUFFER
  5
49C3
330
0
100
AcDbIdBuffer
330
4811
330
4812
330
4813
330
4814
330
1E25
330
1E26
330
1FD9
330
21D7
330
21D8
330
21D9
330
21DC
330
21DD
330
2694
330
2695
330
2696
330
2699
330
3366
330
3367
330
3F18
330
3F1B
330
47EA
330
47EB
330
47EC
330
47ED
330
47EE
330
47F1
330
47F2
330
47F5
330
47F6
330
47F7
330
47F8
330
47F9
330
47FA
330
47FB
330
47FD
330
47FE
330
47FF
330
4800
330
4801
330
4802
330
4803
330
4804
330
4805
330
4806
330
4808
330
480A
330
480B
330
480C
330
480D
330
480E
330
480F
330
4810
  0
IDBUFFER
  5
49C4
330
0
100
AcDbIdBuffer
330
C9F
  0
IDBUFFER
  5
49C5
330
0
100
AcDbIdBuffer
330
499C
330
499D
330
499E
330
499F
330
49A2
330
47EF
330
47F0
330
47F3
330
47F4
330
4807
330
4809
330
4992
330
4993
330
4994
330
4995
330
4996
330
4997
330
4998
330
4999
330
499A
330
499B
  0
IDBUFFER
  5
49C6
330
0
100
AcDbIdBuffer
330
CC6
330
DF5
330
2216
330
4478
330
489C
  0
IDBUFFER
  5
49C7
330
0
100
AcDbIdBuffer
  0
IDBUFFER
  5
49C8
330
0
100
AcDbIdBuffer
330
19BD
  0
IDBUFFER
  5
49C9
330
0
100
AcDbIdBuffer
  0
ENDSEC
  0
EOF
