  0
SECTION
  2
HEADER
  9
$ACADVER
  1
AC1014
  9
$ACADMAINTVER
 70
     9
  9
$DWGCODEPAGE
  3
ANSI_932
  9
$INSBASE
 10
0.0
 20
0.0
 30
0.0
  9
$EXTMIN
 10
-176.8000009999997
 20
-55.00000099999959
 30
-0.00000001
  9
$EXTMAX
 10
24.25464232911425
 20
23.73158192679434
 30
0.00000001
  9
$LIMMIN
 10
-184.0664307340349
 20
-69.78528983814283
  9
$LIMMAX
 10
30.4473468436978
 20
47.31572359571856
  9
$ORTHOMODE
 70
     0
  9
$REGENMODE
 70
     1
  9
$FILLMODE
 70
     1
  9
$QTEXTMODE
 70
     0
  9
$MIRRTEXT
 70
     0
  9
$DRAGMODE
 70
     2
  9
$LTSCALE
 40
1.0
  9
$OSMODE
 70
    55
  9
$ATTMODE
 70
     1
  9
$TEXTSIZE
 40
2.5
  9
$TRACEWID
 40
1.0
  9
$TEXTSTYLE
  7
STANDARD
  9
$CLAYER
  8
AM_0
  9
$CELTYPE
  6
BYLAYER
  9
$CECOLOR
 62
   256
  9
$CELTSCALE
 40
1.0
  9
$DELOBJ
 70
     1
  9
$DISPSILH
 70
     0
  9
$DIMSCALE
 40
1.0
  9
$DIMASZ
 40
2.5
  9
$DIMEXO
 40
1.0
  9
$DIMDLI
 40
12.0
  9
$DIMRND
 40
0.0
  9
$DIMDLE
 40
0.0
  9
$DIMEXE
 40
1.0
  9
$DIMTP
 40
0.1
  9
$DIMTM
 40
0.1
  9
$DIMTXT
 40
3.2
  9
$DIMCEN
 40
0.0
  9
$DIMTSZ
 40
0.0
  9
$DIMTOL
 70
     0
  9
$DIMLIM
 70
     0
  9
$DIMTIH
 70
     0
  9
$DIMTOH
 70
     0
  9
$DIMSE1
 70
     0
  9
$DIMSE2
 70
     0
  9
$DIMTAD
 70
     3
  9
$DIMZIN
 70
     8
  9
$DIMBLK
  1
OPEN30
  9
$DIMASO
 70
     1
  9
$DIMSHO
 70
     1
  9
$DIMPOST
  1

  9
$DIMAPOST
  1
"
  9
$DIMALT
 70
     0
  9
$DIMALTD
 70
     2
  9
$DIMALTF
 40
0.0393701
  9
$DIMLFAC
 40
1.0
  9
$DIMTOFL
 70
     1
  9
$DIMTVP
 40
0.0
  9
$DIMTIX
 70
     0
  9
$DIMSOXD
 70
     0
  9
$DIMSAH
 70
     0
  9
$DIMBLK1
  1

  9
$DIMBLK2
  1

  9
$DIMSTYLE
  2
AM_JIS
  9
$DIMCLRD
 70
   256
  9
$DIMCLRE
 70
   256
  9
$DIMCLRT
 70
     2
  9
$DIMTFAC
 40
0.71
  9
$DIMGAP
 40
1.5
  9
$DIMJUST
 70
     0
  9
$DIMSD1
 70
     0
  9
$DIMSD2
 70
     0
  9
$DIMTOLJ
 70
     0
  9
$DIMTZIN
 70
     0
  9
$DIMALTZ
 70
     0
  9
$DIMALTTZ
 70
     0
  9
$DIMFIT
 70
     3
  9
$DIMUPT
 70
     0
  9
$DIMUNIT
 70
     2
  9
$DIMDEC
 70
     3
  9
$DIMTDEC
 70
     3
  9
$DIMALTU
 70
     2
  9
$DIMALTTD
 70
     2
  9
$DIMTXSTY
  7
ASAMI
  9
$DIMAUNIT
 70
     0
  9
$LUNITS
 70
     2
  9
$LUPREC
 70
     2
  9
$SKETCHINC
 40
1.0
  9
$FILLETRAD
 40
2.5
  9
$AUNITS
 70
     0
  9
$AUPREC
 70
     0
  9
$MENU
  1
.
  9
$ELEVATION
 40
0.0
  9
$PELEVATION
 40
0.0
  9
$THICKNESS
 40
0.0
  9
$LIMCHECK
 70
     0
  9
$BLIPMODE
 70
     0
  9
$CHAMFERA
 40
0.75
  9
$CHAMFERB
 40
0.75
  9
$CHAMFERC
 40
20.0
  9
$CHAMFERD
 40
0.0
  9
$SKPOLY
 70
     0
  9
$TDCREATE
 40
2452800.443498622
  9
$TDUPDATE
 40
2453151.567017673
  9
$TDINDWG
 40
0.1028238773
  9
$TDUSRTIMER
 40
0.1028238773
  9
$USRTIMER
 70
     1
  9
$ANGBASE
 50
0.0
  9
$ANGDIR
 70
     0
  9
$PDMODE
 70
     0
  9
$PDSIZE
 40
0.0
  9
$PLINEWID
 40
0.0
  9
$COORDS
 70
     1
  9
$SPLFRAME
 70
     0
  9
$SPLINETYPE
 70
     6
  9
$SPLINESEGS
 70
     8
  9
$ATTDIA
 70
     1
  9
$ATTREQ
 70
     1
  9
$HANDLING
 70
 12289
  9
$HANDSEED
  5
4779
  9
$SURFTAB1
 70
     6
  9
$SURFTAB2
 70
     6
  9
$SURFTYPE
 70
     6
  9
$SURFU
 70
     6
  9
$SURFV
 70
     6
  9
$UCSNAME
  2

  9
$UCSORG
 10
0.0
 20
0.0
 30
0.0
  9
$UCSXDIR
 10
1.0
 20
0.0000000000000027
 30
0.0
  9
$UCSYDIR
 10
-0.0000000000000027
 20
1.0
 30
0.0
  9
$PUCSNAME
  2

  9
$PUCSORG
 10
0.0
 20
0.0
 30
0.0
  9
$PUCSXDIR
 10
1.0
 20
0.0
 30
0.0
  9
$PUCSYDIR
 10
0.0
 20
1.0
 30
0.0
  9
$USERI1
 70
     0
  9
$USERI2
 70
     0
  9
$USERI3
 70
     0
  9
$USERI4
 70
     0
  9
$USERI5
 70
     0
  9
$USERR1
 40
0.0
  9
$USERR2
 40
0.0
  9
$USERR3
 40
0.0
  9
$USERR4
 40
0.0
  9
$USERR5
 40
0.0
  9
$WORLDVIEW
 70
     1
  9
$SHADEDGE
 70
     3
  9
$SHADEDIF
 70
    70
  9
$TILEMODE
 70
     1
  9
$MAXACTVP
 70
    64
  9
$PINSBASE
 10
0.0
 20
0.0
 30
0.0
  9
$PLIMCHECK
 70
     0
  9
$PEXTMIN
 10
1.000000000000000E+20
 20
1.000000000000000E+20
 30
1.000000000000000E+20
  9
$PEXTMAX
 10
-1.000000000000000E+20
 20
-1.000000000000000E+20
 30
-1.000000000000000E+20
  9
$PLIMMIN
 10
0.0
 20
0.0
  9
$PLIMMAX
 10
841.0
 20
594.0
  9
$UNITMODE
 70
     0
  9
$VISRETAIN
 70
     1
  9
$PLINEGEN
 70
     0
  9
$PSLTSCALE
 70
     0
  9
$TREEDEPTH
 70
  3020
  9
$PICKSTYLE
 70
     0
  9
$CMLSTYLE
  2
STANDARD
  9
$CMLJUST
 70
     0
  9
$CMLSCALE
 40
20.0
  9
$PROXYGRAPHICS
 70
     1
  9
$MEASUREMENT
 70
     1
  0
ENDSEC
  0
SECTION
  2
CLASSES
  0
CLASS
  1
ACDBDICTIONARYWDFLT
  2
AcDbDictionaryWithDefault
  3
AutoCAD 2000
 90
        0
280
     0
281
     0
  0
CLASS
  1
ACDBPLACEHOLDER
  2
AcDbPlaceHolder
  3
AutoCAD 2000
 90
        0
280
     0
281
     0
  0
CLASS
  1
LAYOUT
  2
AcDbLayout
  3
AutoCAD 2000
 90
        0
280
     0
281
     0
  0
CLASS
  1
AMGSETTINGSOBJ
  2
AmgSettingsObj
  3
"AcadM|Product Description: AutoCAD Mechanical 2000|Company: Autodesk"
 90
        0
280
     0
281
     0
  0
CLASS
  1
ACME_DOCUMENT
  2
AcMeDbDoc
  3
AcMeServices
 90
        0
280
     0
281
     0
  0
CLASS
  1
ACMESCOPE
  2
AcMeScope
  3
AcMeServices
 90
        0
280
     0
281
     0
  0
CLASS
  1
ACMECOMMANDHISTORY
  2
AcMeCommandHistory
  3
AcMeServices
 90
        0
280
     0
281
     0
  0
CLASS
  1
DICTIONARYVAR
  2
AcDbDictionaryVar
  3
AutoCAD 2000
 90
        0
280
     0
281
     0
  0
CLASS
  1
ACIMSYSVARMAN
  2
AcImSysVarManager
  3
AcMeServices
 90
        0
280
     0
281
     0
  0
CLASS
  1
ACIMREALSYSVAR
  2
AcImRealSysVar
  3
AcMeServices
 90
        0
280
     0
281
     0
  0
CLASS
  1
ACIMINTSYSVAR
  2
AcImIntSysVar
  3
AcMeServices
 90
        0
280
     0
281
     0
  0
CLASS
  1
ACMEDRAWINGMAN
  2
AcMeDrawingMan
  3
AcMeServices
 90
        0
280
     0
281
     0
  0
CLASS
  1
ACMEVIEW
  2
AcMeView
  3
AcMeServices
 90
        0
280
     0
281
     0
  0
CLASS
  1
ACDBENTITYCACHE
  2
AcMeEntityCache
  3
AcMeServices
 90
        0
280
     0
281
     0
  0
CLASS
  1
GSMANAGER
  2
AcMeGSManager
  3
AcMeServices
 90
        0
280
     0
281
     0
  0
CLASS
  1
AmdtInternalReactor
  2
AmdtInternalReactor
  3
AcMeServices
 90
        0
280
     0
281
     0
  0
CLASS
  1
ACMESTATEMGR
  2
AcMeStateMgr
  3
AcMeServices
 90
        0
280
     0
281
     0
  0
CLASS
  1
ACME_DATABASE
  2
AcMeDbDatabase
  3
AcMeServices
 90
        0
280
     0
281
     0
  0
CLASS
  1
ACRFINSADJUSTERMGR
  2
AcRfInsAdjusterMgr
  3
AcMeServices
 90
        0
280
     0
281
     0
  0
CLASS
  1
ACMDATADICTIONARY
  2
AcmDataDictionary
  3
"AcmSymBB|Product Description: AutoCAD Mechanical 2000|Company: Autodesk"
 90
        0
280
     0
281
     0
  0
CLASS
  1
ACMDATAENTRYBLOCK
  2
AcmDataEntryBlock
  3
"AcmSymBB|Product Description: AutoCAD Mechanical 2000|Company: Autodesk"
 90
        0
280
     0
281
     0
  0
CLASS
  1
AMGOBJPROPCFG
  2
AmgObjPropCfg
  3
"AmgLay|Product Description: AutoCAD Mechanical 2000|Company: Autodesk"
 90
        1
280
     0
281
     0
  0
CLASS
  1
ACAMGFILTERDAT
  2
AcAmgFilterDat
  3
"AcadM|Product Description: AutoCAD Mechanical 2000|Company: Autodesk"
 90
        0
280
     0
281
     0
  0
CLASS
  1
LAYER_INDEX
  2
AcDbLayerIndex
  3
AutoCAD 2000
 90
        0
280
     0
281
     0
  0
CLASS
  1
IDBUFFER
  2
AcDbIdBuffer
  3
AutoCAD 2000
 90
        0
280
     0
281
     0
  0
CLASS
  1
ACIMSTRSYSVAR
  2
AcImStrSysVar
  3
AcMeServices
 90
        0
280
     0
281
     0
  0
CLASS
  1
ACMSTANDARDJIS
  2
AcmStandardJIS
  3
"AcmSymBB|Product Description: AutoCAD Mechanical 2000|Company: Autodesk"
 90
        0
280
     0
281
     0
  0
CLASS
  1
ACMSURFSTANDARDJIS
  2
AcmSurfTextStdJIS
  3
"AcmSymBB|Product Description: AutoCAD Mechanical 2000|Company: Autodesk"
 90
        0
280
     0
281
     0
  0
CLASS
  1
ACMFCFSTANDARDJIS
  2
AcmFCFStdJIS
  3
"AcmSymBB|Product Description: AutoCAD Mechanical 2000|Company: Autodesk"
 90
        0
280
     0
281
     0
  0
CLASS
  1
ACMWELDSTANDARDJIS
  2
AcmWeldingStdJIS
  3
"AcmSymBB|Product Description: AutoCAD Mechanical 2000|Company: Autodesk"
 90
        0
280
     0
281
     0
  0
CLASS
  1
ACMIDSTANDARDJIS
  2
AcmIdStdJIS
  3
"AcmSymBB|Product Description: AutoCAD Mechanical 2000|Company: Autodesk"
 90
        0
280
     0
281
     0
  0
CLASS
  1
ACMDATUMSTANDARDJIS
  2
AcmDatumStdJIS
  3
"AcmSymBB|Product Description: AutoCAD Mechanical 2000|Company: Autodesk"
 90
        0
280
     0
281
     0
  0
CLASS
  1
ACMBOMSTANDARDJIS
  2
AcmBOMStdJIS
  3
"AcmSymBB|Product Description: AutoCAD Mechanical 2000|Company: Autodesk"
 90
        0
280
     0
281
     0
  0
CLASS
  1
ACMSTANDARDANSI
  2
AcmStandardANSI
  3
"AcmSymBB|Product Description: AutoCAD Mechanical 2000|Company: Autodesk"
 90
        0
280
     0
281
     0
  0
CLASS
  1
ACMSURFSTANDARDANSI
  2
AcmSurfTextStdANSI
  3
"AcmSymBB|Product Description: AutoCAD Mechanical 2000|Company: Autodesk"
 90
        0
280
     0
281
     0
  0
CLASS
  1
ACMFCFSTANDARDANSI
  2
AcmFCFStdANSI
  3
"AcmSymBB|Product Description: AutoCAD Mechanical 2000|Company: Autodesk"
 90
        0
280
     0
281
     0
  0
CLASS
  1
ACMWELDSTANDARDANSI
  2
AcmWeldingStdANSI
  3
"AcmSymBB|Product Description: AutoCAD Mechanical 2000|Company: Autodesk"
 90
        0
280
     0
281
     0
  0
CLASS
  1
ACMIDSTANDARDANSI
  2
AcmIdStdANSI
  3
"AcmSymBB|Product Description: AutoCAD Mechanical 2000|Company: Autodesk"
 90
        0
280
     0
281
     0
  0
CLASS
  1
ACMDATUMSTANDARDANSI
  2
AcmDatumStdANSI
  3
"AcmSymBB|Product Description: AutoCAD Mechanical 2000|Company: Autodesk"
 90
        0
280
     0
281
     0
  0
CLASS
  1
ACMBOMSTANDARDANSI
  2
AcmBOMStdANSI
  3
"AcmSymBB|Product Description: AutoCAD Mechanical 2000|Company: Autodesk"
 90
        0
280
     0
281
     0
  0
CLASS
  1
ACMSTANDARDBSI
  2
AcmStandardBSI
  3
"AcmSymBB|Product Description: AutoCAD Mechanical 2000|Company: Autodesk"
 90
        0
280
     0
281
     0
  0
CLASS
  1
ACMSURFSTANDARDBSI
  2
AcmSurfTextStdBSI
  3
"AcmSymBB|Product Description: AutoCAD Mechanical 2000|Company: Autodesk"
 90
        0
280
     0
281
     0
  0
CLASS
  1
ACMFCFSTANDARDBSI
  2
AcmFCFStdBSI
  3
"AcmSymBB|Product Description: AutoCAD Mechanical 2000|Company: Autodesk"
 90
        0
280
     0
281
     0
  0
CLASS
  1
ACMWELDSTANDARDBSI
  2
AcmWeldingStdBSI
  3
"AcmSymBB|Product Description: AutoCAD Mechanical 2000|Company: Autodesk"
 90
        0
280
     0
281
     0
  0
CLASS
  1
ACMIDSTANDARDBSI
  2
AcmIdStdBSI
  3
"AcmSymBB|Product Description: AutoCAD Mechanical 2000|Company: Autodesk"
 90
        0
280
     0
281
     0
  0
CLASS
  1
ACMDATUMSTANDARDBSI
  2
AcmDatumStdBSI
  3
"AcmSymBB|Product Description: AutoCAD Mechanical 2000|Company: Autodesk"
 90
        0
280
     0
281
     0
  0
CLASS
  1
ACMBOMSTANDARDBSI
  2
AcmBOMStdBSI
  3
"AcmSymBB|Product Description: AutoCAD Mechanical 2000|Company: Autodesk"
 90
        0
280
     0
281
     0
  0
CLASS
  1
LONG_TRANSACTION
  2
AcDbLongTransaction
  3
AutoCAD 2000
 90
        0
280
     0
281
     0
  0
CLASS
  1
LWPOLYLINE
  2
AcDbPolyline
  3
AutoCAD 2000
 90
        0
280
     0
281
     1
  0
CLASS
  1
HATCH
  2
AcDbHatch
  3
AutoCAD 2000
 90
        0
280
     0
281
     1
  0
CLASS
  1
XRECORD
  2
AcDbXrecord
  3
AutoCAD 2000
 90
        0
280
     0
281
     0
  0
ENDSEC
  0
SECTION
  2
TABLES
  0
TABLE
  2
VPORT
  5
8
330
0
100
AcDbSymbolTable
 70
     3
  0
VPORT
  5
4743
330
8
100
AcDbSymbolTableRecord
100
AcDbViewportTableRecord
  2
*ACTIVE
 70
     0
 10
0.0
 20
0.0
 11
1.0
 21
1.0
 12
-72.54202566045126
 22
-15.63482627380582
 13
0.0
 23
0.0
 14
2.5
 24
2.5
 15
10.0
 25
10.0
 16
0.0
 26
0.0
 36
1.0
 17
0.0
 27
0.0
 37
0.0
 40
133.8796601710125
 41
1.56570841889117
 42
50.0
 43
0.0
 44
0.0
 50
0.0
 51
0.0
 71
     0
 72
   100
 73
     1
 74
     1
 75
     0
 76
     0
 77
     0
 78
     0
  0
ENDTAB
  0
TABLE
  2
LTYPE
  5
5
330
0
100
AcDbSymbolTable
 70
    10
  0
LTYPE
  5
14
330
5
100
AcDbSymbolTableRecord
100
AcDbLinetypeTableRecord
  2
BYBLOCK
 70
     0
  3

 72
    65
 73
     0
 40
0.0
  0
LTYPE
  5
15
330
5
100
AcDbSymbolTableRecord
100
AcDbLinetypeTableRecord
  2
BYLAYER
 70
     0
  3

 72
    65
 73
     0
 40
0.0
  0
LTYPE
  5
16
330
5
100
AcDbSymbolTableRecord
100
AcDbLinetypeTableRecord
  2
CONTINUOUS
 70
     0
  3
Solid line
 72
    65
 73
     0
 40
0.0
  0
LTYPE
  5
4B
330
5
100
AcDbSymbolTableRecord
100
AcDbLinetypeTableRecord
  2
AM_ISO02W050
 70
     0
  3
__ __ __ __ __ __ __ __ __ __ __ __ __ __ __
 72
    65
 73
     2
 40
7.5
 49
6.0
 74
     0
 49
-1.5
 74
     0
  0
LTYPE
  5
4C
330
5
100
AcDbSymbolTableRecord
100
AcDbLinetypeTableRecord
  2
AM_ISO08W050
 70
     0
  3
____ . ____ . ____ . ____ . ____ . ____ . ____
 72
    65
 73
     4
 40
18.0
 49
12.0
 74
     0
 49
-1.5
 74
     0
 49
3.0
 74
     0
 49
-1.5
 74
     0
  0
LTYPE
  5
4D
330
5
100
AcDbSymbolTableRecord
100
AcDbLinetypeTableRecord
  2
AM_ISO09W050
 70
     0
  3
_____ . . _____ . . _____ . . ____ .. ____
 72
    65
 73
     6
 40
22.5
 49
12.0
 74
     0
 49
-1.5
 74
     0
 49
3.0
 74
     0
 49
-1.5
 74
     0
 49
3.0
 74
     0
 49
-1.5
 74
     0
  0
LTYPE
  5
4E
330
5
100
AcDbSymbolTableRecord
100
AcDbLinetypeTableRecord
  2
AMCONSTR
 70
     0
  3
_______________________
 72
    65
 73
     2
 40
9999.0
 49
9999.0
 74
     0
 49
0.0
 74
     0
  0
LTYPE
  5
4F
330
5
100
AcDbSymbolTableRecord
100
AcDbLinetypeTableRecord
  2
AM_ISO02W050X2
 70
     0
  3
 _ _ _ _ _ _ _ _ _ _ _ _
 72
    65
 73
     2
 40
3.75
 49
3.0
 74
     0
 49
-0.75
 74
     0
  0
LTYPE
  5
50
330
5
100
AcDbSymbolTableRecord
100
AcDbLinetypeTableRecord
  2
AM_ISO08W050X2
 70
     0
  3
__ . __ . __ . __ . __ . __
 72
    65
 73
     4
 40
9.0
 49
6.0
 74
     0
 49
-0.75
 74
     0
 49
1.5
 74
     0
 49
-0.75
 74
     0
  0
LTYPE
  5
53
330
5
100
AcDbSymbolTableRecord
100
AcDbLinetypeTableRecord
  2
AMZIGZAG
 70
     0
  3
/\/-/\/-/\/-/\/-/\/-/\/
 72
    65
 73
     2
 40
11.00009999999999
 49
0.0001
 74
     4
 75
   135
340
52
 46
0.04
 50
0.0
 44
0.0
 45
0.0
 49
-11.0
 74
     0
  0
LTYPE
  5
166
330
5
100
AcDbSymbolTableRecord
100
AcDbLinetypeTableRecord
  2
ACJISTGL
 70
     0
  3
_ _ _ _ _
 72
    65
 73
     2
 40
3.0
 49
2.0
 74
     0
 49
-1.0
 74
     0
  0
LTYPE
  5
26A
330
5
100
AcDbSymbolTableRecord
100
AcDbLinetypeTableRecord
  2
ACJISTGB
 70
     0
  3
__ . . __ . .
 72
    65
 73
     6
 40
9.0
 49
4.0
 74
     0
 49
-1.0
 74
     0
 49
1.0
 74
     0
 49
-1.0
 74
     0
 49
1.0
 74
     0
 49
-1.0
 74
     0
  0
ENDTAB
  0
TABLE
  2
LAYER
  5
2
330
0
100
AcDbSymbolTable
 70
     7
  0
LAYER
  5
10
330
2
100
AcDbSymbolTableRecord
100
AcDbLayerTableRecord
  2
0
 70
     0
 62
     7
  6
CONTINUOUS
  0
LAYER
  5
3F9
330
2
100
AcDbSymbolTableRecord
100
AcDbLayerTableRecord
  2
AM_0
 70
     0
 62
     7
  6
CONTINUOUS
  0
LAYER
  5
C7C
330
2
100
AcDbSymbolTableRecord
100
AcDbLayerTableRecord
  2
AM_7
 70
     0
 62
     4
  6
AM_ISO08W050
  0
LAYER
  5
C97
330
2
100
AcDbSymbolTableRecord
100
AcDbLayerTableRecord
  2
AM_11
 70
     0
 62
     3
  6
AM_ISO09W050
  0
LAYER
  5
CC5
330
2
100
AcDbSymbolTableRecord
100
AcDbLayerTableRecord
  2
AM_5
 70
     0
 62
     3
  6
CONTINUOUS
  0
LAYER
  5
CC7
330
2
100
AcDbSymbolTableRecord
100
AcDbLayerTableRecord
  2
DEFPOINTS
 70
     0
 62
     7
  6
CONTINUOUS
  0
LAYER
  5
19BC
330
2
100
AcDbSymbolTableRecord
100
AcDbLayerTableRecord
  2
AM_6
 70
     0
 62
     2
  6
CONTINUOUS
  0
ENDTAB
  0
TABLE
  2
STYLE
  5
3
330
0
100
AcDbSymbolTable
 70
     5
  0
STYLE
  5
11
330
3
100
AcDbSymbolTableRecord
100
AcDbTextStyleTableRecord
  2
STANDARD
 70
     0
 40
0.0
 41
1.0
 50
0.0
 71
     0
 42
2.5
  3
simplex.shx
  4
EXTFONT.SHX
  0
STYLE
  5
52
330
3
100
AcDbSymbolTableRecord
100
AcDbTextStyleTableRecord
  2

 70
     1
 40
0.0
 41
1.0
 50
0.0
 71
     0
 42
2.5
  3
ltypeshp.shx
  4

  0
STYLE
  5
6B
330
3
100
AcDbSymbolTableRecord
100
AcDbTextStyleTableRecord
  2
ASAMI
 70
     0
 40
0.0
 41
1.0
 50
0.0
 71
     0
 42
2.5
  3
simplex.shx
  4
EXTFONT.SHX
  0
STYLE
  5
262
330
3
100
AcDbSymbolTableRecord
100
AcDbTextStyleTableRecord
  2
ACJISTS
 70
     0
 40
1.0
 41
1.0
 50
0.0
 71
     0
 42
2.5
  3
simplex.shx
  4
bigfont.shx
  0
STYLE
  5
269
330
3
100
AcDbSymbolTableRecord
100
AcDbTextStyleTableRecord
  2
ACJISGDT
 70
     0
 40
0.0
 41
1.0
 50
0.0
 71
     0
 42
2.5
  3
amgdtans.shx
  4

  0
ENDTAB
  0
TABLE
  2
VIEW
  5
6
330
0
100
AcDbSymbolTable
 70
     0
  0
ENDTAB
  0
TABLE
  2
UCS
  5
7
330
0
100
AcDbSymbolTable
 70
     0
  0
ENDTAB
  0
TABLE
  2
APPID
  5
9
330
0
100
AcDbSymbolTable
 70
    16
  0
APPID
  5
12
330
9
100
AcDbSymbolTableRecord
100
AcDbRegAppTableRecord
  2
ACAD
 70
     0
  0
APPID
  5
30
330
9
100
AcDbSymbolTableRecord
100
AcDbRegAppTableRecord
  2
MCAD_NO_VIS
 70
     0
  0
APPID
  5
31
330
9
100
AcDbSymbolTableRecord
100
AcDbRegAppTableRecord
  2
ACAD_TEMP_GRAPHIC
 70
     0
  0
APPID
  5
2C2
330
9
100
AcDbSymbolTableRecord
100
AcDbRegAppTableRecord
  2
GENIUS_GENDTOL_13
 70
     0
  0
APPID
  5
339
330
9
100
AcDbSymbolTableRecord
100
AcDbRegAppTableRecord
  2
GENIUS_GENODEF_13
 70
     0
  0
APPID
  5
33A
330
9
100
AcDbSymbolTableRecord
100
AcDbRegAppTableRecord
  2
GENIUS_GENOBJ-N-RSBK_13
 70
     0
  0
APPID
  5
33B
330
9
100
AcDbSymbolTableRecord
100
AcDbRegAppTableRecord
  2
GENIUS_GENOBJ-N-LIB_13
 70
     0
  0
APPID
  5
33C
330
9
100
AcDbSymbolTableRecord
100
AcDbRegAppTableRecord
  2
GENIUS_GENSCALE_13
 70
     0
  0
APPID
  5
378
330
9
100
AcDbSymbolTableRecord
100
AcDbRegAppTableRecord
  2
GENIUS_GENDIMSH_14
 70
     0
  0
APPID
  5
C82
330
9
100
AcDbSymbolTableRecord
100
AcDbRegAppTableRecord
  2
GENIUS_GENOBJ-N-CRS_13
 70
     0
  0
APPID
  5
C83
330
9
100
AcDbSymbolTableRecord
100
AcDbRegAppTableRecord
  2
GENIUS_GENOENT_13
 70
     0
  0
APPID
  5
C84
330
9
100
AcDbSymbolTableRecord
100
AcDbRegAppTableRecord
  2
GENIUS_GENOREF_13
 70
     0
  0
APPID
  5
C85
330
9
100
AcDbSymbolTableRecord
100
AcDbRegAppTableRecord
  2
GENIUS_GENOLIS_13
 70
     0
  0
APPID
  5
CA0
330
9
100
AcDbSymbolTableRecord
100
AcDbRegAppTableRecord
  2
GENIUS_GENOBJ-N-CEN_13
 70
     0
  0
APPID
  5
2796
330
9
100
AcDbSymbolTableRecord
100
AcDbRegAppTableRecord
  2
GENIUS_GENFIL_13
 70
     0
  0
APPID
  5
2797
330
9
100
AcDbSymbolTableRecord
100
AcDbRegAppTableRecord
  2
GENIUS_GENOBJ-N-CHA_13
 70
     0
  0
ENDTAB
  0
TABLE
  2
DIMSTYLE
  5
A
330
0
100
AcDbSymbolTable
 70
     9
  0
DIMSTYLE
105
58
330
A
100
AcDbSymbolTableRecord
100
AcDbDimStyleTableRecord
  2
AM_JIS
 70
     0
  3

  4
"
  5
OPEN30
  6

  7

 40
1.0
 41
2.5
 42
1.0
 43
12.0
 44
1.0
 45
0.0
 46
0.0
 47
0.1
 48
0.1
140
3.2
141
0.0
142
0.0
143
0.0393701
144
1.0
145
0.0
146
0.71
147
1.5
 71
     0
 72
     0
 73
     0
 74
     0
 75
     0
 76
     0
 77
     3
 78
     8
170
     0
171
     2
172
     1
173
     0
174
     0
175
     0
176
   256
177
   256
178
     2
270
     2
271
     3
272
     3
273
     2
274
     2
340
6B
275
     0
280
     0
281
     0
282
     0
283
     0
284
     0
285
     0
286
     0
287
     3
288
     0
  0
DIMSTYLE
105
5F
330
A
100
AcDbSymbolTableRecord
100
AcDbDimStyleTableRecord
  2
AM_JIS$3
 70
     0
  3

  4
"
  5
OPEN30
  6

  7

 40
1.0
 41
2.5
 42
1.0
 43
10.0
 44
1.0
 45
0.0
 46
0.0
 47
0.1
 48
0.1
140
3.2
141
0.0
142
0.0
143
0.0393701
144
1.0
145
0.0
146
0.71
147
1.5
 71
     0
 72
     0
 73
     0
 74
     1
 75
     0
 76
     0
 77
     3
 78
     8
170
     0
171
     2
172
     0
173
     0
174
     0
175
     0
176
   256
177
   256
178
     2
270
     2
271
     2
272
     3
273
     2
274
     2
340
6B
275
     0
280
     0
281
     0
282
     0
283
     0
284
     0
285
     0
286
     0
287
     0
288
     1
  0
DIMSTYLE
105
60
330
A
100
AcDbSymbolTableRecord
100
AcDbDimStyleTableRecord
  2
AM_JIS$4
 70
     0
  3

  4
"
  5
OPEN30
  6

  7

 40
1.0
 41
2.5
 42
1.0
 43
10.0
 44
1.0
 45
0.0
 46
0.0
 47
0.1
 48
0.1
140
3.2
141
0.0
142
0.0
143
0.0393701
144
1.0
145
0.0
146
0.71
147
1.5
 71
     0
 72
     0
 73
     0
 74
     1
 75
     0
 76
     0
 77
     3
 78
     8
170
     0
171
     2
172
     0
173
     0
174
     0
175
     0
176
   256
177
   256
178
     2
270
     2
271
     2
272
     3
273
     2
274
     2
340
6B
275
     0
280
     0
281
     0
282
     0
283
     0
284
     0
285
     0
286
     0
287
     0
288
     1
  0
DIMSTYLE
105
61
330
A
100
AcDbSymbolTableRecord
100
AcDbDimStyleTableRecord
  2
AM_JIS$6
 70
     0
  3

  4
"
  5
OPEN30
  6

  7

 40
1.0
 41
2.5
 42
1.0
 43
10.0
 44
1.0
 45
0.0
 46
0.0
 47
0.1
 48
0.1
140
3.2
141
0.0
142
0.0
143
0.0393701
144
1.0
145
0.0
146
0.71
147
1.5
 71
     0
 72
     0
 73
     0
 74
     0
 75
     0
 76
     0
 77
     0
 78
     8
170
     0
171
     2
172
     1
173
     0
174
     0
175
     0
176
   256
177
   256
178
     2
270
     2
271
     2
272
     2
273
     2
274
     2
340
6B
275
     0
280
     0
281
     0
282
     0
283
     0
284
     0
285
     0
286
     0
287
     3
288
     0
  0
DIMSTYLE
105
62
330
A
100
AcDbSymbolTableRecord
100
AcDbDimStyleTableRecord
  2
AM_JIS$7
 70
     0
  3

  4
"
  5
OPEN30
  6

  7

 40
1.0
 41
2.5
 42
1.0
 43
10.0
 44
1.0
 45
0.0
 46
0.0
 47
0.1
 48
0.1
140
3.2
141
0.0
142
0.0
143
0.0393701
144
1.0
145
0.0
146
0.71
147
1.5
 71
     0
 72
     0
 73
     0
 74
     0
 75
     0
 76
     0
 77
     3
 78
     8
170
     0
171
     2
172
     1
173
     0
174
     0
175
     0
176
   256
177
   256
178
     2
270
     2
271
     2
272
     3
273
     2
274
     2
340
6B
275
     0
280
     0
281
     0
282
     0
283
     0
284
     0
285
     0
286
     0
287
     3
288
     0
  0
DIMSTYLE
105
63
330
A
100
AcDbSymbolTableRecord
100
AcDbDimStyleTableRecord
  2
AM_JIS$SF
 70
     0
  3

  4
"
  5
OPEN30
  6

  7

 40
1.0
 41
2.5
 42
1.0
 43
10.0
 44
1.0
 45
0.0
 46
0.0
 47
0.1
 48
0.1
140
3.2
141
0.0
142
0.0
143
0.0393701
144
1.0
145
0.0
146
0.71
147
1.5
 71
     0
 72
     0
 73
     0
 74
     0
 75
     1
 76
     1
 77
     3
 78
     8
170
     0
171
     2
172
     1
173
     0
174
     0
175
     0
176
   256
177
   256
178
     2
270
     2
271
     2
272
     2
273
     2
274
     2
340
6B
275
     0
280
     0
281
     0
282
     0
283
     0
284
     0
285
     0
286
     0
287
     3
288
     0
  0
DIMSTYLE
105
68
330
A
100
AcDbSymbolTableRecord
100
AcDbDimStyleTableRecord
  2
AM_JIS$SH
 70
     0
  3

  4
"
  5

  6
GENAXEH
  7
OPEN30
 40
1.0
 41
2.5
 42
1.0
 43
10.0
 44
1.0
 45
0.0
 46
0.0
 47
0.1
 48
0.1
140
3.2
141
0.0
142
0.0
143
0.0393701
144
2.0
145
0.0
146
0.71
147
1.5
 71
     0
 72
     0
 73
     0
 74
     0
 75
     1
 76
     1
 77
     3
 78
     8
170
     0
171
     2
172
     1
173
     1
174
     0
175
     0
176
   256
177
   256
178
     2
270
     2
271
     2
272
     2
273
     2
274
     2
340
6B
275
     0
280
     0
281
     0
282
     0
283
     0
284
     0
285
     0
286
     0
287
     3
288
     0
  0
DIMSTYLE
105
B34
102
{ACAD_REACTORS
330
409D
102
}
330
A
100
AcDbSymbolTableRecord
100
AcDbDimStyleTableRecord
  2
AM_JIS$2
 70
     0
  3

  4
"
  5
OPEN30
  6

  7

 40
1.0
 41
2.5
 42
1.0
 43
12.0
 44
1.0
 45
0.0
 46
0.0
 47
0.1
 48
0.1
140
3.2
141
0.0
142
0.0
143
0.0393701
144
1.0
145
0.0
146
0.71
147
1.5
 71
     0
 72
     0
 73
     0
 74
     0
 75
     0
 76
     0
 77
     3
 78
     8
170
     0
171
     2
172
     1
173
     0
174
     0
175
     0
176
   256
177
   256
178
     2
270
     2
271
     3
272
     3
273
     2
274
     2
340
6B
275
     0
280
     0
281
     0
282
     0
283
     0
284
     0
285
     0
286
     0
287
     3
288
     0
  0
DIMSTYLE
105
BA5
102
{ACAD_REACTORS
330
2D60
330
3C5B
330
CC6
330
2069
102
}
330
A
100
AcDbSymbolTableRecord
100
AcDbDimStyleTableRecord
  2
AM_JIS$0
 70
     0
  3

  4
"
  5
OPEN30
  6

  7

 40
1.0
 41
2.5
 42
0.0
 43
10.0
 44
1.0
 45
0.0
 46
0.0
 47
0.1
 48
0.1000000001
140
3.799999999999999
141
0.0
142
0.0
143
0.0393701
144
1.0
145
0.0
146
0.71
147
1.5
 71
     0
 72
     0
 73
     0
 74
     0
 75
     0
 76
     0
 77
     3
 78
     1
170
     0
171
     2
172
     1
173
     0
174
     0
175
     0
176
     3
177
     3
178
     2
270
     2
271
     2
272
     2
273
     2
274
     2
340
11
275
     1
280
     0
281
     0
282
     0
283
     0
284
     8
285
     0
286
     0
287
     0
288
     0
  0
ENDTAB
  0
TABLE
  2
BLOCK_RECORD
  5
1
330
0
100
AcDbSymbolTable
 70
    10
  0
BLOCK_RECORD
  5
1F
102
{ACAD_XDICTIONARY
360
74
102
}
330
1
100
AcDbSymbolTableRecord
100
AcDbBlockTableRecord
  2
*MODEL_SPACE
  0
BLOCK_RECORD
  5
101
102
{ACAD_XDICTIONARY
360
476C
102
}
330
1
100
AcDbSymbolTableRecord
100
AcDbBlockTableRecord
  2
*PAPER_SPACE
  0
BLOCK_RECORD
  5
59
330
1
100
AcDbSymbolTableRecord
100
AcDbBlockTableRecord
  2
_OPEN30
  0
BLOCK_RECORD
  5
64
330
1
100
AcDbSymbolTableRecord
100
AcDbBlockTableRecord
  2
GENAXEH
  0
BLOCK_RECORD
  5
CC8
330
1
100
AcDbSymbolTableRecord
100
AcDbBlockTableRecord
  2
*D5
  0
BLOCK_RECORD
  5
206A
330
1
100
AcDbSymbolTableRecord
100
AcDbBlockTableRecord
  2
*D6
  0
BLOCK_RECORD
  5
2D61
330
1
100
AcDbSymbolTableRecord
100
AcDbBlockTableRecord
  2
*D7
  0
BLOCK_RECORD
  5
3C5C
330
1
100
AcDbSymbolTableRecord
100
AcDbBlockTableRecord
  2
*D8
  0
BLOCK_RECORD
  5
409E
330
1
100
AcDbSymbolTableRecord
100
AcDbBlockTableRecord
  2
*D9
  0
ENDTAB
  0
ENDSEC
  0
SECTION
  2
BLOCKS
  0
BLOCK
  5
20
330
1F
100
AcDbEntity
  8
0
100
AcDbBlockBegin
  2
*MODEL_SPACE
 70
     0
 10
0.0
 20
0.0
 30
0.0
  3
*MODEL_SPACE
  1

  0
ENDBLK
  5
21
330
1F
100
AcDbEntity
  8
0
100
AcDbBlockEnd
  0
BLOCK
  5
103
330
101
100
AcDbEntity
 67
     1
  8
0
100
AcDbBlockBegin
  2
*PAPER_SPACE
 70
     0
 10
0.0
 20
0.0
 30
0.0
  3
*PAPER_SPACE
  1

  0
ENDBLK
  5
104
330
101
100
AcDbEntity
 67
     1
  8
0
100
AcDbBlockEnd
  0
BLOCK
  5
5D
330
59
100
AcDbEntity
  8
0
100
AcDbBlockBegin
  2
_OPEN30
 70
     0
 10
0.0
 20
0.0
 30
0.0
  3
_OPEN30
  1

  0
LINE
  5
5A
330
59
100
AcDbEntity
  8
0
 62
     0
100
AcDbLine
 10
-1.0
 20
0.26794919
 30
0.0
 11
0.0
 21
0.0
 31
0.0
  0
LINE
  5
5B
330
59
100
AcDbEntity
  8
0
 62
     0
100
AcDbLine
 10
0.0
 20
0.0
 30
0.0
 11
-1.0
 21
-0.26794919
 31
0.0
  0
LINE
  5
5C
330
59
100
AcDbEntity
  8
0
 62
     0
100
AcDbLine
 10
0.0
 20
0.0
 30
0.0
 11
-1.0
 21
0.0
 31
0.0
  0
ENDBLK
  5
5E
330
59
100
AcDbEntity
  8
0
100
AcDbBlockEnd
  0
BLOCK
  5
66
330
64
100
AcDbEntity
  8
0
100
AcDbBlockBegin
  2
GENAXEH
 70
     0
 10
0.0
 20
0.0
 30
0.0
  3
GENAXEH
  1

  0
LINE
  5
65
330
64
100
AcDbEntity
  8
0
100
AcDbLine
 10
-1.0
 20
0.0
 30
0.0
 11
1.0
 21
0.0
 31
0.0
  0
ENDBLK
  5
67
330
64
100
AcDbEntity
  8
0
100
AcDbBlockEnd
  0
BLOCK
  5
CD2
330
CC8
100
AcDbEntity
  8
0
100
AcDbBlockBegin
  2
*D5
 70
     1
 10
0.0
 20
0.0
 30
0.0
  3
*D5
  1

  0
LINE
  5
46F9
330
CC8
100
AcDbEntity
  8
AM_5
 62
     3
100
AcDbLine
 10
-154.9999999999997
 20
-7.749999999999448
 30
0.0
 11
-154.9999999999997
 21
-33.50000099999953
 31
0.0
  0
LINE
  5
46FA
330
CC8
100
AcDbEntity
  8
AM_5
 62
     3
100
AcDbLine
 10
-2.999999999999771
 20
-8.500000127756685
 30
0.0
 11
-2.999999999999772
 21
-33.50000099999953
 31
0.0
  0
LINE
  5
46FB
330
CC8
100
AcDbEntity
  8
AM_5
 62
     3
100
AcDbLine
 10
-152.4999999999997
 20
-32.50000099999953
 30
0.0
 11
-5.499999999999772
 21
-32.50000099999953
 31
0.0
  0
INSERT
  5
46FC
330
CC8
100
AcDbEntity
  8
AM_5
 62
     3
100
AcDbBlockReference
  2
_OPEN30
 10
-154.9999999999997
 20
-32.50000099999953
 30
0.0
 41
2.5
 42
2.5
 43
2.5
 50
180.0
  0
INSERT
  5
46FD
330
CC8
100
AcDbEntity
  8
AM_5
 62
     3
100
AcDbBlockReference
  2
_OPEN30
 10
-2.999999999999772
 20
-32.50000099999953
 30
0.0
 41
2.5
 42
2.5
 43
2.5
  0
MTEXT
  5
46FE
330
CC8
100
AcDbEntity
  8
AM_5
 62
     2
100
AcDbMText
 10
-78.99999999999976
 20
-29.10000099999953
 30
0.0
 40
3.799999999999999
 41
0.0
 71
     5
 72
     1
  1
152
1001
ACAD
1000
MTEXTBEGIN
1070
    73
1070
     1
1070
    44
1040
1.0
1070
    74
1070
     0
1000
MTEXTEND
  0
POINT
  5
46FF
330
CC8
100
AcDbEntity
  8
DEFPOINTS
 62
     0
100
AcDbPoint
 10
-154.9999999999997
 20
-7.749999999999448
 30
0.0
  0
POINT
  5
4700
330
CC8
100
AcDbEntity
  8
DEFPOINTS
 62
     0
100
AcDbPoint
 10
-2.999999999999771
 20
-8.500000127756685
 30
0.0
  0
POINT
  5
4701
330
CC8
100
AcDbEntity
  8
DEFPOINTS
 62
     0
100
AcDbPoint
 10
-2.999999999999772
 20
-32.50000099999953
 30
0.0
  0
ENDBLK
  5
CD3
330
CC8
100
AcDbEntity
  8
0
100
AcDbBlockEnd
  0
BLOCK
  5
2074
330
206A
100
AcDbEntity
  8
0
100
AcDbBlockBegin
  2
*D6
 70
     1
 10
0.0
 20
0.0
 30
0.0
  3
*D6
  1

  0
LINE
  5
46F0
330
206A
100
AcDbEntity
  8
AM_5
 62
     3
100
AcDbLine
 10
-87.99999999999965
 20
-8.499999999999927
 30
0.0
 11
-87.99999999999959
 21
-23.50000099999968
 31
0.0
  0
LINE
  5
46F1
330
206A
100
AcDbEntity
  8
AM_5
 62
     3
100
AcDbLine
 10
-2.999999999999746
 20
-8.500000127756694
 30
0.0
 11
-2.999999999999704
 21
-23.50000099999943
 31
0.0
  0
LINE
  5
46F2
330
206A
100
AcDbEntity
  8
AM_5
 62
     3
100
AcDbLine
 10
-85.49999999999959
 20
-22.50000099999967
 30
0.0
 11
-5.499999999999706
 21
-22.50000099999944
 31
0.0
  0
INSERT
  5
46F3
330
206A
100
AcDbEntity
  8
AM_5
 62
     3
100
AcDbBlockReference
  2
_OPEN30
 10
-87.99999999999959
 20
-22.50000099999968
 30
0.0
 41
2.5
 42
2.5
 43
2.5
 50
180.0000000000001
  0
INSERT
  5
46F4
330
206A
100
AcDbEntity
  8
AM_5
 62
     3
100
AcDbBlockReference
  2
_OPEN30
 10
-2.999999999999707
 20
-22.50000099999943
 30
0.0
 41
2.5
 42
2.5
 43
2.5
 50
0.0000000000001527
  0
MTEXT
  5
46F5
330
206A
100
AcDbEntity
  8
AM_5
 62
     2
100
AcDbMText
 10
-45.49999999999966
 20
-19.10000099999956
 30
0.0
 40
3.799999999999999
 41
0.0
 71
     5
 72
     1
  1
85
1001
ACAD
1000
MTEXTBEGIN
1070
    73
1070
     1
1070
    44
1040
1.0
1070
    74
1070
     0
1000
MTEXTEND
  0
POINT
  5
46F6
330
206A
100
AcDbEntity
  8
DEFPOINTS
 62
     0
100
AcDbPoint
 10
-87.99999999999966
 20
-8.499999999999671
 30
0.0
  0
POINT
  5
46F7
330
206A
100
AcDbEntity
  8
DEFPOINTS
 62
     0
100
AcDbPoint
 10
-2.999999999999771
 20
-8.500000127756685
 30
0.0
  0
POINT
  5
46F8
330
206A
100
AcDbEntity
  8
DEFPOINTS
 62
     0
100
AcDbPoint
 10
-2.999999999999772
 20
-22.50000099999942
 30
0.0
  0
ENDBLK
  5
2075
330
206A
100
AcDbEntity
  8
0
100
AcDbBlockEnd
  0
BLOCK
  5
2D6B
330
2D61
100
AcDbEntity
  8
0
100
AcDbBlockBegin
  2
*D7
 70
     1
 10
0.0
 20
0.0
 30
0.0
  3
*D7
  1

  0
LINE
  5
4716
330
2D61
100
AcDbEntity
  8
AM_5
 62
     3
100
AcDbLine
 10
-2.999999999999738
 20
8.499999999999982
 30
0.0
 11
16.31993086725117
 21
8.499932184033301
 31
0.0
  0
LINE
  5
4717
330
2D61
100
AcDbEntity
  8
AM_5
 62
     3
100
AcDbLine
 10
-3.000000001591747
 20
-8.500000132727018
 30
0.0
 11
16.31987119460273
 21
-8.500067948484243
 31
0.0
  0
LINE
  5
4718
330
2D61
100
AcDbEntity
  8
AM_5
 62
     3
100
AcDbLine
 10
15.31992209186793
 20
5.999935694204467
 30
0.0
 11
15.3198799699983
 21
-6.000064438343881
 31
0.0
  0
INSERT
  5
4719
330
2D61
100
AcDbEntity
  8
AM_5
 62
     3
100
AcDbBlockReference
  2
_OPEN30
 10
15.31993086725733
 20
8.499935694189066
 30
0.0
 41
2.5
 42
2.5
 43
2.5
 50
89.99979888288931
  0
INSERT
  5
471A
330
2D61
100
AcDbEntity
  8
AM_5
 62
     3
100
AcDbBlockReference
  2
_OPEN30
 10
15.31987119460889
 20
-8.500064438328479
 30
0.0
 41
2.5
 42
2.5
 43
2.5
 50
269.9997988828893
  0
MTEXT
  5
471B
330
2D61
100
AcDbEntity
  8
AM_5
 62
     2
100
AcDbMText
 10
11.91990103095406
 20
-0.0000524375401131
 30
0.0
 40
3.799999999999999
 41
0.0
 71
     5
 72
     1
  1
%%c17
 11
0.0000035101557632
 21
0.9999999999938395
 31
0.0
1001
ACAD
1000
MTEXTBEGIN
1070
    73
1070
     1
1070
    44
1040
1.0
1070
    74
1070
     0
1000
MTEXTEND
  0
POINT
  5
471C
330
2D61
100
AcDbEntity
  8
DEFPOINTS
 62
     0
100
AcDbPoint
 10
-2.999999999999714
 20
8.499999999999992
 30
0.0
  0
POINT
  5
471D
330
2D61
100
AcDbEntity
  8
DEFPOINTS
 62
     0
100
AcDbPoint
 10
-3.000000001591772
 20
-8.500000132727009
 30
0.0
  0
POINT
  5
471E
330
2D61
100
AcDbEntity
  8
DEFPOINTS
 62
     0
100
AcDbPoint
 10
15.31987119460887
 20
-8.500064438328523
 30
0.0
  0
ENDBLK
  5
2D6C
330
2D61
100
AcDbEntity
  8
0
100
AcDbBlockEnd
  0
BLOCK
  5
3C66
330
3C5C
100
AcDbEntity
  8
0
100
AcDbBlockBegin
  2
*D8
 70
     1
 10
0.0
 20
0.0
 30
0.0
  3
*D8
  1

  0
LINE
  5
4702
330
3C5C
100
AcDbEntity
  8
AM_5
 62
     3
100
AcDbLine
 10
-154.2499999999997
 20
8.500000000000071
 30
0.0
 11
-172.5000009999997
 21
8.500000000000021
 31
0.0
  0
LINE
  5
4703
330
3C5C
100
AcDbEntity
  8
AM_5
 62
     3
100
AcDbLine
 10
-154.2499999999997
 20
-8.499999999999912
 30
0.0
 11
-172.5000009999996
 21
-8.499999999999962
 31
0.0
  0
LINE
  5
4704
330
3C5C
100
AcDbEntity
  8
AM_5
 62
     3
100
AcDbLine
 10
-171.5000009999997
 20
6.000000000000023
 30
0.0
 11
-171.5000009999996
 21
-5.99999999999996
 31
0.0
  0
INSERT
  5
4705
330
3C5C
100
AcDbEntity
  8
AM_5
 62
     3
100
AcDbBlockReference
  2
_OPEN30
 10
-171.5000009999997
 20
8.500000000000023
 30
0.0
 41
2.5
 42
2.5
 43
2.5
 50
90.00000000000017
  0
INSERT
  5
4706
330
3C5C
100
AcDbEntity
  8
AM_5
 62
     3
100
AcDbBlockReference
  2
_OPEN30
 10
-171.5000009999996
 20
-8.49999999999996
 30
0.0
 41
2.5
 42
2.5
 43
2.5
 50
270.0000000000001
  0
MTEXT
  5
4707
330
3C5C
100
AcDbEntity
  8
AM_5
 62
     2
100
AcDbMText
 10
-174.9000009999996
 20
0.0000000000000287
 30
0.0
 40
3.799999999999999
 41
0.0
 71
     5
 72
     1
  1
%%c17
 11
-0.0000000000000028
 21
1.0
 31
0.0
1001
ACAD
1000
MTEXTBEGIN
1070
    73
1070
     1
1070
    44
1040
1.0
1070
    74
1070
     0
1000
MTEXTEND
  0
POINT
  5
4708
330
3C5C
100
AcDbEntity
  8
DEFPOINTS
 62
     0
100
AcDbPoint
 10
-154.2499999999996
 20
8.50000000000055
 30
0.0
  0
POINT
  5
4709
330
3C5C
100
AcDbEntity
  8
DEFPOINTS
 62
     0
100
AcDbPoint
 10
-154.2499999999997
 20
-8.499999999999433
 30
0.0
  0
POINT
  5
470A
330
3C5C
100
AcDbEntity
  8
DEFPOINTS
 62
     0
100
AcDbPoint
 10
-171.5000009999996
 20
-8.499999999999428
 30
0.0
  0
ENDBLK
  5
3C67
330
3C5C
100
AcDbEntity
  8
0
100
AcDbBlockEnd
  0
BLOCK
  5
40AC
330
409E
100
AcDbEntity
  8
0
100
AcDbBlockBegin
  2
*D9
 70
     1
 10
0.0
 20
0.0
 30
0.0
  3
*D9
  1

  0
LINE
  5
476E
330
409E
100
AcDbEntity
  8
AM_5
100
AcDbLine
 10
0.3420201408164219
 20
-0.9396926216993211
 30
0.0
 11
8.637596325670106
 21
-23.73160106033727
 31
0.0
  0
LINE
  5
476F
330
409E
100
AcDbEntity
  8
AM_5
100
AcDbLine
 10
0.3420222223662495
 20
0.93969186407452
 30
0.0
 11
8.63764889446649
 21
23.73158192679434
 31
0.0
  0
ARC
  5
4770
330
409E
100
AcDbEntity
  8
AM_5
100
AcDbCircle
 10
0.0000000000002814
 20
-0.0000000000000091
 30
0.0
 40
24.25464232912883
100
AcDbArc
 50
295.9082680619848
 51
64.09160501984492
  0
INSERT
  5
4771
330
409E
100
AcDbEntity
  8
AM_5
100
AcDbBlockReference
  2
_OPEN30
 10
8.295576184853969
 20
-22.79190843863797
 30
0.0
 41
2.5
 42
2.5
 43
2.5
 50
202.9541339544856
  0
INSERT
  5
4772
330
409E
100
AcDbEntity
  8
AM_5
100
AcDbBlockReference
  2
_OPEN30
 10
8.295626672100524
 20
22.79189006271982
 30
0.0
 41
2.5
 42
2.5
 43
2.5
 50
157.045739127344
  0
MTEXT
  5
4773
330
409E
100
AcDbEntity
  8
AM_5
 62
     2
100
AcDbMText
 10
21.15464232911613
 20
-0.0000234302467006
 30
0.0
 40
3.2
 41
0.0
 71
     5
 72
     1
  1
140°
  7
ASAMI
 11
0.0000011075699751
 21
0.9999999999993868
 31
0.0
  0
POINT
  5
4774
330
409E
100
AcDbEntity
  8
DEFPOINTS
 62
     0
100
AcDbPoint
 10
22.2709961512195
 20
-9.6067895233708
 30
0.0
  0
POINT
  5
4775
330
409E
100
AcDbEntity
  8
DEFPOINTS
 62
     0
100
AcDbPoint
 10
0.0000000000002847
 20
-0.0000000000000002
 30
0.0
  0
POINT
  5
4776
330
409E
100
AcDbEntity
  8
DEFPOINTS
 62
     0
100
AcDbPoint
 10
0.0000000000002847
 20
-0.000000000000018
 30
0.0
  0
POINT
  5
4777
330
409E
100
AcDbEntity
  8
DEFPOINTS
 62
     0
100
AcDbPoint
 10
-0.9401823436289076
 20
2.583129780755382
 30
0.0
  0
POINT
  5
4778
330
409E
100
AcDbEntity
  8
DEFPOINTS
 62
     0
100
AcDbPoint
 10
-0.9402011369205622
 20
-2.583163610967883
 30
0.0
  0
ENDBLK
  5
40AD
330
409E
100
AcDbEntity
  8
0
100
AcDbBlockEnd
  0
ENDSEC
  0
SECTION
  2
ENTITIES
  0
LINE
  5
C1D
330
1F
100
AcDbEntity
  8
AM_0
 48
0.5
100
AcDbLine
 10
0.0000000000003031
 20
-0.0000000000000191
 30
0.0
 11
-1.00083926902432
 21
2.749783314997664
 31
0.0
  0
LINE
  5
C20
330
1F
100
AcDbEntity
  8
AM_0
 48
0.5
100
AcDbLine
 10
0.0000000000003031
 20
-0.0000000000000002
 30
0.0
 11
-1.000859274786404
 21
-2.74981932780452
 31
0.0
  0
DIMENSION
  5
CC6
330
1F
100
AcDbEntity
  8
AM_5
100
AcDbDimension
  2
*D5
 10
-2.999999999999772
 20
-32.50000099999953
 30
0.0
 11
-78.99999999999976
 21
-29.10000099999953
 31
0.0
 70
    32
  1
<>
  3
AM_JIS$0
100
AcDbAlignedDimension
 13
-154.9999999999997
 23
-7.749999999999448
 33
0.0
 14
-2.999999999999771
 24
-8.500000127756685
 34
0.0
 50
0.0000000000001132
100
AcDbRotatedDimension
1001
GENIUS_GENDTOL_13
1000

1000
h7
1000

1040
0.0
1001
ACAD
1000
DSTYLE
1002
{
1070
   271
1070
     0
1002
}
  0
TEXT
  5
19BD
330
1F
100
AcDbEntity
  8
AM_6
100
AcDbText
 10
-101.0238095238092
 20
-55.00000099999959
 30
0.0
 40
5.0
  1
MDW170MHK
 50
0.0000000000001527
 72
     4
 11
-78.99999999999971
 21
-52.50000099999954
 31
0.0
100
AcDbText
  0
DIMENSION
  5
2069
330
1F
100
AcDbEntity
  8
AM_5
100
AcDbDimension
  2
*D6
 10
-2.999999999999772
 20
-22.50000099999942
 30
0.0
 11
-45.49999999999972
 21
-19.10000099999942
 31
0.0
 70
    32
  1
<>
 51
359.9999999999998
  3
AM_JIS$0
100
AcDbAlignedDimension
 13
-87.99999999999966
 23
-8.499999999999671
 33
0.0
 14
-2.999999999999771
 24
-8.500000127756685
 34
0.0
 50
0.0000000000001527
100
AcDbRotatedDimension
1001
ACAD
1000
DSTYLE
1002
{
1070
   271
1070
     0
1070
   174
1070
     1
1002
}
1001
GENIUS_GENDTOL_13
1000

1000
h7
1000

1040
0.0
  0
LINE
  5
23EF
330
1F
100
AcDbEntity
  8
AM_7
100
AcDbLine
 10
-157.4999999999997
 20
0.0000000000005697
 30
0.0
 11
1.319900031072815
 21
-0.0000000000000048
 31
0.0
1001
GENIUS_GENODEF_13
1002
{
1000
HIER
1070
     0
1002
}
1002
{
1000
MANEDIT
1070
     0
1002
}
1002
{
1000
NOSEL
1070
     0
1002
}
1002
{
1000
BEHIND
1070
     0
1002
}
1002
{
1000
REACTOR
1002
}
1001
GENIUS_GENOBJ-N-CEN_13
1002
{
1000
OWNER
1000
GEN
1002
}
  0
LINE
  5
24A7
330
1F
100
AcDbEntity
  8
AM_0
 48
0.5
100
AcDbLine
 10
-2.299503227230689
 20
6.313005123278037
 30
0.0
 11
-2.999999999999714
 21
8.499999999999991
 31
0.0
  0
ELLIPSE
  5
24B7
330
1F
100
AcDbEntity
  8
AM_11
 48
0.5
100
AcDbEllipse
 10
-23.72734484173369
 20
31.05931394701014
 30
0.0
 11
-35.85029872258455
 21
0.0000000000002728
 31
0.0
210
0.0
220
0.0
230
1.0
 40
0.9578947368421058
 41
1.130070686340284
 42
2.011520147323574
  0
ELLIPSE
  5
24B8
330
1F
100
AcDbEntity
  8
AM_11
 48
0.5
100
AcDbEllipse
 10
-23.72734484173539
 20
-31.05929140082526
 30
0.0
 11
-35.8502987225845
 21
0.0000000000001614
 31
0.0
210
0.0
220
0.0
230
1.0
 40
0.9578947368421054
 41
4.271664206181664
 42
5.153113667164971
  0
ELLIPSE
  5
24B9
330
1F
100
AcDbEntity
  8
AM_11
 48
0.5
100
AcDbEllipse
 10
6.859776370387557
 20
31.05931394700933
 30
0.0
 11
-35.85029872258447
 21
0.0000000000028042
 31
0.0
210
0.0
220
0.0
230
1.0
 40
0.9578947368421141
 41
1.130070686340349
 42
1.291800737381041
  0
ELLIPSE
  5
24BE
330
1F
100
AcDbEntity
  8
AM_0
 48
0.5
100
AcDbEllipse
 10
7.887325868264655
 20
8.371036924033438
 30
0.0
 11
9.384605826032522
 21
4.783719307865397
 31
0.0
210
0.0
220
0.0
230
0.9999999999999998
 40
0.8518863252772563
 41
2.825112492637462
 42
3.25008581321566
  0
ELLIPSE
  5
24C7
330
1F
100
AcDbEntity
  8
AM_11
 48
0.5
100
AcDbEllipse
 10
-115.4887084780887
 20
31.05931394701248
 30
0.0
 11
-35.85029872258455
 21
0.0000000000007982
 31
0.0
210
0.0
220
0.0
230
1.0
 40
0.9578947368421058
 41
1.130070686340301
 42
2.011520147323591
  0
ELLIPSE
  5
24C8
330
1F
100
AcDbEntity
  8
AM_11
 48
0.5
100
AcDbEllipse
 10
-115.4887084780904
 20
-31.05929140082292
 30
0.0
 11
35.8502987225845
 21
0.0000000000005992
 31
0.0
210
0.0
220
0.0
230
1.0
 40
0.957894736842107
 41
1.13007155259185
 42
2.011521013575156
  0
ELLIPSE
  5
24D4
330
1F
100
AcDbEntity
  8
AM_11
 48
0.5
100
AcDbEllipse
 10
-84.90158726596751
 20
31.05931394701173
 30
0.0
 11
-35.8502987225846
 21
0.0000000000002092
 31
0.0
210
0.0
220
0.0
230
1.0
 40
0.9578947368421049
 41
1.130070686340283
 42
2.011520147323574
  0
ELLIPSE
  5
24D5
330
1F
100
AcDbEntity
  8
AM_11
 48
0.5
100
AcDbEllipse
 10
-84.90158726596922
 20
-31.05929140082367
 30
0.0
 11
-35.85029872258445
 21
0.000000000000647
 31
0.0
210
0.0
220
0.0
230
1.0
 40
0.9578947368421083
 41
4.271664206181676
 42
5.153113667164986
  0
ELLIPSE
  5
24E6
330
1F
100
AcDbEntity
  8
AM_11
 48
0.5
100
AcDbEllipse
 10
-54.3144660538566
 20
-31.05929140082448
 30
0.0
 11
-35.85029872258449
 21
0.0000000000009734
 31
0.0
210
0.0
220
0.0
230
1.0
 40
0.9578947368421058
 41
4.271664206181685
 42
5.153113667164993
  0
ELLIPSE
  5
24E7
330
1F
100
AcDbEntity
  8
AM_11
 48
0.5
100
AcDbEllipse
 10
-54.31446605385488
 20
31.05931394701092
 30
0.0
 11
35.85029872258457
 21
0.0000000000000579
 31
0.0
210
0.0
220
0.0
230
1.0
 40
0.9578947368421053
 41
4.271663339930067
 42
5.153112800913361
  0
ELLIPSE
  5
2BF3
330
1F
100
AcDbEntity
  8
AM_11
 48
0.5
100
AcDbEllipse
 10
-146.0758296901973
 20
31.05931394701152
 30
0.0
 11
-35.8502987225846
 21
0.0000000000002092
 31
0.0
210
0.0
220
0.0
230
1.0
 40
0.9578947368421049
 41
1.319222288601844
 42
2.011520147323574
  0
ELLIPSE
  5
2BF5
330
1F
100
AcDbEntity
  8
AM_11
 48
0.5
100
AcDbEllipse
 10
-146.075829690199
 20
-31.05929140082388
 30
0.0
 11
-35.85029872258445
 21
0.000000000000647
 31
0.0
210
0.0
220
0.0
230
1.0
 40
0.9578947368421083
 41
4.271664206181676
 42
4.963963018577715
  0
DIMENSION
  5
2D60
330
1F
100
AcDbEntity
  8
AM_5
100
AcDbDimension
  2
*D7
 10
15.31987119460887
 20
-8.500064438328523
 30
0.0
 11
15.31990103093311
 21
-0.0000643720697528
 31
0.0
 70
   160
  1
%%c<>
 51
359.9999999999998
  3
AM_JIS$0
100
AcDbAlignedDimension
 13
-2.999999999999714
 23
8.499999999999991
 33
0.0
 14
-3.000000001591772
 24
-8.500000132727009
 34
0.0
 50
89.99979888288933
100
AcDbRotatedDimension
1001
GENIUS_GENDTOL_13
1000

1000
h7
1000

1040
0.0
1001
ACAD
1000
DSTYLE
1002
{
1070
   271
1070
     0
1002
}
  0
LINE
  5
324C
330
1F
100
AcDbEntity
  8
AM_0
100
AcDbLine
 10
-154.2499999999997
 20
-8.499999999999449
 30
0.0
 11
-85.01722973220644
 21
-8.49999989240743
 31
0.0
  0
LINE
  5
325C
330
1F
100
AcDbEntity
  8
AM_0
 48
0.5
100
AcDbLine
 10
-154.2499999999997
 20
-8.499999999999433
 30
0.0
 11
-154.2499999999996
 21
8.500000000000575
 31
0.0
  0
LINE
  5
325D
330
1F
100
AcDbEntity
  8
AM_0
 48
0.5
100
AcDbLine
 10
-154.9999999999997
 20
-7.74999999999946
 30
0.0
 11
-154.9999999999997
 21
7.750000000000562
 31
0.0
  0
LINE
  5
325E
330
1F
100
AcDbEntity
  8
AM_0
100
AcDbLine
 10
-84.25972107023756
 20
8.500000000001135
 30
0.0
 11
-154.2499999999996
 21
8.50000000000055
 31
0.0
  0
LINE
  5
3921
330
1F
100
AcDbEntity
  8
AM_0
 48
0.5
100
AcDbLine
 10
-154.2499999999996
 20
8.50000000000055
 30
0.0
 11
-154.9999999999996
 21
7.750000000000549
 31
0.0
1001
GENIUS_GENFIL_13
1070
     0
1040
0.75
1040
0.75
1040
20.0
1040
0.0
1002
{
1002
}
1001
GENIUS_GENODEF_13
1002
{
1000
HIER
1070
     0
1002
}
1002
{
1000
MANEDIT
1070
     0
1002
}
1002
{
1000
NOSEL
1070
     0
1002
}
1002
{
1000
BEHIND
1070
     0
1002
}
1002
{
1000
REACTOR
1002
}
1001
GENIUS_GENOBJ-N-CHA_13
1002
{
1000
OWNER
1000
GEN
1002
}
  0
LINE
  5
3924
330
1F
100
AcDbEntity
  8
AM_0
100
AcDbLine
 10
-154.9999999999997
 20
-7.749999999999448
 30
0.0
 11
-154.2499999999997
 21
-8.499999999999449
 31
0.0
1001
GENIUS_GENFIL_13
1070
     0
1040
0.75
1040
0.75
1040
20.0
1040
0.0
1002
{
1002
}
1001
GENIUS_GENODEF_13
1002
{
1000
HIER
1070
     0
1002
}
1002
{
1000
MANEDIT
1070
     0
1002
}
1002
{
1000
NOSEL
1070
     0
1002
}
1002
{
1000
BEHIND
1070
     0
1002
}
1002
{
1000
REACTOR
1002
}
1001
GENIUS_GENOBJ-N-CHA_13
1002
{
1000
OWNER
1000
GEN
1002
}
  0
DIMENSION
  5
3C5B
330
1F
100
AcDbEntity
  8
AM_5
100
AcDbDimension
  2
*D8
 10
-171.5000009999996
 20
-8.499999999999428
 30
0.0
 11
-174.9000009999996
 21
0.0000000000005376
 31
0.0
 70
    32
  1
%%c<>
 51
359.9999999999998
  3
AM_JIS$0
100
AcDbAlignedDimension
 13
-154.2499999999996
 23
8.50000000000055
 33
0.0
 14
-154.2499999999997
 24
-8.499999999999433
 34
0.0
 50
270.0
100
AcDbRotatedDimension
1001
ACAD
1000
DSTYLE
1002
{
1070
   271
1070
     0
1002
}
1001
GENIUS_GENDTOL_13
1000

1000
h7
1000

1040
0.0
  0
ELLIPSE
  5
4071
330
1F
100
AcDbEntity
  8
AM_0
 48
0.5
100
AcDbEllipse
 10
7.887325868264591
 20
-8.371036924033496
 30
0.0
 11
9.384605826032487
 21
-4.78371930786547
 31
0.0
210
0.0
220
0.0
230
-1.0
 40
0.8518863252772563
 41
2.825112492637462
 42
3.25008581321566
  0
LINE
  5
4072
330
1F
100
AcDbEntity
  8
AM_0
 48
0.5
100
AcDbLine
 10
-2.299503227230737
 20
-6.313005123278021
 30
0.0
 11
-3.000000001591772
 21
-8.500000132727009
 31
0.0
  0
DIMENSION
  5
409D
330
1F
100
AcDbEntity
  8
AM_5
100
AcDbDimension
  2
*D9
 10
-0.9402011369205622
 20
-2.583163610967882
 30
0.0
 11
21.15464232911613
 21
-0.0000234302467632
 31
0.0
 70
    34
  1
<>
 51
359.9999999999998
  3
AM_JIS$2
100
AcDb2LineAngularDimension
 13
0.0000000000002847
 23
-0.000000000000018
 33
0.0
 14
-0.9401823436289076
 24
2.583129780755382
 34
0.0
 15
0.0000000000002847
 25
-0.0000000000000002
 35
0.0
 16
22.2709961512195
 26
-9.6067895233708
 36
0.0
1001
GENIUS_GENDTOL_13
1000

1000
h7
1000

1040
0.0
1001
ACAD
1000
DSTYLE
1002
{
1070
   271
1070
     0
1002
}
  0
LINE
  5
461B
330
1F
100
AcDbEntity
  8
AM_0
 48
0.5
100
AcDbLine
 10
0.0000000000002824
 20
0.0000000000000386
 30
0.0
 11
-5.451949495609735
 21
3.263742690013124
 31
0.0
  0
SPLINE
  5
461F
330
1F
100
AcDbEntity
  8
AM_0
 48
0.5
100
AcDbSpline
210
0.0
220
0.0
230
1.0
 70
     8
 71
     3
 72
    10
 73
     6
 74
     0
 42
0.0000000001
 43
0.0000000001
 40
0.0
 40
0.0
 40
0.0
 40
0.0
 40
2.69986029516136
 40
4.147722969032201
 40
6.285750005020438
 40
6.285750005020438
 40
6.285750005020438
 40
6.285750005020438
 10
-11.07540052795174
 20
1.538556527129558
 30
0.0
 10
-9.870958572590456
 20
0.748746832818919
 30
0.0
 10
-8.324790464477006
 20
-0.4644615231303016
 30
0.0
 10
-4.668310589288823
 20
0.1228738956019183
 30
0.0
 10
-5.356932105061091
 20
2.101097301936068
 30
0.0
 10
-5.451949495609736
 20
3.263742690013124
 30
0.0
  0
ELLIPSE
  5
4625
330
1F
100
AcDbEntity
  8
AM_0
 48
0.5
100
AcDbEllipse
 10
-20.78260084430817
 20
37.86991417278771
 30
0.0
 11
-0.0000000000311222
 21
43.78621769060324
 31
0.0
210
0.0
220
0.0
230
1.0
 40
0.9455407969639061
 41
3.579847691616359
 42
3.667473607413453
  0
ELLIPSE
  5
4626
330
1F
100
AcDbEntity
  8
AM_0
 48
0.5
100
AcDbEllipse
 10
-10.8635208839761
 20
8.671606995938192
 30
0.0
 11
0.0000000000000468
 21
13.20601361243273
 31
0.0
210
0.0
220
0.0
230
1.0
 40
0.9455407969639452
 41
3.51705450908267
 42
3.681821570856173
  0
ELLIPSE
  5
4627
330
1F
100
AcDbEntity
  8
AM_0
 48
0.5
100
AcDbEllipse
 10
-3.828164177427737
 20
-2.212206750108877
 30
0.0
 11
-0.2386683756985645
 21
1.395394529194416
 31
0.0
210
0.0
220
0.0
230
1.0
 40
0.493127899223862
 41
1.807434238349266
 42
4.942776128061243
  0
ELLIPSE
  5
4628
330
1F
100
AcDbEntity
  8
AM_0
 48
0.5
100
AcDbEllipse
 10
-3.828284741916904
 20
-2.215221479807055
 30
0.0
 11
-1.208366798777001
 21
0.7129600166340819
 31
0.0
210
0.0
220
0.0
230
1.0
 40
0.5032022807364389
 41
4.491411970863845
 42
7.634852312193359
  0
ELLIPSE
  5
4629
330
1F
100
AcDbEntity
  8
AM_0
 48
0.5
100
AcDbEllipse
 10
3.709567199613712
 20
10.2047738281155
 30
0.0
 11
-13.79589403306697
 21
13.72023485464526
 31
0.0
210
0.0
220
0.0
230
1.0
 40
0.8740049760848464
 41
1.344149552869509
 42
1.707856354912507
  0
ELLIPSE
  5
462A
330
1F
100
AcDbEntity
  8
AM_0
 48
0.5
100
AcDbEllipse
 10
7.070928647071871
 20
-2.270050165895261
 30
0.0
 11
-13.3702412340899
 21
13.60017121666404
 31
0.0
210
0.0
220
0.0
230
1.0
 40
0.6113544258540957
 41
1.114456699820341
 42
1.433109807596287
  0
LINE
  5
4688
330
1F
100
AcDbEntity
  8
AM_0
 48
0.5
100
AcDbLine
 10
-9.396223050484231
 20
8.500000000000284
 30
0.0
 11
-2.999999999999714
 21
8.499999999999991
 31
0.0
  0
LINE
  5
4689
330
1F
100
AcDbEntity
  8
AM_0
 48
0.5
100
AcDbLine
 10
-9.39622304857445
 20
-8.499999121102643
 30
0.0
 11
-2.999999999999747
 21
-8.500000127756608
 31
0.0
  0
LINE
  5
468A
330
1F
100
AcDbEntity
  8
AM_0
 48
0.5
100
AcDbLine
 10
-63.98768398589331
 20
-8.499999121100563
 30
0.0
 11
-36.51848713941764
 21
-8.499999999999504
 31
0.0
  0
LINE
  5
468B
330
1F
100
AcDbEntity
  8
AM_11
 48
0.5
100
AcDbLine
 10
-36.51848713941764
 20
-8.499999999999504
 30
0.0
 11
-9.39622304857445
 21
-8.499999121102643
 31
0.0
  0
SPLINE
  5
468C
330
1F
100
AcDbEntity
  8
AM_0
100
AcDbSpline
210
0.0
220
0.0
230
1.0
 70
     8
 71
     3
 72
    11
 73
     7
 74
     0
 42
0.0000000001
 43
0.0000000001
 40
11.27226913003534
 40
11.27226913003534
 40
11.27226913003534
 40
11.2722691300354
 40
12.28301561507924
 40
13.29510212255852
 40
14.30984805882082
 40
15.18258238371378
 40
15.18258238371378
 40
15.18258238371378
 40
15.18258238371378
 10
-36.51848713941773
 20
-8.499999999999506
 30
0.0
 10
-36.99638989453391
 20
-8.458397651017577
 30
0.0
 10
-37.95130547981701
 20
-8.357682302514392
 30
0.0
 10
-39.37874785168117
 20
-8.15451453270111
 30
0.0
 10
-40.73341583230868
 20
-7.9118529081363
 30
0.0
 10
-41.60953556476338
 20
-7.725311695260106
 30
0.0
 10
-42.01327648496511
 20
-7.633165488553236
 30
0.0
  0
SPLINE
  5
468D
330
1F
100
AcDbEntity
  8
AM_0
100
AcDbSpline
210
0.0
220
0.0
230
1.0
 70
     8
 71
     3
 72
    17
 73
    13
 74
     0
 42
0.0000000001
 43
0.0000000001
 40
1.580019955310467
 40
1.580019955310467
 40
1.580019955310467
 40
1.580019955310467
 40
2.030549285115227
 40
3.082371838836284
 40
4.126290986361125
 40
5.162752068350215
 40
6.192395305374981
 40
7.216039564037012
 40
8.234688489606833
 40
9.249433870634691
 40
10.26152376260694
 40
11.27226744710342
 40
11.27226744710342
 40
11.27226744710342
 40
11.27226744710352
 10
-22.95629418748174
 20
-6.273249417120111
 30
0.0
 10
-23.16000286072318
 20
-6.337858683742335
 30
0.0
 10
-23.84045826776272
 20
-6.549624184897799
 30
0.0
 10
-25.00216439345838
 20
-6.881785950561244
 30
0.0
 10
-26.44110928652997
 20
-7.253763063831927
 30
0.0
 10
-27.88045031978342
 20
-7.580309581270246
 30
0.0
 10
-29.31985730314053
 20
-7.8603288862783
 30
0.0
 10
-30.75942110730875
 20
-8.091784104908519
 30
0.0
 10
-32.19908436680938
 20
-8.273354424285809
 30
0.0
 10
-33.63883727126889
 20
-8.403863207986447
 30
0.0
 10
-35.07864434890428
 20
-8.482470355813489
 30
0.0
 10
-36.03874870308279
 20
-8.49999916973895
 30
0.0
 10
-36.51848713941765
 20
-8.499999999999506
 30
0.0
  0
SPLINE
  5
468E
330
1F
100
AcDbEntity
  8
AM_0
100
AcDbSpline
210
0.0
220
0.0
230
1.0
 70
     8
 71
     3
 72
    22
 73
    18
 74
     0
 42
0.0000000001
 43
0.0000000001
 40
17.17441611292
 40
17.17441611292
 40
17.17441611292
 40
17.17441611292
 40
17.38177636558528
 40
18.41823744757437
 40
19.46215659509824
 40
20.51397914882054
 40
21.57394542641293
 40
22.64209583141747
 40
23.71826625065247
 40
24.80210429862395
 40
25.8930771157021
 40
26.99048705697709
 40
28.09349309193389
 40
29.20112995599786
 40
30.31233024745139
 40
31.42594771747373
 40
32.5407895042663
 40
32.54078950426994
 40
32.54078950426994
 40
32.54078950426994
 10
-42.01390616224014
 20
-7.63306064111823
 30
0.0
 10
-42.11031769673943
 20
-7.613383974813272
 30
0.0
 10
-42.68825219265683
 20
-7.493531249637118
 30
0.0
 10
-43.74699562269835
 20
-7.253210936479447
 30
0.0
 10
-45.18614084149165
 20
-6.88180500418212
 30
0.0
 10
-46.62513941440805
 20
-6.4679868740663
 30
0.0
 10
-48.06400150069688
 20
-6.014339701507665
 30
0.0
 10
-49.50272519972131
 20
-5.523645014399755
 30
0.0
 10
-50.94132822050186
 20
-4.998956632527815
 30
0.0
 10
-52.3798172241748
 20
-4.443499121867965
 30
0.0
 10
-53.8182055201841
 20
-3.860697958452902
 30
0.0
 10
-55.25650910249564
 20
-3.254148656308481
 30
0.0
 10
-56.69474045471681
 20
-2.627580905436088
 30
0.0
 10
-58.13291405497128
 20
-1.984849456516321
 30
0.0
 10
-59.57104265141634
 20
-1.329906380429875
 30
0.0
 10
-61.00914754867654
 20
-0.6667930299581693
 30
0.0
 10
-61.96769595833716
 20
-0.2220569718412189
 30
0.0
 10
-62.44723348331667
 20
0.0004332112575107
 30
0.0
  0
ELLIPSE
  5
468F
330
1F
100
AcDbEntity
  8
AM_0
 48
0.5
100
AcDbEllipse
 10
-85.1525374173644
 20
-5.611306079289729
 30
0.0
 11
-1.901179268642366
 21
2.275416112161066
 31
0.0
210
0.0
220
0.0
230
1.0
 40
0.9364237528981005
 41
0.9179026965878009
 42
2.460472735601682
  0
ELLIPSE
  5
4690
330
1F
100
AcDbEntity
  8
AM_0
 48
0.5
100
AcDbEllipse
 10
-85.8649695062866
 20
-5.697632042627797
 30
0.0
 11
1.60460948629011
 21
1.419869332401349
 31
0.0
210
0.0
220
0.0
230
1.0
 40
0.9931153252267314
 41
0.5600051466004983
 42
2.388251328862321
  0
SPLINE
  5
4691
330
1F
100
AcDbEntity
  8
AM_0
100
AcDbSpline
210
0.0
220
0.0
230
1.0
 70
     8
 71
     3
 72
    13
 73
     9
 74
     0
 42
0.0000000001
 43
0.0000000001
 40
16.03460056234195
 40
16.03460056234195
 40
16.03460056234195
 40
16.03460056234195
 40
16.35212717791071
 40
17.38177067057215
 40
18.41822498539278
 40
19.46214186516937
 40
20.5139635832251
 40
21.34083983469381
 40
21.34083983469381
 40
21.34083983469381
 40
21.34083983469381
 10
-85.0172297322064
 20
-8.499999892407432
 30
0.0
 10
-84.62363816265565
 20
-8.440858035593777
 30
0.0
 10
-84.1184929408179
 20
-8.291765735502888
 30
0.0
 10
-83.01409587999373
 20
-8.046929715448563
 30
0.0
 10
-81.58389783547653
 20
-7.682866491126717
 30
0.0
 10
-80.15502845473504
 20
-7.274082766570842
 30
0.0
 10
-78.83285422341848
 20
-6.856269110651146
 30
0.0
 10
-77.98933034720054
 20
-6.568574674295796
 30
0.0
 10
-77.61928147829696
 20
-6.43853416759099
 30
0.0
  0
SPLINE
  5
4692
330
1F
100
AcDbEntity
  8
AM_0
 48
0.5
100
AcDbSpline
210
0.0
220
0.0
230
1.0
 70
     8
 71
     3
 72
    26
 73
    22
 74
     0
 42
0.0000000001
 43
0.0000000001
 40
0.0
 40
0.0
 40
0.0
 40
0.0
 40
0.8422864037471089
 40
1.685694647057321
 40
2.531315797913884
 40
3.380177287502886
 40
4.233214169721234
 40
5.09125020057522
 40
5.954967768899448
 40
6.824900391836836
 40
7.701419186604396
 40
8.584724417931369
 40
9.47485577056355
 40
10.37165251267315
 40
11.27486274211709
 40
12.18400675634887
 40
13.09851504074504
 40
14.01768673654235
 40
14.94071745659532
 40
15.8667176994736
 40
16.76607142455336
 40
16.76607142455336
 40
16.76607142455336
 40
16.76607142455336
 10
-60.70573858445726
 20
-8.444639412624084
 30
0.0
 10
-61.18547127649384
 20
-8.439582118769539
 30
0.0
 10
-62.14557561557231
 20
-8.429460795260943
 30
0.0
 10
-63.58538272287895
 20
-8.347871558300937
 30
0.0
 10
-65.02512837442832
 20
-8.218166002934761
 30
0.0
 10
-66.46478490409734
 20
-8.036378668759745
 30
0.0
 10
-67.90433802139776
 20
-7.804973408496635
 30
0.0
 10
-69.34375904484721
 20
-7.524978167228701
 30
0.0
 10
-70.78304701686292
 20
-7.198284701444789
 30
0.0
 10
-72.22219212153264
 20
-6.826877182720089
 30
0.0
 10
-73.66119095657801
 20
-6.413060132652989
 30
0.0
 10
-75.10005536501317
 20
-5.959409182983136
 30
0.0
 10
-76.53877938465393
 20
-5.468725482097548
 30
0.0
 10
-77.97737931664861
 20
-4.94401900549414
 30
0.0
 10
-79.41587439606959
 20
-4.388577503497833
 30
0.0
 10
-80.85426773096459
 20
-3.80577042739891
 30
0.0
 10
-82.29257004380007
 20
-3.199218624154342
 30
0.0
 10
-83.73080774730537
 20
-2.572664387434733
 30
0.0
 10
-85.16895707300625
 20
-1.929881084680925
 30
0.0
 10
-86.59233348057949
 20
-1.281890140807651
 30
0.0
 10
-87.53537390358713
 20
-0.8465652793243629
 30
0.0
 10
-87.99999999999965
 20
-0.6320748806610658
 30
0.0
  0
LINE
  5
4693
330
1F
100
AcDbEntity
  8
AM_11
 48
0.5
100
AcDbLine
 10
-85.01722973220639
 20
-8.499999892407432
 30
0.0
 11
-63.98768398589501
 21
-8.499999121100545
 31
0.0
  0
SPLINE
  5
4694
330
1F
100
AcDbEntity
  8
AM_0
 48
0.5
100
AcDbSpline
210
0.0
220
0.0
230
1.0
 70
     8
 71
     3
 72
    22
 73
    18
 74
     0
 42
0.0000000001
 43
0.0000000001
 40
0.0
 40
0.0
 40
0.0
 40
0.0
 40
1.010743684496582
 40
2.022833993863546
 40
3.037578683882831
 40
4.056212471389632
 40
5.079857945358201
 40
6.109499720892564
 40
7.145961650132166
 40
8.189873411961459
 40
9.241710626092514
 40
10.30166235592959
 40
11.36982472628033
 40
12.44598212828784
 40
13.52983440361964
 40
14.62080578343036
 40
14.90544694398022
 40
14.90544694398022
 40
14.90544694398022
 40
14.90544694398022
 10
-64.73597984234436
 20
-8.444207080268252
 30
0.0
 10
-65.21595293094446
 20
-8.439583629425843
 30
0.0
 10
-66.17605765147651
 20
-8.429465327154481
 30
0.0
 10
-67.61586325100354
 20
-8.347853365888308
 30
0.0
 10
-69.05561045719835
 20
-8.218169634271028
 30
0.0
 10
-70.49526776483128
 20
-8.036382180047226
 30
0.0
 10
-71.93481691445808
 20
-7.804955151920869
 30
0.0
 10
-73.37424288827129
 20
-7.524984119596786
 30
0.0
 10
-74.81352459357158
 20
-7.198278782108166
 30
0.0
 10
-76.25267192736214
 20
-6.826865886164014
 30
0.0
 10
-77.69167192800303
 20
-6.413064471794802
 30
0.0
 10
-79.13053211556707
 20
-5.959392981020396
 30
0.0
 10
-80.56926176541558
 20
-5.46873833295773
 30
0.0
 10
-82.00785979689383
 20
-4.944017448718549
 30
0.0
 10
-83.44635316044097
 20
-4.388573037904592
 30
0.0
 10
-84.52748145143166
 20
-3.950545023115273
 30
0.0
 10
-85.12992386262551
 20
-3.700182289893471
 30
0.0
 10
-85.25448892052516
 20
-3.648159142419559
 30
0.0
  0
LINE
  5
4695
330
1F
100
AcDbEntity
  8
AM_0
 48
0.5
100
AcDbLine
 10
-71.1219093054605
 20
3.867670339525904
 30
0.0
 11
-87.99999999999965
 21
-0.6320748806610675
 31
0.0
  0
LINE
  5
4696
330
1F
100
AcDbEntity
  8
AM_11
 48
0.5
100
AcDbLine
 10
-36.51848139064242
 20
8.500000000001458
 30
0.0
 11
-9.396223050484231
 21
8.500000000000285
 31
0.0
  0
SPLINE
  5
4697
330
1F
100
AcDbEntity
  8
AM_0
 48
0.5
100
AcDbSpline
210
0.0
220
0.0
230
1.0
 70
     8
 71
     3
 72
    17
 73
    13
 74
     0
 42
0.0000000001
 43
0.0000000001
 40
0.0
 40
0.0
 40
0.0
 40
0.0
 40
1.010743614677189
 40
2.022833924044153
 40
3.037578959561199
 40
4.056212747067873
 40
5.079857613375832
 40
6.109500119648989
 40
7.14596120163808
 40
8.18989512056258
 40
9.241717674284874
 40
9.693948937866434
 40
9.693948937866434
 40
9.693948937866434
 40
9.693948937866434
 10
-9.396223050484231
 20
8.500000000000285
 30
0.0
 10
-9.875955829768711
 20
8.494946350457421
 30
0.0
 10
-10.83606057475158
 20
8.484832317989615
 30
0.0
 10
-12.27586646995471
 20
8.4032207582303
 30
0.0
 10
-13.7156130891849
 20
8.273528918547782
 30
0.0
 10
-15.15527016842802
 20
8.091741275138536
 30
0.0
 10
-16.59482056178539
 20
7.860323285715138
 30
0.0
 10
-18.03424668657197
 20
7.58034788689765
 30
0.0
 10
-19.47352922326998
 20
7.253617372919397
 30
0.0
 10
-20.91272402181926
 20
6.882331377746695
 30
0.0
 10
-22.07447959205111
 20
6.547858820260219
 30
0.0
 10
-22.75673057787471
 20
6.338765372572786
 30
0.0
 10
-22.96150572060108
 20
6.274763267968642
 30
0.0
  0
SPLINE
  5
4698
330
1F
100
AcDbEntity
  8
AM_0
 48
0.5
100
AcDbSpline
210
0.0
220
0.0
230
1.0
 70
     8
 71
     3
 72
    25
 73
    21
 74
     0
 42
0.0000000001
 43
0.0000000001
 40
6.846175049578289
 40
6.846175049578289
 40
6.846175049578289
 40
6.846175049578289
 40
7.604337694224321
 40
8.711974558287883
 40
9.814980593243754
 40
10.91239053451967
 40
12.0033633515982
 40
13.08720139956839
 40
14.16337181880432
 40
15.23152222380919
 40
16.29148850140128
 40
17.34331105512262
 40
18.38723020264746
 40
19.42369128463655
 40
20.45333379090873
 40
21.47697865721768
 40
22.49561244472435
 40
23.5103574802404
 40
24.52244778960836
 40
25.53320666051913
 40
25.53320666051913
 40
25.53320666051913
 40
25.53320666051913
 10
-11.07540052795174
 20
1.538556527129558
 30
0.0
 10
-11.40247541673124
 20
1.687801409935227
 30
0.0
 10
-12.20807834097578
 20
2.053591980955605
 30
0.0
 10
-13.49340651230117
 20
2.628014855751656
 30
0.0
 10
-14.93163778592164
 20
3.254582783674587
 30
0.0
 10
-16.36994138912696
 20
3.86113203867335
 30
0.0
 10
-17.80832967962557
 20
4.443933214826442
 30
0.0
 10
-19.24681868461274
 20
4.999390721320128
 30
0.0
 10
-20.68542170559335
 20
5.524079107194677
 30
0.0
 10
-22.12414540254177
 20
6.014773782544187
 30
0.0
 10
-23.56300749684301
 20
6.468420997694015
 30
0.0
 10
-25.0020060401061
 20
6.882238970876679
 30
0.0
 10
-26.44115136835563
 20
7.253645482272285
 30
0.0
 10
-27.8804384027815
 20
7.5803419548885
 30
0.0
 10
-29.31986152080119
 20
7.860325973088555
 30
0.0
 10
-30.75941271270159
 20
8.09174167293278
 30
0.0
 10
-32.19906957964412
 20
8.27352992663078
 30
0.0
 10
-33.63881625514908
 20
8.403221598671699
 30
0.0
 10
-35.07862936778946
 20
8.484833631925839
 30
0.0
 10
-36.03874136351816
 20
8.494947348855683
 30
0.0
 10
-36.51848139064242
 20
8.500000000001458
 30
0.0
  0
SPLINE
  5
4699
330
1F
100
AcDbEntity
  8
AM_0
100
AcDbSpline
210
0.0
220
0.0
230
1.0
 70
     8
 71
     3
 72
    46
 73
    42
 74
     0
 42
0.0000000001
 43
0.0000000001
 40
0.0
 40
0.0
 40
0.0
 40
0.0
 40
1.685415058684571
 40
2.531036209541119
 40
3.379897699130121
 40
4.232934581347655
 40
5.090970612202441
 40
5.954688180526682
 40
6.824620803463246
 40
7.701151815239689
 40
8.584457046566678
 40
9.474582384070741
 40
10.37139106676737
 40
11.27458944007583
 40
12.18373345430765
 40
13.09824173870457
 40
14.01741343450111
 40
14.9404441545541
 40
15.86644439743314
 40
16.79446029130534
 40
17.7234937712985
 40
18.65252725129241
 40
19.58054314516461
 40
20.50654338804289
 40
21.42957410809586
 40
22.34874580389317
 40
23.26325408828901
 40
24.17239810252111
 40
25.07560240389441
 40
25.97241108659103
 40
26.8625364240951
 40
27.74584165542183
 40
28.62236045019041
 40
29.49229307312697
 40
30.35601064145121
 40
31.21404606334468
 40
32.06708345193547
 40
32.91595755657689
 40
33.76157841950693
 40
34.60498701064689
 40
35.44727335621125
 40
35.44727335621125
 40
35.44727335621125
 40
35.44727335621125
 10
-5.365741485734826
 20
-8.499999121102824
 30
0.0
 10
-6.325892733865297
 20
-8.480635464045001
 30
0.0
 10
-7.767779444875825
 20
-8.451556503993037
 30
0.0
 10
-9.685119082643877
 20
-8.272522689042579
 30
0.0
 10
-11.12479109237684
 20
-8.092008978466571
 30
0.0
 10
-12.56434004442498
 20
-7.860260037207907
 30
0.0
 10
-14.00376214652346
 20
-7.580357514880032
 30
0.0
 10
-15.44305000407863
 20
-7.25363958399442
 30
0.0
 10
-16.88220120649961
 20
-6.882234604471465
 30
0.0
 10
-18.32120934905521
 20
-6.468423057865171
 30
0.0
 10
-19.76007730797759
 20
-6.01477155684691
 30
0.0
 10
-21.19880121314945
 20
-5.524077475862268
 30
0.0
 10
-22.63740417844004
 20
-4.999388930542923
 30
0.0
 10
-24.07589319574742
 20
-4.443931461157024
 30
0.0
 10
-25.51428149331963
 20
-3.861130297850189
 30
0.0
 10
-26.95258505543501
 20
-3.254580953221419
 30
0.0
 10
-28.39081648745878
 20
-2.628013373450708
 30
0.0
 10
-29.82898978701158
 20
-1.985281278979032
 30
0.0
 10
-31.2671202028302
 20
-1.33034030923292
 30
0.0
 10
-32.70522087232984
 20
-0.6672178907931681
 30
0.0
 10
-34.14330945290141
 20
0.0000008787634267
 30
0.0
 10
-35.58139803315703
 20
0.6672196491308271
 30
0.0
 10
-37.01949870360432
 20
1.330342065139348
 30
0.0
 10
-38.45762911595918
 20
1.985283043770527
 30
0.0
 10
-39.89580242835569
 20
2.628015105290724
 30
0.0
 10
-41.3340338127562
 20
3.254582807242182
 30
0.0
 10
-42.77233755123683
 20
3.861131699392676
 30
0.0
 10
-44.21072832343134
 20
4.443935803405724
 30
0.0
 10
-45.64922293001306
 20
4.999388226178941
 30
0.0
 10
-47.08782846155091
 20
5.524079461921463
 30
0.0
 10
-48.52655233322517
 20
6.014773688913706
 30
0.0
 10
-49.96541438144145
 20
6.468421021262352
 30
0.0
 10
-51.40441293618168
 20
6.882238969182732
 30
0.0
 10
-52.843558264084
 20
7.25364546593567
 30
0.0
 10
-54.28284528865495
 20
7.580342021219004
 30
0.0
 10
-55.72226844604962
 20
7.860325726308224
 30
0.0
 10
-57.16182658541026
 20
8.091743727107123
 30
0.0
 10
-58.60149117687832
 20
8.2735282205774
 30
0.0
 10
-60.04124483969405
 20
8.403221884602348
 30
0.0
 10
-61.4810507644968
 20
8.484833135184087
 30
0.0
 10
-62.44115550554099
 20
8.494947208797656
 30
0.0
 10
-62.92088828285726
 20
8.500000878899678
 30
0.0
  0
LINE
  5
469A
330
1F
100
AcDbEntity
  8
AM_11
 48
0.5
100
AcDbLine
 10
-84.25972107023756
 20
8.500000000001135
 30
0.0
 11
-66.95133562255984
 21
8.500000000000902
 31
0.0
  0
SPLINE
  5
469B
330
1F
100
AcDbEntity
  8
AM_0
100
AcDbSpline
210
0.0
220
0.0
230
1.0
 70
     8
 71
     3
 72
    23
 73
    19
 74
     0
 42
0.0000000001
 43
0.0000000001
 40
16.03460024169435
 40
16.03460024169435
 40
16.03460024169435
 40
16.03460024169435
 40
16.35212704903564
 40
17.38177054169784
 40
18.41822485651776
 40
19.46214173629503
 40
20.51396345435107
 40
21.57393551351153
 40
22.64208202342361
 40
23.7182574881101
 40
24.80209208578934
 40
25.89306333925047
 40
26.99048218457928
 40
28.09348763352352
 40
29.20111863782268
 40
30.31232390128032
 40
31.42594612798585
 40
32.5407912310448
 40
32.5407912310486
 40
32.5407912310486
 40
32.5407912310486
 10
-84.25972107023753
 20
8.500000000001135
 30
0.0
 10
-84.11179858440595
 20
8.471305496847861
 30
0.0
 10
-83.48483808997141
 20
8.346349011860095
 30
0.0
 10
-82.38044042712303
 20
8.101515850290326
 30
0.0
 10
-80.95024256258986
 20
7.73745161650546
 30
0.0
 10
-79.52137313310505
 20
7.328668165329142
 30
0.0
 10
-78.09374770563476
 20
6.877531326875474
 30
0.0
 10
-76.66731561122247
 20
6.386556199118466
 30
0.0
 10
-75.24199440551178
 20
5.858549402939035
 30
0.0
 10
-73.81768483455134
 20
5.296583805447964
 30
0.0
 10
-72.3943059639558
 20
4.703841785059163
 30
0.0
 10
-70.97174367627977
 20
4.083772369477282
 30
0.0
 10
-69.54988268875786
 20
3.439979670045656
 30
0.0
 10
-68.12862826684777
 20
2.776165224890818
 30
0.0
 10
-66.70786149591842
 20
2.096189024105659
 30
0.0
 10
-65.28745078287665
 20
1.404021629833396
 30
0.0
 10
-63.86728046619439
 20
0.7036739646915171
 30
0.0
 10
-62.92075455990731
 20
0.2341291498284221
 30
0.0
 10
-62.44723348331034
 20
-0.0007752469040068
 30
0.0
  0
SPLINE
  5
469C
330
1F
100
AcDbEntity
  8
AM_0
100
AcDbSpline
210
0.0
220
0.0
230
1.0
 70
     8
 71
     3
 72
    55
 73
    51
 74
     0
 42
0.0000000001
 43
0.0000000001
 40
0.0
 40
0.0
 40
0.0
 40
0.0
 40
1.010743684496582
 40
2.022833576467832
 40
3.037578957496688
 40
4.056212745003489
 40
5.079857003664532
 40
6.109500240690281
 40
7.145961322679372
 40
8.189895241603872
 40
9.241717795325891
 40
10.30168407291828
 40
11.36983447792315
 40
12.44600489715814
 40
13.52984294512926
 40
14.62081576220742
 40
15.7182257034828
 40
16.82123173843959
 40
17.92886860250316
 40
19.0400688939571
 40
20.15368796660465
 40
21.26852814259644
 40
22.38336992938901
 40
23.49698739941135
 40
24.6081876908653
 40
25.71582455492886
 40
26.81883757994213
 40
27.91624752121713
 40
29.00722033829659
 40
30.09105838626677
 40
31.16722880550176
 40
32.23537921050758
 40
33.29534548809967
 40
34.347168041821
 40
35.39108718934584
 40
36.42754827133493
 40
37.45720575381954
 40
38.48085062012849
 40
39.49948440763516
 40
40.51422944315121
 40
41.52631975251916
 40
42.53706336719636
 40
43.54780698187354
 40
44.55989729124051
 40
45.57464232675757
 40
46.59327611426424
 40
47.6169209805722
 40
48.64656348684535
 40
49.68302456883444
 40
50.58557219878025
 40
50.58557219878025
 40
50.58557219878025
 40
50.58557219878025
 10
-9.396223048574443
 20
-8.499999121102641
 30
0.0
 10
-9.875955740553306
 20
-8.494941827027709
 30
0.0
 10
-10.83606007951585
 20
-8.4848205030781
 30
0.0
 10
-12.27586718769032
 20
-8.40323126943208
 30
0.0
 10
-13.71561283592808
 20
-8.273525701420634
 30
0.0
 10
-15.1552693780452
 20
-8.091738414778422
 30
0.0
 10
-16.59482244853568
 20
-7.860332975772744
 30
0.0
 10
-18.03424364823603
 20
-7.580338407513889
 30
0.0
 10
-19.47353779194636
 20
-7.253640853212172
 30
0.0
 10
-20.9126921160364
 20
-6.882240852377346
 30
0.0
 10
-22.35169681724227
 20
-6.468418778483944
 30
0.0
 10
-23.79055906820692
 20
-6.014772149912466
 30
0.0
 10
-25.22928272249041
 20
-5.524077315129727
 30
0.0
 10
-26.66788575579233
 20
-4.999388974127248
 30
0.0
 10
-28.10637475457332
 20
-4.443931449178279
 30
0.0
 10
-29.54476305756474
 20
-3.861130301774998
 30
0.0
 10
-30.98306661668752
 20
-3.2545809495805
 30
0.0
 10
-32.4212980552617
 20
-2.628013384131201
 30
0.0
 10
-33.85947133148718
 20
-1.985281239695408
 30
0.0
 10
-35.29760183442919
 20
-1.330340456261735
 30
0.0
 10
-36.73570217786116
 20
-0.6672173406096537
 30
0.0
 10
-38.17379266998763
 20
-0.0000008554101636
 30
0.0
 10
-39.61187670629105
 20
0.6672276401018739
 30
0.0
 10
-41.04998186992192
 20
1.330340429173044
 30
0.0
 10
-42.48811059747252
 20
1.985283195075183
 30
0.0
 10
-43.92628643794505
 20
2.628017788033967
 30
0.0
 10
-45.36452384299314
 20
3.254580006245637
 30
0.0
 10
-46.80282967213893
 20
3.861132434489292
 30
0.0
 10
-48.24121818278578
 20
4.443933109300936
 30
0.0
 10
-49.67970712922475
 20
4.999390751060535
 30
0.0
 10
-51.11831016621039
 20
5.524079092830532
 30
0.0
 10
-52.55703385713927
 20
6.014773810280733
 30
0.0
 10
-53.99589595959763
 20
6.468420902067156
 30
0.0
 10
-55.43489447648993
 20
6.882239321916943
 30
0.0
 10
-56.87403990107269
 20
7.25364418716515
 30
0.0
 10
-58.31333351087958
 20
7.580348310943684
 30
0.0
 10
-59.75276498852971
 20
7.86031089993611
 30
0.0
 10
-61.19232281489673
 20
8.09178796381699
 30
0.0
 10
-62.63197978379247
 20
8.273359765094655
 30
0.0
 10
-64.07172643240926
 20
8.403852987771074
 30
0.0
 10
-65.51153231979888
 20
8.482484800606345
 30
0.0
 10
-66.9513698460497
 20
8.508753087422574
 30
0.0
 10
-68.391207370182
 20
8.482484800565279
 30
0.0
 10
-69.83101326393948
 20
8.403852987936527
 30
0.0
 10
-71.27075988911155
 20
8.273359764472296
 30
0.0
 10
-72.71041694590749
 20
8.091787966157312
 30
0.0
 10
-74.14996742370566
 20
7.860312019626065
 30
0.0
 10
-75.58939323054367
 20
7.580351173410524
 30
0.0
 10
-76.96324528342775
 20
7.268474486009036
 30
0.0
 10
-77.85461614121091
 20
7.040396116131943
 30
0.0
 10
-78.2681602663712
 20
6.929242400157907
 30
0.0
  0
LINE
  5
469D
330
1F
100
AcDbEntity
  8
AM_0
 48
0.5
100
AcDbLine
 10
-66.95135898280144
 20
8.500000878899854
 30
0.0
 11
-36.51848139064242
 21
8.500000000001458
 31
0.0
  0
VIEWPORT
  5
110
330
101
100
AcDbEntity
 67
     1
  8
0
100
AcDbViewport
 10
420.5
 20
297.0
 30
0.0
 40
948.9782706766916
 41
628.452
 68
     1
 69
     1
1001
ACAD
1000
MVIEW
1002
{
1070
    16
1010
0.0
1020
0.0
1030
0.0
1010
0.0
1020
0.0
1030
1.0
1040
0.0
1040
628.452
1040
420.5
1040
297.0
1040
50.0
1040
0.0
1040
0.0
1070
     0
1070
   100
1070
     1
1070
     1
1070
     0
1070
     0
1070
     0
1070
     0
1040
0.0
1040
0.0
1040
0.0
1040
10.0
1040
10.0
1040
10.0
1040
10.0
1070
     0
1002
{
1002
}
1002
}
  0
ENDSEC
  0
SECTION
  2
OBJECTS
  0
DICTIONARY
  5
C
330
0
100
AcDbDictionary
  3
ACAD_GROUP
350
D
  3
ACAD_LAYOUT
350
1A
  3
ACAD_MLINESTYLE
350
17
  3
ACAD_PLOTSETTINGS
350
19
  3
ACAD_PLOTSTYLENAME
350
E
  3
ACDBVARIABLEDICTIONARY
350
34
  3
ACMDICTIONARY
350
43
  3
AMG
350
2B
  3
AMGSNAPSETTINGS
350
6E
  3
DWGPROPS
350
4738
  3
ACDBHEADERROUNDTRIPXREC
350
4744
  0
DICTIONARY
  5
74
330
1F
100
AcDbDictionary
280
     1
  3
ACAD_INDEX
360
473A
  3
ACAD_LAYOUTSELFREF
360
4767
  0
DICTIONARY
  5
476C
330
101
100
AcDbDictionary
280
     1
  3
ACAD_LAYOUTSELFREF
360
476D
  0
DICTIONARY
  5
D
102
{ACAD_REACTORS
330
C
102
}
330
C
100
AcDbDictionary
  0
DICTIONARY
  5
1A
102
{ACAD_REACTORS
330
C
102
}
330
C
100
AcDbDictionary
  0
DICTIONARY
  5
17
102
{ACAD_REACTORS
330
C
102
}
330
C
100
AcDbDictionary
  3
STANDARD
350
18
  0
DICTIONARY
  5
19
102
{ACAD_REACTORS
330
C
102
}
330
C
100
AcDbDictionary
  0
ACDBDICTIONARYWDFLT
  5
E
102
{ACAD_REACTORS
330
C
102
}
330
C
100
AcDbDictionary
281
     1
  3
Normal
350
F
100
AcDbDictionaryWithDefault
340
F
  0
DICTIONARY
  5
34
102
{ACAD_REACTORS
330
C
102
}
330
C
100
AcDbDictionary
  3
INDEXCTL
350
35
  3
SORTENTS
350
B5E
  0
DICTIONARY
  5
43
102
{ACAD_REACTORS
330
C
102
}
330
C
100
AcDbDictionary
  3
ACMSTDDICTIONARY
350
260
  0
DICTIONARY
  5
2B
102
{ACAD_REACTORS
330
C
102
}
330
C
100
AcDbDictionary
  3
ACMGSETTINGS
350
2C
  0
DICTIONARY
  5
6E
102
{ACAD_REACTORS
330
C
102
}
330
C
100
AcDbDictionary
  0
XRECORD
  5
4738
102
{ACAD_REACTORS
330
C
102
}
330
C
100
AcDbXrecord
  1
DWGPROPS COOKIE
  2

  3

  4

  6

  7

  8

  9

300
AmdtFileType=82
301
=
302
=
303
=
304
=
305
=
306
=
307
=
308
=
309
=
 40
0.1027444791666667
 41
2452800.443498622
 42
2452946.645764792
  1

 90
        1
  0
DICTIONARY
  5
4744
102
{ACAD_REACTORS
330
C
102
}
330
C
100
AcDbDictionary
  3
TSTACKALIGN
350
4745
  3
TSTACKSIZE
350
4746
  3
HYPERLINKBASE
350
4747
  3
STYLESHEET
350
4748
  3
LAYOUTDICT
350
4749
  3
PLOTSETDICT
350
474A
  3
PLOTSTYLNAMDICT
350
474B
  3
LWETCUNION
350
474C
  3
INSUNITS
350
474D
  3
CEPSNTYPE
350
474E
  3
FINGERPRINTGUID
350
474F
  3
VERSIONGUID
350
4750
  3
PSVPSCALE
350
4751
  3
DIMSTYLEDATA
350
4752
  3
PUCSORTHOREF
350
4753
  3
PUCSORTHOVIEW
350
4754
  3
PUCSBASE
350
4755
  3
PUCSORGTOP
350
4756
  3
PUCSORGBOTTOM
350
4757
  3
PUCSORGLEFT
350
4758
  3
PUCSORGRIGHT
350
4759
  3
PUCSORGFRONT
350
475A
  3
PUCSORGBACK
350
475B
  3
UCSORTHOREF
350
475C
  3
UCSORTHOVIEW
350
475D
  3
UCSBASE
350
475E
  3
UCSORGTOP
350
475F
  3
UCSORGBOTTOM
350
4760
  3
UCSORGLEFT
350
4761
  3
UCSORGRIGHT
350
4762
  3
UCSORGFRONT
350
4763
  3
UCSORGBACK
350
4764
  0
DICTIONARY
  5
473A
102
{ACAD_REACTORS
330
74
102
}
330
74
100
AcDbDictionary
  3
*A1
350
473B
  0
XRECORD
  5
4767
102
{ACAD_REACTORS
330
74
102
}
330
74
100
AcDbXrecord
340
1F
  0
XRECORD
  5
476D
102
{ACAD_REACTORS
330
476C
102
}
330
476C
100
AcDbXrecord
340
101
  0
MLINESTYLE
  5
18
102
{ACAD_REACTORS
330
17
102
}
330
17
100
AcDbMlineStyle
  2
STANDARD
 70
     0
  3

 62
   256
 51
90.0
 52
90.0
 71
     2
 49
0.5
 62
   256
  6
BYLAYER
 49
-0.5
 62
   256
  6
BYLAYER
  0
ACDBPLACEHOLDER
  5
F
102
{ACAD_REACTORS
330
E
102
}
330
E
100
AcDbPlaceHolder
280
     0
  0
DICTIONARYVAR
  5
35
102
{ACAD_REACTORS
330
34
102
}
330
34
100
DictionaryVariables
280
     0
  1
1
  0
DICTIONARYVAR
  5
B5E
102
{ACAD_REACTORS
330
34
102
}
330
34
100
DictionaryVariables
280
     0
  1
96
  0
DICTIONARY
  5
260
102
{ACAD_REACTORS
330
43
102
}
330
43
100
AcDbDictionary
  0
DICTIONARY
  5
2C
102
{ACAD_REACTORS
330
2B
102
}
330
2B
100
AcDbDictionary
  3
DWGSETTINGS
350
2D
  0
XRECORD
  5
4745
102
{ACAD_REACTORS
330
4744
102
}
330
4744
100
AcDbXrecord
 90
        1
  0
XRECORD
  5
4746
102
{ACAD_REACTORS
330
4744
102
}
330
4744
100
AcDbXrecord
 90
       70
  0
XRECORD
  5
4747
102
{ACAD_REACTORS
330
4744
102
}
330
4744
100
AcDbXrecord
  1

  0
XRECORD
  5
4748
102
{ACAD_REACTORS
330
4744
102
}
330
4744
100
AcDbXrecord
  1
ASAMI.ctb
  0
XRECORD
  5
4749
102
{ACAD_REACTORS
330
4744
102
}
330
4744
100
AcDbXrecord
340
1A
  0
XRECORD
  5
474A
102
{ACAD_REACTORS
330
4744
102
}
330
4744
100
AcDbXrecord
340
19
  0
XRECORD
  5
474B
102
{ACAD_REACTORS
330
4744
102
}
330
4744
100
AcDbXrecord
340
E
  0
XRECORD
  5
474C
102
{ACAD_REACTORS
330
4744
102
}
330
4744
100
AcDbXrecord
 90
    10781
  0
XRECORD
  5
474D
102
{ACAD_REACTORS
330
4744
102
}
330
4744
100
AcDbXrecord
 90
        4
  0
XRECORD
  5
474E
102
{ACAD_REACTORS
330
4744
102
}
330
4744
100
AcDbXrecord
 90
        0
  0
XRECORD
  5
474F
102
{ACAD_REACTORS
330
4744
102
}
330
4744
100
AcDbXrecord
  1
{AFB28963-8C59-40AE-9337-C84526B81ACE}
  0
XRECORD
  5
4750
102
{ACAD_REACTORS
330
4744
102
}
330
4744
100
AcDbXrecord
  1
{BF91476B-F5B3-4F7A-800F-6A4ABC3C3FE4}
  0
XRECORD
  5
4751
102
{ACAD_REACTORS
330
4744
102
}
330
4744
100
AcDbXrecord
 40
0.0
  0
XRECORD
  5
4752
102
{ACAD_REACTORS
330
4744
102
}
330
4744
100
AcDbXrecord
1000
DSTYLE
1002
{
1070
    79
 70
     2
1070
   341
340
59
1070
   342
340
59
1070
   371
 70
    -1
1070
   372
 70
    -1
1002
}
  0
XRECORD
  5
4753
102
{ACAD_REACTORS
330
4744
102
}
330
4744
100
AcDbXrecord
340
0
  0
XRECORD
  5
4754
102
{ACAD_REACTORS
330
4744
102
}
330
4744
100
AcDbXrecord
 70
     0
  0
XRECORD
  5
4755
102
{ACAD_REACTORS
330
4744
102
}
330
4744
100
AcDbXrecord
340
0
  0
XRECORD
  5
4756
102
{ACAD_REACTORS
330
4744
102
}
330
4744
100
AcDbXrecord
 10
0.0
 20
0.0
 30
0.0
  0
XRECORD
  5
4757
102
{ACAD_REACTORS
330
4744
102
}
330
4744
100
AcDbXrecord
 10
0.0
 20
0.0
 30
0.0
  0
XRECORD
  5
4758
102
{ACAD_REACTORS
330
4744
102
}
330
4744
100
AcDbXrecord
 10
0.0
 20
0.0
 30
0.0
  0
XRECORD
  5
4759
102
{ACAD_REACTORS
330
4744
102
}
330
4744
100
AcDbXrecord
 10
0.0
 20
0.0
 30
0.0
  0
XRECORD
  5
475A
102
{ACAD_REACTORS
330
4744
102
}
330
4744
100
AcDbXrecord
 10
0.0
 20
0.0
 30
0.0
  0
XRECORD
  5
475B
102
{ACAD_REACTORS
330
4744
102
}
330
4744
100
AcDbXrecord
 10
0.0
 20
0.0
 30
0.0
  0
XRECORD
  5
475C
102
{ACAD_REACTORS
330
4744
102
}
330
4744
100
AcDbXrecord
340
0
  0
XRECORD
  5
475D
102
{ACAD_REACTORS
330
4744
102
}
330
4744
100
AcDbXrecord
 70
     0
  0
XRECORD
  5
475E
102
{ACAD_REACTORS
330
4744
102
}
330
4744
100
AcDbXrecord
340
0
  0
XRECORD
  5
475F
102
{ACAD_REACTORS
330
4744
102
}
330
4744
100
AcDbXrecord
 10
0.0
 20
0.0
 30
0.0
  0
XRECORD
  5
4760
102
{ACAD_REACTORS
330
4744
102
}
330
4744
100
AcDbXrecord
 10
0.0
 20
0.0
 30
0.0
  0
XRECORD
  5
4761
102
{ACAD_REACTORS
330
4744
102
}
330
4744
100
AcDbXrecord
 10
0.0
 20
0.0
 30
0.0
  0
XRECORD
  5
4762
102
{ACAD_REACTORS
330
4744
102
}
330
4744
100
AcDbXrecord
 10
0.0
 20
0.0
 30
0.0
  0
XRECORD
  5
4763
102
{ACAD_REACTORS
330
4744
102
}
330
4744
100
AcDbXrecord
 10
0.0
 20
0.0
 30
0.0
  0
XRECORD
  5
4764
102
{ACAD_REACTORS
330
4744
102
}
330
4744
100
AcDbXrecord
 10
0.0
 20
0.0
 30
0.0
  0
LAYER_INDEX
  5
473B
102
{ACAD_REACTORS
330
473A
102
}
330
473A
100
AcDbIndex
 40
2453151.567017673
100
AcDbLayerIndex
  8
0
360
473C
 90
        0
  8
AM_0
360
473D
 90
       38
  8
AM_7
360
473E
 90
        1
  8
AM_11
360
473F
 90
       15
  8
AM_5
360
4740
 90
        5
  8
Defpoints
360
4741
 90
        0
  8
AM_6
360
4742
 90
        1
  0
XRECORD
  5
2D
102
{ACAD_REACTORS
330
2C
102
}
330
2C
100
AcDbXrecord
  1
VERSION
140
15.0
  1
PRODUCT
  2
AutoCAD Mechanical 2000
  0
IDBUFFER
  5
473C
330
0
100
AcDbIdBuffer
  0
IDBUFFER
  5
473D
330
0
100
AcDbIdBuffer
330
4627
330
4628
330
4629
330
462A
330
4688
330
4689
330
468A
330
468C
330
468D
330
468E
330
468F
330
4690
330
4691
330
4692
330
4694
330
4695
330
4697
330
4698
330
4699
330
469B
330
469C
330
469D
330
C1D
330
C20
330
24A7
330
24BE
330
324C
330
325C
330
325D
330
325E
330
3921
330
3924
330
4071
330
4072
330
461B
330
461F
330
4625
330
4626
  0
IDBUFFER
  5
473E
330
0
100
AcDbIdBuffer
330
23EF
  0
IDBUFFER
  5
473F
330
0
100
AcDbIdBuffer
330
24B7
330
24B8
330
24B9
330
24C7
330
24C8
330
24D4
330
24D5
330
24E6
330
24E7
330
2BF3
330
2BF5
330
468B
330
4693
330
4696
330
469A
  0
IDBUFFER
  5
4740
330
0
100
AcDbIdBuffer
330
CC6
330
2069
330
2D60
330
3C5B
330
409D
  0
IDBUFFER
  5
4741
330
0
100
AcDbIdBuffer
  0
IDBUFFER
  5
4742
330
0
100
AcDbIdBuffer
330
19BD
  0
ENDSEC
  0
EOF
