  0
SECTION
  2
HEADER
  9
$ACADVER
  1
AC1014
  9
$ACADMAINTVER
 70
     9
  9
$DWGCODEPAGE
  3
ANSI_932
  9
$INSBASE
 10
0.0
 20
0.0
 30
0.0
  9
$EXTMIN
 10
-246.3000010000004
 20
-56.00001416295836
 30
-0.00000001
  9
$EXTMAX
 10
27.2254467032232
 20
26.52324398540504
 30
0.00000001
  9
$LIMMIN
 10
-263.2106362055951
 20
-81.16314662888504
  9
$LIMMAX
 10
42.00575145316952
 20
65.22988769117273
  9
$ORTHOMODE
 70
     0
  9
$REGENMODE
 70
     1
  9
$FILLMODE
 70
     1
  9
$QTEXTMODE
 70
     0
  9
$MIRRTEXT
 70
     0
  9
$DRAGMODE
 70
     2
  9
$LTSCALE
 40
1.0
  9
$OSMODE
 70
    55
  9
$ATTMODE
 70
     1
  9
$TEXTSIZE
 40
2.5
  9
$TRACEWID
 40
1.0
  9
$TEXTSTYLE
  7
STANDARD
  9
$CLAYER
  8
AM_0
  9
$CELTYPE
  6
BYLAYER
  9
$CECOLOR
 62
   256
  9
$CELTSCALE
 40
1.0
  9
$DELOBJ
 70
     1
  9
$DISPSILH
 70
     0
  9
$DIMSCALE
 40
1.0
  9
$DIMASZ
 40
2.5
  9
$DIMEXO
 40
1.0
  9
$DIMDLI
 40
12.0
  9
$DIMRND
 40
0.0
  9
$DIMDLE
 40
0.0
  9
$DIMEXE
 40
1.0
  9
$DIMTP
 40
0.1
  9
$DIMTM
 40
0.1
  9
$DIMTXT
 40
3.2
  9
$DIMCEN
 40
0.0
  9
$DIMTSZ
 40
0.0
  9
$DIMTOL
 70
     0
  9
$DIMLIM
 70
     0
  9
$DIMTIH
 70
     0
  9
$DIMTOH
 70
     0
  9
$DIMSE1
 70
     0
  9
$DIMSE2
 70
     0
  9
$DIMTAD
 70
     3
  9
$DIMZIN
 70
     8
  9
$DIMBLK
  1
OPEN30
  9
$DIMASO
 70
     1
  9
$DIMSHO
 70
     1
  9
$DIMPOST
  1

  9
$DIMAPOST
  1
"
  9
$DIMALT
 70
     0
  9
$DIMALTD
 70
     2
  9
$DIMALTF
 40
0.0393701
  9
$DIMLFAC
 40
1.0
  9
$DIMTOFL
 70
     1
  9
$DIMTVP
 40
0.0
  9
$DIMTIX
 70
     0
  9
$DIMSOXD
 70
     0
  9
$DIMSAH
 70
     0
  9
$DIMBLK1
  1

  9
$DIMBLK2
  1

  9
$DIMSTYLE
  2
AM_JIS
  9
$DIMCLRD
 70
   256
  9
$DIMCLRE
 70
   256
  9
$DIMCLRT
 70
     2
  9
$DIMTFAC
 40
0.71
  9
$DIMGAP
 40
1.5
  9
$DIMJUST
 70
     0
  9
$DIMSD1
 70
     0
  9
$DIMSD2
 70
     0
  9
$DIMTOLJ
 70
     0
  9
$DIMTZIN
 70
     0
  9
$DIMALTZ
 70
     0
  9
$DIMALTTZ
 70
     0
  9
$DIMFIT
 70
     3
  9
$DIMUPT
 70
     0
  9
$DIMUNIT
 70
     2
  9
$DIMDEC
 70
     3
  9
$DIMTDEC
 70
     3
  9
$DIMALTU
 70
     2
  9
$DIMALTTD
 70
     2
  9
$DIMTXSTY
  7
ASAMI
  9
$DIMAUNIT
 70
     0
  9
$LUNITS
 70
     2
  9
$LUPREC
 70
     2
  9
$SKETCHINC
 40
1.0
  9
$FILLETRAD
 40
2.5
  9
$AUNITS
 70
     0
  9
$AUPREC
 70
     0
  9
$MENU
  1
.
  9
$ELEVATION
 40
0.0
  9
$PELEVATION
 40
0.0
  9
$THICKNESS
 40
0.0
  9
$LIMCHECK
 70
     0
  9
$BLIPMODE
 70
     0
  9
$CHAMFERA
 40
0.5
  9
$CHAMFERB
 40
0.5
  9
$CHAMFERC
 40
20.0
  9
$CHAMFERD
 40
0.0
  9
$SKPOLY
 70
     0
  9
$TDCREATE
 40
2452800.443498622
  9
$TDUPDATE
 40
2453151.673649977
  9
$TDINDWG
 40
0.1400681713
  9
$TDUSRTIMER
 40
0.1400681713
  9
$USRTIMER
 70
     1
  9
$ANGBASE
 50
0.0
  9
$ANGDIR
 70
     0
  9
$PDMODE
 70
     3
  9
$PDSIZE
 40
0.0
  9
$PLINEWID
 40
0.0
  9
$COORDS
 70
     1
  9
$SPLFRAME
 70
     0
  9
$SPLINETYPE
 70
     6
  9
$SPLINESEGS
 70
     8
  9
$ATTDIA
 70
     1
  9
$ATTREQ
 70
     1
  9
$HANDLING
 70
 12289
  9
$HANDSEED
  5
5D87
  9
$SURFTAB1
 70
     6
  9
$SURFTAB2
 70
     6
  9
$SURFTYPE
 70
     6
  9
$SURFU
 70
     6
  9
$SURFV
 70
     6
  9
$UCSNAME
  2

  9
$UCSORG
 10
0.0
 20
0.0
 30
0.0
  9
$UCSXDIR
 10
1.0
 20
0.0000000000000027
 30
0.0
  9
$UCSYDIR
 10
-0.0000000000000027
 20
1.0
 30
0.0
  9
$PUCSNAME
  2

  9
$PUCSORG
 10
0.0
 20
0.0
 30
0.0
  9
$PUCSXDIR
 10
1.0
 20
0.0
 30
0.0
  9
$PUCSYDIR
 10
0.0
 20
1.0
 30
0.0
  9
$USERI1
 70
     0
  9
$USERI2
 70
     0
  9
$USERI3
 70
     0
  9
$USERI4
 70
     0
  9
$USERI5
 70
     0
  9
$USERR1
 40
0.0
  9
$USERR2
 40
0.0
  9
$USERR3
 40
0.0
  9
$USERR4
 40
0.0
  9
$USERR5
 40
0.0
  9
$WORLDVIEW
 70
     1
  9
$SHADEDGE
 70
     3
  9
$SHADEDIF
 70
    70
  9
$TILEMODE
 70
     1
  9
$MAXACTVP
 70
    64
  9
$PINSBASE
 10
0.0
 20
0.0
 30
0.0
  9
$PLIMCHECK
 70
     0
  9
$PEXTMIN
 10
1.000000000000000E+20
 20
1.000000000000000E+20
 30
1.000000000000000E+20
  9
$PEXTMAX
 10
-1.000000000000000E+20
 20
-1.000000000000000E+20
 30
-1.000000000000000E+20
  9
$PLIMMIN
 10
0.0
 20
0.0
  9
$PLIMMAX
 10
841.0
 20
594.0
  9
$UNITMODE
 70
     0
  9
$VISRETAIN
 70
     1
  9
$PLINEGEN
 70
     0
  9
$PSLTSCALE
 70
     0
  9
$TREEDEPTH
 70
  3020
  9
$PICKSTYLE
 70
     0
  9
$CMLSTYLE
  2
STANDARD
  9
$CMLJUST
 70
     0
  9
$CMLSCALE
 40
20.0
  9
$PROXYGRAPHICS
 70
     1
  9
$MEASUREMENT
 70
     1
  0
ENDSEC
  0
SECTION
  2
CLASSES
  0
CLASS
  1
ACDBDICTIONARYWDFLT
  2
AcDbDictionaryWithDefault
  3
AutoCAD 2000
 90
        0
280
     0
281
     0
  0
CLASS
  1
ACDBPLACEHOLDER
  2
AcDbPlaceHolder
  3
AutoCAD 2000
 90
        0
280
     0
281
     0
  0
CLASS
  1
LAYOUT
  2
AcDbLayout
  3
AutoCAD 2000
 90
        0
280
     0
281
     0
  0
CLASS
  1
AMGSETTINGSOBJ
  2
AmgSettingsObj
  3
"AcadM|Product Description: AutoCAD Mechanical 2000|Company: Autodesk"
 90
        0
280
     0
281
     0
  0
CLASS
  1
ACME_DOCUMENT
  2
AcMeDbDoc
  3
AcMeServices
 90
        0
280
     0
281
     0
  0
CLASS
  1
ACMESCOPE
  2
AcMeScope
  3
AcMeServices
 90
        0
280
     0
281
     0
  0
CLASS
  1
ACMECOMMANDHISTORY
  2
AcMeCommandHistory
  3
AcMeServices
 90
        0
280
     0
281
     0
  0
CLASS
  1
DICTIONARYVAR
  2
AcDbDictionaryVar
  3
AutoCAD 2000
 90
        0
280
     0
281
     0
  0
CLASS
  1
ACIMSYSVARMAN
  2
AcImSysVarManager
  3
AcMeServices
 90
        0
280
     0
281
     0
  0
CLASS
  1
ACIMREALSYSVAR
  2
AcImRealSysVar
  3
AcMeServices
 90
        0
280
     0
281
     0
  0
CLASS
  1
ACIMINTSYSVAR
  2
AcImIntSysVar
  3
AcMeServices
 90
        0
280
     0
281
     0
  0
CLASS
  1
ACMEDRAWINGMAN
  2
AcMeDrawingMan
  3
AcMeServices
 90
        0
280
     0
281
     0
  0
CLASS
  1
ACMEVIEW
  2
AcMeView
  3
AcMeServices
 90
        0
280
     0
281
     0
  0
CLASS
  1
ACDBENTITYCACHE
  2
AcMeEntityCache
  3
AcMeServices
 90
        0
280
     0
281
     0
  0
CLASS
  1
GSMANAGER
  2
AcMeGSManager
  3
AcMeServices
 90
        0
280
     0
281
     0
  0
CLASS
  1
AmdtInternalReactor
  2
AmdtInternalReactor
  3
AcMeServices
 90
        0
280
     0
281
     0
  0
CLASS
  1
ACMESTATEMGR
  2
AcMeStateMgr
  3
AcMeServices
 90
        0
280
     0
281
     0
  0
CLASS
  1
ACME_DATABASE
  2
AcMeDbDatabase
  3
AcMeServices
 90
        0
280
     0
281
     0
  0
CLASS
  1
ACRFINSADJUSTERMGR
  2
AcRfInsAdjusterMgr
  3
AcMeServices
 90
        0
280
     0
281
     0
  0
CLASS
  1
ACMDATADICTIONARY
  2
AcmDataDictionary
  3
"AcmSymBB|Product Description: AutoCAD Mechanical 2000|Company: Autodesk"
 90
        0
280
     0
281
     0
  0
CLASS
  1
ACMDATAENTRYBLOCK
  2
AcmDataEntryBlock
  3
"AcmSymBB|Product Description: AutoCAD Mechanical 2000|Company: Autodesk"
 90
        0
280
     0
281
     0
  0
CLASS
  1
AMGOBJPROPCFG
  2
AmgObjPropCfg
  3
"AmgLay|Product Description: AutoCAD Mechanical 2000|Company: Autodesk"
 90
        1
280
     0
281
     0
  0
CLASS
  1
ACAMGFILTERDAT
  2
AcAmgFilterDat
  3
"AcadM|Product Description: AutoCAD Mechanical 2000|Company: Autodesk"
 90
        0
280
     0
281
     0
  0
CLASS
  1
LAYER_INDEX
  2
AcDbLayerIndex
  3
AutoCAD 2000
 90
        0
280
     0
281
     0
  0
CLASS
  1
IDBUFFER
  2
AcDbIdBuffer
  3
AutoCAD 2000
 90
        0
280
     0
281
     0
  0
CLASS
  1
ACIMSTRSYSVAR
  2
AcImStrSysVar
  3
AcMeServices
 90
        0
280
     0
281
     0
  0
CLASS
  1
ACMSTANDARDJIS
  2
AcmStandardJIS
  3
"AcmSymBB|Product Description: AutoCAD Mechanical 2000|Company: Autodesk"
 90
        0
280
     0
281
     0
  0
CLASS
  1
ACMSURFSTANDARDJIS
  2
AcmSurfTextStdJIS
  3
"AcmSymBB|Product Description: AutoCAD Mechanical 2000|Company: Autodesk"
 90
        0
280
     0
281
     0
  0
CLASS
  1
ACMFCFSTANDARDJIS
  2
AcmFCFStdJIS
  3
"AcmSymBB|Product Description: AutoCAD Mechanical 2000|Company: Autodesk"
 90
        0
280
     0
281
     0
  0
CLASS
  1
ACMWELDSTANDARDJIS
  2
AcmWeldingStdJIS
  3
"AcmSymBB|Product Description: AutoCAD Mechanical 2000|Company: Autodesk"
 90
        0
280
     0
281
     0
  0
CLASS
  1
ACMIDSTANDARDJIS
  2
AcmIdStdJIS
  3
"AcmSymBB|Product Description: AutoCAD Mechanical 2000|Company: Autodesk"
 90
        0
280
     0
281
     0
  0
CLASS
  1
ACMDATUMSTANDARDJIS
  2
AcmDatumStdJIS
  3
"AcmSymBB|Product Description: AutoCAD Mechanical 2000|Company: Autodesk"
 90
        0
280
     0
281
     0
  0
CLASS
  1
ACMBOMSTANDARDJIS
  2
AcmBOMStdJIS
  3
"AcmSymBB|Product Description: AutoCAD Mechanical 2000|Company: Autodesk"
 90
        0
280
     0
281
     0
  0
CLASS
  1
ACMSTANDARDANSI
  2
AcmStandardANSI
  3
"AcmSymBB|Product Description: AutoCAD Mechanical 2000|Company: Autodesk"
 90
        0
280
     0
281
     0
  0
CLASS
  1
ACMSURFSTANDARDANSI
  2
AcmSurfTextStdANSI
  3
"AcmSymBB|Product Description: AutoCAD Mechanical 2000|Company: Autodesk"
 90
        0
280
     0
281
     0
  0
CLASS
  1
ACMFCFSTANDARDANSI
  2
AcmFCFStdANSI
  3
"AcmSymBB|Product Description: AutoCAD Mechanical 2000|Company: Autodesk"
 90
        0
280
     0
281
     0
  0
CLASS
  1
ACMWELDSTANDARDANSI
  2
AcmWeldingStdANSI
  3
"AcmSymBB|Product Description: AutoCAD Mechanical 2000|Company: Autodesk"
 90
        0
280
     0
281
     0
  0
CLASS
  1
ACMIDSTANDARDANSI
  2
AcmIdStdANSI
  3
"AcmSymBB|Product Description: AutoCAD Mechanical 2000|Company: Autodesk"
 90
        0
280
     0
281
     0
  0
CLASS
  1
ACMDATUMSTANDARDANSI
  2
AcmDatumStdANSI
  3
"AcmSymBB|Product Description: AutoCAD Mechanical 2000|Company: Autodesk"
 90
        0
280
     0
281
     0
  0
CLASS
  1
ACMBOMSTANDARDANSI
  2
AcmBOMStdANSI
  3
"AcmSymBB|Product Description: AutoCAD Mechanical 2000|Company: Autodesk"
 90
        0
280
     0
281
     0
  0
CLASS
  1
ACMSTANDARDBSI
  2
AcmStandardBSI
  3
"AcmSymBB|Product Description: AutoCAD Mechanical 2000|Company: Autodesk"
 90
        0
280
     0
281
     0
  0
CLASS
  1
ACMSURFSTANDARDBSI
  2
AcmSurfTextStdBSI
  3
"AcmSymBB|Product Description: AutoCAD Mechanical 2000|Company: Autodesk"
 90
        0
280
     0
281
     0
  0
CLASS
  1
ACMFCFSTANDARDBSI
  2
AcmFCFStdBSI
  3
"AcmSymBB|Product Description: AutoCAD Mechanical 2000|Company: Autodesk"
 90
        0
280
     0
281
     0
  0
CLASS
  1
ACMWELDSTANDARDBSI
  2
AcmWeldingStdBSI
  3
"AcmSymBB|Product Description: AutoCAD Mechanical 2000|Company: Autodesk"
 90
        0
280
     0
281
     0
  0
CLASS
  1
ACMIDSTANDARDBSI
  2
AcmIdStdBSI
  3
"AcmSymBB|Product Description: AutoCAD Mechanical 2000|Company: Autodesk"
 90
        0
280
     0
281
     0
  0
CLASS
  1
ACMDATUMSTANDARDBSI
  2
AcmDatumStdBSI
  3
"AcmSymBB|Product Description: AutoCAD Mechanical 2000|Company: Autodesk"
 90
        0
280
     0
281
     0
  0
CLASS
  1
ACMBOMSTANDARDBSI
  2
AcmBOMStdBSI
  3
"AcmSymBB|Product Description: AutoCAD Mechanical 2000|Company: Autodesk"
 90
        0
280
     0
281
     0
  0
CLASS
  1
LONG_TRANSACTION
  2
AcDbLongTransaction
  3
AutoCAD 2000
 90
        0
280
     0
281
     0
  0
CLASS
  1
LWPOLYLINE
  2
AcDbPolyline
  3
AutoCAD 2000
 90
        0
280
     0
281
     1
  0
CLASS
  1
HATCH
  2
AcDbHatch
  3
AutoCAD 2000
 90
        0
280
     0
281
     1
  0
CLASS
  1
XRECORD
  2
AcDbXrecord
  3
AutoCAD 2000
 90
        0
280
     0
281
     0
  0
ENDSEC
  0
SECTION
  2
TABLES
  0
TABLE
  2
VPORT
  5
8
330
0
100
AcDbSymbolTable
 70
     3
  0
VPORT
  5
5D51
330
8
100
AcDbSymbolTableRecord
100
AcDbViewportTableRecord
  2
*ACTIVE
 70
     0
 10
0.0
 20
0.0
 11
1.0
 21
1.0
 12
-104.4742917832941
 22
-14.73498384154228
 13
0.0
 23
0.0
 14
2.5
 24
2.5
 15
10.0
 25
10.0
 16
0.0
 26
0.0
 36
1.0
 17
0.0
 27
0.0
 37
0.0
 40
182.051867384654
 41
1.56570841889117
 42
50.0
 43
0.0
 44
0.0
 50
0.0
 51
0.0
 71
     0
 72
   100
 73
     1
 74
     1
 75
     0
 76
     0
 77
     0
 78
     0
  0
ENDTAB
  0
TABLE
  2
LTYPE
  5
5
330
0
100
AcDbSymbolTable
 70
    10
  0
LTYPE
  5
14
330
5
100
AcDbSymbolTableRecord
100
AcDbLinetypeTableRecord
  2
BYBLOCK
 70
     0
  3

 72
    65
 73
     0
 40
0.0
  0
LTYPE
  5
15
330
5
100
AcDbSymbolTableRecord
100
AcDbLinetypeTableRecord
  2
BYLAYER
 70
     0
  3

 72
    65
 73
     0
 40
0.0
  0
LTYPE
  5
16
330
5
100
AcDbSymbolTableRecord
100
AcDbLinetypeTableRecord
  2
CONTINUOUS
 70
     0
  3
Solid line
 72
    65
 73
     0
 40
0.0
  0
LTYPE
  5
4B
330
5
100
AcDbSymbolTableRecord
100
AcDbLinetypeTableRecord
  2
AM_ISO02W050
 70
     0
  3
__ __ __ __ __ __ __ __ __ __ __ __ __ __ __
 72
    65
 73
     2
 40
7.5
 49
6.0
 74
     0
 49
-1.5
 74
     0
  0
LTYPE
  5
4C
330
5
100
AcDbSymbolTableRecord
100
AcDbLinetypeTableRecord
  2
AM_ISO08W050
 70
     0
  3
____ . ____ . ____ . ____ . ____ . ____ . ____
 72
    65
 73
     4
 40
18.0
 49
12.0
 74
     0
 49
-1.5
 74
     0
 49
3.0
 74
     0
 49
-1.5
 74
     0
  0
LTYPE
  5
4D
330
5
100
AcDbSymbolTableRecord
100
AcDbLinetypeTableRecord
  2
AM_ISO09W050
 70
     0
  3
_____ . . _____ . . _____ . . ____ .. ____
 72
    65
 73
     6
 40
22.5
 49
12.0
 74
     0
 49
-1.5
 74
     0
 49
3.0
 74
     0
 49
-1.5
 74
     0
 49
3.0
 74
     0
 49
-1.5
 74
     0
  0
LTYPE
  5
4E
330
5
100
AcDbSymbolTableRecord
100
AcDbLinetypeTableRecord
  2
AMCONSTR
 70
     0
  3
_______________________
 72
    65
 73
     2
 40
9999.0
 49
9999.0
 74
     0
 49
0.0
 74
     0
  0
LTYPE
  5
4F
330
5
100
AcDbSymbolTableRecord
100
AcDbLinetypeTableRecord
  2
AM_ISO02W050X2
 70
     0
  3
 _ _ _ _ _ _ _ _ _ _ _ _
 72
    65
 73
     2
 40
3.75
 49
3.0
 74
     0
 49
-0.75
 74
     0
  0
LTYPE
  5
50
330
5
100
AcDbSymbolTableRecord
100
AcDbLinetypeTableRecord
  2
AM_ISO08W050X2
 70
     0
  3
__ . __ . __ . __ . __ . __
 72
    65
 73
     4
 40
9.0
 49
6.0
 74
     0
 49
-0.75
 74
     0
 49
1.5
 74
     0
 49
-0.75
 74
     0
  0
LTYPE
  5
53
330
5
100
AcDbSymbolTableRecord
100
AcDbLinetypeTableRecord
  2
AMZIGZAG
 70
     0
  3
/\/-/\/-/\/-/\/-/\/-/\/
 72
    65
 73
     2
 40
11.00009999999999
 49
0.0001
 74
     4
 75
   135
340
52
 46
0.04
 50
0.0
 44
0.0
 45
0.0
 49
-11.0
 74
     0
  0
LTYPE
  5
166
330
5
100
AcDbSymbolTableRecord
100
AcDbLinetypeTableRecord
  2
ACJISTGL
 70
     0
  3
_ _ _ _ _
 72
    65
 73
     2
 40
3.0
 49
2.0
 74
     0
 49
-1.0
 74
     0
  0
LTYPE
  5
26A
330
5
100
AcDbSymbolTableRecord
100
AcDbLinetypeTableRecord
  2
ACJISTGB
 70
     0
  3
__ . . __ . .
 72
    65
 73
     6
 40
9.0
 49
4.0
 74
     0
 49
-1.0
 74
     0
 49
1.0
 74
     0
 49
-1.0
 74
     0
 49
1.0
 74
     0
 49
-1.0
 74
     0
  0
ENDTAB
  0
TABLE
  2
LAYER
  5
2
330
0
100
AcDbSymbolTable
 70
     8
  0
LAYER
  5
10
330
2
100
AcDbSymbolTableRecord
100
AcDbLayerTableRecord
  2
0
 70
     0
 62
     7
  6
CONTINUOUS
  0
LAYER
  5
3F9
330
2
100
AcDbSymbolTableRecord
100
AcDbLayerTableRecord
  2
AM_0
 70
     0
 62
     7
  6
CONTINUOUS
  0
LAYER
  5
C7C
330
2
100
AcDbSymbolTableRecord
100
AcDbLayerTableRecord
  2
AM_7
 70
     0
 62
     4
  6
AM_ISO08W050
  0
LAYER
  5
C97
330
2
100
AcDbSymbolTableRecord
100
AcDbLayerTableRecord
  2
AM_11
 70
     0
 62
     3
  6
AM_ISO09W050
  0
LAYER
  5
CC5
330
2
100
AcDbSymbolTableRecord
100
AcDbLayerTableRecord
  2
AM_5
 70
     0
 62
     3
  6
CONTINUOUS
  0
LAYER
  5
CC7
330
2
100
AcDbSymbolTableRecord
100
AcDbLayerTableRecord
  2
DEFPOINTS
 70
     0
 62
     7
  6
CONTINUOUS
  0
LAYER
  5
19BC
330
2
100
AcDbSymbolTableRecord
100
AcDbLayerTableRecord
  2
AM_6
 70
     0
 62
     2
  6
CONTINUOUS
  0
LAYER
  5
58D3
330
2
100
AcDbSymbolTableRecord
100
AcDbLayerTableRecord
  2
AM_CL
 70
     0
 62
     1
  6
AMCONSTR
  0
ENDTAB
  0
TABLE
  2
STYLE
  5
3
330
0
100
AcDbSymbolTable
 70
     5
  0
STYLE
  5
11
330
3
100
AcDbSymbolTableRecord
100
AcDbTextStyleTableRecord
  2
STANDARD
 70
     0
 40
0.0
 41
1.0
 50
0.0
 71
     0
 42
2.5
  3
simplex.shx
  4
EXTFONT.SHX
  0
STYLE
  5
52
330
3
100
AcDbSymbolTableRecord
100
AcDbTextStyleTableRecord
  2

 70
     1
 40
0.0
 41
1.0
 50
0.0
 71
     0
 42
2.5
  3
ltypeshp.shx
  4

  0
STYLE
  5
6B
330
3
100
AcDbSymbolTableRecord
100
AcDbTextStyleTableRecord
  2
ASAMI
 70
     0
 40
0.0
 41
1.0
 50
0.0
 71
     0
 42
2.5
  3
simplex.shx
  4
EXTFONT.SHX
  0
STYLE
  5
262
330
3
100
AcDbSymbolTableRecord
100
AcDbTextStyleTableRecord
  2
ACJISTS
 70
     0
 40
1.0
 41
1.0
 50
0.0
 71
     0
 42
2.5
  3
simplex.shx
  4
bigfont.shx
  0
STYLE
  5
269
330
3
100
AcDbSymbolTableRecord
100
AcDbTextStyleTableRecord
  2
ACJISGDT
 70
     0
 40
0.0
 41
1.0
 50
0.0
 71
     0
 42
2.5
  3
amgdtans.shx
  4

  0
ENDTAB
  0
TABLE
  2
VIEW
  5
6
330
0
100
AcDbSymbolTable
 70
     0
  0
ENDTAB
  0
TABLE
  2
UCS
  5
7
330
0
100
AcDbSymbolTable
 70
     0
  0
ENDTAB
  0
TABLE
  2
APPID
  5
9
330
0
100
AcDbSymbolTable
 70
    16
  0
APPID
  5
12
330
9
100
AcDbSymbolTableRecord
100
AcDbRegAppTableRecord
  2
ACAD
 70
     0
  0
APPID
  5
30
330
9
100
AcDbSymbolTableRecord
100
AcDbRegAppTableRecord
  2
MCAD_NO_VIS
 70
     0
  0
APPID
  5
31
330
9
100
AcDbSymbolTableRecord
100
AcDbRegAppTableRecord
  2
ACAD_TEMP_GRAPHIC
 70
     0
  0
APPID
  5
2C2
330
9
100
AcDbSymbolTableRecord
100
AcDbRegAppTableRecord
  2
GENIUS_GENDTOL_13
 70
     0
  0
APPID
  5
339
330
9
100
AcDbSymbolTableRecord
100
AcDbRegAppTableRecord
  2
GENIUS_GENODEF_13
 70
     0
  0
APPID
  5
33A
330
9
100
AcDbSymbolTableRecord
100
AcDbRegAppTableRecord
  2
GENIUS_GENOBJ-N-RSBK_13
 70
     0
  0
APPID
  5
33B
330
9
100
AcDbSymbolTableRecord
100
AcDbRegAppTableRecord
  2
GENIUS_GENOBJ-N-LIB_13
 70
     0
  0
APPID
  5
33C
330
9
100
AcDbSymbolTableRecord
100
AcDbRegAppTableRecord
  2
GENIUS_GENSCALE_13
 70
     0
  0
APPID
  5
378
330
9
100
AcDbSymbolTableRecord
100
AcDbRegAppTableRecord
  2
GENIUS_GENDIMSH_14
 70
     0
  0
APPID
  5
C82
330
9
100
AcDbSymbolTableRecord
100
AcDbRegAppTableRecord
  2
GENIUS_GENOBJ-N-CRS_13
 70
     0
  0
APPID
  5
C83
330
9
100
AcDbSymbolTableRecord
100
AcDbRegAppTableRecord
  2
GENIUS_GENOENT_13
 70
     0
  0
APPID
  5
C84
330
9
100
AcDbSymbolTableRecord
100
AcDbRegAppTableRecord
  2
GENIUS_GENOREF_13
 70
     0
  0
APPID
  5
C85
330
9
100
AcDbSymbolTableRecord
100
AcDbRegAppTableRecord
  2
GENIUS_GENOLIS_13
 70
     0
  0
APPID
  5
CA0
330
9
100
AcDbSymbolTableRecord
100
AcDbRegAppTableRecord
  2
GENIUS_GENOBJ-N-CEN_13
 70
     0
  0
APPID
  5
1E1E
330
9
100
AcDbSymbolTableRecord
100
AcDbRegAppTableRecord
  2
GENIUS_GENFIL_13
 70
     0
  0
APPID
  5
1E1F
330
9
100
AcDbSymbolTableRecord
100
AcDbRegAppTableRecord
  2
GENIUS_GENOBJ-N-CHA_13
 70
     0
  0
ENDTAB
  0
TABLE
  2
DIMSTYLE
  5
A
330
0
100
AcDbSymbolTable
 70
     9
  0
DIMSTYLE
105
58
330
A
100
AcDbSymbolTableRecord
100
AcDbDimStyleTableRecord
  2
AM_JIS
 70
     0
  3

  4
"
  5
OPEN30
  6

  7

 40
1.0
 41
2.5
 42
1.0
 43
12.0
 44
1.0
 45
0.0
 46
0.0
 47
0.1
 48
0.1
140
3.2
141
0.0
142
0.0
143
0.0393701
144
1.0
145
0.0
146
0.71
147
1.5
 71
     0
 72
     0
 73
     0
 74
     0
 75
     0
 76
     0
 77
     3
 78
     8
170
     0
171
     2
172
     1
173
     0
174
     0
175
     0
176
   256
177
   256
178
     2
270
     2
271
     3
272
     3
273
     2
274
     2
340
6B
275
     0
280
     0
281
     0
282
     0
283
     0
284
     0
285
     0
286
     0
287
     3
288
     0
  0
DIMSTYLE
105
5F
330
A
100
AcDbSymbolTableRecord
100
AcDbDimStyleTableRecord
  2
AM_JIS$3
 70
     0
  3

  4
"
  5
OPEN30
  6

  7

 40
1.0
 41
2.5
 42
1.0
 43
10.0
 44
1.0
 45
0.0
 46
0.0
 47
0.1
 48
0.1
140
3.2
141
0.0
142
0.0
143
0.0393701
144
1.0
145
0.0
146
0.71
147
1.5
 71
     0
 72
     0
 73
     0
 74
     1
 75
     0
 76
     0
 77
     3
 78
     8
170
     0
171
     2
172
     0
173
     0
174
     0
175
     0
176
   256
177
   256
178
     2
270
     2
271
     2
272
     3
273
     2
274
     2
340
6B
275
     0
280
     0
281
     0
282
     0
283
     0
284
     0
285
     0
286
     0
287
     0
288
     1
  0
DIMSTYLE
105
60
330
A
100
AcDbSymbolTableRecord
100
AcDbDimStyleTableRecord
  2
AM_JIS$4
 70
     0
  3

  4
"
  5
OPEN30
  6

  7

 40
1.0
 41
2.5
 42
1.0
 43
10.0
 44
1.0
 45
0.0
 46
0.0
 47
0.1
 48
0.1
140
3.2
141
0.0
142
0.0
143
0.0393701
144
1.0
145
0.0
146
0.71
147
1.5
 71
     0
 72
     0
 73
     0
 74
     1
 75
     0
 76
     0
 77
     3
 78
     8
170
     0
171
     2
172
     0
173
     0
174
     0
175
     0
176
   256
177
   256
178
     2
270
     2
271
     2
272
     3
273
     2
274
     2
340
6B
275
     0
280
     0
281
     0
282
     0
283
     0
284
     0
285
     0
286
     0
287
     0
288
     1
  0
DIMSTYLE
105
61
330
A
100
AcDbSymbolTableRecord
100
AcDbDimStyleTableRecord
  2
AM_JIS$6
 70
     0
  3

  4
"
  5
OPEN30
  6

  7

 40
1.0
 41
2.5
 42
1.0
 43
10.0
 44
1.0
 45
0.0
 46
0.0
 47
0.1
 48
0.1
140
3.2
141
0.0
142
0.0
143
0.0393701
144
1.0
145
0.0
146
0.71
147
1.5
 71
     0
 72
     0
 73
     0
 74
     0
 75
     0
 76
     0
 77
     0
 78
     8
170
     0
171
     2
172
     1
173
     0
174
     0
175
     0
176
   256
177
   256
178
     2
270
     2
271
     2
272
     2
273
     2
274
     2
340
6B
275
     0
280
     0
281
     0
282
     0
283
     0
284
     0
285
     0
286
     0
287
     3
288
     0
  0
DIMSTYLE
105
62
330
A
100
AcDbSymbolTableRecord
100
AcDbDimStyleTableRecord
  2
AM_JIS$7
 70
     0
  3

  4
"
  5
OPEN30
  6

  7

 40
1.0
 41
2.5
 42
1.0
 43
10.0
 44
1.0
 45
0.0
 46
0.0
 47
0.1
 48
0.1
140
3.2
141
0.0
142
0.0
143
0.0393701
144
1.0
145
0.0
146
0.71
147
1.5
 71
     0
 72
     0
 73
     0
 74
     0
 75
     0
 76
     0
 77
     3
 78
     8
170
     0
171
     2
172
     1
173
     0
174
     0
175
     0
176
   256
177
   256
178
     2
270
     2
271
     2
272
     3
273
     2
274
     2
340
6B
275
     0
280
     0
281
     0
282
     0
283
     0
284
     0
285
     0
286
     0
287
     3
288
     0
  0
DIMSTYLE
105
63
330
A
100
AcDbSymbolTableRecord
100
AcDbDimStyleTableRecord
  2
AM_JIS$SF
 70
     0
  3

  4
"
  5
OPEN30
  6

  7

 40
1.0
 41
2.5
 42
1.0
 43
10.0
 44
1.0
 45
0.0
 46
0.0
 47
0.1
 48
0.1
140
3.2
141
0.0
142
0.0
143
0.0393701
144
1.0
145
0.0
146
0.71
147
1.5
 71
     0
 72
     0
 73
     0
 74
     0
 75
     1
 76
     1
 77
     3
 78
     8
170
     0
171
     2
172
     1
173
     0
174
     0
175
     0
176
   256
177
   256
178
     2
270
     2
271
     2
272
     2
273
     2
274
     2
340
6B
275
     0
280
     0
281
     0
282
     0
283
     0
284
     0
285
     0
286
     0
287
     3
288
     0
  0
DIMSTYLE
105
68
330
A
100
AcDbSymbolTableRecord
100
AcDbDimStyleTableRecord
  2
AM_JIS$SH
 70
     0
  3

  4
"
  5

  6
GENAXEH
  7
OPEN30
 40
1.0
 41
2.5
 42
1.0
 43
10.0
 44
1.0
 45
0.0
 46
0.0
 47
0.1
 48
0.1
140
3.2
141
0.0
142
0.0
143
0.0393701
144
2.0
145
0.0
146
0.71
147
1.5
 71
     0
 72
     0
 73
     0
 74
     0
 75
     1
 76
     1
 77
     3
 78
     8
170
     0
171
     2
172
     1
173
     1
174
     0
175
     0
176
   256
177
   256
178
     2
270
     2
271
     2
272
     2
273
     2
274
     2
340
6B
275
     0
280
     0
281
     0
282
     0
283
     0
284
     0
285
     0
286
     0
287
     3
288
     0
  0
DIMSTYLE
105
B34
102
{ACAD_REACTORS
330
5C1D
102
}
330
A
100
AcDbSymbolTableRecord
100
AcDbDimStyleTableRecord
  2
AM_JIS$2
 70
     0
  3

  4
"
  5
OPEN30
  6

  7

 40
1.0
 41
2.5
 42
1.0
 43
12.0
 44
1.0
 45
0.0
 46
0.0
 47
0.1
 48
0.1
140
3.2
141
0.0
142
0.0
143
0.0393701
144
1.0
145
0.0
146
0.71
147
1.5
 71
     0
 72
     0
 73
     0
 74
     0
 75
     0
 76
     0
 77
     3
 78
     8
170
     0
171
     2
172
     1
173
     0
174
     0
175
     0
176
   256
177
   256
178
     2
270
     2
271
     3
272
     3
273
     2
274
     2
340
6B
275
     0
280
     0
281
     0
282
     0
283
     0
284
     0
285
     0
286
     0
287
     3
288
     0
  0
DIMSTYLE
105
BA5
102
{ACAD_REACTORS
330
2216
330
CC6
330
DF5
330
5801
102
}
330
A
100
AcDbSymbolTableRecord
100
AcDbDimStyleTableRecord
  2
AM_JIS$0
 70
     0
  3

  4
"
  5
OPEN30
  6

  7

 40
1.0
 41
2.5
 42
0.0
 43
10.0
 44
1.0
 45
0.0
 46
0.0
 47
0.1
 48
0.1000000001
140
3.799999999999999
141
0.0
142
0.0
143
0.0393701
144
1.0
145
0.0
146
0.71
147
1.5
 71
     0
 72
     0
 73
     0
 74
     0
 75
     0
 76
     0
 77
     3
 78
     1
170
     0
171
     2
172
     1
173
     0
174
     0
175
     0
176
     3
177
     3
178
     2
270
     2
271
     2
272
     2
273
     2
274
     2
340
11
275
     1
280
     0
281
     0
282
     0
283
     0
284
     8
285
     0
286
     0
287
     0
288
     0
  0
ENDTAB
  0
TABLE
  2
BLOCK_RECORD
  5
1
330
0
100
AcDbSymbolTable
 70
    10
  0
BLOCK_RECORD
  5
1F
102
{ACAD_XDICTIONARY
360
74
102
}
330
1
100
AcDbSymbolTableRecord
100
AcDbBlockTableRecord
  2
*MODEL_SPACE
  0
BLOCK_RECORD
  5
101
102
{ACAD_XDICTIONARY
360
5D7A
102
}
330
1
100
AcDbSymbolTableRecord
100
AcDbBlockTableRecord
  2
*PAPER_SPACE
  0
BLOCK_RECORD
  5
59
330
1
100
AcDbSymbolTableRecord
100
AcDbBlockTableRecord
  2
_OPEN30
  0
BLOCK_RECORD
  5
64
330
1
100
AcDbSymbolTableRecord
100
AcDbBlockTableRecord
  2
GENAXEH
  0
BLOCK_RECORD
  5
CC8
330
1
100
AcDbSymbolTableRecord
100
AcDbBlockTableRecord
  2
*D5
  0
BLOCK_RECORD
  5
DF6
330
1
100
AcDbSymbolTableRecord
100
AcDbBlockTableRecord
  2
*D6
  0
BLOCK_RECORD
  5
2217
330
1
100
AcDbSymbolTableRecord
100
AcDbBlockTableRecord
  2
*D7
  0
BLOCK_RECORD
  5
5802
330
1
100
AcDbSymbolTableRecord
100
AcDbBlockTableRecord
  2
*D8
  0
BLOCK_RECORD
  5
5C1E
330
1
100
AcDbSymbolTableRecord
100
AcDbBlockTableRecord
  2
*D9
  0
ENDTAB
  0
ENDSEC
  0
SECTION
  2
BLOCKS
  0
BLOCK
  5
20
330
1F
100
AcDbEntity
  8
0
100
AcDbBlockBegin
  2
*MODEL_SPACE
 70
     0
 10
0.0
 20
0.0
 30
0.0
  3
*MODEL_SPACE
  1

  0
ENDBLK
  5
21
330
1F
100
AcDbEntity
  8
0
100
AcDbBlockEnd
  0
BLOCK
  5
103
330
101
100
AcDbEntity
 67
     1
  8
0
100
AcDbBlockBegin
  2
*PAPER_SPACE
 70
     0
 10
0.0
 20
0.0
 30
0.0
  3
*PAPER_SPACE
  1

  0
ENDBLK
  5
104
330
101
100
AcDbEntity
 67
     1
  8
0
100
AcDbBlockEnd
  0
BLOCK
  5
5D
330
59
100
AcDbEntity
  8
0
100
AcDbBlockBegin
  2
_OPEN30
 70
     0
 10
0.0
 20
0.0
 30
0.0
  3
_OPEN30
  1

  0
LINE
  5
5A
330
59
100
AcDbEntity
  8
0
 62
     0
100
AcDbLine
 10
-1.0
 20
0.26794919
 30
0.0
 11
0.0
 21
0.0
 31
0.0
  0
LINE
  5
5B
330
59
100
AcDbEntity
  8
0
 62
     0
100
AcDbLine
 10
0.0
 20
0.0
 30
0.0
 11
-1.0
 21
-0.26794919
 31
0.0
  0
LINE
  5
5C
330
59
100
AcDbEntity
  8
0
 62
     0
100
AcDbLine
 10
0.0
 20
0.0
 30
0.0
 11
-1.0
 21
0.0
 31
0.0
  0
ENDBLK
  5
5E
330
59
100
AcDbEntity
  8
0
100
AcDbBlockEnd
  0
BLOCK
  5
66
330
64
100
AcDbEntity
  8
0
100
AcDbBlockBegin
  2
GENAXEH
 70
     0
 10
0.0
 20
0.0
 30
0.0
  3
GENAXEH
  1

  0
LINE
  5
65
330
64
100
AcDbEntity
  8
0
100
AcDbLine
 10
-1.0
 20
0.0
 30
0.0
 11
1.0
 21
0.0
 31
0.0
  0
ENDBLK
  5
67
330
64
100
AcDbEntity
  8
0
100
AcDbBlockEnd
  0
BLOCK
  5
CD2
330
CC8
100
AcDbEntity
  8
0
100
AcDbBlockBegin
  2
*D5
 70
     1
 10
0.0
 20
0.0
 30
0.0
  3
*D5
  1

  0
LINE
  5
58EB
330
CC8
100
AcDbEntity
  8
AM_5
 62
     3
100
AcDbLine
 10
-225.0000000000003
 20
-9.00000205448142
 30
0.0
 11
-225.0000000000003
 21
-34.5013515305888
 31
0.0
  0
LINE
  5
58EC
330
CC8
100
AcDbEntity
  8
AM_5
 62
     3
100
AcDbLine
 10
-4.000000000000441
 20
-9.50000088318572
 30
0.0
 11
-4.000000000000443
 21
-34.5013515305888
 31
0.0
  0
LINE
  5
58ED
330
CC8
100
AcDbEntity
  8
AM_5
 62
     3
100
AcDbLine
 10
-222.5000000000004
 20
-33.5013515305888
 30
0.0
 11
-6.500000000000443
 21
-33.5013515305888
 31
0.0
  0
INSERT
  5
58EE
330
CC8
100
AcDbEntity
  8
AM_5
 62
     3
100
AcDbBlockReference
  2
_OPEN30
 10
-225.0000000000003
 20
-33.5013515305888
 30
0.0
 41
2.5
 42
2.5
 43
2.5
 50
180.0
  0
INSERT
  5
58EF
330
CC8
100
AcDbEntity
  8
AM_5
 62
     3
100
AcDbBlockReference
  2
_OPEN30
 10
-4.000000000000443
 20
-33.5013515305888
 30
0.0
 41
2.5
 42
2.5
 43
2.5
  0
MTEXT
  5
58F0
330
CC8
100
AcDbEntity
  8
AM_5
 62
     2
100
AcDbMText
 10
-114.5000000000004
 20
-30.10135153058881
 30
0.0
 40
3.799999999999999
 41
0.0
 71
     5
 72
     1
  1
221
1001
ACAD
1000
MTEXTBEGIN
1070
    73
1070
     1
1070
    44
1040
1.0
1070
    74
1070
     0
1000
MTEXTEND
  0
POINT
  5
58F1
330
CC8
100
AcDbEntity
  8
DEFPOINTS
 62
     0
100
AcDbPoint
 10
-225.0000000000003
 20
-9.00000205448142
 30
0.0
  0
POINT
  5
58F2
330
CC8
100
AcDbEntity
  8
DEFPOINTS
 62
     0
100
AcDbPoint
 10
-4.000000000000441
 20
-9.50000088318572
 30
0.0
  0
POINT
  5
58F3
330
CC8
100
AcDbEntity
  8
DEFPOINTS
 62
     0
100
AcDbPoint
 10
-4.000000000000443
 20
-33.5013515305888
 30
0.0
  0
ENDBLK
  5
CD3
330
CC8
100
AcDbEntity
  8
0
100
AcDbBlockEnd
  0
BLOCK
  5
E00
330
DF6
100
AcDbEntity
  8
0
100
AcDbBlockBegin
  2
*D6
 70
     1
 10
0.0
 20
0.0
 30
0.0
  3
*D6
  1

  0
LINE
  5
58E2
330
DF6
100
AcDbEntity
  8
AM_5
 62
     3
100
AcDbLine
 10
-155.9999807595534
 20
-9.500013162958556
 30
0.0
 11
-155.9999807595534
 21
-24.50135153058869
 31
0.0
  0
LINE
  5
58E3
330
DF6
100
AcDbEntity
  8
AM_5
 62
     3
100
AcDbLine
 10
-4.000000000000441
 20
-9.50000088318572
 30
0.0
 11
-4.000000000000442
 21
-24.50135153058869
 31
0.0
  0
LINE
  5
58E4
330
DF6
100
AcDbEntity
  8
AM_5
 62
     3
100
AcDbLine
 10
-153.4999807595534
 20
-23.50135153058869
 30
0.0
 11
-6.500000000000442
 21
-23.50135153058869
 31
0.0
  0
INSERT
  5
58E5
330
DF6
100
AcDbEntity
  8
AM_5
 62
     3
100
AcDbBlockReference
  2
_OPEN30
 10
-155.9999807595534
 20
-23.50135153058869
 30
0.0
 41
2.5
 42
2.5
 43
2.5
 50
180.0
  0
INSERT
  5
58E6
330
DF6
100
AcDbEntity
  8
AM_5
 62
     3
100
AcDbBlockReference
  2
_OPEN30
 10
-4.000000000000442
 20
-23.50135153058869
 30
0.0
 41
2.5
 42
2.5
 43
2.5
  0
MTEXT
  5
58E7
330
DF6
100
AcDbEntity
  8
AM_5
 62
     2
100
AcDbMText
 10
-79.99999037977696
 20
-20.1013515305887
 30
0.0
 40
3.799999999999999
 41
0.0
 71
     5
 72
     1
  1
152
1001
ACAD
1000
MTEXTBEGIN
1070
    73
1070
     1
1070
    44
1040
1.0
1070
    74
1070
     0
1000
MTEXTEND
  0
POINT
  5
58E8
330
DF6
100
AcDbEntity
  8
DEFPOINTS
 62
     0
100
AcDbPoint
 10
-155.9999807595534
 20
-9.500013162958556
 30
0.0
  0
POINT
  5
58E9
330
DF6
100
AcDbEntity
  8
DEFPOINTS
 62
     0
100
AcDbPoint
 10
-4.000000000000441
 20
-9.50000088318572
 30
0.0
  0
POINT
  5
58EA
330
DF6
100
AcDbEntity
  8
DEFPOINTS
 62
     0
100
AcDbPoint
 10
-4.000000000000442
 20
-23.50135153058869
 30
0.0
  0
ENDBLK
  5
E01
330
DF6
100
AcDbEntity
  8
0
100
AcDbBlockEnd
  0
BLOCK
  5
2221
330
2217
100
AcDbEntity
  8
0
100
AcDbBlockBegin
  2
*D7
 70
     1
 10
0.0
 20
0.0
 30
0.0
  3
*D7
  1

  0
LINE
  5
58F4
330
2217
100
AcDbEntity
  8
AM_5
 62
     3
100
AcDbLine
 10
-224.5000000000008
 20
9.499999999998257
 30
0.0
 11
-242.0000010000004
 21
9.499999999998209
 31
0.0
  0
LINE
  5
58F5
330
2217
100
AcDbEntity
  8
AM_5
 62
     3
100
AcDbLine
 10
-224.5000000000009
 20
-9.500002054481555
 30
0.0
 11
-242.0000010000003
 21
-9.500002054481603
 31
0.0
  0
LINE
  5
58F6
330
2217
100
AcDbEntity
  8
AM_5
 62
     3
100
AcDbLine
 10
-241.0000010000004
 20
6.999999999998212
 30
0.0
 11
-241.0000010000004
 21
-7.0000020544816
 31
0.0
  0
INSERT
  5
58F7
330
2217
100
AcDbEntity
  8
AM_5
 62
     3
100
AcDbBlockReference
  2
_OPEN30
 10
-241.0000010000004
 20
9.499999999998211
 30
0.0
 41
2.5
 42
2.5
 43
2.5
 50
90.00000000000017
  0
INSERT
  5
58F8
330
2217
100
AcDbEntity
  8
AM_5
 62
     3
100
AcDbBlockReference
  2
_OPEN30
 10
-241.0000010000004
 20
-9.500002054481601
 30
0.0
 41
2.5
 42
2.5
 43
2.5
 50
270.0000000000001
  0
MTEXT
  5
58F9
330
2217
100
AcDbEntity
  8
AM_5
 62
     2
100
AcDbMText
 10
-244.4000010000004
 20
-0.0000010272416948
 30
0.0
 40
3.799999999999999
 41
0.0
 71
     5
 72
     1
  1
%%c19
 11
-0.0000000000000028
 21
1.0
 31
0.0
1001
ACAD
1000
MTEXTBEGIN
1070
    73
1070
     1
1070
    44
1040
1.0
1070
    74
1070
     0
1000
MTEXTEND
  0
POINT
  5
58FA
330
2217
100
AcDbEntity
  8
DEFPOINTS
 62
     0
100
AcDbPoint
 10
-224.5000000000008
 20
9.499999999998955
 30
0.0
  0
POINT
  5
58FB
330
2217
100
AcDbEntity
  8
DEFPOINTS
 62
     0
100
AcDbPoint
 10
-224.5000000000009
 20
-9.500002054480857
 30
0.0
  0
POINT
  5
58FC
330
2217
100
AcDbEntity
  8
DEFPOINTS
 62
     0
100
AcDbPoint
 10
-241.0000010000004
 20
-9.500002054480852
 30
0.0
  0
ENDBLK
  5
2222
330
2217
100
AcDbEntity
  8
0
100
AcDbBlockEnd
  0
BLOCK
  5
580C
330
5802
100
AcDbEntity
  8
0
100
AcDbBlockBegin
  2
*D8
 70
     1
 10
0.0
 20
0.0
 30
0.0
  3
*D8
  1

  0
LINE
  5
58FD
330
5802
100
AcDbEntity
  8
AM_5
 62
     3
100
AcDbLine
 10
-3.999999999999742
 20
9.499999116813247
 30
0.0
 11
18.54288048299665
 21
9.499999116813309
 31
0.0
  0
LINE
  5
58FE
330
5802
100
AcDbEntity
  8
AM_5
 62
     3
100
AcDbLine
 10
-3.999999999999618
 20
-9.500000883186725
 30
0.0
 11
18.54288048299671
 21
-9.500000883186663
 31
0.0
  0
LINE
  5
58FF
330
5802
100
AcDbEntity
  8
AM_5
 62
     3
100
AcDbLine
 10
17.54288048299666
 20
6.999999116813307
 30
0.0
 11
17.5428804829967
 21
-7.000000883186666
 31
0.0
  0
INSERT
  5
5900
330
5802
100
AcDbEntity
  8
AM_5
 62
     3
100
AcDbBlockReference
  2
_OPEN30
 10
17.54288048299665
 20
9.499999116813308
 30
0.0
 41
2.5
 42
2.5
 43
2.5
 50
90.00000000000017
  0
INSERT
  5
5901
330
5802
100
AcDbEntity
  8
AM_5
 62
     3
100
AcDbBlockReference
  2
_OPEN30
 10
17.54288048299671
 20
-9.500000883186665
 30
0.0
 41
2.5
 42
2.5
 43
2.5
 50
270.0000000000001
  0
MTEXT
  5
5902
330
5802
100
AcDbEntity
  8
AM_5
 62
     2
100
AcDbMText
 10
14.14288048299668
 20
-0.0000008831866895
 30
0.0
 40
3.799999999999999
 41
0.0
 71
     5
 72
     1
  1
%%c19
 11
-0.0000000000000028
 21
1.0
 31
0.0
1001
ACAD
1000
MTEXTBEGIN
1070
    73
1070
     1
1070
    44
1040
1.0
1070
    74
1070
     0
1000
MTEXTEND
  0
POINT
  5
5903
330
5802
100
AcDbEntity
  8
DEFPOINTS
 62
     0
100
AcDbPoint
 10
-3.999999999999712
 20
9.499999116813258
 30
0.0
  0
POINT
  5
5904
330
5802
100
AcDbEntity
  8
DEFPOINTS
 62
     0
100
AcDbPoint
 10
-3.999999999999648
 20
-9.500000883186714
 30
0.0
  0
POINT
  5
5905
330
5802
100
AcDbEntity
  8
DEFPOINTS
 62
     0
100
AcDbPoint
 10
17.54288048299668
 20
-9.50000088318672
 30
0.0
  0
ENDBLK
  5
580D
330
5802
100
AcDbEntity
  8
0
100
AcDbBlockEnd
  0
BLOCK
  5
5C2C
330
5C1E
100
AcDbEntity
  8
0
100
AcDbBlockBegin
  2
*D9
 70
     1
 10
0.0
 20
0.0
 30
0.0
  3
*D9
  1

  0
LINE
  5
5D7C
330
5C1E
100
AcDbEntity
  8
AM_5
100
AcDbLine
 10
0.3420201433253717
 20
-0.9396926207864677
 30
0.0
 11
9.653671326867227
 21
-26.5232439854054
 31
0.0
  0
LINE
  5
5D7D
330
5C1E
100
AcDbEntity
  8
AM_5
100
AcDbLine
 10
0.3420201433253629
 20
0.9396926207860264
 30
0.0
 11
9.653671326866978
 21
26.52324398540504
 31
0.0
  0
ARC
  5
5D7E
330
5C1E
100
AcDbEntity
  8
AM_5
100
AcDbCircle
 10
-0.0000000000004227
 20
-0.0000000000002222
 30
0.0
 40
27.22544670322364
100
AcDbArc
 50
295.263084307305
 51
64.73691569269547
  0
INSERT
  5
5D7F
330
5C1E
100
AcDbEntity
  8
AM_5
100
AcDbBlockReference
  2
_OPEN30
 10
9.311651183541556
 20
-25.58355136461949
 30
0.0
 41
2.5
 42
2.5
 43
2.5
 50
202.6315421536525
  0
INSERT
  5
5D80
330
5C1E
100
AcDbEntity
  8
AM_5
100
AcDbBlockReference
  2
_OPEN30
 10
9.311651183541314
 20
25.58355136461913
 30
0.0
 41
2.5
 42
2.5
 43
2.5
 50
157.3684578463478
  0
MTEXT
  5
5D81
330
5C1E
100
AcDbEntity
  8
AM_5
 62
     2
100
AcDbMText
 10
24.12544670322322
 20
-0.0000000000001099
 30
0.0
 40
3.2
 41
0.0
 71
     5
 72
     1
  1
140°
  7
ASAMI
 11
-0.0000000000000028
 21
1.0
 31
0.0
  0
POINT
  5
5D82
330
5C1E
100
AcDbEntity
  8
DEFPOINTS
 62
     0
100
AcDbPoint
 10
24.99884367990999
 20
-10.78344856052456
 30
0.0
  0
POINT
  5
5D83
330
5C1E
100
AcDbEntity
  8
DEFPOINTS
 62
     0
100
AcDbPoint
 10
-0.0000000000002996
 20
0.0000000000001159
 30
0.0
  0
POINT
  5
5D84
330
5C1E
100
AcDbEntity
  8
DEFPOINTS
 62
     0
100
AcDbPoint
 10
-0.0000000000002996
 20
-0.0000000000005603
 30
0.0
  0
POINT
  5
5D85
330
5C1E
100
AcDbEntity
  8
DEFPOINTS
 62
     0
100
AcDbPoint
 10
-0.7348549296431996
 20
2.018997325768222
 30
0.0
  0
POINT
  5
5D86
330
5C1E
100
AcDbEntity
  8
DEFPOINTS
 62
     0
100
AcDbPoint
 10
-0.7348549296431929
 20
-2.018997325768669
 30
0.0
  0
ENDBLK
  5
5C2D
330
5C1E
100
AcDbEntity
  8
0
100
AcDbBlockEnd
  0
ENDSEC
  0
SECTION
  2
ENTITIES
  0
LINE
  5
C9F
330
1F
100
AcDbEntity
  8
AM_7
100
AcDbLine
 10
-227.0000000000004
 20
-0.0000000000006037
 30
0.0
 11
5.956491359057849
 21
-0.0000000000002122
 31
0.0
1001
GENIUS_GENODEF_13
1002
{
1000
HIER
1070
     0
1002
}
1002
{
1000
MANEDIT
1070
     0
1002
}
1002
{
1000
NOSEL
1070
     0
1002
}
1002
{
1000
BEHIND
1070
     0
1002
}
1002
{
1000
REACTOR
1002
}
1001
GENIUS_GENOBJ-N-CEN_13
1002
{
1000
OWNER
1000
GEN
1002
}
  0
DIMENSION
  5
CC6
330
1F
100
AcDbEntity
  8
AM_5
100
AcDbDimension
  2
*D5
 10
-4.000000000000443
 20
-33.5013515305888
 30
0.0
 11
-114.5000000000004
 21
-30.10135153058881
 31
0.0
 70
    32
  1
<>
  3
AM_JIS$0
100
AcDbAlignedDimension
 13
-225.0000000000003
 23
-9.00000205448142
 33
0.0
 14
-4.000000000000441
 24
-9.50000088318572
 34
0.0
 50
0.0000000000001132
100
AcDbRotatedDimension
1001
GENIUS_GENDTOL_13
1000

1000
h7
1000

1040
0.0
1001
ACAD
1000
DSTYLE
1002
{
1070
   271
1070
     0
1002
}
  0
DIMENSION
  5
DF5
330
1F
100
AcDbEntity
  8
AM_5
100
AcDbDimension
  2
*D6
 10
-4.000000000000442
 20
-23.50135153058869
 30
0.0
 11
-79.99999037977696
 21
-20.1013515305887
 31
0.0
 70
    32
  1
<>
  3
AM_JIS$0
100
AcDbAlignedDimension
 13
-155.9999807595534
 23
-9.500013162958556
 33
0.0
 14
-4.000000000000441
 24
-9.50000088318572
 34
0.0
 50
0.0000000000001527
100
AcDbRotatedDimension
1001
GENIUS_GENDTOL_13
1000

1000
h7
1000

1040
0.0
1001
ACAD
1000
DSTYLE
1002
{
1070
   271
1070
     0
1002
}
  0
TEXT
  5
19BD
330
1F
100
AcDbEntity
  8
AM_6
100
AcDbText
 10
-135.6904761904764
 20
-56.00001416295836
 30
0.0
 40
5.0
  1
MDW190LHK
 50
0.0000000000001527
 72
     4
 11
-114.5000000000002
 21
-53.50001416295831
 31
0.0
100
AcDbText
  0
LINE
  5
21D8
330
1F
100
AcDbEntity
  8
AM_0
 48
0.5
100
AcDbLine
 10
-224.5000000000004
 20
9.499999999999396
 30
0.0
 11
-147.2690867376192
 21
9.499999116826154
 31
0.0
1001
GENIUS_GENODEF_13
1002
{
1000
HIER
1070
     0
1002
}
1002
{
1000
MANEDIT
1070
     0
1002
}
1002
{
1000
NOSEL
1070
     0
1002
}
1002
{
1000
BEHIND
1070
     0
1002
}
1002
{
1000
REACTOR
1002
}
1001
GENIUS_GENOBJ-N-CEN_13
1002
{
1000
OWNER
1000
GEN
1002
}
  0
LINE
  5
21D9
330
1F
100
AcDbEntity
  8
AM_0
 48
0.5
100
AcDbLine
 10
-224.5000000000004
 20
-9.500002054481434
 30
0.0
 11
-155.9999807595535
 21
-9.500002054481331
 31
0.0
1001
GENIUS_GENODEF_13
1002
{
1000
HIER
1070
     0
1002
}
1002
{
1000
MANEDIT
1070
     0
1002
}
1002
{
1000
NOSEL
1070
     0
1002
}
1002
{
1000
BEHIND
1070
     0
1002
}
1002
{
1000
REACTOR
1002
}
1001
GENIUS_GENOBJ-N-CEN_13
1002
{
1000
OWNER
1000
GEN
1002
}
  0
LINE
  5
21DC
330
1F
100
AcDbEntity
  8
AM_0
100
AcDbLine
 10
-224.5000000000009
 20
-9.500002054480857
 30
0.0
 11
-224.5000000000008
 21
9.499999999998955
 31
0.0
  0
LINE
  5
21DD
330
1F
100
AcDbEntity
  8
AM_0
 48
0.5
100
AcDbLine
 10
-225.0000000000003
 20
-9.00000205448142
 30
0.0
 11
-225.0000000000004
 21
8.999999999999388
 31
0.0
  0
DIMENSION
  5
2216
330
1F
100
AcDbEntity
  8
AM_5
100
AcDbDimension
  2
*D7
 10
-241.0000010000004
 20
-9.500002054480852
 30
0.0
 11
-244.4000010000004
 21
-0.0000010272409838
 31
0.0
 70
    32
  1
%%c<>
 51
359.9999999999998
  3
AM_JIS$0
100
AcDbAlignedDimension
 13
-224.5000000000008
 23
9.499999999998955
 33
0.0
 14
-224.5000000000009
 24
-9.500002054480857
 34
0.0
 50
269.9999999999999
100
AcDbRotatedDimension
1001
ACAD
1000
DSTYLE
1002
{
1070
   271
1070
     0
1002
}
1001
GENIUS_GENDTOL_13
1000

1000
h7
1000

1040
0.0
  0
LINE
  5
3F18
330
1F
100
AcDbEntity
  8
AM_0
 48
0.5
100
AcDbLine
 10
-224.5000000000004
 20
9.499999999999396
 30
0.0
 11
-225.0000000000004
 21
8.999999999999396
 31
0.0
1001
GENIUS_GENFIL_13
1070
     0
1040
0.5
1040
0.5
1040
20.0
1040
0.0
1002
{
1002
}
1001
GENIUS_GENODEF_13
1002
{
1000
HIER
1070
     0
1002
}
1002
{
1000
MANEDIT
1070
     0
1002
}
1002
{
1000
NOSEL
1070
     0
1002
}
1002
{
1000
BEHIND
1070
     0
1002
}
1002
{
1000
REACTOR
1002
}
1001
GENIUS_GENOBJ-N-CHA_13
1002
{
1000
OWNER
1000
GEN
1002
}
  0
LINE
  5
3F1B
330
1F
100
AcDbEntity
  8
AM_0
 48
0.5
100
AcDbLine
 10
-225.0000000000003
 20
-9.000002054481434
 30
0.0
 11
-224.5000000000004
 21
-9.500002054481434
 31
0.0
1001
GENIUS_GENFIL_13
1070
     0
1040
0.5
1040
0.5
1040
20.0
1040
0.0
1002
{
1002
}
1001
GENIUS_GENODEF_13
1002
{
1000
HIER
1070
     0
1002
}
1002
{
1000
MANEDIT
1070
     0
1002
}
1002
{
1000
NOSEL
1070
     0
1002
}
1002
{
1000
BEHIND
1070
     0
1002
}
1002
{
1000
REACTOR
1002
}
1001
GENIUS_GENOBJ-N-CHA_13
1002
{
1000
OWNER
1000
GEN
1002
}
  0
LINE
  5
4D3D
330
1F
100
AcDbEntity
  8
AM_0
 48
0.5
100
AcDbLine
 10
-2.19585675529454
 20
6.001499242189555
 30
0.0
 11
-3.999999999999712
 21
9.499999116813258
 31
0.0
  0
LINE
  5
4D3F
330
1F
100
AcDbEntity
  8
AM_0
 48
0.5
100
AcDbLine
 10
-0.0000000000002996
 20
-0.0000000000005603
 30
0.0
 11
-0.7348549296431996
 21
2.018997325768222
 31
0.0
  0
ELLIPSE
  5
4D44
330
1F
100
AcDbEntity
  8
AM_0
 48
0.5
100
AcDbEllipse
 10
10.26238197559864
 20
8.288285091676614
 30
0.0
 11
-8.00711118793772
 21
9.851868653875156
 31
0.0
210
0.0
220
0.0
230
0.9999999999999998
 40
0.9970317623884094
 41
1.071115390785091
 42
1.406935740176016
  0
LINE
  5
4D4B
330
1F
100
AcDbEntity
  8
AM_0
 48
0.5
100
AcDbLine
 10
-2.19585675529454
 20
-6.00149924218984
 30
0.0
 11
-4.000000000000716
 21
-9.500000883186192
 31
0.0
  0
LINE
  5
4D57
330
1F
100
AcDbEntity
  8
AM_0
 48
0.5
100
AcDbLine
 10
-0.0000000000004228
 20
-0.0000000000002281
 30
0.0
 11
-0.7313963850711169
 21
-2.021028631313913
 31
0.0
  0
LINE
  5
5790
330
1F
100
AcDbEntity
  8
AM_0
 48
0.5
100
AcDbLine
 10
-0.0000000000004228
 20
-0.0000000000002281
 30
0.0
 11
-7.484520473735284
 21
3.69592887092948
 31
0.0
  0
LINE
  5
5791
330
1F
100
AcDbEntity
  8
AM_0
 48
0.5
100
AcDbLine
 10
-10.74316352968112
 20
9.499999116813873
 30
0.0
 11
-3.999999999999712
 21
9.499999116813258
 31
0.0
  0
LINE
  5
5792
330
1F
100
AcDbEntity
  8
AM_11
 48
0.5
100
AcDbLine
 10
-80.87248188205355
 20
9.501348764227584
 30
0.0
 11
-64.65863527720344
 21
9.499999116818926
 31
0.0
  0
LINE
  5
5793
330
1F
100
AcDbEntity
  8
AM_0
 48
0.5
100
AcDbLine
 10
-64.658657160202
 20
9.499999116818926
 30
0.0
 11
-36.15027834312236
 21
9.499999116816258
 31
0.0
  0
LINE
  5
5794
330
1F
100
AcDbEntity
  8
AM_11
 48
0.5
100
AcDbLine
 10
-36.15027834312236
 20
9.499999116816258
 30
0.0
 11
-10.74316352968112
 21
9.499999116813873
 31
0.0
  0
SPLINE
  5
5795
330
1F
100
AcDbEntity
  8
AM_0
100
AcDbSpline
210
0.0
220
0.0
230
1.0
 70
     8
 71
     3
 72
    23
 73
    19
 74
     0
 42
0.0000000001
 43
0.0000000001
 40
16.03460024169435
 40
16.03460024169435
 40
16.03460024169435
 40
16.03460024169435
 40
16.35212704903564
 40
17.38177054169784
 40
18.41822485651776
 40
19.46214173629503
 40
20.51396345435107
 40
21.57393551351153
 40
22.64208202342361
 40
23.7182574881101
 40
24.80209208578934
 40
25.89306333925047
 40
26.99048218457928
 40
28.09348763352352
 40
29.20111863782268
 40
30.31232390128032
 40
31.42594612798585
 40
32.5407912310448
 40
32.5407912310486
 40
32.5407912310486
 40
32.5407912310486
 10
-80.87248188205355
 20
9.50134876422758
 30
0.0
 10
-80.73391364286505
 20
9.469278437173903
 30
0.0
 10
-80.14660055610764
 20
9.329621189246385
 30
0.0
 10
-79.11204222885591
 20
9.055984126315417
 30
0.0
 10
-77.77228648674903
 20
8.649088806202859
 30
0.0
 10
-76.4337751727932
 20
8.192213184299856
 30
0.0
 10
-75.09642919328747
 20
7.688001423675115
 30
0.0
 10
-73.76020108345302
 20
7.139264516181934
 30
0.0
 10
-72.42501361250761
 20
6.549139273393103
 30
0.0
 10
-71.09077380307059
 20
5.921060076197144
 30
0.0
 10
-69.75740583884394
 20
5.25858370046843
 30
0.0
 10
-68.42480281888301
 20
4.565564941876861
 30
0.0
 10
-67.09285675061504
 20
3.846031924864988
 30
0.0
 10
-65.76147889027241
 20
3.104121662633056
 30
0.0
 10
-64.43055784308663
 20
2.344148261755466
 30
0.0
 10
-63.09997033758171
 20
1.57054940933347
 30
0.0
 10
-61.76960802637402
 20
0.7878079012336685
 30
0.0
 10
-60.88293804213731
 20
0.2630225199160529
 30
0.0
 10
-60.43936124964467
 20
0.0004823118033199
 30
0.0
  0
SPLINE
  5
5796
330
1F
100
AcDbEntity
  8
AM_0
 48
0.5
100
AcDbSpline
210
0.0
220
0.0
230
1.0
 70
     8
 71
     3
 72
    17
 73
    13
 74
     0
 42
0.0000000001
 43
0.0000000001
 40
0.0
 40
0.0
 40
0.0
 40
0.0
 40
1.010743614677189
 40
2.022833924044153
 40
3.037578959561199
 40
4.056212747067873
 40
5.079857613375832
 40
6.109500119648989
 40
7.14596120163808
 40
8.18989512056258
 40
9.241717674284874
 40
9.693948937866434
 40
9.693948937866434
 40
9.693948937866434
 40
9.693948937866434
 10
-10.74316352968111
 20
9.499999116813867
 30
0.0
 10
-11.19255921237783
 20
9.494350920265983
 30
0.0
 10
-12.09194934364103
 20
9.483047001625527
 30
0.0
 10
-13.44070552867936
 20
9.391834081894586
 30
0.0
 10
-14.78940618620845
 20
9.246884378720086
 30
0.0
 10
-16.1380229660345
 20
9.043709953733335
 30
0.0
 10
-17.48653980652235
 20
8.785066318495474
 30
0.0
 10
-18.83494023687186
 20
8.472152637464226
 30
0.0
 10
-20.18320615928301
 20
8.106983239488585
 30
0.0
 10
-21.53138989188573
 20
7.692016539001489
 30
0.0
 10
-22.61967895645572
 20
7.318194268869586
 30
0.0
 10
-23.25878610273411
 20
7.084501592042488
 30
0.0
 10
-23.45061177952461
 20
7.012969828073167
 30
0.0
  0
SPLINE
  5
5798
330
1F
100
AcDbEntity
  8
AM_0
 48
0.5
100
AcDbSpline
210
0.0
220
0.0
230
1.0
 70
     8
 71
     3
 72
    25
 73
    21
 74
     0
 42
0.0000000001
 43
0.0000000001
 40
6.846175049578289
 40
6.846175049578289
 40
6.846175049578289
 40
6.846175049578289
 40
7.604337694224321
 40
8.711974558287883
 40
9.814980593243754
 40
10.91239053451967
 40
12.0033633515982
 40
13.08720139956839
 40
14.16337181880432
 40
15.23152222380919
 40
16.29148850140128
 40
17.34331105512262
 40
18.38723020264746
 40
19.42369128463655
 40
20.45333379090873
 40
21.47697865721768
 40
22.49561244472435
 40
23.5103574802404
 40
24.52244778960836
 40
25.53320666051913
 40
25.53320666051913
 40
25.53320666051913
 40
25.53320666051913
 10
-12.31615404085631
 20
1.719561311896988
 30
0.0
 10
-12.62254553479432
 20
1.886364416209218
 30
0.0
 10
-13.37720415258424
 20
2.295189172055558
 30
0.0
 10
-14.58125139718487
 20
2.937191208592372
 30
0.0
 10
-15.92853253575628
 20
3.637473010388645
 30
0.0
 10
-17.27588142997118
 20
4.315381001269667
 30
0.0
 10
-18.62330965606755
 20
4.966747021676123
 30
0.0
 10
-19.97083222772107
 20
5.587552470110304
 30
0.0
 10
-21.31846160528286
 20
6.173968901381913
 30
0.0
 10
-22.66620402756718
 20
6.722392362066713
 30
0.0
 10
-24.01407609530322
 20
7.229409837822456
 30
0.0
 10
-25.36207598331129
 20
7.691912278438435
 30
0.0
 10
-26.71021337399178
 20
8.107013673527712
 30
0.0
 10
-28.05848350970579
 20
8.472145025275287
 30
0.0
 10
-29.40688112342874
 20
8.785068339734213
 30
0.0
 10
-30.75539871196174
 20
9.043709416030765
 30
0.0
 10
-32.1040152929125
 20
9.246884523105066
 30
0.0
 10
-33.45271600315773
 20
9.391834038915579
 30
0.0
 10
-34.80147894922068
 20
9.483047487846729
 30
0.0
 10
-35.70087587271074
 20
9.494351053827186
 30
0.0
 10
-36.15027834312235
 20
9.49999911681626
 30
0.0
  0
SPLINE
  5
5799
330
1F
100
AcDbEntity
  8
AM_0
 48
0.5
100
AcDbSpline
210
0.0
220
0.0
230
1.0
 70
     8
 71
     3
 72
    10
 73
     6
 74
     0
 42
0.0000000001
 43
0.0000000001
 40
0.0
 40
0.0
 40
0.0
 40
0.0
 40
2.69986029516136
 40
4.147722969032201
 40
6.285750005020438
 40
6.285750005020438
 40
6.285750005020438
 40
6.285750005020438
 10
-12.31593840425462
 20
1.719448477979208
 30
0.0
 10
-11.35600058796255
 20
0.8368328300203822
 30
0.0
 10
-9.881273863541741
 20
-0.5191059207464609
 30
0.0
 10
-6.393743263892692
 20
0.137327782542332
 30
0.0
 10
-7.050546716888172
 20
2.348283354327589
 30
0.0
 10
-7.484520473735282
 20
3.69592887092948
 30
0.0
  0
ELLIPSE
  5
579A
330
1F
100
AcDbEntity
  8
AM_0
 48
0.5
100
AcDbEllipse
 10
-16.3304108449626
 20
15.94444313740295
 30
0.0
 11
32.03302894318454
 21
12.41149140371769
 31
0.0
210
0.0
220
0.0
230
0.9999999999999998
 40
0.6308159955650491
 41
-1.553096813060022
 42
-1.47426573419617
  0
ELLIPSE
  5
579B
330
1F
100
AcDbEntity
  8
AM_0
 48
0.5
100
AcDbEllipse
 10
-4.861684928555388
 20
-2.475837637032441
 30
0.0
 11
-0.2114344187277889
 21
1.562747898615653
 31
0.0
210
0.0
220
0.0
230
0.9999999999999998
 40
0.4245882984026029
 41
1.836414392318049
 42
4.971756282030026
  0
ELLIPSE
  5
579C
330
1F
100
AcDbEntity
  8
AM_0
 48
0.5
100
AcDbEllipse
 10
-4.861684928555388
 20
-2.475837637032441
 30
0.0
 11
-1.110447314254373
 21
0.8635145798283973
 31
0.0
210
0.0
220
0.0
230
1.0
 40
0.5336274334602896
 41
4.596141388372435
 42
7.73958172970194
  0
ELLIPSE
  5
579D
330
1F
100
AcDbEntity
  8
AM_0
 48
0.5
100
AcDbEllipse
 10
-24.78551922243854
 20
65.21023553641611
 30
0.0
 11
0.0014314426243633
 21
71.22547517406727
 31
0.0
210
0.0
220
0.0
230
1.0
 40
0.8651936017909044
 41
3.480475525638597
 42
3.555541770764677
  0
ELLIPSE
  5
579E
330
1F
100
AcDbEntity
  8
AM_0
 48
0.5
100
AcDbEllipse
 10
1.597030963304636
 20
11.40533358946893
 30
0.0
 11
0.0000000000006968
 21
19.14672517776459
 31
0.0
210
0.0
220
0.0
230
1.0
 40
0.8423889176402196
 41
2.10116388002893
 42
2.509284810223828
  0
LINE
  5
579F
330
1F
100
AcDbEntity
  8
AM_0
 48
0.5
100
AcDbLine
 10
-10.7431635296826
 20
-9.500000883186137
 30
0.0
 11
-4.000000000000107
 21
-9.500000883186254
 31
0.0
  0
LINE
  5
57A0
330
1F
100
AcDbEntity
  8
AM_0
 48
0.5
100
AcDbLine
 10
-58.75865818896812
 20
-9.500000883181824
 30
0.0
 11
-36.15027834312383
 21
-9.500000883183719
 31
0.0
  0
LINE
  5
57A1
330
1F
100
AcDbEntity
  8
AM_11
 48
0.5
100
AcDbLine
 10
-84.16577300240621
 20
-9.500000883179408
 30
0.0
 11
-58.75865818896812
 21
-9.501350530588917
 31
0.0
  0
LINE
  5
57A2
330
1F
100
AcDbEntity
  8
AM_11
 48
0.5
100
AcDbLine
 10
-36.15027834312383
 20
-9.500000883183719
 30
0.0
 11
-10.7431635296826
 21
-9.500000883186137
 31
0.0
  0
SPLINE
  5
57A3
330
1F
100
AcDbEntity
  8
AM_0
100
AcDbSpline
210
0.0
220
0.0
230
1.0
 70
     8
 71
     3
 72
    11
 73
     7
 74
     0
 42
0.0000000001
 43
0.0000000001
 40
11.27226913003534
 40
11.27226913003534
 40
11.27226913003534
 40
11.2722691300354
 40
12.28301561507924
 40
13.29510212255852
 40
14.30984805882082
 40
15.18258238371378
 40
15.18258238371378
 40
15.18258238371378
 40
15.18258238371378
 10
-84.16577300240939
 20
-9.500000883179417
 30
0.0
 10
-84.61345977409811
 20
-9.453505122497418
 30
0.0
 10
-85.5079888950935
 20
-9.3409409094644
 30
0.0
 10
-86.84516339497001
 20
-9.113871049084785
 30
0.0
 10
-88.11416557341088
 20
-8.842660998100539
 30
0.0
 10
-88.93488169349287
 20
-8.634173760180052
 30
0.0
 10
-89.31309105149685
 20
-8.531186823272363
 30
0.0
  0
SPLINE
  5
57A4
330
1F
100
AcDbEntity
  8
AM_0
100
AcDbSpline
210
0.0
220
0.0
230
1.0
 70
     8
 71
     3
 72
    11
 73
     7
 74
     0
 42
0.0000000001
 43
0.0000000001
 40
11.27226913003534
 40
11.27226913003534
 40
11.27226913003534
 40
11.2722691300354
 40
12.28301561507924
 40
13.29510212255852
 40
14.30984805882082
 40
15.18258238371378
 40
15.18258238371378
 40
15.18258238371378
 40
15.18258238371378
 10
-36.15027834312378
 20
-9.50000088318373
 30
0.0
 10
-36.59796511481252
 20
-9.453505122501733
 30
0.0
 10
-37.49249423580792
 20
-9.340940909468709
 30
0.0
 10
-38.82966873568447
 20
-9.113871049089095
 30
0.0
 10
-40.09867091412532
 20
-8.84266099810485
 30
0.0
 10
-40.91938703420739
 20
-8.634173760184372
 30
0.0
 10
-41.29759639221134
 20
-8.531186823276678
 30
0.0
  0
SPLINE
  5
57A5
330
1F
100
AcDbEntity
  8
AM_0
100
AcDbSpline
210
0.0
220
0.0
230
1.0
 70
     8
 71
     3
 72
    22
 73
    18
 74
     0
 42
0.0000000001
 43
0.0000000001
 40
17.17441611292
 40
17.17441611292
 40
17.17441611292
 40
17.17441611292
 40
17.38177636558528
 40
18.41823744757437
 40
19.46215659509824
 40
20.51397914882054
 40
21.57394542641293
 40
22.64209583141747
 40
23.71826625065247
 40
24.80210429862395
 40
25.8930771157021
 40
26.99048705697709
 40
28.09349309193389
 40
29.20112995599786
 40
30.31233024745139
 40
31.42594771747373
 40
32.5407895042663
 40
32.54078950426994
 40
32.54078950426994
 40
32.54078950426994
 10
-89.31368090956187
 20
-8.531069640845004
 30
0.0
 10
-89.40399562066154
 20
-8.509078072621814
 30
0.0
 10
-89.94538298996777
 20
-8.375125026836673
 30
0.0
 10
-90.93717414347992
 20
-8.106531735660423
 30
0.0
 10
-92.28531143162589
 20
-7.691430987798637
 30
0.0
 10
-93.63331134741214
 20
-7.228928371786788
 30
0.0
 10
-94.98118340764245
 20
-6.721910943632958
 30
0.0
 10
-96.32892583187157
 20
-6.173487469806415
 30
0.0
 10
-97.67655520924597
 20
-5.587071043008303
 30
0.0
 10
-99.02407777966843
 20
-4.966265589917827
 30
0.0
 10
-100.371506010927
 20
-4.314899583747994
 30
0.0
 10
-101.7188548855693
 20
-3.636991540174762
 30
0.0
 10
-103.0661360977707
 20
-2.936709936258504
 30
0.0
 10
-104.4133632100949
 20
-2.218363022759884
 30
0.0
 10
-105.7605481645379
 20
-1.486367820074975
 30
0.0
 10
-107.1077109184728
 20
-0.7452411342535994
 30
0.0
 10
-108.0056431331523
 20
-0.2481831869463829
 30
0.0
 10
-108.4548559089362
 20
0.0004823118110398
 30
0.0
  0
SPLINE
  5
57A6
330
1F
100
AcDbEntity
  8
AM_0
100
AcDbSpline
210
0.0
220
0.0
230
1.0
 70
     8
 71
     3
 72
    46
 73
    42
 74
     0
 42
0.0000000001
 43
0.0000000001
 40
0.0
 40
0.0
 40
0.0
 40
0.0
 40
1.348332046947654
 40
2.024828967632893
 40
2.703918159304094
 40
3.386347665078122
 40
4.072776489761951
 40
4.763750544421345
 40
5.459696642770595
 40
6.160921452191748
 40
6.867565637253344
 40
7.579665907256597
 40
8.297112853413899
 40
9.019671552060666
 40
9.746986763446125
 40
10.47859339096365
 40
11.21393074760088
 40
11.95235532364327
 40
12.69315551794651
 40
13.43556823304427
 40
14.1787950170388
 40
14.92202180103393
 40
15.66443451613169
 40
16.40523471043432
 40
17.14365928647669
 40
17.87899664311455
 40
18.61060327063121
 40
19.33791848201689
 40
20.06048192311554
 40
20.77792886927282
 40
21.49002913927608
 40
22.19667332433747
 40
22.89788836015233
 40
23.59383445850157
 40
24.28480851316097
 40
24.97123685067575
 40
25.65366676154837
 40
26.33276604526151
 40
27.00926273560554
 40
27.68398960851752
 40
28.35781868496899
 40
28.35781868496899
 40
28.35781868496899
 40
28.35781868496899
 10
-54.98305416159616
 20
-9.50000088318216
 30
0.0
 10
-55.88248785526464
 20
-9.478359148823406
 30
0.0
 10
-57.23319327054261
 20
-9.445859134647619
 30
0.0
 10
-59.02928516311949
 20
-9.245762517938191
 30
0.0
 10
-60.37791592926868
 20
-9.044011900235547
 30
0.0
 10
-61.72643141959207
 20
-8.78499837765227
 30
0.0
 10
-63.07482808163818
 20
-8.47216614681519
 30
0.0
 10
-64.42309898842887
 20
-8.107010812295909
 30
0.0
 10
-65.77124188181281
 20
-7.691911129299612
 30
0.0
 10
-67.1192507620783
 20
-7.229415871327809
 30
0.0
 10
-68.46712832357155
 20
-6.722393605483836
 30
0.0
 10
-69.81487094091182
 20
-6.173970809089173
 30
0.0
 10
-71.16250026630531
 20
-5.587554199614555
 30
0.0
 10
-72.51002284949989
 20
-4.96674879265377
 30
0.0
 10
-73.85745108222268
 20
-4.315382786604925
 30
0.0
 10
-75.20479993794613
 20
-3.637474695549151
 30
0.0
 10
-76.55208122490364
 20
-2.937193282864207
 30
0.0
 10
-77.89930805554177
 20
-2.218845647866381
 30
0.0
 10
-79.24649471430547
 20
-1.486852799326561
 30
0.0
 10
-80.59365350783286
 20
-0.7457159787173628
 30
0.0
 10
-81.94080097690561
 20
-0.0000008833305246
 30
0.0
 10
-83.28794844568237
 20
0.7457142129625045
 30
0.0
 10
-84.63510724009749
 20
1.486851030854442
 30
0.0
 10
-85.98229389561655
 20
2.218843889324634
 30
0.0
 10
-87.32952073828618
 20
2.937191487494325
 30
0.0
 10
-88.67680198063203
 20
3.637473036734246
 30
0.0
 10
-90.02415100156769
 20
4.315380622078978
 30
0.0
 10
-91.37158155242381
 20
4.966749914799503
 30
0.0
 10
-92.71910937144115
 20
5.587549681428444
 30
0.0
 10
-94.06674110079885
 20
6.17396929784661
 30
0.0
 10
-95.41448368675984
 20
6.722392257426232
 30
0.0
 10
-96.76235571132522
 20
7.229409864168894
 30
0.0
 10
-98.11035561008475
 20
7.691912276550548
 30
0.0
 10
-99.45849300043995
 20
8.107013655274485
 30
0.0
 10
-100.8067631269221
 20
8.472145099414747
 30
0.0
 10
-102.1551607775301
 20
8.78506806392628
 30
0.0
 10
-103.5036848741833
 20
9.043711711878049
 30
0.0
 10
-104.8523086911801
 20
9.246882616344883
 30
0.0
 10
-106.2010159468761
 20
9.391834358490489
 30
0.0
 10
-107.5497721596422
 20
9.483046932670117
 30
0.0
 10
-108.4491622872158
 20
9.494350897297085
 30
0.0
 10
-108.8985579680687
 20
9.499999116822893
 30
0.0
  0
SPLINE
  5
57A7
330
1F
100
AcDbEntity
  8
AM_0
100
AcDbSpline
210
0.0
220
0.0
230
1.0
 70
     8
 71
     3
 72
    55
 73
    51
 74
     0
 42
0.0000000001
 43
0.0000000001
 40
0.0
 40
0.0
 40
0.0
 40
0.0
 40
1.010743684496582
 40
2.022833576467832
 40
3.037578957496688
 40
4.056212745003489
 40
5.079857003664532
 40
6.109500240690281
 40
7.145961322679372
 40
8.189895241603872
 40
9.241717795325891
 40
10.30168407291828
 40
11.36983447792315
 40
12.44600489715814
 40
13.52984294512926
 40
14.62081576220742
 40
15.7182257034828
 40
16.82123173843959
 40
17.92886860250316
 40
19.0400688939571
 40
20.15368796660465
 40
21.26852814259644
 40
22.38336992938901
 40
23.49698739941135
 40
24.6081876908653
 40
25.71582455492886
 40
26.81883757994213
 40
27.91624752121713
 40
29.00722033829659
 40
30.09105838626677
 40
31.16722880550176
 40
32.23537921050758
 40
33.29534548809967
 40
34.347168041821
 40
35.39108718934584
 40
36.42754827133493
 40
37.45720575381954
 40
38.48085062012849
 40
39.49948440763516
 40
40.51422944315121
 40
41.52631975251916
 40
42.53706336719636
 40
43.54780698187354
 40
44.55989729124051
 40
45.57464232675757
 40
46.59327611426424
 40
47.6169209805722
 40
48.64656348684535
 40
49.68302456883444
 40
50.58557219878025
 40
50.58557219878025
 40
50.58557219878025
 40
50.58557219878025
 10
-10.74316352968259
 20
-9.500000883186125
 30
0.0
 10
-11.19255913059468
 20
-9.494348613337649
 30
0.0
 10
-12.09194888151327
 20
-9.483036545393931
 30
0.0
 10
-13.44070620281767
 20
-9.391848578377734
 30
0.0
 10
-14.78940595075744
 20
-9.246883531776632
 30
0.0
 10
-16.13802222742394
 20
-9.043709505529401
 30
0.0
 10
-17.4865415757497
 20
-8.785079897228875
 30
0.0
 10
-18.83493739246306
 20
-8.472144791527751
 30
0.0
 10
-20.18321418788823
 20
-8.107012230837547
 30
0.0
 10
-21.53136000553483
 20
-7.691918112257402
 30
0.0
 10
-22.87936566207285
 20
-7.22941108849413
 30
0.0
 10
-24.22723787656528
 20
-6.722394268325947
 30
0.0
 10
-25.57498025888271
 20
-6.173970629451073
 30
0.0
 10
-26.92260964798665
 20
-5.58755424833059
 30
0.0
 10
-28.27013221382642
 20
-4.966748779269918
 30
0.0
 10
-29.6175604516256
 20
-4.315382790995599
 30
0.0
 10
-30.96490930454565
 20
-3.637474691484048
 30
0.0
 10
-32.3121905976395
 20
-2.937193294805367
 30
0.0
 10
-33.65941740642556
 20
-2.218845603965309
 30
0.0
 10
-35.00660414680327
 20
-1.486852963657027
 30
0.0
 10
-36.35376263488252
 20
-0.7457153638105254
 30
0.0
 10
-37.70091189462819
 20
-0.0000028215286866
 30
0.0
 10
-39.04805510680088
 20
0.7457231440436476
 30
0.0
 10
-40.39521811026179
 20
1.486849202417364
 30
0.0
 10
-41.74240318751933
 20
2.218844058425693
 30
0.0
 10
-43.08963239839593
 20
2.937194485850274
 30
0.0
 10
-44.4369192806589
 20
3.63746990620455
 30
0.0
 10
-45.78427026005139
 20
4.3153814436534
 30
0.0
 10
-47.13169869237434
 20
4.966746903737055
 30
0.0
 10
-48.47922120918211
 20
5.587552503350776
 30
0.0
 10
-49.82685060173679
 20
6.173968885329067
 30
0.0
 10
-51.1745930183823
 20
6.722392393067579
 30
0.0
 10
-52.52246509375957
 20
7.229409730946577
 30
0.0
 10
-53.87046495706449
 20
7.691912670778754
 30
0.0
 10
-55.21860243798633
 20
8.107012226056221
 30
0.0
 10
-56.56687873327074
 20
8.47215212910288
 30
0.0
 10
-57.91528417798217
 20
8.785051493270943
 30
0.0
 10
-59.26380798143481
 20
9.04376115290257
 30
0.0
 10
-60.61242465789153
 20
9.246694342565891
 30
0.0
 10
-61.96112534294889
 20
9.392539709086657
 30
0.0
 10
-63.30988152066779
 20
9.480422323432021
 30
0.0
 10
-64.65866733648574
 20
9.509780996932564
 30
0.0
 10
-66.00745315031915
 20
9.480422323386237
 30
0.0
 10
-67.35620933400326
 20
9.392539709271792
 30
0.0
 10
-68.70490999709841
 20
9.24669434187065
 30
0.0
 10
-70.05352675589674
 20
9.043761155518673
 30
0.0
 10
-71.40204367548562
 20
8.785052744689691
 30
0.0
 10
-72.75044380799283
 20
8.472155328331194
 30
0.0
 10
-74.0374169061227
 20
8.123587265941361
 30
0.0
 10
-74.87241970865554
 20
7.868676146666998
 30
0.0
 10
-75.2598123415475
 20
7.74444552293132
 30
0.0
  0
SPLINE
  5
57A8
330
1F
100
AcDbEntity
  8
AM_0
100
AcDbSpline
210
0.0
220
0.0
230
1.0
 70
     8
 71
     3
 72
    22
 73
    18
 74
     0
 42
0.0000000001
 43
0.0000000001
 40
17.17441611292
 40
17.17441611292
 40
17.17441611292
 40
17.17441611292
 40
17.38177636558528
 40
18.41823744757437
 40
19.46215659509824
 40
20.51397914882054
 40
21.57394542641293
 40
22.64209583141747
 40
23.71826625065247
 40
24.80210429862395
 40
25.8930771157021
 40
26.99048705697709
 40
28.09349309193389
 40
29.20112995599786
 40
30.31233024745139
 40
31.42594771747373
 40
32.5407895042663
 40
32.54078950426994
 40
32.54078950426994
 40
32.54078950426994
 10
-41.29818625027634
 20
-8.531069640849317
 30
0.0
 10
-41.38850096137605
 20
-8.509078072626117
 30
0.0
 10
-41.92988833068226
 20
-8.375125026840988
 30
0.0
 10
-42.92167948419444
 20
-8.106531735664718
 30
0.0
 10
-44.2698167723404
 20
-7.69143098780295
 30
0.0
 10
-45.61781668812663
 20
-7.228928371791096
 30
0.0
 10
-46.9656887483569
 20
-6.721910943637274
 30
0.0
 10
-48.31343117258599
 20
-6.173487469810716
 30
0.0
 10
-49.66106054996034
 20
-5.587071043012606
 30
0.0
 10
-51.00858312038276
 20
-4.966265589922133
 30
0.0
 10
-52.35601135164131
 20
-4.314899583752299
 30
0.0
 10
-53.70336022628372
 20
-3.636991540179067
 30
0.0
 10
-55.05064143848532
 20
-2.936709936262808
 30
0.0
 10
-56.39786855080969
 20
-2.21836302276419
 30
0.0
 10
-57.74505350525244
 20
-1.48636782007928
 30
0.0
 10
-59.09221625918728
 20
-0.7452411342579062
 30
0.0
 10
-59.99014847386678
 20
-0.2481831869506895
 30
0.0
 10
-60.43936124965064
 20
0.0004823118067331
 30
0.0
  0
SPLINE
  5
57A9
330
1F
100
AcDbEntity
  8
AM_0
100
AcDbSpline
210
0.0
220
0.0
230
1.0
 70
     8
 71
     3
 72
    46
 73
    42
 74
     0
 42
0.0000000001
 43
0.0000000001
 40
0.0
 40
0.0
 40
0.0
 40
0.0
 40
1.348332046947657
 40
2.024828967632895
 40
2.703918159304097
 40
3.386347665078124
 40
4.072776489761952
 40
4.763750544421347
 40
5.459696642770596
 40
6.160921452191754
 40
6.867565637253344
 40
7.579665907256596
 40
8.297112853413899
 40
9.019671552060676
 40
9.746986763446127
 40
10.47859339096366
 40
11.21393074760089
 40
11.95235532364328
 40
12.69315551794651
 40
13.43556823304427
 40
14.1787950170388
 40
14.92202180103393
 40
15.66443451613169
 40
16.40523471043432
 40
17.14365928647669
 40
17.87899664311455
 40
18.61060327063121
 40
19.3379184820169
 40
20.06048192311554
 40
20.77792886927283
 40
21.49002913927608
 40
22.19667332433747
 40
22.89788836015233
 40
23.59383445850158
 40
24.28480851316097
 40
24.97123685067576
 40
25.65366676154838
 40
26.33276604526152
 40
27.00926273560555
 40
27.68398960851751
 40
28.357818684969
 40
28.357818684969
 40
28.357818684969
 40
28.357818684969
 10
-6.96755950231063
 20
-9.500000883186466
 30
0.0
 10
-7.866993195979132
 20
-9.478359148827706
 30
0.0
 10
-9.217698611257098
 20
-9.445859134651932
 30
0.0
 10
-11.013790503834
 20
-9.245762517942484
 30
0.0
 10
-12.36242126998314
 20
-9.044011900239851
 30
0.0
 10
-13.71093676030654
 20
-8.784998377656586
 30
0.0
 10
-15.05933342235261
 20
-8.472166146819496
 30
0.0
 10
-16.40760432914327
 20
-8.107010812300215
 30
0.0
 10
-17.75574722252736
 20
-7.69191112930392
 30
0.0
 10
-19.10375610279279
 20
-7.229415871332133
 30
0.0
 10
-20.45163366428603
 20
-6.722393605488139
 30
0.0
 10
-21.79937628162628
 20
-6.173970809093471
 30
0.0
 10
-23.14700560701976
 20
-5.587554199618852
 30
0.0
 10
-24.49452819021436
 20
-4.966748792658091
 30
0.0
 10
-25.84195642293704
 20
-4.315382786609215
 30
0.0
 10
-27.18930527866041
 20
-3.63747469555348
 30
0.0
 10
-28.53658656561812
 20
-2.937193282868498
 30
0.0
 10
-29.88381339625632
 20
-2.218845647870696
 30
0.0
 10
-31.23100005502005
 20
-1.486852799330862
 30
0.0
 10
-32.57815884854734
 20
-0.7457159787216713
 30
0.0
 10
-33.92530631762004
 20
-0.0000008833348335
 30
0.0
 10
-35.27245378639679
 20
0.7457142129581998
 30
0.0
 10
-36.61961258081176
 20
1.486851030850136
 30
0.0
 10
-37.96679923633077
 20
2.218843889320329
 30
0.0
 10
-39.31402607900054
 20
2.937191487490023
 30
0.0
 10
-40.66130732134654
 20
3.637473036729936
 30
0.0
 10
-42.00865634228229
 20
4.315380622074673
 30
0.0
 10
-43.35608689313835
 20
4.966749914795188
 30
0.0
 10
-44.70361471215565
 20
5.587549681424132
 30
0.0
 10
-46.05124644151331
 20
6.173969297842306
 30
0.0
 10
-47.39898902747427
 20
6.722392257421916
 30
0.0
 10
-48.74686105203962
 20
7.229409864164578
 30
0.0
 10
-50.09486095079907
 20
7.691912276546245
 30
0.0
 10
-51.44299834115426
 20
8.107013655270176
 30
0.0
 10
-52.79126846763654
 20
8.472145099410445
 30
0.0
 10
-54.13966611824456
 20
8.785068063921972
 30
0.0
 10
-55.48819021489785
 20
9.043711711873744
 30
0.0
 10
-56.8368140318946
 20
9.246882616340567
 30
0.0
 10
-58.1855212875906
 20
9.391834358486164
 30
0.0
 10
-59.53427750035669
 20
9.483046932665802
 30
0.0
 10
-60.43366762793029
 20
9.494350897292767
 30
0.0
 10
-60.88306330878326
 20
9.499999116818583
 30
0.0
  0
ELLIPSE
  5
57AA
330
1F
100
AcDbEntity
  8
AM_0
 48
0.5
100
AcDbEllipse
 10
4.765558013311641
 20
-2.111720014656715
 30
0.0
 11
12.53668554935186
 21
3.179278186791798
 31
0.0
210
0.0
220
0.0
230
1.0
 40
0.6414665397265779
 41
2.989949312148808
 42
3.789470854718868
  0
SPLINE
  5
57AB
330
1F
100
AcDbEntity
  8
AM_0
100
AcDbSpline
210
0.0
220
0.0
230
1.0
 70
     8
 71
     3
 72
    17
 73
    13
 74
     0
 42
0.0000000001
 43
0.0000000001
 40
1.580019955310467
 40
1.580019955310467
 40
1.580019955310467
 40
1.580019955310467
 40
2.030549285115227
 40
3.082371838836284
 40
4.126290986361125
 40
5.162752068350215
 40
6.192395305374981
 40
7.216039564037012
 40
8.234688489606833
 40
9.249433870634691
 40
10.26152376260694
 40
11.27226744710342
 40
11.27226744710342
 40
11.27226744710342
 40
11.27226744710352
 10
-71.46122447175194
 20
-7.01128062578905
 30
0.0
 10
-71.65205111991035
 20
-7.083490982602111
 30
0.0
 10
-72.28947623529915
 20
-7.320170072128773
 30
0.0
 10
-73.37771898208123
 20
-7.691409692576103
 30
0.0
 10
-74.72566861260128
 20
-8.107148819172694
 30
0.0
 10
-76.07398933239266
 20
-8.472112573956653
 30
0.0
 10
-77.42237183176865
 20
-8.785075326612668
 30
0.0
 10
-78.77090123500136
 20
-9.043760570964028
 30
0.0
 10
-80.11952380426086
 20
-9.246692104385616
 30
0.0
 10
-81.46823034955721
 20
-9.392554862639213
 30
0.0
 10
-82.81698764225374
 20
-9.480409910210559
 30
0.0
 10
-83.7163774074261
 20
-9.500000937538974
 30
0.0
 10
-84.16577300240932
 20
-9.500000883179417
 30
0.0
  0
SPLINE
  5
57AC
330
1F
100
AcDbEntity
  8
AM_0
100
AcDbSpline
210
0.0
220
0.0
230
1.0
 70
     8
 71
     3
 72
    17
 73
    13
 74
     0
 42
0.0000000001
 43
0.0000000001
 40
1.580019955310467
 40
1.580019955310467
 40
1.580019955310467
 40
1.580019955310467
 40
2.030549285115227
 40
3.082371838836284
 40
4.126290986361125
 40
5.162752068350215
 40
6.192395305374981
 40
7.216039564037012
 40
8.234688489606833
 40
9.249433870634691
 40
10.26152376260694
 40
11.27226744710342
 40
11.27226744710342
 40
11.27226744710342
 40
11.27226744710352
 10
-23.44572981246643
 20
-7.01128062579335
 30
0.0
 10
-23.63655646062485
 20
-7.083490982606411
 30
0.0
 10
-24.27398157601366
 20
-7.320170072133085
 30
0.0
 10
-25.36222432279579
 20
-7.69140969258041
 30
0.0
 10
-26.71017395331583
 20
-8.107148819176991
 30
0.0
 10
-28.05849467310711
 20
-8.472112573960959
 30
0.0
 10
-29.40687717248312
 20
-8.785075326616968
 30
0.0
 10
-30.75540657571582
 20
-9.043760570968331
 30
0.0
 10
-32.10402914497538
 20
-9.246692104389948
 30
0.0
 10
-33.45273569027166
 20
-9.392554862643525
 30
0.0
 10
-34.80149298296817
 20
-9.480409910214868
 30
0.0
 10
-35.7008827481405
 20
-9.500000937543276
 30
0.0
 10
-36.15027834312371
 20
-9.50000088318373
 30
0.0
  0
POLYLINE
  5
57AD
330
1F
100
AcDbEntity
  8
AM_0
100
AcDb2dPolyline
 66
     1
 10
0.0
 20
0.0
 30
0.0
 70
     2
  0
VERTEX
  5
57AE
330
57AD
100
AcDbEntity
  8
AM_0
100
AcDbVertex
100
AcDb2dVertex
 10
-143.2750272007294
 20
8.241180370142373
 30
0.0
 42
0.0862297278188617
  0
VERTEX
  5
57AF
330
57AD
100
AcDbEntity
  8
AM_0
100
AcDbVertex
100
AcDb2dVertex
 10
-146.7270570863055
 20
7.935903727816405
 30
0.0
 42
0.0414024687830266
 70
     1
  0
VERTEX
  5
57B0
330
57AD
100
AcDbEntity
  8
AM_0
100
AcDbVertex
100
AcDb2dVertex
 10
-147.1443542768701
 20
7.771791645845135
 30
0.0
 42
0.0280074108471844
  0
VERTEX
  5
57B1
330
57AD
100
AcDbEntity
  8
AM_0
100
AcDbVertex
100
AcDb2dVertex
 10
-148.0958072542307
 20
7.226738865208455
 30
0.0
 42
0.0512701366748525
 70
     1
  0
VERTEX
  5
57B2
330
57AD
100
AcDbEntity
  8
AM_0
100
AcDbVertex
100
AcDb2dVertex
 10
-148.5662792909467
 20
6.843715719111536
 30
0.0
 42
0.0658714570033076
  0
VERTEX
  5
57B3
330
57AD
100
AcDbEntity
  8
AM_0
100
AcDbVertex
100
AcDb2dVertex
 10
-148.8615529106035
 20
6.45802690499902
 30
0.0
 42
0.1411961588081283
 70
     1
  0
VERTEX
  5
57B4
330
57AD
100
AcDbEntity
  8
AM_0
100
AcDbVertex
100
AcDb2dVertex
 10
-148.9217605444658
 20
6.230268062165066
 30
0.0
 42
0.1226739033459629
  0
VERTEX
  5
57B5
330
57AD
100
AcDbEntity
  8
AM_0
100
AcDbVertex
100
AcDb2dVertex
 10
-148.8630241114546
 20
5.979849625037581
 30
0.0
 42
0.0555312784770531
 70
     1
  0
VERTEX
  5
57B6
330
57AD
100
AcDbEntity
  8
AM_0
100
AcDbVertex
100
AcDb2dVertex
 10
-148.5662792909468
 20
5.515272672778068
 30
0.0
 42
0.0351528005485752
  0
VERTEX
  5
57B7
330
57AD
100
AcDbEntity
  8
AM_0
100
AcDbVertex
100
AcDb2dVertex
 10
-148.0866978300441
 20
4.997120451945864
 30
0.0
 42
0.0198940146009696
 70
     1
  0
VERTEX
  5
57B8
330
57AD
100
AcDbEntity
  8
AM_0
100
AcDbVertex
100
AcDb2dVertex
 10
-147.1061156044079
 20
4.251228571679654
 30
0.0
 42
0.0358460074876439
  0
VERTEX
  5
57B9
330
57AD
100
AcDbEntity
  8
AM_0
100
AcDbVertex
100
AcDb2dVertex
 10
-146.7196136894344
 20
3.986676390669594
 30
0.0
 42
0.021710998496176
 70
     1
  0
VERTEX
  5
57BA
330
57AD
100
AcDbEntity
  8
AM_0
100
AcDbVertex
100
AcDb2dVertex
 10
-146.0396718438505
 20
3.631957104571079
 30
0.0
  0
SEQEND
  5
57BB
330
57AD
100
AcDbEntity
  8
AM_0
  0
LINE
  5
57BC
330
1F
100
AcDbEntity
  8
AM_11
 48
0.5
100
AcDbLine
 10
-147.2690867376192
 20
9.499999116826154
 30
0.0
 11
-112.6743370199727
 21
9.499999116823239
 31
0.0
  0
ELLIPSE
  5
57BD
330
1F
100
AcDbEntity
  8
AM_0
100
AcDbEllipse
 10
-154.8533913463702
 20
-6.329045433564334
 30
0.0
 11
-2.699378923460447
 21
0.2003476454837586
 31
0.0
210
0.0
220
0.0
230
0.9999999999999998
 40
0.5610361810677642
 41
1.557379494080601
 42
1.65124093317392
  0
ELLIPSE
  5
57BE
330
1F
100
AcDbEntity
  8
AM_0
100
AcDbEllipse
 10
-154.928854742166
 20
-8.421482197257748
 30
0.0
 11
-0.0000000000000039
 21
1.553766958216005
 31
0.0
210
0.0
220
0.0
230
1.0
 40
0.9108604062368495
 41
-0.130509439196967
 42
0.0485168534968574
  0
ELLIPSE
  5
57BF
330
1F
100
AcDbEntity
  8
AM_0
100
AcDbEllipse
 10
-154.2118909264797
 20
-3.106804563752341
 30
0.0
 11
-0.0000000000060157
 21
4.812683511511584
 31
0.0
210
0.0
220
0.0
230
1.0
 40
0.9108604062370618
 41
2.827283645644355
 42
2.960363693369872
  0
ELLIPSE
  5
57C0
330
1F
100
AcDbEntity
  8
AM_0
100
AcDbEllipse
 10
-154.5897785557857
 20
-11.55336112640032
 30
0.0
 11
-0.0000000000001511
 21
4.705157248586069
 31
0.0
210
0.0
220
0.0
230
1.0
 40
0.9108604062365893
 41
0.0952766170359809
 42
0.2313492321876267
  0
ELLIPSE
  5
57C1
330
1F
100
AcDbEntity
  8
AM_0
100
AcDbEllipse
 10
-155.345539715681
 20
-6.727231104219926
 30
0.0
 11
0.000000000000494
 21
0.9869535484096452
 31
0.0
210
0.0
220
0.0
230
1.0
 40
0.9108604062366762
 41
2.598176912238487
 42
2.892513815369474
  0
ELLIPSE
  5
57C2
330
1F
100
AcDbEntity
  8
AM_0
100
AcDbEllipse
 10
-155.5085735003233
 20
-7.020203102599181
 30
0.0
 11
0.0000000000026827
 21
0.6436387730019186
 31
0.0
210
0.0
220
0.0
230
1.0
 40
0.9108604062365001
 41
2.250206732580274
 42
2.600849383086476
  0
ELLIPSE
  5
57C3
330
1F
100
AcDbEntity
  8
AM_0
100
AcDbEllipse
 10
-155.8393386077586
 20
-7.314321064343669
 30
0.0
 11
-0.0000000000002793
 21
0.176337185018719
 31
0.0
210
0.0
220
0.0
230
1.0
 40
0.9108604062361761
 41
1.570250563377344
 42
2.246594350018968
  0
ELLIPSE
  5
57C4
330
1F
100
AcDbEntity
  8
AM_0
100
AcDbEllipse
 10
-155.8436434467856
 20
-7.316438174638515
 30
0.0
 11
0.0000000000012502
 21
0.1716253076850964
 31
0.0
210
0.0
220
0.0
230
1.0
 40
0.9108604062354487
 41
0.87082294486007
 42
1.557899568963406
  0
ELLIPSE
  5
57C5
330
1F
100
AcDbEntity
  8
AM_0
100
AcDbEllipse
 10
-155.5480714194858
 20
-7.592272037460452
 30
0.0
 11
-0.000000000004791
 21
0.5975149020508567
 31
0.0
210
0.0
220
0.0
230
1.0
 40
0.9108604062363195
 41
0.5028645116579687
 42
0.8675868530608838
  0
ELLIPSE
  5
57C6
330
1F
100
AcDbEntity
  8
AM_0
100
AcDbEllipse
 10
-155.4171921390324
 20
-7.847509463444941
 30
0.0
 11
0.0000000000017042
 21
0.8904084653286307
 31
0.0
210
0.0
220
0.0
230
1.0
 40
0.9108604062371316
 41
0.1926332863351101
 42
0.5061117441996044
  0
ELLIPSE
  5
57C7
330
1F
100
AcDbEntity
  8
AM_0
100
AcDbEllipse
 10
-154.6337645079152
 20
-5.629855557798235
 30
0.0
 11
0.0000000000004319
 21
2.228032712748692
 31
0.0
210
0.0
220
0.0
230
1.0
 40
0.9625404292853442
 41
3.088060236649601
 42
3.196956952929496
  0
ELLIPSE
  5
57C8
330
1F
100
AcDbEntity
  8
AM_0
100
AcDbEllipse
 10
-155.0368068249059
 20
-9.382114579618527
 30
0.0
 11
0.0000000000052218
 21
2.521664697019736
 31
0.0
210
0.0
220
0.0
230
1.0
 40
0.9108604062357446
 41
-0.2679377313980373
 42
-0.127532319504065
  0
SPLINE
  5
57C9
330
1F
100
AcDbEntity
  8
AM_0
100
AcDbSpline
210
0.0
220
0.0
230
1.0
 70
     8
 71
     3
 72
     9
 73
     5
 74
     0
 42
0.0000000001
 43
0.0000000001
 40
1.580019955310467
 40
1.580019955310467
 40
1.580019955310467
 40
1.580019955310467
 40
2.030549285115227
 40
2.43907978603305
 40
2.43907978603305
 40
2.43907978603305
 40
2.43907978603305
 10
-152.9688246765722
 20
-7.374446355206423
 30
0.0
 10
-153.1948661904577
 20
-7.441166626779992
 30
0.0
 10
-153.6266139601171
 20
-7.566212668992569
 30
0.0
 10
-154.060166692753
 20
-7.685929490254959
 30
0.0
 10
-154.266703306898
 20
-7.741750917290085
 30
0.0
  0
SPLINE
  5
57CA
330
1F
100
AcDbEntity
  8
AM_0
100
AcDbSpline
210
0.0
220
0.0
230
1.0
 70
     8
 71
     3
 72
    15
 73
    11
 74
     0
 42
0.0000000001
 43
0.0000000001
 40
5.309921363766678
 40
5.309921363766678
 40
5.309921363766678
 40
5.309921363766678
 40
5.954688180526682
 40
6.824620803463244
 40
7.701151815239697
 40
8.58445704656667
 40
9.47458238407075
 40
10.37139106676736
 40
11.27458944007584
 40
12.17321262433756
 40
12.17321262433756
 40
12.17321262433756
 40
12.17321262433756
 10
-138.686315624188
 20
0.3851860965053681
 30
0.0
 10
-143.8325872756451
 20
-0.9635874311986874
 30
0.0
 10
-144.7651464510053
 20
-1.166258045598076
 30
0.0
 10
-146.2281180217778
 20
-1.521618278159129
 30
0.0
 10
-147.8248864551536
 20
-1.953806505908834
 30
0.0
 10
-149.4214993363863
 20
-2.427603914050323
 30
0.0
 10
-151.0179523710728
 20
-2.940088901400841
 30
0.0
 10
-152.6142712070853
 20
-3.488077990593404
 30
0.0
 10
-154.2042648828993
 20
-4.065949521224808
 30
0.0
 10
-155.2589477705715
 20
-4.468053677655824
 30
0.0
 10
-155.9999571438724
 20
-4.672030977901901
 30
0.0
  0
SPLINE
  5
57CB
330
1F
100
AcDbEntity
  8
AM_0
100
AcDbSpline
210
0.0
220
0.0
230
1.0
 70
     8
 71
     3
 72
    13
 73
     9
 74
     0
 42
0.0000000001
 43
0.0000000001
 40
26.13201924531566
 40
26.13201924531566
 40
26.13201924531566
 40
26.13201924531566
 40
26.99048218457928
 40
28.09348763352352
 40
29.20111863782268
 40
30.31232390128032
 40
31.42594612798585
 40
32.5407912310448
 40
32.5407912310486
 40
32.5407912310486
 40
32.5407912310486
 10
-146.0396718438505
 20
3.631957104571072
 30
0.0
 10
-145.4500424929283
 20
3.388256435490252
 30
0.0
 10
-144.5094414526448
 20
2.992577245336689
 30
0.0
 10
-143.0462919350583
 20
2.356590762628715
 30
0.0
 10
-141.4697646980544
 20
1.654397421769443
 30
0.0
 10
-139.8936325540167
 20
0.9396145595800533
 30
0.0
 10
-138.3177671612968
 20
0.2163841491905199
 30
0.0
 10
-137.2674724174134
 20
-0.268502295145525
 30
0.0
 10
-136.742038623616
 20
-0.5110818191547822
 30
0.0
  0
ELLIPSE
  5
57CC
330
1F
100
AcDbEntity
  8
AM_0
100
AcDbEllipse
 10
-143.4609385191149
 20
31.43002760223493
 30
0.0
 11
-19.04170940602018
 21
18.66688877127559
 31
0.0
210
0.0
220
0.0
230
0.9999999999999998
 40
0.7803944674947323
 41
2.064335344926601
 42
2.231603825065
  0
SPLINE
  5
57CE
330
1F
100
AcDbEntity
  8
AM_0
100
AcDbSpline
210
0.0
220
0.0
230
1.0
 70
     8
 71
     3
 72
    16
 73
    12
 74
     0
 42
0.0000000001
 43
0.0000000001
 40
4.370862447889189
 40
4.370862447889189
 40
4.370862447889189
 40
4.370862447889189
 40
5.09097061220244
 40
5.954688180526682
 40
6.824620803463244
 40
7.701151815239697
 40
8.58445704656667
 40
9.47458238407075
 40
10.37139106676736
 40
11.27458944007584
 40
12.17321262433756
 40
12.17321262433756
 40
12.17321262433756
 40
12.17321262433756
 10
-137.4835749116721
 20
-9.499825927445549
 30
0.0
 10
-137.9311734252658
 20
-9.422728519357141
 30
0.0
 10
-138.9131525609897
 20
-9.240606831923473
 30
0.0
 10
-140.4252358720952
 20
-8.91753977899188
 30
0.0
 10
-142.0221630491711
 20
-8.529641323296523
 30
0.0
 10
-147.8248864551539
 20
-7.39025544986597
 30
0.0
 10
-149.4214993363866
 20
-6.916458041724329
 30
0.0
 10
-151.0179523710732
 20
-6.403973054373711
 30
0.0
 10
-152.6142712070856
 20
-5.855983965180975
 30
0.0
 10
-154.2042648828993
 20
-5.278112434549424
 30
0.0
 10
-155.2589477705715
 20
-4.876008278118316
 30
0.0
 10
-155.9999571438724
 20
-4.672030977872186
 30
0.0
  0
SPLINE
  5
57CF
330
1F
100
AcDbEntity
  8
AM_0
100
AcDbSpline
210
0.0
220
0.0
230
1.0
 70
     8
 71
     3
 72
    13
 73
     9
 74
     0
 42
0.0000000001
 43
0.0000000001
 40
5.148341597734571
 40
5.148341597734571
 40
5.148341597734571
 40
5.148341597734571
 40
6.109500240690281
 40
7.145961322679372
 40
8.189895241603872
 40
9.241717795325891
 40
10.30168407291828
 40
10.55450228288433
 40
10.55450228288433
 40
10.55450228288433
 40
10.55450228288433
 10
-142.184739968968
 20
-9.499696910430021
 30
0.0
 10
-143.8800508907163
 20
-9.34556269144684
 30
0.0
 10
-147.5416289660387
 20
-8.71556626584368
 30
0.0
 10
-149.1035461291321
 20
-8.385623486039882
 30
0.0
 10
-150.7004767701095
 20
-8.002088581317934
 30
0.0
 10
-152.297241384856
 20
-7.574745529821435
 30
0.0
 10
-153.4844801349754
 20
-7.226391500172485
 30
0.0
 10
-154.1404838716856
 20
-7.024229361670421
 30
0.0
 10
-154.428721996863
 20
-6.950425606401626
 30
0.0
  0
ELLIPSE
  5
57D0
330
1F
100
AcDbEntity
  8
AM_0
100
AcDbEllipse
 10
-153.6901871786801
 20
-9.922771523972343
 30
0.0
 11
2.069812947605422
 21
1.81194833897988
 31
0.0
210
0.0
220
0.0
230
0.9999999999999998
 40
0.7888861722350243
 41
1.197652031780011
 42
2.130046025310217
  0
LINE
  5
57D1
330
1F
100
AcDbEntity
  8
AM_0
100
AcDbLine
 10
-112.6743370199727
 20
9.499999116823239
 30
0.0
 11
-80.87248188205355
 21
9.501348764227584
 31
0.0
  0
SPLINE
  5
57D2
330
1F
100
AcDbEntity
  8
AM_0
100
AcDbSpline
210
0.0
220
0.0
230
1.0
 70
     8
 71
     3
 72
    22
 73
    18
 74
     0
 42
0.0000000001
 43
0.0000000001
 40
30.51371389116273
 40
30.51371389116273
 40
30.51371389116273
 40
30.51371389116273
 40
31.16722880550176
 40
32.23537921050758
 40
33.29534548809967
 40
34.347168041821
 40
35.39108718934584
 40
36.42754827133493
 40
37.45720575381954
 40
38.48085062012849
 40
39.49948440763516
 40
40.51422944315121
 40
41.52631975251916
 40
42.53706336719636
 40
43.54780698187354
 40
44.55989729124051
 40
45.14939243453665
 40
45.14939243453665
 40
45.14939243453665
 40
45.14939243453665
 10
-108.4539845715432
 20
-0.0000000243091549
 30
0.0
 10
-120.460585600708
 20
4.97419904916916
 30
0.0
 10
-121.313210422048
 20
5.259879329251347
 30
0.0
 10
-122.6990860948274
 20
5.699767786198269
 30
0.0
 10
-124.2956924775444
 20
6.168237074659802
 30
0.0
 10
-125.8924502299832
 20
6.595576352722615
 30
0.0
 10
-127.4893709957892
 20
6.979116280794921
 30
0.0
 10
-129.0864561925537
 20
7.31649494181819
 30
0.0
 10
-130.6836943717882
 20
7.605604862802463
 30
0.0
 10
-132.28107275151
 20
7.844645071314396
 30
0.0
 10
-133.8785611428819
 20
8.032149442199413
 30
0.0
 10
-135.4761490456763
 20
8.166906323226804
 30
0.0
 10
-137.0738026816657
 20
8.248107305391869
 30
0.0
 10
-138.6714914251249
 20
8.275233866669843
 30
0.0
 10
-140.2691801662332
 20
8.248107305349513
 30
0.0
 10
-141.64316817012
 20
8.17827416248371
 30
0.0
 10
-142.2458989903856
 20
8.258916713058043
 30
0.0
 10
-143.2750272007199
 20
8.241180370141268
 30
0.0
  0
SPLINE
  5
57D3
330
1F
100
AcDbEntity
  8
AM_0
100
AcDbSpline
210
0.0
220
0.0
230
1.0
 70
     8
 71
     3
 72
    55
 73
    51
 74
     0
 42
0.0000000001
 43
0.0000000001
 40
0.0
 40
0.0
 40
0.0
 40
0.0
 40
1.010743684496582
 40
2.022833576467832
 40
3.037578957496688
 40
4.056212745003489
 40
5.079857003664532
 40
6.109500240690281
 40
7.145961322679372
 40
8.189895241603872
 40
9.241717795325891
 40
10.30168407291828
 40
11.36983447792315
 40
12.44600489715814
 40
13.52984294512926
 40
14.62081576220742
 40
15.7182257034828
 40
16.82123173843959
 40
17.92886860250316
 40
19.0400688939571
 40
20.15368796660465
 40
21.26852814259644
 40
22.38336992938901
 40
23.49698739941135
 40
24.6081876908653
 40
25.71582455492886
 40
26.81883757994213
 40
27.91624752121713
 40
29.00722033829659
 40
30.09105838626677
 40
31.16722880550176
 40
32.23537921050758
 40
33.29534548809967
 40
34.347168041821
 40
35.39108718934584
 40
36.42754827133493
 40
37.45720575381954
 40
38.48085062012849
 40
39.49948440763516
 40
40.51422944315121
 40
41.52631975251916
 40
42.53706336719636
 40
43.54780698187354
 40
44.55989729124051
 40
45.57464232675757
 40
46.59327611426424
 40
47.6169209805722
 40
48.64656348684535
 40
49.68302456883444
 40
50.58557219878025
 40
50.58557219878025
 40
50.58557219878025
 40
50.58557219878025
 10
-58.75865818896812
 20
-9.500000883181824
 30
0.0
 10
-59.2080537898802
 20
-9.494348613333336
 30
0.0
 10
-60.10744354079879
 20
-9.483036545389614
 30
0.0
 10
-61.45620086210318
 20
-9.391848578373412
 30
0.0
 10
-62.80490061004295
 20
-9.246883531772326
 30
0.0
 10
-64.15351688670949
 20
-9.043709505525086
 30
0.0
 10
-65.50203623503532
 20
-8.785079897224573
 30
0.0
 10
-66.8504320517487
 20
-8.472144791523444
 30
0.0
 10
-68.19870884717369
 20
-8.107012230833239
 30
0.0
 10
-69.54685466482025
 20
-7.691918112253097
 30
0.0
 10
-70.89486032135835
 20
-7.229411088489823
 30
0.0
 10
-72.24273253585081
 20
-6.722394268321643
 30
0.0
 10
-73.59047491816825
 20
-6.173970629446764
 30
0.0
 10
-74.93810430727217
 20
-5.587554248326282
 30
0.0
 10
-76.28562687311201
 20
-4.966748779265605
 30
0.0
 10
-77.63305511091125
 20
-4.315382790991293
 30
0.0
 10
-78.98040396383135
 20
-3.637474691479743
 30
0.0
 10
-80.32768525692503
 20
-2.937193294801062
 30
0.0
 10
-81.67491206571098
 20
-2.218845603961005
 30
0.0
 10
-83.02209880608867
 20
-1.48685296365272
 30
0.0
 10
-84.36925729416808
 20
-0.7457153638062197
 30
0.0
 10
-85.71640655391377
 20
-0.0000028215243799
 30
0.0
 10
-87.06354976608642
 20
0.7457231440479557
 30
0.0
 10
-88.41071276954751
 20
1.486849202421673
 30
0.0
 10
-89.75789784680511
 20
2.218844058430001
 30
0.0
 10
-91.10512705768156
 20
2.93719448585458
 30
0.0
 10
-92.45241393994433
 20
3.637469906208859
 30
0.0
 10
-93.79976491933678
 20
4.315381443657704
 30
0.0
 10
-95.14719335165979
 20
4.966746903741363
 30
0.0
 10
-96.49471586846765
 20
5.587552503355084
 30
0.0
 10
-97.84234526102235
 20
6.173968885333377
 30
0.0
 10
-99.1900876776679
 20
6.722392393071882
 30
0.0
 10
-100.5379597530451
 20
7.229409730950884
 30
0.0
 10
-101.8859596163501
 20
7.691912670783064
 30
0.0
 10
-103.234097097272
 20
8.107012226060531
 30
0.0
 10
-104.5823733925563
 20
8.472152129107193
 30
0.0
 10
-105.9307788372677
 20
8.785051493275236
 30
0.0
 10
-107.2793026407203
 20
9.043761152906872
 30
0.0
 10
-108.6279193171771
 20
9.246694342570195
 30
0.0
 10
-109.9766200022344
 20
9.392539709090961
 30
0.0
 10
-111.3253761799533
 20
9.48042232343633
 30
0.0
 10
-112.6741619957712
 20
9.50978099693687
 30
0.0
 10
-114.0229478096047
 20
9.480422323390538
 30
0.0
 10
-115.3717039932888
 20
9.392539709276102
 30
0.0
 10
-116.720404656384
 20
9.246694341874961
 30
0.0
 10
-118.0690214151823
 20
9.043761155522982
 30
0.0
 10
-119.4175383347712
 20
8.785052744693995
 30
0.0
 10
-120.7659384672784
 20
8.472155328335498
 30
0.0
 10
-122.0529115654082
 20
8.123587265945671
 30
0.0
 10
-122.887914367941
 20
7.868676146671297
 30
0.0
 10
-125.7059990614768
 20
6.540631841428717
 30
0.0
  0
LINE
  5
57D4
330
1F
100
AcDbEntity
  8
AM_0
 48
0.5
100
AcDbLine
 10
-155.9999807595534
 20
-9.500013162958557
 30
0.0
 11
-84.16576925910554
 21
-9.500000883179195
 31
0.0
  0
SPLINE
  5
57D5
330
1F
100
AcDbEntity
  8
AM_0
100
AcDbSpline
210
0.0
220
0.0
230
1.0
 70
     8
 71
     3
 72
    21
 73
    17
 74
     0
 42
0.0000000001
 43
0.0000000001
 40
17.52103074144743
 40
17.52103074144743
 40
17.52103074144743
 40
17.52103074144743
 40
18.41823744757437
 40
19.46215659509824
 40
20.51397914882054
 40
21.57394542641293
 40
22.64209583141747
 40
23.71826625065247
 40
24.80210429862395
 40
25.8930771157021
 40
26.99048705697709
 40
28.09349309193389
 40
29.20112995599786
 40
30.31233024745139
 40
31.42594771747373
 40
32.5407895042663
 40
32.54078950426994
 40
32.54078950426994
 40
32.54078950426994
 10
-110.7428540607918
 20
-9.500483219295411
 30
0.0
 10
-114.0073453874878
 20
-8.646242200663921
 30
0.0
 10
-116.0626673031932
 20
-7.984675421354532
 30
0.0
 10
-117.588590466553
 20
-7.618186214141761
 30
0.0
 10
-119.185348281158
 20
-7.190847235279506
 30
0.0
 10
-120.7819546459329
 20
-6.722377863406652
 30
0.0
 10
-122.3784074518718
 20
-6.215650508413442
 30
0.0
 10
-123.9747263494576
 20
-5.673818768785936
 30
0.0
 10
-125.5709187300954
 20
-5.100212568061238
 30
0.0
 10
-127.1669993623605
 20
-4.498369304249133
 30
0.0
 10
-128.7629859936575
 20
-3.872001969073498
 30
0.0
 10
-130.3588924761874
 20
-3.224962114220139
 30
0.0
 10
-131.9547348753294
 20
-2.561230438212718
 30
0.0
 10
-133.5505273368372
 20
-1.884888139557645
 30
0.0
 10
-135.1462935009883
 20
-1.200108615806023
 30
0.0
 10
-136.2099287905637
 20
-0.7408415148558384
 30
0.0
 10
-136.7420386236232
 20
-0.5110818191516467
 30
0.0
  0
DIMENSION
  5
5801
330
1F
100
AcDbEntity
  8
AM_5
100
AcDbDimension
  2
*D8
 10
17.54288048299668
 20
-9.50000088318672
 30
0.0
 11
14.14288048299668
 21
-0.0000008831867306
 31
0.0
 70
    32
  1
%%c<>
 51
359.9999999999998
  3
AM_JIS$0
100
AcDbAlignedDimension
 13
-3.999999999999712
 23
9.499999116813258
 33
0.0
 14
-3.999999999999648
 24
-9.500000883186714
 34
0.0
 50
89.99999999999472
100
AcDbRotatedDimension
1001
ACAD
1000
DSTYLE
1002
{
1070
   271
1070
     0
1002
}
1001
GENIUS_GENDTOL_13
1000

1000
h7
1000

1040
0.0
  0
ELLIPSE
  5
5BEA
330
1F
100
AcDbEntity
  8
AM_0
 48
0.5
100
AcDbEllipse
 10
10.26238197559867
 20
-8.288285091677025
 30
0.0
 11
-8.007111187937688
 21
-9.851868653875182
 31
0.0
210
0.0
220
0.0
230
-1.0
 40
0.9970317623884094
 41
1.071115390785091
 42
1.406935740176016
  0
LINE
  5
5BEB
330
1F
100
AcDbEntity
  8
AM_0
 48
0.5
100
AcDbLine
 10
-0.0000000000002996
 20
0.0000000000001159
 30
0.0
 11
-0.7348549296431929
 21
-2.018997325768669
 31
0.0
  0
DIMENSION
  5
5C1D
330
1F
100
AcDbEntity
  8
AM_5
100
AcDbDimension
  2
*D9
 10
-0.7348549296431929
 20
-2.018997325768669
 30
0.0
 11
24.12544670322322
 21
-0.000000000000184
 31
0.0
 70
    34
  1
<>
 51
359.9999999999998
  3
AM_JIS$2
100
AcDb2LineAngularDimension
 13
-0.0000000000002996
 23
-0.0000000000005603
 33
0.0
 14
-0.7348549296431996
 24
2.018997325768222
 34
0.0
 15
-0.0000000000002996
 25
0.0000000000001159
 35
0.0
 16
24.99884367990999
 26
-10.78344856052456
 36
0.0
1001
GENIUS_GENDTOL_13
1000

1000
h7
1000

1040
0.0
1001
ACAD
1000
DSTYLE
1002
{
1070
   271
1070
     0
1002
}
  0
ELLIPSE
  5
5D12
330
1F
100
AcDbEntity
  8
AM_11
 48
0.5
100
AcDbEllipse
 10
5.937044398582759
 20
37.76508387967994
 30
0.0
 11
-42.17682202657004
 21
0.0000000000005832
 31
0.0
210
0.0
220
0.0
230
1.0
 40
0.9899999999999995
 41
1.130070686340335
 42
1.247868474200389
  0
ELLIPSE
  5
5D13
330
1F
100
AcDbEntity
  8
AM_11
 48
0.5
100
AcDbEllipse
 10
-30.04776157771997
 20
-37.76504551854006
 30
0.0
 11
-42.17682202657
 21
0.0000000000015759
 31
0.0
210
0.0
220
0.0
230
1.0
 40
0.9900000000000011
 41
4.271664206181739
 42
5.153113667165048
  0
ELLIPSE
  5
5D14
330
1F
100
AcDbEntity
  8
AM_11
 48
0.5
100
AcDbEllipse
 10
-30.04776157772112
 20
37.76507514033411
 30
0.0
 11
-42.17682202657004
 21
0.0000000000005832
 31
0.0
210
0.0
220
0.0
230
1.0
 40
0.9899999999999995
 41
1.130070686340335
 42
2.011520147323624
  0
ELLIPSE
  5
5D15
330
1F
100
AcDbEntity
  8
AM_11
 48
0.5
100
AcDbEllipse
 10
-66.03261006256968
 20
37.76507514033351
 30
0.0
 11
-42.17682202657004
 21
-0.0000000000006062
 31
0.0
210
0.0
220
0.0
230
1.0
 40
0.99
 41
1.130070686340306
 42
2.011520147323597
  0
ELLIPSE
  5
5D16
330
1F
100
AcDbEntity
  8
AM_11
 48
0.5
100
AcDbEllipse
 10
-66.03261006256845
 20
-37.76504551854067
 30
0.0
 11
-42.17682202656992
 21
0.0000000000011826
 31
0.0
210
0.0
220
0.0
230
1.0
 40
0.9900000000000032
 41
4.271664206181728
 42
5.153113667165039
  0
ELLIPSE
  5
5D17
330
1F
100
AcDbEntity
  8
AM_11
 48
0.5
100
AcDbEllipse
 10
-102.0173713178113
 20
37.76507514033358
 30
0.0
 11
-42.17682202657004
 21
0.0000000000005832
 31
0.0
210
0.0
220
0.0
230
1.0
 40
0.9899999999999995
 41
1.130070686340335
 42
2.011520147323624
  0
ELLIPSE
  5
5D18
330
1F
100
AcDbEntity
  8
AM_11
 48
0.5
100
AcDbEllipse
 10
-102.0173713178102
 20
-37.76504551854058
 30
0.0
 11
-42.17682202657
 21
0.0000000000015759
 31
0.0
210
0.0
220
0.0
230
1.0
 40
0.9900000000000011
 41
4.271664206181739
 42
5.153113667165048
  0
ELLIPSE
  5
5D19
330
1F
100
AcDbEntity
  8
AM_11
 48
0.5
100
AcDbEllipse
 10
-138.0022198026587
 20
-37.7650455185412
 30
0.0
 11
-42.17682202656992
 21
0.0000000000011826
 31
0.0
210
0.0
220
0.0
230
1.0
 40
0.9900000000000032
 41
4.271664206181728
 42
5.153113667165039
  0
ELLIPSE
  5
5D1A
330
1F
100
AcDbEntity
  8
AM_11
 48
0.5
100
AcDbEllipse
 10
-138.0022198026599
 20
37.76507514033298
 30
0.0
 11
-42.17682202657004
 21
-0.0000000000006062
 31
0.0
210
0.0
220
0.0
230
1.0
 40
0.99
 41
1.130070686340306
 42
2.011520147323597
  0
ELLIPSE
  5
5D1B
330
1F
100
AcDbEntity
  8
AM_11
 48
0.5
100
AcDbEllipse
 10
-173.9870127764084
 20
37.76508995121274
 30
0.0
 11
-42.17682202657004
 21
0.0000000000005832
 31
0.0
210
0.0
220
0.0
230
1.0
 40
0.9899999999999995
 41
1.130070686340335
 42
2.011520147323624
  0
ELLIPSE
  5
5D1C
330
1F
100
AcDbEntity
  8
AM_11
 48
0.5
100
AcDbEllipse
 10
-209.9718612612558
 20
-37.76503070766203
 30
0.0
 11
-42.17682202656992
 21
0.0000000000011826
 31
0.0
210
0.0
220
0.0
230
1.0
 40
0.9900000000000032
 41
4.271664206181728
 42
5.076707616328382
  0
ELLIPSE
  5
5D1D
330
1F
100
AcDbEntity
  8
AM_11
 48
0.5
100
AcDbEllipse
 10
-209.971861261257
 20
37.76508995121215
 30
0.0
 11
-42.17682202657004
 21
-0.0000000000006062
 31
0.0
210
0.0
220
0.0
230
1.0
 40
0.99
 41
1.206477690851249
 42
2.011520147323597
  0
ELLIPSE
  5
5D1E
330
1F
100
AcDbEntity
  8
AM_11
 48
0.5
100
AcDbEllipse
 10
-173.9870127764073
 20
-37.76503070766142
 30
0.0
 11
-42.17682202657
 21
0.0000000000015759
 31
0.0
210
0.0
220
0.0
230
1.0
 40
0.9900000000000011
 41
4.271664206181739
 42
5.153113667165048
  0
VIEWPORT
  5
110
330
101
100
AcDbEntity
 67
     1
  8
0
100
AcDbViewport
 10
420.5
 20
297.0
 30
0.0
 40
948.9782706766916
 41
628.452
 68
     1
 69
     1
1001
ACAD
1000
MVIEW
1002
{
1070
    16
1010
0.0
1020
0.0
1030
0.0
1010
0.0
1020
0.0
1030
1.0
1040
0.0
1040
628.452
1040
420.5
1040
297.0
1040
50.0
1040
0.0
1040
0.0
1070
     0
1070
   100
1070
     1
1070
     1
1070
     0
1070
     0
1070
     0
1070
     0
1040
0.0
1040
0.0
1040
0.0
1040
10.0
1040
10.0
1040
10.0
1040
10.0
1070
     0
1002
{
1002
}
1002
}
  0
ENDSEC
  0
SECTION
  2
OBJECTS
  0
DICTIONARY
  5
C
330
0
100
AcDbDictionary
  3
ACAD_GROUP
350
D
  3
ACAD_LAYOUT
350
1A
  3
ACAD_MLINESTYLE
350
17
  3
ACAD_PLOTSETTINGS
350
19
  3
ACAD_PLOTSTYLENAME
350
E
  3
ACDBVARIABLEDICTIONARY
350
34
  3
ACMDICTIONARY
350
43
  3
AMG
350
2B
  3
AMGSNAPSETTINGS
350
6E
  3
DWGPROPS
350
5D45
  3
ACDBHEADERROUNDTRIPXREC
350
5D52
  0
DICTIONARY
  5
74
330
1F
100
AcDbDictionary
280
     1
  3
ACAD_INDEX
360
5D47
  3
ACAD_LAYOUTSELFREF
360
5D75
  0
DICTIONARY
  5
5D7A
330
101
100
AcDbDictionary
280
     1
  3
ACAD_LAYOUTSELFREF
360
5D7B
  0
DICTIONARY
  5
D
102
{ACAD_REACTORS
330
C
102
}
330
C
100
AcDbDictionary
  0
DICTIONARY
  5
1A
102
{ACAD_REACTORS
330
C
102
}
330
C
100
AcDbDictionary
  0
DICTIONARY
  5
17
102
{ACAD_REACTORS
330
C
102
}
330
C
100
AcDbDictionary
  3
STANDARD
350
18
  0
DICTIONARY
  5
19
102
{ACAD_REACTORS
330
C
102
}
330
C
100
AcDbDictionary
  0
ACDBDICTIONARYWDFLT
  5
E
102
{ACAD_REACTORS
330
C
102
}
330
C
100
AcDbDictionary
281
     1
  3
Normal
350
F
100
AcDbDictionaryWithDefault
340
F
  0
DICTIONARY
  5
34
102
{ACAD_REACTORS
330
C
102
}
330
C
100
AcDbDictionary
  3
INDEXCTL
350
35
  3
SORTENTS
350
B5E
  0
DICTIONARY
  5
43
102
{ACAD_REACTORS
330
C
102
}
330
C
100
AcDbDictionary
  3
ACMSTDDICTIONARY
350
260
  0
DICTIONARY
  5
2B
102
{ACAD_REACTORS
330
C
102
}
330
C
100
AcDbDictionary
  3
ACMGSETTINGS
350
2C
  0
DICTIONARY
  5
6E
102
{ACAD_REACTORS
330
C
102
}
330
C
100
AcDbDictionary
  0
XRECORD
  5
5D45
102
{ACAD_REACTORS
330
C
102
}
330
C
100
AcDbXrecord
  1
DWGPROPS COOKIE
  2

  3

  4

  6

  7

  8

  9

300
AmdtFileType=82
301
=
302
=
303
=
304
=
305
=
306
=
307
=
308
=
309
=
 40
0.1399153587962963
 41
2452800.443498622
 42
2452948.675530231
  1

 90
        1
  0
DICTIONARY
  5
5D52
102
{ACAD_REACTORS
330
C
102
}
330
C
100
AcDbDictionary
  3
TSTACKALIGN
350
5D53
  3
TSTACKSIZE
350
5D54
  3
HYPERLINKBASE
350
5D55
  3
STYLESHEET
350
5D56
  3
LAYOUTDICT
350
5D57
  3
PLOTSETDICT
350
5D58
  3
PLOTSTYLNAMDICT
350
5D59
  3
LWETCUNION
350
5D5A
  3
INSUNITS
350
5D5B
  3
CEPSNTYPE
350
5D5C
  3
FINGERPRINTGUID
350
5D5D
  3
VERSIONGUID
350
5D5E
  3
PSVPSCALE
350
5D5F
  3
DIMSTYLEDATA
350
5D60
  3
PUCSORTHOREF
350
5D61
  3
PUCSORTHOVIEW
350
5D62
  3
PUCSBASE
350
5D63
  3
PUCSORGTOP
350
5D64
  3
PUCSORGBOTTOM
350
5D65
  3
PUCSORGLEFT
350
5D66
  3
PUCSORGRIGHT
350
5D67
  3
PUCSORGFRONT
350
5D68
  3
PUCSORGBACK
350
5D69
  3
UCSORTHOREF
350
5D6A
  3
UCSORTHOVIEW
350
5D6B
  3
UCSBASE
350
5D6C
  3
UCSORGTOP
350
5D6D
  3
UCSORGBOTTOM
350
5D6E
  3
UCSORGLEFT
350
5D6F
  3
UCSORGRIGHT
350
5D70
  3
UCSORGFRONT
350
5D71
  3
UCSORGBACK
350
5D72
  0
DICTIONARY
  5
5D47
102
{ACAD_REACTORS
330
74
102
}
330
74
100
AcDbDictionary
  3
*A1
350
5D48
  0
XRECORD
  5
5D75
102
{ACAD_REACTORS
330
74
102
}
330
74
100
AcDbXrecord
340
1F
  0
XRECORD
  5
5D7B
102
{ACAD_REACTORS
330
5D7A
102
}
330
5D7A
100
AcDbXrecord
340
101
  0
MLINESTYLE
  5
18
102
{ACAD_REACTORS
330
17
102
}
330
17
100
AcDbMlineStyle
  2
STANDARD
 70
     0
  3

 62
   256
 51
90.0
 52
90.0
 71
     2
 49
0.5
 62
   256
  6
BYLAYER
 49
-0.5
 62
   256
  6
BYLAYER
  0
ACDBPLACEHOLDER
  5
F
102
{ACAD_REACTORS
330
E
102
}
330
E
100
AcDbPlaceHolder
280
     0
  0
DICTIONARYVAR
  5
35
102
{ACAD_REACTORS
330
34
102
}
330
34
100
DictionaryVariables
280
     0
  1
1
  0
DICTIONARYVAR
  5
B5E
102
{ACAD_REACTORS
330
34
102
}
330
34
100
DictionaryVariables
280
     0
  1
96
  0
DICTIONARY
  5
260
102
{ACAD_REACTORS
330
43
102
}
330
43
100
AcDbDictionary
  0
DICTIONARY
  5
2C
102
{ACAD_REACTORS
330
2B
102
}
330
2B
100
AcDbDictionary
  3
DWGSETTINGS
350
2D
  0
XRECORD
  5
5D53
102
{ACAD_REACTORS
330
5D52
102
}
330
5D52
100
AcDbXrecord
 90
        1
  0
XRECORD
  5
5D54
102
{ACAD_REACTORS
330
5D52
102
}
330
5D52
100
AcDbXrecord
 90
       70
  0
XRECORD
  5
5D55
102
{ACAD_REACTORS
330
5D52
102
}
330
5D52
100
AcDbXrecord
  1

  0
XRECORD
  5
5D56
102
{ACAD_REACTORS
330
5D52
102
}
330
5D52
100
AcDbXrecord
  1
ASAMI.ctb
  0
XRECORD
  5
5D57
102
{ACAD_REACTORS
330
5D52
102
}
330
5D52
100
AcDbXrecord
340
1A
  0
XRECORD
  5
5D58
102
{ACAD_REACTORS
330
5D52
102
}
330
5D52
100
AcDbXrecord
340
19
  0
XRECORD
  5
5D59
102
{ACAD_REACTORS
330
5D52
102
}
330
5D52
100
AcDbXrecord
340
E
  0
XRECORD
  5
5D5A
102
{ACAD_REACTORS
330
5D52
102
}
330
5D52
100
AcDbXrecord
 90
    10781
  0
XRECORD
  5
5D5B
102
{ACAD_REACTORS
330
5D52
102
}
330
5D52
100
AcDbXrecord
 90
        4
  0
XRECORD
  5
5D5C
102
{ACAD_REACTORS
330
5D52
102
}
330
5D52
100
AcDbXrecord
 90
        0
  0
XRECORD
  5
5D5D
102
{ACAD_REACTORS
330
5D52
102
}
330
5D52
100
AcDbXrecord
  1
{AFB28963-8C59-40AE-9337-C84526B81ACE}
  0
XRECORD
  5
5D5E
102
{ACAD_REACTORS
330
5D52
102
}
330
5D52
100
AcDbXrecord
  1
{DE44EF7C-1A7D-4233-9025-36E5C23A1DA5}
  0
XRECORD
  5
5D5F
102
{ACAD_REACTORS
330
5D52
102
}
330
5D52
100
AcDbXrecord
 40
0.0
  0
XRECORD
  5
5D60
102
{ACAD_REACTORS
330
5D52
102
}
330
5D52
100
AcDbXrecord
1000
DSTYLE
1002
{
1070
    79
 70
     2
1070
   341
340
59
1070
   342
340
59
1070
   371
 70
    -1
1070
   372
 70
    -1
1002
}
  0
XRECORD
  5
5D61
102
{ACAD_REACTORS
330
5D52
102
}
330
5D52
100
AcDbXrecord
340
0
  0
XRECORD
  5
5D62
102
{ACAD_REACTORS
330
5D52
102
}
330
5D52
100
AcDbXrecord
 70
     0
  0
XRECORD
  5
5D63
102
{ACAD_REACTORS
330
5D52
102
}
330
5D52
100
AcDbXrecord
340
0
  0
XRECORD
  5
5D64
102
{ACAD_REACTORS
330
5D52
102
}
330
5D52
100
AcDbXrecord
 10
0.0
 20
0.0
 30
0.0
  0
XRECORD
  5
5D65
102
{ACAD_REACTORS
330
5D52
102
}
330
5D52
100
AcDbXrecord
 10
0.0
 20
0.0
 30
0.0
  0
XRECORD
  5
5D66
102
{ACAD_REACTORS
330
5D52
102
}
330
5D52
100
AcDbXrecord
 10
0.0
 20
0.0
 30
0.0
  0
XRECORD
  5
5D67
102
{ACAD_REACTORS
330
5D52
102
}
330
5D52
100
AcDbXrecord
 10
0.0
 20
0.0
 30
0.0
  0
XRECORD
  5
5D68
102
{ACAD_REACTORS
330
5D52
102
}
330
5D52
100
AcDbXrecord
 10
0.0
 20
0.0
 30
0.0
  0
XRECORD
  5
5D69
102
{ACAD_REACTORS
330
5D52
102
}
330
5D52
100
AcDbXrecord
 10
0.0
 20
0.0
 30
0.0
  0
XRECORD
  5
5D6A
102
{ACAD_REACTORS
330
5D52
102
}
330
5D52
100
AcDbXrecord
340
0
  0
XRECORD
  5
5D6B
102
{ACAD_REACTORS
330
5D52
102
}
330
5D52
100
AcDbXrecord
 70
     0
  0
XRECORD
  5
5D6C
102
{ACAD_REACTORS
330
5D52
102
}
330
5D52
100
AcDbXrecord
340
0
  0
XRECORD
  5
5D6D
102
{ACAD_REACTORS
330
5D52
102
}
330
5D52
100
AcDbXrecord
 10
0.0
 20
0.0
 30
0.0
  0
XRECORD
  5
5D6E
102
{ACAD_REACTORS
330
5D52
102
}
330
5D52
100
AcDbXrecord
 10
0.0
 20
0.0
 30
0.0
  0
XRECORD
  5
5D6F
102
{ACAD_REACTORS
330
5D52
102
}
330
5D52
100
AcDbXrecord
 10
0.0
 20
0.0
 30
0.0
  0
XRECORD
  5
5D70
102
{ACAD_REACTORS
330
5D52
102
}
330
5D52
100
AcDbXrecord
 10
0.0
 20
0.0
 30
0.0
  0
XRECORD
  5
5D71
102
{ACAD_REACTORS
330
5D52
102
}
330
5D52
100
AcDbXrecord
 10
0.0
 20
0.0
 30
0.0
  0
XRECORD
  5
5D72
102
{ACAD_REACTORS
330
5D52
102
}
330
5D52
100
AcDbXrecord
 10
0.0
 20
0.0
 30
0.0
  0
LAYER_INDEX
  5
5D48
102
{ACAD_REACTORS
330
5D47
102
}
330
5D47
100
AcDbIndex
 40
2453151.673649977
100
AcDbLayerIndex
  8
0
360
5D49
 90
        0
  8
AM_0
360
5D4A
 90
       62
  8
AM_7
360
5D4B
 90
        1
  8
AM_11
360
5D4C
 90
       18
  8
AM_5
360
5D4D
 90
        5
  8
Defpoints
360
5D4E
 90
        0
  8
AM_6
360
5D4F
 90
        1
  8
AM_CL
360
5D50
 90
        0
  0
XRECORD
  5
2D
102
{ACAD_REACTORS
330
2C
102
}
330
2C
100
AcDbXrecord
  1
VERSION
140
15.0
  1
PRODUCT
  2
AutoCAD Mechanical 2000
  0
IDBUFFER
  5
5D49
330
0
100
AcDbIdBuffer
  0
IDBUFFER
  5
5D4A
330
0
100
AcDbIdBuffer
330
57C9
330
57CA
330
57CB
330
57CC
330
57CE
330
57CF
330
57D0
330
57D1
330
57D2
330
57D3
330
57D4
330
57D5
330
5BEA
330
5BEB
330
21D8
330
21D9
330
21DC
330
21DD
330
3F18
330
3F1B
330
4D3D
330
4D3F
330
4D44
330
4D4B
330
4D57
330
5790
330
5791
330
5793
330
5795
330
5796
330
5798
330
5799
330
579A
330
579B
330
579C
330
579D
330
579E
330
579F
330
57A0
330
57A3
330
57A4
330
57A5
330
57A6
330
57A7
330
57A8
330
57A9
330
57AA
330
57AB
330
57AC
330
57AD
330
57BD
330
57BE
330
57BF
330
57C0
330
57C1
330
57C2
330
57C3
330
57C4
330
57C5
330
57C6
330
57C7
330
57C8
  0
IDBUFFER
  5
5D4B
330
0
100
AcDbIdBuffer
330
C9F
  0
IDBUFFER
  5
5D4C
330
0
100
AcDbIdBuffer
330
5D1D
330
5D1E
330
5792
330
5794
330
57A1
330
57A2
330
57BC
330
5D12
330
5D13
330
5D14
330
5D15
330
5D16
330
5D17
330
5D18
330
5D19
330
5D1A
330
5D1B
330
5D1C
  0
IDBUFFER
  5
5D4D
330
0
100
AcDbIdBuffer
330
CC6
330
DF5
330
2216
330
5801
330
5C1D
  0
IDBUFFER
  5
5D4E
330
0
100
AcDbIdBuffer
  0
IDBUFFER
  5
5D4F
330
0
100
AcDbIdBuffer
330
19BD
  0
IDBUFFER
  5
5D50
330
0
100
AcDbIdBuffer
  0
ENDSEC
  0
EOF
