  0
SECTION
  2
HEADER
  9
$ACADVER
  1
AC1014
  9
$ACADMAINTVER
 70
     9
  9
$DWGCODEPAGE
  3
ANSI_932
  9
$INSBASE
 10
0.0
 20
0.0
 30
0.0
  9
$EXTMIN
 10
-255.3000004630642
 20
-56.50001520387038
 30
-0.00000001
  9
$EXTMAX
 10
29.01493052398534
 20
28.20480703844281
 30
0.00000001
  9
$LIMMIN
 10
-273.5520920662464
 20
-89.12411994395734
  9
$LIMMAX
 10
40.94290962859349
 20
68.23476656315358
  9
$ORTHOMODE
 70
     0
  9
$REGENMODE
 70
     1
  9
$FILLMODE
 70
     1
  9
$QTEXTMODE
 70
     0
  9
$MIRRTEXT
 70
     0
  9
$DRAGMODE
 70
     2
  9
$LTSCALE
 40
1.0
  9
$OSMODE
 70
    55
  9
$ATTMODE
 70
     1
  9
$TEXTSIZE
 40
2.5
  9
$TRACEWID
 40
1.0
  9
$TEXTSTYLE
  7
STANDARD
  9
$CLAYER
  8
AM_0
  9
$CELTYPE
  6
BYLAYER
  9
$CECOLOR
 62
   256
  9
$CELTSCALE
 40
1.0
  9
$DELOBJ
 70
     1
  9
$DISPSILH
 70
     0
  9
$DIMSCALE
 40
1.0
  9
$DIMASZ
 40
2.5
  9
$DIMEXO
 40
1.0
  9
$DIMDLI
 40
12.0
  9
$DIMRND
 40
0.0
  9
$DIMDLE
 40
0.0
  9
$DIMEXE
 40
1.0
  9
$DIMTP
 40
0.1
  9
$DIMTM
 40
0.1
  9
$DIMTXT
 40
3.2
  9
$DIMCEN
 40
0.0
  9
$DIMTSZ
 40
0.0
  9
$DIMTOL
 70
     0
  9
$DIMLIM
 70
     0
  9
$DIMTIH
 70
     0
  9
$DIMTOH
 70
     0
  9
$DIMSE1
 70
     0
  9
$DIMSE2
 70
     0
  9
$DIMTAD
 70
     3
  9
$DIMZIN
 70
     8
  9
$DIMBLK
  1
OPEN30
  9
$DIMASO
 70
     1
  9
$DIMSHO
 70
     1
  9
$DIMPOST
  1

  9
$DIMAPOST
  1
"
  9
$DIMALT
 70
     0
  9
$DIMALTD
 70
     2
  9
$DIMALTF
 40
0.0393701
  9
$DIMLFAC
 40
1.0
  9
$DIMTOFL
 70
     1
  9
$DIMTVP
 40
0.0
  9
$DIMTIX
 70
     0
  9
$DIMSOXD
 70
     0
  9
$DIMSAH
 70
     0
  9
$DIMBLK1
  1

  9
$DIMBLK2
  1

  9
$DIMSTYLE
  2
AM_JIS
  9
$DIMCLRD
 70
   256
  9
$DIMCLRE
 70
   256
  9
$DIMCLRT
 70
     2
  9
$DIMTFAC
 40
0.71
  9
$DIMGAP
 40
1.5
  9
$DIMJUST
 70
     0
  9
$DIMSD1
 70
     0
  9
$DIMSD2
 70
     0
  9
$DIMTOLJ
 70
     0
  9
$DIMTZIN
 70
     0
  9
$DIMALTZ
 70
     0
  9
$DIMALTTZ
 70
     0
  9
$DIMFIT
 70
     3
  9
$DIMUPT
 70
     0
  9
$DIMUNIT
 70
     2
  9
$DIMDEC
 70
     3
  9
$DIMTDEC
 70
     3
  9
$DIMALTU
 70
     2
  9
$DIMALTTD
 70
     2
  9
$DIMTXSTY
  7
ASAMI
  9
$DIMAUNIT
 70
     0
  9
$LUNITS
 70
     2
  9
$LUPREC
 70
     2
  9
$SKETCHINC
 40
1.0
  9
$FILLETRAD
 40
2.5
  9
$AUNITS
 70
     0
  9
$AUPREC
 70
     0
  9
$MENU
  1
.
  9
$ELEVATION
 40
0.0
  9
$PELEVATION
 40
0.0
  9
$THICKNESS
 40
0.0
  9
$LIMCHECK
 70
     0
  9
$BLIPMODE
 70
     0
  9
$CHAMFERA
 40
0.75
  9
$CHAMFERB
 40
0.75
  9
$CHAMFERC
 40
20.0
  9
$CHAMFERD
 40
0.0
  9
$SKPOLY
 70
     0
  9
$TDCREATE
 40
2452800.443498622
  9
$TDUPDATE
 40
2453151.674018716
  9
$TDINDWG
 40
0.1579975000
  9
$TDUSRTIMER
 40
0.1579975000
  9
$USRTIMER
 70
     1
  9
$ANGBASE
 50
0.0
  9
$ANGDIR
 70
     0
  9
$PDMODE
 70
     3
  9
$PDSIZE
 40
0.0
  9
$PLINEWID
 40
0.0
  9
$COORDS
 70
     1
  9
$SPLFRAME
 70
     0
  9
$SPLINETYPE
 70
     6
  9
$SPLINESEGS
 70
     8
  9
$ATTDIA
 70
     1
  9
$ATTREQ
 70
     1
  9
$HANDLING
 70
 12289
  9
$HANDSEED
  5
62EB
  9
$SURFTAB1
 70
     6
  9
$SURFTAB2
 70
     6
  9
$SURFTYPE
 70
     6
  9
$SURFU
 70
     6
  9
$SURFV
 70
     6
  9
$UCSNAME
  2

  9
$UCSORG
 10
0.0
 20
0.0
 30
0.0
  9
$UCSXDIR
 10
1.0
 20
0.0000000000000027
 30
0.0
  9
$UCSYDIR
 10
-0.0000000000000027
 20
1.0
 30
0.0
  9
$PUCSNAME
  2

  9
$PUCSORG
 10
0.0
 20
0.0
 30
0.0
  9
$PUCSXDIR
 10
1.0
 20
0.0
 30
0.0
  9
$PUCSYDIR
 10
0.0
 20
1.0
 30
0.0
  9
$USERI1
 70
     0
  9
$USERI2
 70
     0
  9
$USERI3
 70
     0
  9
$USERI4
 70
     0
  9
$USERI5
 70
     0
  9
$USERR1
 40
0.0
  9
$USERR2
 40
0.0
  9
$USERR3
 40
0.0
  9
$USERR4
 40
0.0
  9
$USERR5
 40
0.0
  9
$WORLDVIEW
 70
     1
  9
$SHADEDGE
 70
     3
  9
$SHADEDIF
 70
    70
  9
$TILEMODE
 70
     1
  9
$MAXACTVP
 70
    64
  9
$PINSBASE
 10
0.0
 20
0.0
 30
0.0
  9
$PLIMCHECK
 70
     0
  9
$PEXTMIN
 10
1.000000000000000E+20
 20
1.000000000000000E+20
 30
1.000000000000000E+20
  9
$PEXTMAX
 10
-1.000000000000000E+20
 20
-1.000000000000000E+20
 30
-1.000000000000000E+20
  9
$PLIMMIN
 10
0.0
 20
0.0
  9
$PLIMMAX
 10
841.0
 20
594.0
  9
$UNITMODE
 70
     0
  9
$VISRETAIN
 70
     1
  9
$PLINEGEN
 70
     0
  9
$PSLTSCALE
 70
     0
  9
$TREEDEPTH
 70
  3020
  9
$PICKSTYLE
 70
     0
  9
$CMLSTYLE
  2
STANDARD
  9
$CMLJUST
 70
     0
  9
$CMLSCALE
 40
20.0
  9
$PROXYGRAPHICS
 70
     1
  9
$MEASUREMENT
 70
     1
  0
ENDSEC
  0
SECTION
  2
CLASSES
  0
CLASS
  1
ACDBDICTIONARYWDFLT
  2
AcDbDictionaryWithDefault
  3
AutoCAD 2000
 90
        0
280
     0
281
     0
  0
CLASS
  1
ACDBPLACEHOLDER
  2
AcDbPlaceHolder
  3
AutoCAD 2000
 90
        0
280
     0
281
     0
  0
CLASS
  1
LAYOUT
  2
AcDbLayout
  3
AutoCAD 2000
 90
        0
280
     0
281
     0
  0
CLASS
  1
AMGSETTINGSOBJ
  2
AmgSettingsObj
  3
"AcadM|Product Description: AutoCAD Mechanical 2000|Company: Autodesk"
 90
        0
280
     0
281
     0
  0
CLASS
  1
ACME_DOCUMENT
  2
AcMeDbDoc
  3
AcMeServices
 90
        0
280
     0
281
     0
  0
CLASS
  1
ACMESCOPE
  2
AcMeScope
  3
AcMeServices
 90
        0
280
     0
281
     0
  0
CLASS
  1
ACMECOMMANDHISTORY
  2
AcMeCommandHistory
  3
AcMeServices
 90
        0
280
     0
281
     0
  0
CLASS
  1
DICTIONARYVAR
  2
AcDbDictionaryVar
  3
AutoCAD 2000
 90
        0
280
     0
281
     0
  0
CLASS
  1
ACIMSYSVARMAN
  2
AcImSysVarManager
  3
AcMeServices
 90
        0
280
     0
281
     0
  0
CLASS
  1
ACIMREALSYSVAR
  2
AcImRealSysVar
  3
AcMeServices
 90
        0
280
     0
281
     0
  0
CLASS
  1
ACIMINTSYSVAR
  2
AcImIntSysVar
  3
AcMeServices
 90
        0
280
     0
281
     0
  0
CLASS
  1
ACMEDRAWINGMAN
  2
AcMeDrawingMan
  3
AcMeServices
 90
        0
280
     0
281
     0
  0
CLASS
  1
ACMEVIEW
  2
AcMeView
  3
AcMeServices
 90
        0
280
     0
281
     0
  0
CLASS
  1
ACDBENTITYCACHE
  2
AcMeEntityCache
  3
AcMeServices
 90
        0
280
     0
281
     0
  0
CLASS
  1
GSMANAGER
  2
AcMeGSManager
  3
AcMeServices
 90
        0
280
     0
281
     0
  0
CLASS
  1
AmdtInternalReactor
  2
AmdtInternalReactor
  3
AcMeServices
 90
        0
280
     0
281
     0
  0
CLASS
  1
ACMESTATEMGR
  2
AcMeStateMgr
  3
AcMeServices
 90
        0
280
     0
281
     0
  0
CLASS
  1
ACME_DATABASE
  2
AcMeDbDatabase
  3
AcMeServices
 90
        0
280
     0
281
     0
  0
CLASS
  1
ACRFINSADJUSTERMGR
  2
AcRfInsAdjusterMgr
  3
AcMeServices
 90
        0
280
     0
281
     0
  0
CLASS
  1
ACMDATADICTIONARY
  2
AcmDataDictionary
  3
"AcmSymBB|Product Description: AutoCAD Mechanical 2000|Company: Autodesk"
 90
        0
280
     0
281
     0
  0
CLASS
  1
ACMDATAENTRYBLOCK
  2
AcmDataEntryBlock
  3
"AcmSymBB|Product Description: AutoCAD Mechanical 2000|Company: Autodesk"
 90
        0
280
     0
281
     0
  0
CLASS
  1
AMGOBJPROPCFG
  2
AmgObjPropCfg
  3
"AmgLay|Product Description: AutoCAD Mechanical 2000|Company: Autodesk"
 90
        1
280
     0
281
     0
  0
CLASS
  1
ACAMGFILTERDAT
  2
AcAmgFilterDat
  3
"AcadM|Product Description: AutoCAD Mechanical 2000|Company: Autodesk"
 90
        0
280
     0
281
     0
  0
CLASS
  1
LAYER_INDEX
  2
AcDbLayerIndex
  3
AutoCAD 2000
 90
        0
280
     0
281
     0
  0
CLASS
  1
IDBUFFER
  2
AcDbIdBuffer
  3
AutoCAD 2000
 90
        0
280
     0
281
     0
  0
CLASS
  1
ACIMSTRSYSVAR
  2
AcImStrSysVar
  3
AcMeServices
 90
        0
280
     0
281
     0
  0
CLASS
  1
ACMSTANDARDJIS
  2
AcmStandardJIS
  3
"AcmSymBB|Product Description: AutoCAD Mechanical 2000|Company: Autodesk"
 90
        0
280
     0
281
     0
  0
CLASS
  1
ACMSURFSTANDARDJIS
  2
AcmSurfTextStdJIS
  3
"AcmSymBB|Product Description: AutoCAD Mechanical 2000|Company: Autodesk"
 90
        0
280
     0
281
     0
  0
CLASS
  1
ACMFCFSTANDARDJIS
  2
AcmFCFStdJIS
  3
"AcmSymBB|Product Description: AutoCAD Mechanical 2000|Company: Autodesk"
 90
        0
280
     0
281
     0
  0
CLASS
  1
ACMWELDSTANDARDJIS
  2
AcmWeldingStdJIS
  3
"AcmSymBB|Product Description: AutoCAD Mechanical 2000|Company: Autodesk"
 90
        0
280
     0
281
     0
  0
CLASS
  1
ACMIDSTANDARDJIS
  2
AcmIdStdJIS
  3
"AcmSymBB|Product Description: AutoCAD Mechanical 2000|Company: Autodesk"
 90
        0
280
     0
281
     0
  0
CLASS
  1
ACMDATUMSTANDARDJIS
  2
AcmDatumStdJIS
  3
"AcmSymBB|Product Description: AutoCAD Mechanical 2000|Company: Autodesk"
 90
        0
280
     0
281
     0
  0
CLASS
  1
ACMBOMSTANDARDJIS
  2
AcmBOMStdJIS
  3
"AcmSymBB|Product Description: AutoCAD Mechanical 2000|Company: Autodesk"
 90
        0
280
     0
281
     0
  0
CLASS
  1
ACMSTANDARDANSI
  2
AcmStandardANSI
  3
"AcmSymBB|Product Description: AutoCAD Mechanical 2000|Company: Autodesk"
 90
        0
280
     0
281
     0
  0
CLASS
  1
ACMSURFSTANDARDANSI
  2
AcmSurfTextStdANSI
  3
"AcmSymBB|Product Description: AutoCAD Mechanical 2000|Company: Autodesk"
 90
        0
280
     0
281
     0
  0
CLASS
  1
ACMFCFSTANDARDANSI
  2
AcmFCFStdANSI
  3
"AcmSymBB|Product Description: AutoCAD Mechanical 2000|Company: Autodesk"
 90
        0
280
     0
281
     0
  0
CLASS
  1
ACMWELDSTANDARDANSI
  2
AcmWeldingStdANSI
  3
"AcmSymBB|Product Description: AutoCAD Mechanical 2000|Company: Autodesk"
 90
        0
280
     0
281
     0
  0
CLASS
  1
ACMIDSTANDARDANSI
  2
AcmIdStdANSI
  3
"AcmSymBB|Product Description: AutoCAD Mechanical 2000|Company: Autodesk"
 90
        0
280
     0
281
     0
  0
CLASS
  1
ACMDATUMSTANDARDANSI
  2
AcmDatumStdANSI
  3
"AcmSymBB|Product Description: AutoCAD Mechanical 2000|Company: Autodesk"
 90
        0
280
     0
281
     0
  0
CLASS
  1
ACMBOMSTANDARDANSI
  2
AcmBOMStdANSI
  3
"AcmSymBB|Product Description: AutoCAD Mechanical 2000|Company: Autodesk"
 90
        0
280
     0
281
     0
  0
CLASS
  1
ACMSTANDARDBSI
  2
AcmStandardBSI
  3
"AcmSymBB|Product Description: AutoCAD Mechanical 2000|Company: Autodesk"
 90
        0
280
     0
281
     0
  0
CLASS
  1
ACMSURFSTANDARDBSI
  2
AcmSurfTextStdBSI
  3
"AcmSymBB|Product Description: AutoCAD Mechanical 2000|Company: Autodesk"
 90
        0
280
     0
281
     0
  0
CLASS
  1
ACMFCFSTANDARDBSI
  2
AcmFCFStdBSI
  3
"AcmSymBB|Product Description: AutoCAD Mechanical 2000|Company: Autodesk"
 90
        0
280
     0
281
     0
  0
CLASS
  1
ACMWELDSTANDARDBSI
  2
AcmWeldingStdBSI
  3
"AcmSymBB|Product Description: AutoCAD Mechanical 2000|Company: Autodesk"
 90
        0
280
     0
281
     0
  0
CLASS
  1
ACMIDSTANDARDBSI
  2
AcmIdStdBSI
  3
"AcmSymBB|Product Description: AutoCAD Mechanical 2000|Company: Autodesk"
 90
        0
280
     0
281
     0
  0
CLASS
  1
ACMDATUMSTANDARDBSI
  2
AcmDatumStdBSI
  3
"AcmSymBB|Product Description: AutoCAD Mechanical 2000|Company: Autodesk"
 90
        0
280
     0
281
     0
  0
CLASS
  1
ACMBOMSTANDARDBSI
  2
AcmBOMStdBSI
  3
"AcmSymBB|Product Description: AutoCAD Mechanical 2000|Company: Autodesk"
 90
        0
280
     0
281
     0
  0
CLASS
  1
LONG_TRANSACTION
  2
AcDbLongTransaction
  3
AutoCAD 2000
 90
        0
280
     0
281
     0
  0
CLASS
  1
LWPOLYLINE
  2
AcDbPolyline
  3
AutoCAD 2000
 90
        0
280
     0
281
     1
  0
CLASS
  1
HATCH
  2
AcDbHatch
  3
AutoCAD 2000
 90
        0
280
     0
281
     1
  0
CLASS
  1
XRECORD
  2
AcDbXrecord
  3
AutoCAD 2000
 90
        0
280
     0
281
     0
  0
ENDSEC
  0
SECTION
  2
TABLES
  0
TABLE
  2
VPORT
  5
8
330
0
100
AcDbSymbolTable
 70
     3
  0
VPORT
  5
62B5
330
8
100
AcDbSymbolTableRecord
100
AcDbViewportTableRecord
  2
*ACTIVE
 70
     0
 10
0.0
 20
0.0
 11
1.0
 21
1.0
 12
-107.8688637477961
 22
-14.14838242021033
 13
0.0
 23
0.0
 14
2.5
 24
2.5
 15
10.0
 25
10.0
 16
0.0
 26
0.0
 36
1.0
 17
0.0
 27
0.0
 37
0.0
 40
189.231058707911
 41
1.56570841889117
 42
50.0
 43
0.0
 44
0.0
 50
0.0
 51
0.0
 71
     0
 72
   100
 73
     1
 74
     1
 75
     0
 76
     0
 77
     0
 78
     0
  0
ENDTAB
  0
TABLE
  2
LTYPE
  5
5
330
0
100
AcDbSymbolTable
 70
    10
  0
LTYPE
  5
14
330
5
100
AcDbSymbolTableRecord
100
AcDbLinetypeTableRecord
  2
BYBLOCK
 70
     0
  3

 72
    65
 73
     0
 40
0.0
  0
LTYPE
  5
15
330
5
100
AcDbSymbolTableRecord
100
AcDbLinetypeTableRecord
  2
BYLAYER
 70
     0
  3

 72
    65
 73
     0
 40
0.0
  0
LTYPE
  5
16
330
5
100
AcDbSymbolTableRecord
100
AcDbLinetypeTableRecord
  2
CONTINUOUS
 70
     0
  3
Solid line
 72
    65
 73
     0
 40
0.0
  0
LTYPE
  5
4B
330
5
100
AcDbSymbolTableRecord
100
AcDbLinetypeTableRecord
  2
AM_ISO02W050
 70
     0
  3
__ __ __ __ __ __ __ __ __ __ __ __ __ __ __
 72
    65
 73
     2
 40
7.5
 49
6.0
 74
     0
 49
-1.5
 74
     0
  0
LTYPE
  5
4C
330
5
100
AcDbSymbolTableRecord
100
AcDbLinetypeTableRecord
  2
AM_ISO08W050
 70
     0
  3
____ . ____ . ____ . ____ . ____ . ____ . ____
 72
    65
 73
     4
 40
18.0
 49
12.0
 74
     0
 49
-1.5
 74
     0
 49
3.0
 74
     0
 49
-1.5
 74
     0
  0
LTYPE
  5
4D
330
5
100
AcDbSymbolTableRecord
100
AcDbLinetypeTableRecord
  2
AM_ISO09W050
 70
     0
  3
_____ . . _____ . . _____ . . ____ .. ____
 72
    65
 73
     6
 40
22.5
 49
12.0
 74
     0
 49
-1.5
 74
     0
 49
3.0
 74
     0
 49
-1.5
 74
     0
 49
3.0
 74
     0
 49
-1.5
 74
     0
  0
LTYPE
  5
4E
330
5
100
AcDbSymbolTableRecord
100
AcDbLinetypeTableRecord
  2
AMCONSTR
 70
     0
  3
_______________________
 72
    65
 73
     2
 40
9999.0
 49
9999.0
 74
     0
 49
0.0
 74
     0
  0
LTYPE
  5
4F
330
5
100
AcDbSymbolTableRecord
100
AcDbLinetypeTableRecord
  2
AM_ISO02W050X2
 70
     0
  3
 _ _ _ _ _ _ _ _ _ _ _ _
 72
    65
 73
     2
 40
3.75
 49
3.0
 74
     0
 49
-0.75
 74
     0
  0
LTYPE
  5
50
330
5
100
AcDbSymbolTableRecord
100
AcDbLinetypeTableRecord
  2
AM_ISO08W050X2
 70
     0
  3
__ . __ . __ . __ . __ . __
 72
    65
 73
     4
 40
9.0
 49
6.0
 74
     0
 49
-0.75
 74
     0
 49
1.5
 74
     0
 49
-0.75
 74
     0
  0
LTYPE
  5
53
330
5
100
AcDbSymbolTableRecord
100
AcDbLinetypeTableRecord
  2
AMZIGZAG
 70
     0
  3
/\/-/\/-/\/-/\/-/\/-/\/
 72
    65
 73
     2
 40
11.00009999999999
 49
0.0001
 74
     4
 75
   135
340
52
 46
0.04
 50
0.0
 44
0.0
 45
0.0
 49
-11.0
 74
     0
  0
LTYPE
  5
166
330
5
100
AcDbSymbolTableRecord
100
AcDbLinetypeTableRecord
  2
ACJISTGL
 70
     0
  3
_ _ _ _ _
 72
    65
 73
     2
 40
3.0
 49
2.0
 74
     0
 49
-1.0
 74
     0
  0
LTYPE
  5
26A
330
5
100
AcDbSymbolTableRecord
100
AcDbLinetypeTableRecord
  2
ACJISTGB
 70
     0
  3
__ . . __ . .
 72
    65
 73
     6
 40
9.0
 49
4.0
 74
     0
 49
-1.0
 74
     0
 49
1.0
 74
     0
 49
-1.0
 74
     0
 49
1.0
 74
     0
 49
-1.0
 74
     0
  0
ENDTAB
  0
TABLE
  2
LAYER
  5
2
330
0
100
AcDbSymbolTable
 70
     8
  0
LAYER
  5
10
330
2
100
AcDbSymbolTableRecord
100
AcDbLayerTableRecord
  2
0
 70
     0
 62
     7
  6
CONTINUOUS
  0
LAYER
  5
3F9
330
2
100
AcDbSymbolTableRecord
100
AcDbLayerTableRecord
  2
AM_0
 70
     0
 62
     7
  6
CONTINUOUS
  0
LAYER
  5
C7C
330
2
100
AcDbSymbolTableRecord
100
AcDbLayerTableRecord
  2
AM_7
 70
     0
 62
     4
  6
AM_ISO08W050
  0
LAYER
  5
C97
330
2
100
AcDbSymbolTableRecord
100
AcDbLayerTableRecord
  2
AM_11
 70
     0
 62
     3
  6
AM_ISO09W050
  0
LAYER
  5
CC5
330
2
100
AcDbSymbolTableRecord
100
AcDbLayerTableRecord
  2
AM_5
 70
     0
 62
     3
  6
CONTINUOUS
  0
LAYER
  5
CC7
330
2
100
AcDbSymbolTableRecord
100
AcDbLayerTableRecord
  2
DEFPOINTS
 70
     0
 62
     7
  6
CONTINUOUS
  0
LAYER
  5
19BC
330
2
100
AcDbSymbolTableRecord
100
AcDbLayerTableRecord
  2
AM_6
 70
     0
 62
     2
  6
CONTINUOUS
  0
LAYER
  5
5C07
330
2
100
AcDbSymbolTableRecord
100
AcDbLayerTableRecord
  2
AM_CL
 70
     0
 62
     1
  6
AMCONSTR
  0
ENDTAB
  0
TABLE
  2
STYLE
  5
3
330
0
100
AcDbSymbolTable
 70
     5
  0
STYLE
  5
11
330
3
100
AcDbSymbolTableRecord
100
AcDbTextStyleTableRecord
  2
STANDARD
 70
     0
 40
0.0
 41
1.0
 50
0.0
 71
     0
 42
2.5
  3
simplex.shx
  4
EXTFONT.SHX
  0
STYLE
  5
52
330
3
100
AcDbSymbolTableRecord
100
AcDbTextStyleTableRecord
  2

 70
     1
 40
0.0
 41
1.0
 50
0.0
 71
     0
 42
2.5
  3
ltypeshp.shx
  4

  0
STYLE
  5
6B
330
3
100
AcDbSymbolTableRecord
100
AcDbTextStyleTableRecord
  2
ASAMI
 70
     0
 40
0.0
 41
1.0
 50
0.0
 71
     0
 42
2.5
  3
simplex.shx
  4
EXTFONT.SHX
  0
STYLE
  5
262
330
3
100
AcDbSymbolTableRecord
100
AcDbTextStyleTableRecord
  2
ACJISTS
 70
     0
 40
1.0
 41
1.0
 50
0.0
 71
     0
 42
2.5
  3
simplex.shx
  4
bigfont.shx
  0
STYLE
  5
269
330
3
100
AcDbSymbolTableRecord
100
AcDbTextStyleTableRecord
  2
ACJISGDT
 70
     0
 40
0.0
 41
1.0
 50
0.0
 71
     0
 42
2.5
  3
amgdtans.shx
  4

  0
ENDTAB
  0
TABLE
  2
VIEW
  5
6
330
0
100
AcDbSymbolTable
 70
     0
  0
ENDTAB
  0
TABLE
  2
UCS
  5
7
330
0
100
AcDbSymbolTable
 70
     0
  0
ENDTAB
  0
TABLE
  2
APPID
  5
9
330
0
100
AcDbSymbolTable
 70
    16
  0
APPID
  5
12
330
9
100
AcDbSymbolTableRecord
100
AcDbRegAppTableRecord
  2
ACAD
 70
     0
  0
APPID
  5
30
330
9
100
AcDbSymbolTableRecord
100
AcDbRegAppTableRecord
  2
MCAD_NO_VIS
 70
     0
  0
APPID
  5
31
330
9
100
AcDbSymbolTableRecord
100
AcDbRegAppTableRecord
  2
ACAD_TEMP_GRAPHIC
 70
     0
  0
APPID
  5
2C2
330
9
100
AcDbSymbolTableRecord
100
AcDbRegAppTableRecord
  2
GENIUS_GENDTOL_13
 70
     0
  0
APPID
  5
339
330
9
100
AcDbSymbolTableRecord
100
AcDbRegAppTableRecord
  2
GENIUS_GENODEF_13
 70
     0
  0
APPID
  5
33A
330
9
100
AcDbSymbolTableRecord
100
AcDbRegAppTableRecord
  2
GENIUS_GENOBJ-N-RSBK_13
 70
     0
  0
APPID
  5
33B
330
9
100
AcDbSymbolTableRecord
100
AcDbRegAppTableRecord
  2
GENIUS_GENOBJ-N-LIB_13
 70
     0
  0
APPID
  5
33C
330
9
100
AcDbSymbolTableRecord
100
AcDbRegAppTableRecord
  2
GENIUS_GENSCALE_13
 70
     0
  0
APPID
  5
378
330
9
100
AcDbSymbolTableRecord
100
AcDbRegAppTableRecord
  2
GENIUS_GENDIMSH_14
 70
     0
  0
APPID
  5
C82
330
9
100
AcDbSymbolTableRecord
100
AcDbRegAppTableRecord
  2
GENIUS_GENOBJ-N-CRS_13
 70
     0
  0
APPID
  5
C83
330
9
100
AcDbSymbolTableRecord
100
AcDbRegAppTableRecord
  2
GENIUS_GENOENT_13
 70
     0
  0
APPID
  5
C84
330
9
100
AcDbSymbolTableRecord
100
AcDbRegAppTableRecord
  2
GENIUS_GENOREF_13
 70
     0
  0
APPID
  5
C85
330
9
100
AcDbSymbolTableRecord
100
AcDbRegAppTableRecord
  2
GENIUS_GENOLIS_13
 70
     0
  0
APPID
  5
CA0
330
9
100
AcDbSymbolTableRecord
100
AcDbRegAppTableRecord
  2
GENIUS_GENOBJ-N-CEN_13
 70
     0
  0
APPID
  5
1E1E
330
9
100
AcDbSymbolTableRecord
100
AcDbRegAppTableRecord
  2
GENIUS_GENFIL_13
 70
     0
  0
APPID
  5
1E1F
330
9
100
AcDbSymbolTableRecord
100
AcDbRegAppTableRecord
  2
GENIUS_GENOBJ-N-CHA_13
 70
     0
  0
ENDTAB
  0
TABLE
  2
DIMSTYLE
  5
A
330
0
100
AcDbSymbolTable
 70
     9
  0
DIMSTYLE
105
58
330
A
100
AcDbSymbolTableRecord
100
AcDbDimStyleTableRecord
  2
AM_JIS
 70
     0
  3

  4
"
  5
OPEN30
  6

  7

 40
1.0
 41
2.5
 42
1.0
 43
12.0
 44
1.0
 45
0.0
 46
0.0
 47
0.1
 48
0.1
140
3.2
141
0.0
142
0.0
143
0.0393701
144
1.0
145
0.0
146
0.71
147
1.5
 71
     0
 72
     0
 73
     0
 74
     0
 75
     0
 76
     0
 77
     3
 78
     8
170
     0
171
     2
172
     1
173
     0
174
     0
175
     0
176
   256
177
   256
178
     2
270
     2
271
     3
272
     3
273
     2
274
     2
340
6B
275
     0
280
     0
281
     0
282
     0
283
     0
284
     0
285
     0
286
     0
287
     3
288
     0
  0
DIMSTYLE
105
5F
330
A
100
AcDbSymbolTableRecord
100
AcDbDimStyleTableRecord
  2
AM_JIS$3
 70
     0
  3

  4
"
  5
OPEN30
  6

  7

 40
1.0
 41
2.5
 42
1.0
 43
10.0
 44
1.0
 45
0.0
 46
0.0
 47
0.1
 48
0.1
140
3.2
141
0.0
142
0.0
143
0.0393701
144
1.0
145
0.0
146
0.71
147
1.5
 71
     0
 72
     0
 73
     0
 74
     1
 75
     0
 76
     0
 77
     3
 78
     8
170
     0
171
     2
172
     0
173
     0
174
     0
175
     0
176
   256
177
   256
178
     2
270
     2
271
     2
272
     3
273
     2
274
     2
340
6B
275
     0
280
     0
281
     0
282
     0
283
     0
284
     0
285
     0
286
     0
287
     0
288
     1
  0
DIMSTYLE
105
60
330
A
100
AcDbSymbolTableRecord
100
AcDbDimStyleTableRecord
  2
AM_JIS$4
 70
     0
  3

  4
"
  5
OPEN30
  6

  7

 40
1.0
 41
2.5
 42
1.0
 43
10.0
 44
1.0
 45
0.0
 46
0.0
 47
0.1
 48
0.1
140
3.2
141
0.0
142
0.0
143
0.0393701
144
1.0
145
0.0
146
0.71
147
1.5
 71
     0
 72
     0
 73
     0
 74
     1
 75
     0
 76
     0
 77
     3
 78
     8
170
     0
171
     2
172
     0
173
     0
174
     0
175
     0
176
   256
177
   256
178
     2
270
     2
271
     2
272
     3
273
     2
274
     2
340
6B
275
     0
280
     0
281
     0
282
     0
283
     0
284
     0
285
     0
286
     0
287
     0
288
     1
  0
DIMSTYLE
105
61
330
A
100
AcDbSymbolTableRecord
100
AcDbDimStyleTableRecord
  2
AM_JIS$6
 70
     0
  3

  4
"
  5
OPEN30
  6

  7

 40
1.0
 41
2.5
 42
1.0
 43
10.0
 44
1.0
 45
0.0
 46
0.0
 47
0.1
 48
0.1
140
3.2
141
0.0
142
0.0
143
0.0393701
144
1.0
145
0.0
146
0.71
147
1.5
 71
     0
 72
     0
 73
     0
 74
     0
 75
     0
 76
     0
 77
     0
 78
     8
170
     0
171
     2
172
     1
173
     0
174
     0
175
     0
176
   256
177
   256
178
     2
270
     2
271
     2
272
     2
273
     2
274
     2
340
6B
275
     0
280
     0
281
     0
282
     0
283
     0
284
     0
285
     0
286
     0
287
     3
288
     0
  0
DIMSTYLE
105
62
330
A
100
AcDbSymbolTableRecord
100
AcDbDimStyleTableRecord
  2
AM_JIS$7
 70
     0
  3

  4
"
  5
OPEN30
  6

  7

 40
1.0
 41
2.5
 42
1.0
 43
10.0
 44
1.0
 45
0.0
 46
0.0
 47
0.1
 48
0.1
140
3.2
141
0.0
142
0.0
143
0.0393701
144
1.0
145
0.0
146
0.71
147
1.5
 71
     0
 72
     0
 73
     0
 74
     0
 75
     0
 76
     0
 77
     3
 78
     8
170
     0
171
     2
172
     1
173
     0
174
     0
175
     0
176
   256
177
   256
178
     2
270
     2
271
     2
272
     3
273
     2
274
     2
340
6B
275
     0
280
     0
281
     0
282
     0
283
     0
284
     0
285
     0
286
     0
287
     3
288
     0
  0
DIMSTYLE
105
63
330
A
100
AcDbSymbolTableRecord
100
AcDbDimStyleTableRecord
  2
AM_JIS$SF
 70
     0
  3

  4
"
  5
OPEN30
  6

  7

 40
1.0
 41
2.5
 42
1.0
 43
10.0
 44
1.0
 45
0.0
 46
0.0
 47
0.1
 48
0.1
140
3.2
141
0.0
142
0.0
143
0.0393701
144
1.0
145
0.0
146
0.71
147
1.5
 71
     0
 72
     0
 73
     0
 74
     0
 75
     1
 76
     1
 77
     3
 78
     8
170
     0
171
     2
172
     1
173
     0
174
     0
175
     0
176
   256
177
   256
178
     2
270
     2
271
     2
272
     2
273
     2
274
     2
340
6B
275
     0
280
     0
281
     0
282
     0
283
     0
284
     0
285
     0
286
     0
287
     3
288
     0
  0
DIMSTYLE
105
68
330
A
100
AcDbSymbolTableRecord
100
AcDbDimStyleTableRecord
  2
AM_JIS$SH
 70
     0
  3

  4
"
  5

  6
GENAXEH
  7
OPEN30
 40
1.0
 41
2.5
 42
1.0
 43
10.0
 44
1.0
 45
0.0
 46
0.0
 47
0.1
 48
0.1
140
3.2
141
0.0
142
0.0
143
0.0393701
144
2.0
145
0.0
146
0.71
147
1.5
 71
     0
 72
     0
 73
     0
 74
     0
 75
     1
 76
     1
 77
     3
 78
     8
170
     0
171
     2
172
     1
173
     1
174
     0
175
     0
176
   256
177
   256
178
     2
270
     2
271
     2
272
     2
273
     2
274
     2
340
6B
275
     0
280
     0
281
     0
282
     0
283
     0
284
     0
285
     0
286
     0
287
     3
288
     0
  0
DIMSTYLE
105
B34
102
{ACAD_REACTORS
330
6184
102
}
330
A
100
AcDbSymbolTableRecord
100
AcDbDimStyleTableRecord
  2
AM_JIS$2
 70
     0
  3

  4
"
  5
OPEN30
  6

  7

 40
1.0
 41
2.5
 42
1.0
 43
12.0
 44
1.0
 45
0.0
 46
0.0
 47
0.1
 48
0.1
140
3.2
141
0.0
142
0.0
143
0.0393701
144
1.0
145
0.0
146
0.71
147
1.5
 71
     0
 72
     0
 73
     0
 74
     0
 75
     0
 76
     0
 77
     3
 78
     8
170
     0
171
     2
172
     1
173
     0
174
     0
175
     0
176
   256
177
   256
178
     2
270
     2
271
     3
272
     3
273
     2
274
     2
340
6B
275
     0
280
     0
281
     0
282
     0
283
     0
284
     0
285
     0
286
     0
287
     3
288
     0
  0
DIMSTYLE
105
BA5
102
{ACAD_REACTORS
330
2216
330
CC6
330
DF5
330
5B6F
102
}
330
A
100
AcDbSymbolTableRecord
100
AcDbDimStyleTableRecord
  2
AM_JIS$0
 70
     0
  3

  4
"
  5
OPEN30
  6

  7

 40
1.0
 41
2.5
 42
0.0
 43
10.0
 44
1.0
 45
0.0
 46
0.0
 47
0.1
 48
0.1000000001
140
3.799999999999999
141
0.0
142
0.0
143
0.0393701
144
1.0
145
0.0
146
0.71
147
1.5
 71
     0
 72
     0
 73
     0
 74
     0
 75
     0
 76
     0
 77
     3
 78
     1
170
     0
171
     2
172
     1
173
     0
174
     0
175
     0
176
     3
177
     3
178
     2
270
     2
271
     2
272
     2
273
     2
274
     2
340
11
275
     1
280
     0
281
     0
282
     0
283
     0
284
     8
285
     0
286
     0
287
     0
288
     0
  0
ENDTAB
  0
TABLE
  2
BLOCK_RECORD
  5
1
330
0
100
AcDbSymbolTable
 70
    10
  0
BLOCK_RECORD
  5
1F
102
{ACAD_XDICTIONARY
360
74
102
}
330
1
100
AcDbSymbolTableRecord
100
AcDbBlockTableRecord
  2
*MODEL_SPACE
  0
BLOCK_RECORD
  5
101
102
{ACAD_XDICTIONARY
360
62DE
102
}
330
1
100
AcDbSymbolTableRecord
100
AcDbBlockTableRecord
  2
*PAPER_SPACE
  0
BLOCK_RECORD
  5
59
330
1
100
AcDbSymbolTableRecord
100
AcDbBlockTableRecord
  2
_OPEN30
  0
BLOCK_RECORD
  5
64
330
1
100
AcDbSymbolTableRecord
100
AcDbBlockTableRecord
  2
GENAXEH
  0
BLOCK_RECORD
  5
CC8
330
1
100
AcDbSymbolTableRecord
100
AcDbBlockTableRecord
  2
*D5
  0
BLOCK_RECORD
  5
DF6
330
1
100
AcDbSymbolTableRecord
100
AcDbBlockTableRecord
  2
*D6
  0
BLOCK_RECORD
  5
2217
330
1
100
AcDbSymbolTableRecord
100
AcDbBlockTableRecord
  2
*D7
  0
BLOCK_RECORD
  5
5B70
330
1
100
AcDbSymbolTableRecord
100
AcDbBlockTableRecord
  2
*D8
  0
BLOCK_RECORD
  5
6185
330
1
100
AcDbSymbolTableRecord
100
AcDbBlockTableRecord
  2
*D9
  0
ENDTAB
  0
ENDSEC
  0
SECTION
  2
BLOCKS
  0
BLOCK
  5
20
330
1F
100
AcDbEntity
  8
0
100
AcDbBlockBegin
  2
*MODEL_SPACE
 70
     0
 10
0.0
 20
0.0
 30
0.0
  3
*MODEL_SPACE
  1

  0
ENDBLK
  5
21
330
1F
100
AcDbEntity
  8
0
100
AcDbBlockEnd
  0
BLOCK
  5
103
330
101
100
AcDbEntity
 67
     1
  8
0
100
AcDbBlockBegin
  2
*PAPER_SPACE
 70
     0
 10
0.0
 20
0.0
 30
0.0
  3
*PAPER_SPACE
  1

  0
ENDBLK
  5
104
330
101
100
AcDbEntity
 67
     1
  8
0
100
AcDbBlockEnd
  0
BLOCK
  5
5D
330
59
100
AcDbEntity
  8
0
100
AcDbBlockBegin
  2
_OPEN30
 70
     0
 10
0.0
 20
0.0
 30
0.0
  3
_OPEN30
  1

  0
LINE
  5
5A
330
59
100
AcDbEntity
  8
0
 62
     0
100
AcDbLine
 10
-1.0
 20
0.26794919
 30
0.0
 11
0.0
 21
0.0
 31
0.0
  0
LINE
  5
5B
330
59
100
AcDbEntity
  8
0
 62
     0
100
AcDbLine
 10
0.0
 20
0.0
 30
0.0
 11
-1.0
 21
-0.26794919
 31
0.0
  0
LINE
  5
5C
330
59
100
AcDbEntity
  8
0
 62
     0
100
AcDbLine
 10
0.0
 20
0.0
 30
0.0
 11
-1.0
 21
0.0
 31
0.0
  0
ENDBLK
  5
5E
330
59
100
AcDbEntity
  8
0
100
AcDbBlockEnd
  0
BLOCK
  5
66
330
64
100
AcDbEntity
  8
0
100
AcDbBlockBegin
  2
GENAXEH
 70
     0
 10
0.0
 20
0.0
 30
0.0
  3
GENAXEH
  1

  0
LINE
  5
65
330
64
100
AcDbEntity
  8
0
100
AcDbLine
 10
-1.0
 20
0.0
 30
0.0
 11
1.0
 21
0.0
 31
0.0
  0
ENDBLK
  5
67
330
64
100
AcDbEntity
  8
0
100
AcDbBlockEnd
  0
BLOCK
  5
CD2
330
CC8
100
AcDbEntity
  8
0
100
AcDbBlockBegin
  2
*D5
 70
     1
 10
0.0
 20
0.0
 30
0.0
  3
*D5
  1

  0
LINE
  5
6151
330
CC8
100
AcDbEntity
  8
AM_5
 62
     3
100
AcDbLine
 10
-233.9999994630642
 20
-9.250003095393486
 30
0.0
 11
-233.9999994630642
 21
-35.00142365191799
 31
0.0
  0
LINE
  5
6152
330
CC8
100
AcDbEntity
  8
AM_5
 62
     3
100
AcDbLine
 10
-3.999999463064177
 20
-10.00000197044166
 30
0.0
 11
-3.999999463064179
 21
-35.00142365191799
 31
0.0
  0
LINE
  5
6153
330
CC8
100
AcDbEntity
  8
AM_5
 62
     3
100
AcDbLine
 10
-231.4999994630642
 20
-34.00142365191799
 30
0.0
 11
-6.499999463064179
 21
-34.00142365191799
 31
0.0
  0
INSERT
  5
6154
330
CC8
100
AcDbEntity
  8
AM_5
 62
     3
100
AcDbBlockReference
  2
_OPEN30
 10
-233.9999994630642
 20
-34.00142365191799
 30
0.0
 41
2.5
 42
2.5
 43
2.5
 50
180.0
  0
INSERT
  5
6155
330
CC8
100
AcDbEntity
  8
AM_5
 62
     3
100
AcDbBlockReference
  2
_OPEN30
 10
-3.999999463064179
 20
-34.00142365191799
 30
0.0
 41
2.5
 42
2.5
 43
2.5
  0
MTEXT
  5
6156
330
CC8
100
AcDbEntity
  8
AM_5
 62
     2
100
AcDbMText
 10
-118.9999994630641
 20
-30.60142365191799
 30
0.0
 40
3.799999999999999
 41
0.0
 71
     5
 72
     1
  1
230
1001
ACAD
1000
MTEXTBEGIN
1070
    73
1070
     1
1070
    44
1040
1.0
1070
    74
1070
     0
1000
MTEXTEND
  0
POINT
  5
6157
330
CC8
100
AcDbEntity
  8
DEFPOINTS
 62
     0
100
AcDbPoint
 10
-233.9999994630642
 20
-9.250003095393486
 30
0.0
  0
POINT
  5
6158
330
CC8
100
AcDbEntity
  8
DEFPOINTS
 62
     0
100
AcDbPoint
 10
-3.999999463064177
 20
-10.00000197044166
 30
0.0
  0
POINT
  5
6159
330
CC8
100
AcDbEntity
  8
DEFPOINTS
 62
     0
100
AcDbPoint
 10
-3.999999463064179
 20
-34.00142365191799
 30
0.0
  0
ENDBLK
  5
CD3
330
CC8
100
AcDbEntity
  8
0
100
AcDbBlockEnd
  0
BLOCK
  5
E00
330
DF6
100
AcDbEntity
  8
0
100
AcDbBlockBegin
  2
*D6
 70
     1
 10
0.0
 20
0.0
 30
0.0
  3
*D6
  1

  0
LINE
  5
6148
330
DF6
100
AcDbEntity
  8
AM_5
 62
     3
100
AcDbLine
 10
-163.9999802226173
 20
-6.703766933068949
 30
0.0
 11
-163.9999802226173
 21
-25.00142365191783
 31
0.0
  0
LINE
  5
6149
330
DF6
100
AcDbEntity
  8
AM_5
 62
     3
100
AcDbLine
 10
-3.999999463064177
 20
-10.00000197044166
 30
0.0
 11
-3.999999463064178
 21
-25.00142365191783
 31
0.0
  0
LINE
  5
614A
330
DF6
100
AcDbEntity
  8
AM_5
 62
     3
100
AcDbLine
 10
-161.4999802226173
 20
-24.00142365191783
 30
0.0
 11
-6.499999463064178
 21
-24.00142365191783
 31
0.0
  0
INSERT
  5
614B
330
DF6
100
AcDbEntity
  8
AM_5
 62
     3
100
AcDbBlockReference
  2
_OPEN30
 10
-163.9999802226173
 20
-24.00142365191783
 30
0.0
 41
2.5
 42
2.5
 43
2.5
 50
180.0
  0
INSERT
  5
614C
330
DF6
100
AcDbEntity
  8
AM_5
 62
     3
100
AcDbBlockReference
  2
_OPEN30
 10
-3.999999463064178
 20
-24.00142365191783
 30
0.0
 41
2.5
 42
2.5
 43
2.5
  0
MTEXT
  5
614D
330
DF6
100
AcDbEntity
  8
AM_5
 62
     2
100
AcDbMText
 10
-83.99998984284076
 20
-20.60142365191783
 30
0.0
 40
3.799999999999999
 41
0.0
 71
     5
 72
     1
  1
160
1001
ACAD
1000
MTEXTBEGIN
1070
    73
1070
     1
1070
    44
1040
1.0
1070
    74
1070
     0
1000
MTEXTEND
  0
POINT
  5
614E
330
DF6
100
AcDbEntity
  8
DEFPOINTS
 62
     0
100
AcDbPoint
 10
-163.9999802226173
 20
-6.703766933068949
 30
0.0
  0
POINT
  5
614F
330
DF6
100
AcDbEntity
  8
DEFPOINTS
 62
     0
100
AcDbPoint
 10
-3.999999463064177
 20
-10.00000197044166
 30
0.0
  0
POINT
  5
6150
330
DF6
100
AcDbEntity
  8
DEFPOINTS
 62
     0
100
AcDbPoint
 10
-3.999999463064178
 20
-24.00142365191783
 30
0.0
  0
ENDBLK
  5
E01
330
DF6
100
AcDbEntity
  8
0
100
AcDbBlockEnd
  0
BLOCK
  5
2221
330
2217
100
AcDbEntity
  8
0
100
AcDbBlockBegin
  2
*D7
 70
     1
 10
0.0
 20
0.0
 30
0.0
  3
*D7
  1

  0
LINE
  5
615A
330
2217
100
AcDbEntity
  8
AM_5
 62
     3
100
AcDbLine
 10
-233.2499994630643
 20
9.999998959086621
 30
0.0
 11
-251.0000004630642
 21
9.999998959086571
 31
0.0
  0
LINE
  5
615B
330
2217
100
AcDbEntity
  8
AM_5
 62
     3
100
AcDbLine
 10
-233.2499994630641
 20
-10.0000030953942
 30
0.0
 11
-251.0000004630642
 21
-10.00000309539425
 31
0.0
  0
LINE
  5
615C
330
2217
100
AcDbEntity
  8
AM_5
 62
     3
100
AcDbLine
 10
-250.0000004630642
 20
7.499998959086574
 30
0.0
 11
-250.0000004630642
 21
-7.500003095394256
 31
0.0
  0
INSERT
  5
615D
330
2217
100
AcDbEntity
  8
AM_5
 62
     3
100
AcDbBlockReference
  2
_OPEN30
 10
-250.0000004630642
 20
9.999998959086575
 30
0.0
 41
2.5
 42
2.5
 43
2.5
 50
90.00000000000017
  0
INSERT
  5
615E
330
2217
100
AcDbEntity
  8
AM_5
 62
     3
100
AcDbBlockReference
  2
_OPEN30
 10
-250.0000004630642
 20
-10.00000309539425
 30
0.0
 41
2.5
 42
2.5
 43
2.5
 50
270.0000000000001
  0
MTEXT
  5
615F
330
2217
100
AcDbEntity
  8
AM_5
 62
     2
100
AcDbMText
 10
-253.4000004630642
 20
-0.0000020681538405
 30
0.0
 40
3.799999999999999
 41
0.0
 71
     5
 72
     1
  1
%%c20
 11
-0.0000000000000028
 21
1.0
 31
0.0
1001
ACAD
1000
MTEXTBEGIN
1070
    73
1070
     1
1070
    44
1040
1.0
1070
    74
1070
     0
1000
MTEXTEND
  0
POINT
  5
6160
330
2217
100
AcDbEntity
  8
DEFPOINTS
 62
     0
100
AcDbPoint
 10
-233.2499994630643
 20
9.999998959087346
 30
0.0
  0
POINT
  5
6161
330
2217
100
AcDbEntity
  8
DEFPOINTS
 62
     0
100
AcDbPoint
 10
-233.2499994630642
 20
-10.00000309539348
 30
0.0
  0
POINT
  5
6162
330
2217
100
AcDbEntity
  8
DEFPOINTS
 62
     0
100
AcDbPoint
 10
-250.0000004630642
 20
-10.00000309539347
 30
0.0
  0
ENDBLK
  5
2222
330
2217
100
AcDbEntity
  8
0
100
AcDbBlockEnd
  0
BLOCK
  5
5B7A
330
5B70
100
AcDbEntity
  8
0
100
AcDbBlockBegin
  2
*D8
 70
     1
 10
0.0
 20
0.0
 30
0.0
  3
*D8
  1

  0
LINE
  5
616E
330
5B70
100
AcDbEntity
  8
AM_5
 62
     3
100
AcDbLine
 10
-3.999999463064038
 20
9.999998029557806
 30
0.0
 11
18.54288101993262
 21
9.999998029557868
 31
0.0
  0
LINE
  5
616F
330
5B70
100
AcDbEntity
  8
AM_5
 62
     3
100
AcDbLine
 10
-3.999999463063908
 20
-10.0000019704418
 30
0.0
 11
18.54288101993268
 21
-10.00000197044174
 31
0.0
  0
LINE
  5
6170
330
5B70
100
AcDbEntity
  8
AM_5
 62
     3
100
AcDbLine
 10
17.54288101993263
 20
7.499998029557866
 30
0.0
 11
17.54288101993267
 21
-7.500001970441744
 31
0.0
  0
INSERT
  5
6171
330
5B70
100
AcDbEntity
  8
AM_5
 62
     3
100
AcDbBlockReference
  2
_OPEN30
 10
17.54288101993262
 20
9.999998029557866
 30
0.0
 41
2.5
 42
2.5
 43
2.5
 50
90.00000000000017
  0
INSERT
  5
6172
330
5B70
100
AcDbEntity
  8
AM_5
 62
     3
100
AcDbBlockReference
  2
_OPEN30
 10
17.54288101993268
 20
-10.00000197044174
 30
0.0
 41
2.5
 42
2.5
 43
2.5
 50
270.0000000000001
  0
MTEXT
  5
6173
330
5B70
100
AcDbEntity
  8
AM_5
 62
     2
100
AcDbMText
 10
14.14288101993265
 20
-0.0000019704419495
 30
0.0
 40
3.799999999999999
 41
0.0
 71
     5
 72
     1
  1
%%c20
 11
-0.0000000000000028
 21
1.0
 31
0.0
1001
ACAD
1000
MTEXTBEGIN
1070
    73
1070
     1
1070
    44
1040
1.0
1070
    74
1070
     0
1000
MTEXTEND
  0
POINT
  5
6174
330
5B70
100
AcDbEntity
  8
DEFPOINTS
 62
     0
100
AcDbPoint
 10
-3.999999463064007
 20
9.999998029557817
 30
0.0
  0
POINT
  5
6175
330
5B70
100
AcDbEntity
  8
DEFPOINTS
 62
     0
100
AcDbPoint
 10
-3.999999463063939
 20
-10.00000197044179
 30
0.0
  0
POINT
  5
6176
330
5B70
100
AcDbEntity
  8
DEFPOINTS
 62
     0
100
AcDbPoint
 10
17.54288101993265
 20
-10.00000197044179
 30
0.0
  0
ENDBLK
  5
5B7B
330
5B70
100
AcDbEntity
  8
0
100
AcDbBlockEnd
  0
BLOCK
  5
6193
330
6185
100
AcDbEntity
  8
0
100
AcDbBlockBegin
  2
*D9
 70
     1
 10
0.0
 20
0.0
 30
0.0
  3
*D9
  1

  0
LINE
  5
62E0
330
6185
100
AcDbEntity
  8
AM_5
100
AcDbLine
 10
0.3420206444885358
 20
-0.9396941090248558
 30
0.0
 11
10.26571006729401
 21
-28.20480994537359
 31
0.0
  0
LINE
  5
62E1
330
6185
100
AcDbEntity
  8
AM_5
100
AcDbLine
 10
0.3420206802611861
 20
0.9396915798737822
 30
0.0
 11
10.2657111410082
 21
28.20480703844281
 31
0.0
  0
ARC
  5
62E2
330
6185
100
AcDbEntity
  8
AM_5
100
AcDbCircle
 10
0.0000004578983056
 20
-0.000001258065404
 30
0.0
 40
29.01493006608703
100
AcDbArc
 50
294.9382759445293
 51
65.06172187430744
  0
INSERT
  5
62E3
330
6185
100
AcDbEntity
  8
AM_5
100
AcDbBlockReference
  2
_OPEN30
 10
9.923689959741119
 20
-27.26511731156746
 30
0.0
 41
2.5
 42
2.5
 43
2.5
 50
202.4691368816799
  0
INSERT
  5
62E4
330
6185
100
AcDbEntity
  8
AM_5
100
AcDbBlockReference
  2
_OPEN30
 10
9.923690997682635
 20
27.26511441765687
 30
0.0
 41
2.5
 42
2.5
 43
2.5
 50
157.5308609371569
  0
MTEXT
  5
62E5
330
6185
100
AcDbEntity
  8
AM_5
 62
     2
100
AcDbMText
 10
25.91493052398533
 20
-0.000001810342554
 30
0.0
 40
3.2
 41
0.0
 71
     5
 72
     1
  1
140°
  7
ASAMI
 11
-0.0000000000000028
 21
1.0
 31
0.0
  0
POINT
  5
62E6
330
6185
100
AcDbEntity
  8
DEFPOINTS
 62
     0
100
AcDbPoint
 10
26.6419767304143
 20
11.49222511608055
 30
0.0
  0
POINT
  5
62E7
330
6185
100
AcDbEntity
  8
DEFPOINTS
 62
     0
100
AcDbPoint
 10
0.0000005369356212
 20
-0.000001040912164
 30
0.0
  0
POINT
  5
62E8
330
6185
100
AcDbEntity
  8
DEFPOINTS
 62
     0
100
AcDbPoint
 10
0.0000005369356408
 20
-0.0000014752187235
 30
0.0
  0
POINT
  5
62E9
330
6185
100
AcDbEntity
  8
DEFPOINTS
 62
     0
100
AcDbPoint
 10
-1.334546940223708
 20
3.666638017774425
 30
0.0
  0
POINT
  5
62EA
330
6185
100
AcDbEntity
  8
DEFPOINTS
 62
     0
100
AcDbPoint
 10
-1.334546940223692
 20
-3.666640099598738
 30
0.0
  0
ENDBLK
  5
6194
330
6185
100
AcDbEntity
  8
0
100
AcDbBlockEnd
  0
ENDSEC
  0
SECTION
  2
ENTITIES
  0
LINE
  5
C9F
330
1F
100
AcDbEntity
  8
AM_7
100
AcDbLine
 10
-235.9999994630642
 20
-0.0000010409126543
 30
0.0
 11
3.542880019934624
 21
-0.0000010409121463
 31
0.0
1001
GENIUS_GENODEF_13
1002
{
1000
HIER
1070
     0
1002
}
1002
{
1000
MANEDIT
1070
     0
1002
}
1002
{
1000
NOSEL
1070
     0
1002
}
1002
{
1000
BEHIND
1070
     0
1002
}
1002
{
1000
REACTOR
1002
}
1001
GENIUS_GENOBJ-N-CEN_13
1002
{
1000
OWNER
1000
GEN
1002
}
  0
DIMENSION
  5
CC6
330
1F
100
AcDbEntity
  8
AM_5
100
AcDbDimension
  2
*D5
 10
-3.999999463064179
 20
-34.00142365191799
 30
0.0
 11
-118.9999994630641
 21
-30.60142365191799
 31
0.0
 70
    32
  1
<>
  3
AM_JIS$0
100
AcDbAlignedDimension
 13
-233.9999994630642
 23
-9.250003095393486
 33
0.0
 14
-3.999999463064177
 24
-10.00000197044166
 34
0.0
 50
0.0000000000001132
100
AcDbRotatedDimension
1001
GENIUS_GENDTOL_13
1000

1000
h7
1000

1040
0.0
1001
ACAD
1000
DSTYLE
1002
{
1070
   271
1070
     0
1002
}
  0
DIMENSION
  5
DF5
330
1F
100
AcDbEntity
  8
AM_5
100
AcDbDimension
  2
*D6
 10
-3.999999463064178
 20
-24.00142365191783
 30
0.0
 11
-83.99998984284076
 21
-20.60142365191783
 31
0.0
 70
    32
  1
<>
  3
AM_JIS$0
100
AcDbAlignedDimension
 13
-163.9999802226173
 23
-6.703766933068949
 33
0.0
 14
-3.999999463064177
 24
-10.00000197044166
 34
0.0
 50
0.0000000000001527
100
AcDbRotatedDimension
1001
GENIUS_GENDTOL_13
1000

1000
h7
1000

1040
0.0
1001
ACAD
1000
DSTYLE
1002
{
1070
   271
1070
     0
1002
}
  0
TEXT
  5
19BD
330
1F
100
AcDbEntity
  8
AM_6
100
AcDbText
 10
-140.6666661297307
 20
-56.50001520387038
 30
0.0
 40
5.0
  1
MDW200LHK
 50
0.0000000000001527
 72
     4
 11
-118.999999463064
 21
-54.00001520387032
 31
0.0
100
AcDbText
  0
LINE
  5
21D8
330
1F
100
AcDbEntity
  8
AM_0
 48
0.5
100
AcDbLine
 10
-233.2499994630643
 20
9.999998959087346
 30
0.0
 11
-157.3995188668305
 21
10.0018088827719
 31
0.0
1001
GENIUS_GENODEF_13
1002
{
1000
HIER
1070
     0
1002
}
1002
{
1000
MANEDIT
1070
     0
1002
}
1002
{
1000
NOSEL
1070
     0
1002
}
1002
{
1000
BEHIND
1070
     0
1002
}
1002
{
1000
REACTOR
1002
}
1001
GENIUS_GENOBJ-N-CEN_13
1002
{
1000
OWNER
1000
GEN
1002
}
  0
LINE
  5
21D9
330
1F
100
AcDbEntity
  8
AM_0
 48
0.5
100
AcDbLine
 10
-233.2499994630642
 20
-10.00000309539348
 30
0.0
 11
-160.6663326062413
 21
-10.00000309539335
 31
0.0
1001
GENIUS_GENODEF_13
1002
{
1000
HIER
1070
     0
1002
}
1002
{
1000
MANEDIT
1070
     0
1002
}
1002
{
1000
NOSEL
1070
     0
1002
}
1002
{
1000
BEHIND
1070
     0
1002
}
1002
{
1000
REACTOR
1002
}
1001
GENIUS_GENOBJ-N-CEN_13
1002
{
1000
OWNER
1000
GEN
1002
}
  0
LINE
  5
21DC
330
1F
100
AcDbEntity
  8
AM_0
100
AcDbLine
 10
-233.2499994630651
 20
-10.00000309539256
 30
0.0
 11
-233.2499994630651
 21
9.999998959086623
 31
0.0
  0
LINE
  5
21DD
330
1F
100
AcDbEntity
  8
AM_0
 48
0.5
100
AcDbLine
 10
-233.9999994630642
 20
-9.250003095393486
 30
0.0
 11
-233.9999994630643
 21
9.249998959087344
 31
0.0
  0
DIMENSION
  5
2216
330
1F
100
AcDbEntity
  8
AM_5
100
AcDbDimension
  2
*D7
 10
-250.0000004630642
 20
-10.00000309539347
 30
0.0
 11
-253.4000004630642
 21
-0.0000020681531033
 31
0.0
 70
    32
  1
%%c<>
 51
359.9999999999998
  3
AM_JIS$0
100
AcDbAlignedDimension
 13
-233.2499994630643
 23
9.999998959087346
 33
0.0
 14
-233.2499994630642
 24
-10.00000309539348
 34
0.0
 50
269.9999999999999
100
AcDbRotatedDimension
1001
ACAD
1000
DSTYLE
1002
{
1070
   271
1070
     0
1002
}
1001
GENIUS_GENDTOL_13
1000

1000
h7
1000

1040
0.0
  0
LINE
  5
53F6
330
1F
100
AcDbEntity
  8
AM_0
 48
0.5
100
AcDbLine
 10
-233.2499994630643
 20
9.999998959087346
 30
0.0
 11
-233.9999994630643
 21
9.249998959087344
 31
0.0
1001
GENIUS_GENFIL_13
1070
     0
1040
0.75
1040
0.75
1040
20.0
1040
0.0
1002
{
1002
}
1001
GENIUS_GENODEF_13
1002
{
1000
HIER
1070
     0
1002
}
1002
{
1000
MANEDIT
1070
     0
1002
}
1002
{
1000
NOSEL
1070
     0
1002
}
1002
{
1000
BEHIND
1070
     0
1002
}
1002
{
1000
REACTOR
1002
}
1001
GENIUS_GENOBJ-N-CHA_13
1002
{
1000
OWNER
1000
GEN
1002
}
  0
LINE
  5
53FC
330
1F
100
AcDbEntity
  8
AM_0
 48
0.5
100
AcDbLine
 10
-233.9999994630642
 20
-9.250003095393486
 30
0.0
 11
-233.2499994630642
 21
-10.00000309539348
 31
0.0
1001
GENIUS_GENFIL_13
1070
     0
1040
0.75
1040
0.75
1040
20.0
1040
0.0
1002
{
1002
}
1001
GENIUS_GENODEF_13
1002
{
1000
HIER
1070
     0
1002
}
1002
{
1000
MANEDIT
1070
     0
1002
}
1002
{
1000
NOSEL
1070
     0
1002
}
1002
{
1000
BEHIND
1070
     0
1002
}
1002
{
1000
REACTOR
1002
}
1001
GENIUS_GENOBJ-N-CHA_13
1002
{
1000
OWNER
1000
GEN
1002
}
  0
LINE
  5
5AFC
330
1F
100
AcDbEntity
  8
AM_0
 48
0.5
100
AcDbLine
 10
-66.75569415278584
 20
9.999998029563965
 30
0.0
 11
-37.32271926596307
 21
9.999998029561073
 31
0.0
  0
LINE
  5
5B04
330
1F
100
AcDbEntity
  8
AM_11
 48
0.5
100
AcDbLine
 10
-97.38865675859679
 20
10.00141871104675
 30
0.0
 11
-77.12700356883236
 21
10.00038820129058
 31
0.0
  0
LINE
  5
5B05
330
1F
100
AcDbEntity
  8
AM_11
 48
0.5
100
AcDbLine
 10
-37.32271926596307
 20
9.999998029561073
 30
0.0
 11
-11.09158991803186
 21
9.999998029558504
 31
0.0
  0
LINE
  5
5B14
330
1F
100
AcDbEntity
  8
AM_0
 48
0.5
100
AcDbLine
 10
-60.66434386356608
 20
-10.00000197043683
 30
0.0
 11
-37.32271926596467
 21
-10.0000019704389
 31
0.0
  0
LINE
  5
5B15
330
1F
100
AcDbEntity
  8
AM_11
 48
0.5
100
AcDbLine
 10
-101.5065354580361
 20
-9.999611798709302
 30
0.0
 11
-60.66434386356608
 21
-10.00142265191798
 31
0.0
  0
LINE
  5
5B16
330
1F
100
AcDbEntity
  8
AM_11
 48
0.5
100
AcDbLine
 10
-37.32271926596467
 20
-10.0000019704389
 30
0.0
 11
-11.09158991803343
 21
-10.0000019704415
 31
0.0
  0
LINE
  5
5B3E
330
1F
100
AcDbEntity
  8
AM_11
 48
0.5
100
AcDbLine
 10
-157.3949139322308
 20
10.00091101426943
 30
0.0
 11
-137.4872273125942
 21
9.999043774830902
 31
0.0
  0
DIMENSION
  5
5B6F
330
1F
100
AcDbEntity
  8
AM_5
100
AcDbDimension
  2
*D8
 10
17.54288101993265
 20
-10.00000197044179
 30
0.0
 11
14.14288101993265
 21
-0.0000019704419907
 31
0.0
 70
    32
  1
%%c<>
 51
359.9999999999998
  3
AM_JIS$0
100
AcDbAlignedDimension
 13
-3.999999463064007
 23
9.999998029557817
 33
0.0
 14
-3.999999463063939
 24
-10.00000197044179
 34
0.0
 50
89.99999999999444
100
AcDbRotatedDimension
1001
ACAD
1000
DSTYLE
1002
{
1070
   271
1070
     0
1002
}
1001
GENIUS_GENDTOL_13
1000

1000
h7
1000

1040
0.0
  0
ELLIPSE
  5
5EAE
330
1F
100
AcDbEntity
  8
AM_0
 48
0.5
100
AcDbEllipse
 10
-3.68678815471456
 20
-2.605755750126388
 30
0.0
 11
-1.443645608710477
 21
0.8332675739531142
 31
0.0
210
0.0
220
0.0
230
1.0
 40
0.4999605334193173
 41
4.483745414516412
 42
7.627185755845919
  0
ELLIPSE
  5
5EAF
330
1F
100
AcDbEntity
  8
AM_0
 48
0.5
100
AcDbEllipse
 10
-3.68678815471456
 20
-2.605755750126388
 30
0.0
 11
-0.2894835406212222
 21
1.64133825060299
 31
0.0
210
0.0
220
0.0
230
1.0
 40
0.5000722874992178
 41
1.805826330807471
 42
4.941168220519445
  0
ELLIPSE
  5
5EB0
330
1F
100
AcDbEntity
  8
AM_0
 48
0.5
100
AcDbEllipse
 10
-18.02013048033598
 20
16.7840134861203
 30
0.0
 11
-24.11486551454705
 21
0.0000000043851742
 31
0.0
210
0.0
220
0.0
230
1.0
 40
0.9998421717171972
 41
2.081379652205137
 42
2.169874429884639
  0
ELLIPSE
  5
5EB1
330
1F
100
AcDbEntity
  8
AM_0
 48
0.5
100
AcDbEllipse
 10
9.538515886791804
 20
-1.307803473622293
 30
0.0
 11
-2.672190031655944
 21
16.10179988312822
 31
0.0
210
0.0
220
0.0
230
1.0
 40
0.9831096902989713
 41
1.590519884034581
 42
1.970925712391278
  0
ELLIPSE
  5
5EB3
330
1F
100
AcDbEntity
  8
AM_0
 48
0.5
100
AcDbEllipse
 10
14.09451160704736
 20
12.96465959158273
 30
0.0
 11
16.14382895693956
 21
8.019774585209782
 31
0.0
210
0.0
220
0.0
230
1.0
 40
0.912337499000648
 41
2.87143131033609
 42
3.230655056394628
  0
ELLIPSE
  5
5EB4
330
1F
100
AcDbEntity
  8
AM_0
 48
0.5
100
AcDbEllipse
 10
-18.11066631564956
 20
19.02110247428001
 30
0.0
 11
36.76137832400165
 21
23.83515423585409
 31
0.0
210
0.0
220
0.0
230
1.0
 40
0.5928066610971658
 41
-1.542676823121905
 42
-1.459915107027756
  0
LINE
  5
5EB6
330
1F
100
AcDbEntity
  8
AM_0
 48
0.5
100
AcDbLine
 10
0.0000005369356408
 20
-0.0000014752187235
 30
0.0
 11
-1.334546940223708
 21
3.666638017774425
 31
0.0
  0
LINE
  5
5EB7
330
1F
100
AcDbEntity
  8
AM_0
 48
0.5
100
AcDbLine
 10
0.0000015174558534
 20
-0.0000010409121538
 30
0.0
 11
-5.672120151788904
 21
3.890840574043888
 31
0.0
  0
LINE
  5
5EB9
330
1F
100
AcDbEntity
  8
AM_0
 48
0.5
100
AcDbLine
 10
-3.416488515123793
 20
9.166655819696231
 30
0.0
 11
-4.000024898393508
 21
10.00038184346204
 31
0.0
  0
SPLINE
  5
5EBA
330
1F
100
AcDbEntity
  8
AM_0
 48
0.5
100
AcDbSpline
210
0.0
220
0.0
230
1.0
 70
     8
 71
     3
 72
    25
 73
    21
 74
     0
 42
0.0000000001
 43
0.0000000001
 40
6.846175049578289
 40
6.846175049578289
 40
6.846175049578289
 40
6.846175049578289
 40
7.604337694224321
 40
8.711974558287883
 40
9.814980593243754
 40
10.91239053451967
 40
12.0033633515982
 40
13.08720139956839
 40
14.16337181880432
 40
15.23152222380919
 40
16.29148850140128
 40
17.34331105512262
 40
18.38723020264746
 40
19.42369128463655
 40
20.45333379090873
 40
21.47697865721768
 40
22.49561244472435
 40
23.5103574802404
 40
24.52244778960836
 40
25.53320666051913
 40
25.53320666051913
 40
25.53320666051913
 40
25.53320666051913
 10
-11.71058147820559
 20
1.810453669798693
 30
0.0
 10
-12.09350231878377
 20
1.986035884864196
 30
0.0
 10
-13.0366568057428
 20
2.416377733123414
 30
0.0
 10
-14.54144656694823
 20
3.092169350530464
 30
0.0
 10
-16.22524666024103
 20
3.829308089263267
 30
0.0
 10
-17.90913143293396
 20
4.542895448085264
 30
0.0
 10
-19.59311535273571
 20
5.228543890618237
 30
0.0
 10
-21.27721718338263
 20
5.882023310022521
 30
0.0
 10
-22.961452497527
 20
6.499303763992504
 30
0.0
 10
-24.64582909229124
 20
7.076591617344799
 30
0.0
 10
-26.3303677148737
 20
7.610294223403375
 30
0.0
 10
-28.01506608420842
 20
8.097138897735856
 30
0.0
 10
-29.69993630113002
 20
8.534087734671782
 30
0.0
 10
-31.38497241965402
 20
8.918436525984919
 30
0.0
 10
-33.07016785717782
 20
9.247829488573128
 30
0.0
 10
-34.75551323638083
 20
9.520083253095716
 30
0.0
 10
-36.44098233396563
 20
9.733951786858003
 30
0.0
 10
-38.12655657435232
 20
9.886530224553109
 30
0.0
 10
-39.81220859559167
 20
9.982544381322629
 30
0.0
 10
-40.93625359282617
 20
9.994442871828272
 30
0.0
 10
-41.49790616847752
 20
10.00038820129045
 30
0.0
  0
SPLINE
  5
5EBB
330
1F
100
AcDbEntity
  8
AM_0
 48
0.5
100
AcDbSpline
210
0.0
220
0.0
230
1.0
 70
     8
 71
     3
 72
    10
 73
     6
 74
     0
 42
0.0000000001
 43
0.0000000001
 40
0.0
 40
0.0
 40
0.0
 40
0.0
 40
2.69986029516136
 40
4.147722969032201
 40
6.285750005020438
 40
6.285750005020438
 40
6.285750005020438
 40
6.285750005020438
 10
-11.71031198068236
 20
1.810334897253671
 30
0.0
 10
-10.51060440788738
 20
0.8812657941392206
 30
0.0
 10
-8.667525836480921
 20
-0.5460381540362893
 30
0.0
 10
-4.308892600305157
 20
0.144944691531197
 30
0.0
 10
-5.129750017341136
 20
2.472266346041915
 30
0.0
 10
-5.672120151788904
 20
3.890840574043888
 30
0.0
  0
ELLIPSE
  5
5EBC
330
1F
100
AcDbEntity
  8
AM_0
 48
0.5
100
AcDbEllipse
 10
5.677787984788579
 20
12.00600343566519
 30
0.0
 11
20.15762899951252
 21
0.0000000002085734
 31
0.0
210
0.0
220
0.0
230
1.0
 40
0.999842171717171
 41
3.671960206813537
 42
4.080081137008432
  0
SPLINE
  5
5EBD
330
1F
100
AcDbEntity
  8
AM_0
100
AcDbSpline
210
0.0
220
0.0
230
1.0
 70
     8
 71
     3
 72
    46
 73
    42
 74
     0
 42
0.0000000001
 43
0.0000000001
 40
0.0
 40
0.0
 40
0.0
 40
0.0
 40
0.8427075293422856
 40
1.265518104770559
 40
1.68994884956506
 40
2.116467290673827
 40
2.54548530610122
 40
2.977344090263341
 40
3.412310401731622
 40
3.850575907619845
 40
4.292228523283339
 40
4.737291192035371
 40
5.185695533383685
 40
5.63729472003792
 40
6.091866727153825
 40
6.549120869352286
 40
7.008706717250554
 40
7.470222077277051
 40
7.933222198716569
 40
8.397230145652669
 40
8.861746885649248
 40
9.326263625646204
 40
9.790271572582303
 40
10.25327169402144
 40
10.71478705404793
 40
11.17437290194659
 40
11.6316270441445
 40
12.08619905126056
 40
12.53780120194721
 40
12.98620554329551
 40
13.43126821204755
 40
13.87292082771091
 40
14.3111802250952
 40
14.74614653656348
 40
15.17800532072561
 40
15.60702303167234
 40
16.03354172596774
 40
16.45797877828845
 40
16.88078920975347
 40
17.30249350532345
 40
17.72363667810562
 40
17.72363667810562
 40
17.72363667810562
 40
17.72363667810562
 10
-5.026034559855062
 20
-9.999611798709711
 30
0.0
 10
-6.150125511588823
 20
-9.976831025700565
 30
0.0
 10
-7.838205184898447
 20
-9.942620484463045
 30
0.0
 10
-10.08291834067684
 20
-9.731992466874306
 30
0.0
 10
-11.76840516658701
 20
-9.519623395608519
 30
0.0
 10
-13.45374792349721
 20
-9.246977582363093
 30
0.0
 10
-15.13894217163771
 20
-8.917680497271536
 30
0.0
 10
-16.82397925383515
 20
-8.533306460935587
 30
0.0
 10
-18.50885634790558
 20
-8.096359426202774
 30
0.0
 10
-20.19356595555076
 20
-7.609522312548381
 30
0.0
 10
-21.87811144410107
 20
-7.075814664291652
 30
0.0
 10
-23.56248828264154
 20
-6.498527510192168
 30
0.0
 10
-25.24672353158721
 20
-5.881246868640062
 30
0.0
 10
-26.93082537665791
 20
-5.227767492892009
 30
0.0
 10
-28.61480930474099
 20
-4.542119065472252
 30
0.0
 10
-30.29869402932818
 20
-3.828531601203181
 30
0.0
 10
-31.98249430807056
 20
-3.091393272061207
 30
0.0
 10
-33.66622652859331
 20
-2.335237866800501
 30
0.0
 10
-35.34990854325746
 20
-1.564719078863959
 30
0.0
 10
-37.03355573260861
 20
-0.7845750571701946
 30
0.0
 10
-38.71718876892419
 20
0.0003882011315955
 30
0.0
 10
-40.40082180486975
 20
0.7853514603873069
 30
0.0
 10
-42.08446899533038
 20
1.565495479220789
 30
0.0
 10
-43.76815100593939
 20
2.336014277610327
 30
0.0
 10
-45.45188324149874
 20
3.092169644104646
 30
0.0
 10
-47.13568346448658
 20
3.829308116988623
 30
0.0
 10
-48.8195683955524
 20
4.542895048930301
 30
0.0
 10
-50.50355522078371
 20
5.228546936004409
 30
0.0
 10
-52.18766360946177
 20
5.882020374561104
 30
0.0
 10
-53.87190186282489
 20
6.499304181316912
 30
0.0
 10
-55.55627866214825
 20
7.076591507190105
 30
0.0
 10
-57.24081723077717
 20
7.610294251129584
 30
0.0
 10
-58.92551561354858
 20
8.097138895741739
 30
0.0
 10
-60.61038583006369
 20
8.53408771545104
 30
0.0
 10
-62.29542193705016
 20
8.918436604019571
 30
0.0
 10
-63.98061742067199
 20
9.247829198242133
 30
0.0
 10
-65.66597093356971
 20
9.520085669770171
 30
0.0
 10
-67.35144907459357
 20
9.733949779735109
 30
0.0
 10
-69.03703149532976
 20
9.886530560940901
 30
0.0
 10
-70.72267510145401
 20
9.982543796919369
 30
0.0
 10
-71.84671160531305
 20
9.994442707052908
 30
0.0
 10
-72.4083556955346
 20
10.00038820129057
 30
0.0
  0
SPLINE
  5
5EBE
330
1F
100
AcDbEntity
  8
AM_0
100
AcDbSpline
210
0.0
220
0.0
230
1.0
 70
     8
 71
     3
 72
    55
 73
    51
 74
     0
 42
0.0000000001
 43
0.0000000001
 40
0.0
 40
0.0
 40
0.0
 40
0.0
 40
1.010743684496582
 40
2.022833576467832
 40
3.037578957496688
 40
4.056212745003489
 40
5.079857003664532
 40
6.109500240690281
 40
7.145961322679372
 40
8.189895241603872
 40
9.241717795325891
 40
10.30168407291828
 40
11.36983447792315
 40
12.44600489715814
 40
13.52984294512926
 40
14.62081576220742
 40
15.7182257034828
 40
16.82123173843959
 40
17.92886860250316
 40
19.0400688939571
 40
20.15368796660465
 40
21.26852814259644
 40
22.38336992938901
 40
23.49698739941135
 40
24.6081876908653
 40
25.71582455492886
 40
26.81883757994213
 40
27.91624752121713
 40
29.00722033829659
 40
30.09105838626677
 40
31.16722880550176
 40
32.23537921050758
 40
33.29534548809967
 40
34.347168041821
 40
35.39108718934584
 40
36.42754827133493
 40
37.45720575381954
 40
38.48085062012849
 40
39.49948440763516
 40
40.51422944315121
 40
41.52631975251916
 40
42.53706336719636
 40
43.54780698187354
 40
44.55989729124051
 40
45.57464232675757
 40
46.59327611426424
 40
47.6169209805722
 40
48.64656348684535
 40
49.68302456883444
 40
50.58557219878025
 40
50.58557219878025
 40
50.58557219878025
 40
50.58557219878025
 10
-9.744695150818433
 20
-9.999611798709697
 30
0.0
 10
-10.30633914113174
 20
-9.993662040974488
 30
0.0
 10
-11.43037517425611
 20
-9.981754601033813
 30
0.0
 10
-13.1160201658053
 20
-9.885767267332692
 30
0.0
 10
-14.80159320352544
 20
-9.733172481436927
 30
0.0
 10
-16.48706192082296
 20
-9.519305085387344
 30
0.0
 10
-18.1724094993734
 20
-9.247063392439564
 30
0.0
 10
-19.85760269103701
 20
-8.917658018017437
 30
0.0
 10
-21.54264713271051
 20
-8.533307954133146
 30
0.0
 10
-23.22752788145495
 20
-8.096366776680476
 30
0.0
 10
-24.91223346016182
 20
-7.609517277982437
 30
0.0
 10
-26.5967722661571
 20
-7.07581536201604
 30
0.0
 10
-28.28114881097168
 20
-6.498527321095245
 30
0.0
 10
-29.96538413954104
 20
-5.881246919915909
 30
0.0
 10
-31.64948596292216
 20
-5.227767478799545
 30
0.0
 10
-33.3334698973498
 20
-4.542119070089857
 30
0.0
 10
-35.01735461843347
 20
-3.82853159691993
 30
0.0
 10
-36.70115490484465
 20
-3.091393284626715
 30
0.0
 10
-38.38488709805703
 20
-2.335237820584656
 30
0.0
 10
-40.06856921472045
 20
-1.564719251839236
 30
0.0
 10
-41.75221602232984
 20
-0.7845744098956762
 30
0.0
 10
-43.43585129658608
 20
0.0003861609272025
 30
0.0
 10
-45.11947901272869
 20
0.7853608615295147
 30
0.0
 10
-46.80313146355523
 20
1.565493554554368
 30
0.0
 10
-48.48681150169053
 20
2.336014455615621
 30
0.0
 10
-50.17054669697878
 20
3.092172800272965
 30
0.0
 10
-51.85435396860132
 20
3.829304821698396
 30
0.0
 10
-53.53824134729997
 20
4.542895913749671
 30
0.0
 10
-55.22222552483885
 20
5.22854376646919
 30
0.0
 10
-56.90632728694083
 20
5.882023345009837
 30
0.0
 10
-58.5905626198229
 20
6.499303747092124
 30
0.0
 10
-60.27493920753981
 20
7.076591649974648
 30
0.0
 10
-61.95947783967227
 20
7.610294110899754
 30
0.0
 10
-63.64417617813349
 20
8.097139310723012
 30
0.0
 10
-65.32904650783667
 20
8.53408621101494
 30
0.0
 10
-67.01409032444601
 20
8.91844400369548
 30
0.0
 10
-68.69929554895396
 20
9.247811755451227
 30
0.0
 10
-70.38464869541638
 20
9.520137712958064
 30
0.0
 10
-72.07011791236237
 20
9.733751596814069
 30
0.0
 10
-73.75569212126979
 20
9.887273035256871
 30
0.0
 10
-75.44133568359278
 20
9.979781050357114
 30
0.0
 10
-77.12701628691111
 20
10.01068491719969
 30
0.0
 10
-78.81269688774878
 20
9.979781050308663
 30
0.0
 10
-80.49834045752701
 20
9.887273035451269
 30
0.0
 10
-82.1839146389866
 20
9.733751596081507
 30
0.0
 10
-83.86938395884113
 20
9.520137715710863
 30
0.0
 10
-85.55472850201351
 20
9.247813072732878
 30
0.0
 10
-87.23992708745425
 20
8.918447371302779
 30
0.0
 10
-88.8483556185578
 20
8.551533621418588
 30
0.0
 10
-89.89192236684262
 20
8.283206127445478
 30
0.0
 10
-90.37607651457742
 20
8.152437049828986
 30
0.0
  0
LINE
  5
5EBF
330
1F
100
AcDbEntity
  8
AM_0
 48
0.5
100
AcDbLine
 10
-9.744695150818433
 20
-9.999611798709683
 30
0.0
 11
-3.999999463064058
 21
-9.999605440881374
 31
0.0
  0
LINE
  5
5EC0
330
1F
100
AcDbEntity
  8
AM_0
 48
0.5
100
AcDbLine
 10
-9.744695150818385
 20
10.00038820129031
 30
0.0
 11
-3.99999946306401
 21
10.00039455911862
 31
0.0
  0
SPLINE
  5
5EC1
330
1F
100
AcDbEntity
  8
AM_0
 48
0.5
100
AcDbSpline
210
0.0
220
0.0
230
1.0
 70
     8
 71
     3
 72
    17
 73
    13
 74
     0
 42
0.0000000001
 43
0.0000000001
 40
0.0
 40
0.0
 40
0.0
 40
0.0
 40
1.010743614677189
 40
2.022833924044153
 40
3.037578959561199
 40
4.056212747067873
 40
5.079857613375832
 40
6.109500119648989
 40
7.14596120163808
 40
8.18989512056258
 40
9.241717674284874
 40
9.693948937866434
 40
9.693948937866434
 40
9.693948937866434
 40
9.693948937866434
 10
-9.744695150818385
 20
10.00038820129033
 30
0.0
 10
-10.30633924334413
 20
9.994442731239853
 30
0.0
 10
-11.43037575181434
 20
9.982543869513005
 30
0.0
 10
-13.11601932328504
 20
9.886530269796072
 30
0.0
 10
-14.80159349778833
 20
9.733951634875406
 30
0.0
 10
-16.48706284392266
 20
9.52008381909977
 30
0.0
 10
-18.17240728823646
 20
9.24782736095452
 30
0.0
 10
-19.85760624591339
 20
8.918444538816213
 30
0.0
 10
-21.54263709875118
 20
8.534055698841758
 30
0.0
 10
-23.22756523271076
 20
8.097248645697323
 30
0.0
 10
-24.58768315909643
 20
7.703751519242583
 30
0.0
 10
-25.3864241506527
 20
7.457759227845567
 30
0.0
 10
-25.62616334333392
 20
7.382462634193647
 30
0.0
  0
LINE
  5
5EC2
330
1F
100
AcDbEntity
  8
AM_0
 48
0.5
100
AcDbLine
 10
-77.12700356883236
 20
10.00038820129058
 30
0.0
 11
-41.49790616847753
 21
10.00038820129044
 31
0.0
  0
SPLINE
  5
5EC3
330
1F
100
AcDbEntity
  8
AM_0
100
AcDbSpline
210
0.0
220
0.0
230
1.0
 70
     8
 71
     3
 72
    22
 73
    18
 74
     0
 42
0.0000000001
 43
0.0000000001
 40
17.17441611292
 40
17.17441611292
 40
17.17441611292
 40
17.17441611292
 40
17.38177636558528
 40
18.41823744757437
 40
19.46215659509824
 40
20.51397914882054
 40
21.57394542641293
 40
22.64209583141747
 40
23.71826625065247
 40
24.80210429862395
 40
25.8930771157021
 40
26.99048705697709
 40
28.09349309193389
 40
29.20112995599786
 40
30.31233024745139
 40
31.42594771747373
 40
32.5407895042663
 40
32.54078950426994
 40
32.54078950426994
 40
32.54078950426994
 10
-47.93163968271413
 20
-8.979684175200123
 30
0.0
 10
-48.044512872
 20
-8.95653515601781
 30
0.0
 10
-48.72112599813045
 20
-8.815531949928256
 30
0.0
 10
-49.9606431182035
 20
-8.53280216974279
 30
0.0
 10
-51.64551320697982
 20
-8.095854014098939
 30
0.0
 10
-53.3302116110309
 20
-7.609009155139233
 30
0.0
 10
-55.0147502242331
 20
-7.075306599187964
 30
0.0
 10
-56.69912682142774
 20
-6.498018732002257
 30
0.0
 10
-58.38336213533776
 20
-5.880738282741234
 30
0.0
 10
-60.06746396444619
 20
-5.227258858435572
 30
0.0
 10
-61.75144789069942
 20
-4.541610430888514
 30
0.0
 10
-63.43533263893126
 20
-3.828023016601037
 30
0.0
 10
-65.11913282424512
 20
-3.090884486162984
 30
0.0
 10
-66.80286539681244
 20
-2.334729840375093
 30
0.0
 10
-68.48654528145678
 20
-1.564208574391117
 30
0.0
 10
-70.17019742043146
 20
-0.7840752208950695
 30
0.0
 10
-71.2924118592465
 20
-0.2608563289927912
 30
0.0
 10
-71.85382735903964
 20
0.0008968275939157
 30
0.0
  0
SPLINE
  5
5EC4
330
1F
100
AcDbEntity
  8
AM_0
100
AcDbSpline
210
0.0
220
0.0
230
1.0
 70
     8
 71
     3
 72
    17
 73
    13
 74
     0
 42
0.0000000001
 43
0.0000000001
 40
1.580019955310467
 40
1.580019955310467
 40
1.580019955310467
 40
1.580019955310467
 40
2.030549285115227
 40
3.082371838836284
 40
4.126290986361125
 40
5.162752068350215
 40
6.192395305374981
 40
7.216039564037012
 40
8.234688489606833
 40
9.249433870634691
 40
10.26152376260694
 40
11.27226744710342
 40
11.27226744710342
 40
11.27226744710342
 40
11.27226744710352
 10
-85.62869126109895
 20
-7.379906264613186
 30
0.0
 10
-85.86718189143041
 20
-7.455917166521704
 30
0.0
 10
-86.663820720574
 20
-7.705053050234042
 30
0.0
 10
-88.02388076008417
 20
-8.095831598073441
 30
0.0
 10
-89.70851631879927
 20
-8.533451731333123
 30
0.0
 10
-91.39361565610641
 20
-8.917624104790036
 30
0.0
 10
-93.07879220407679
 20
-9.247058581270177
 30
0.0
 10
-94.76415234901191
 20
-9.519358838482265
 30
0.0
 10
-96.44962893064338
 20
-9.732970978926189
 30
0.0
 10
-98.13521046353878
 20
-9.886510724456407
 30
0.0
 10
-99.82085541933459
 20
-9.978989721900067
 30
0.0
 10
-100.9448914702729
 20
-9.999611855930055
 30
0.0
 10
-101.5065354531764
 20
-9.999611798709509
 30
0.0
  0
SPLINE
  5
5EC5
330
1F
100
AcDbEntity
  8
AM_0
100
AcDbSpline
210
0.0
220
0.0
230
1.0
 70
     8
 71
     3
 72
    55
 73
    51
 74
     0
 42
0.0000000001
 43
0.0000000001
 40
0.0
 40
0.0
 40
0.0
 40
0.0
 40
1.010743684496582
 40
2.022833576467832
 40
3.037578957496688
 40
4.056212745003489
 40
5.079857003664532
 40
6.109500240690281
 40
7.145961322679372
 40
8.189895241603872
 40
9.241717795325891
 40
10.30168407291828
 40
11.36983447792315
 40
12.44600489715814
 40
13.52984294512926
 40
14.62081576220742
 40
15.7182257034828
 40
16.82123173843959
 40
17.92886860250316
 40
19.0400688939571
 40
20.15368796660465
 40
21.26852814259644
 40
22.38336992938901
 40
23.49698739941135
 40
24.6081876908653
 40
25.71582455492886
 40
26.81883757994213
 40
27.91624752121713
 40
29.00722033829659
 40
30.09105838626677
 40
31.16722880550176
 40
32.23537921050758
 40
33.29534548809967
 40
34.347168041821
 40
35.39108718934584
 40
36.42754827133493
 40
37.45720575381954
 40
38.48085062012849
 40
39.49948440763516
 40
40.51422944315121
 40
41.52631975251916
 40
42.53706336719636
 40
43.54780698187354
 40
44.55989729124051
 40
45.57464232675757
 40
46.59327611426424
 40
47.6169209805722
 40
48.64656348684535
 40
49.68302456883444
 40
50.58557219878025
 40
50.58557219878025
 40
50.58557219878025
 40
50.58557219878025
 10
-69.75332443551744
 20
-9.999611798709661
 30
0.0
 10
-70.31496842583075
 20
-9.993662040974449
 30
0.0
 10
-71.43900445895522
 20
-9.981754601033774
 30
0.0
 10
-73.12464945050432
 20
-9.885767267332653
 30
0.0
 10
-74.81022248822455
 20
-9.733172481436888
 30
0.0
 10
-76.49569120552207
 20
-9.519305085387305
 30
0.0
 10
-78.18103878407232
 20
-9.247063392439496
 30
0.0
 10
-79.86623197573603
 20
-8.917658018017398
 30
0.0
 10
-81.55127641740953
 20
-8.533307954133082
 30
0.0
 10
-83.23615716615405
 20
-8.096366776680437
 30
0.0
 10
-84.92086274486092
 20
-7.609517277982369
 30
0.0
 10
-86.60540155085621
 20
-7.075815362016001
 30
0.0
 10
-88.2897780956708
 20
-6.498527321095206
 30
0.0
 10
-89.97401342424025
 20
-5.88124691991587
 30
0.0
 10
-91.65811524762126
 20
-5.227767478799506
 30
0.0
 10
-93.3420991820488
 20
-4.542119070089821
 30
0.0
 10
-95.02598390313249
 20
-3.828531596919891
 30
0.0
 10
-96.70978418954367
 20
-3.091393284626648
 30
0.0
 10
-98.39351638275603
 20
-2.335237820584616
 30
0.0
 10
-100.0771984994195
 20
-1.564719251839197
 30
0.0
 10
-101.7608453070289
 20
-0.7845744098956371
 30
0.0
 10
-103.4444805812851
 20
0.0003861609272451
 30
0.0
 10
-105.1281082974277
 20
0.7853608615295502
 30
0.0
 10
-106.8117607482542
 20
1.56549355455441
 30
0.0
 10
-108.4954407863896
 20
2.336014455615664
 30
0.0
 10
-110.1791759816777
 20
3.092172800273
 30
0.0
 10
-111.8629832533004
 20
3.829304821698432
 30
0.0
 10
-113.5468706319991
 20
4.542895913749742
 30
0.0
 10
-115.2308548095379
 20
5.228543766469233
 30
0.0
 10
-116.9149565716398
 20
5.882023345009873
 30
0.0
 10
-118.5991919045219
 20
6.499303747092138
 30
0.0
 10
-120.2835684922388
 20
7.076591649974663
 30
0.0
 10
-121.9681071243712
 20
7.610294110899818
 30
0.0
 10
-123.6528054628325
 20
8.097139310723047
 30
0.0
 10
-125.3376757925356
 20
8.534086211014955
 30
0.0
 10
-127.022719609145
 20
8.918444003695551
 30
0.0
 10
-128.707924833653
 20
9.247811755451234
 30
0.0
 10
-130.3932779801155
 20
9.520137712958106
 30
0.0
 10
-132.0787471970613
 20
9.733751596814112
 30
0.0
 10
-133.7643214059687
 20
9.887273035256907
 30
0.0
 10
-135.4499649682919
 20
9.97978105035715
 30
0.0
 10
-137.13564557161
 20
10.01068491719973
 30
0.0
 10
-138.8213261724479
 20
9.979781050308705
 30
0.0
 10
-140.5069697422259
 20
9.887273035451304
 30
0.0
 10
-142.1925439236857
 20
9.733751596081543
 30
0.0
 10
-143.8780132435403
 20
9.520137715710905
 30
0.0
 10
-145.5633577867125
 20
9.247813072732913
 30
0.0
 10
-147.2485563721533
 20
8.918447371302786
 30
0.0
 10
-148.8569849032568
 20
8.551533621418631
 30
0.0
 10
-149.9005516515417
 20
8.283206127445513
 30
0.0
 10
-150.3847057992765
 20
8.152437049828993
 30
0.0
  0
SPLINE
  5
5EC6
330
1F
100
AcDbEntity
  8
AM_0
100
AcDbSpline
210
0.0
220
0.0
230
1.0
 70
     8
 71
     3
 72
    46
 73
    42
 74
     0
 42
0.0000000001
 43
0.0000000001
 40
0.0
 40
0.0
 40
0.0
 40
0.0
 40
0.8427075293422831
 40
1.265518104770557
 40
1.689948849565058
 40
2.116467290673825
 40
2.545485306101222
 40
2.97734409026334
 40
3.412310401731621
 40
3.850575907619841
 40
4.292228523283341
 40
4.737291192035375
 40
5.185695533383689
 40
5.637294720037917
 40
6.09186672715383
 40
6.549120869352283
 40
7.008706717250553
 40
7.470222077277046
 40
7.933222198716568
 40
8.397230145652669
 40
8.861746885649248
 40
9.326263625646204
 40
9.790271572582303
 40
10.25327169402144
 40
10.71478705404793
 40
11.17437290194658
 40
11.6316270441445
 40
12.08619905126055
 40
12.5378012019472
 40
12.98620554329551
 40
13.43126821204755
 40
13.87292082771092
 40
14.31118022509521
 40
14.74614653656349
 40
15.17800532072561
 40
15.60702303167235
 40
16.03354172596773
 40
16.45797877828844
 40
16.88078920975347
 40
17.30249350532346
 40
17.72363667810562
 40
17.72363667810562
 40
17.72363667810562
 40
17.72363667810562
 10
-65.03466384455418
 20
-9.999611798709675
 30
0.0
 10
-66.15875479628783
 20
-9.976831025700526
 30
0.0
 10
-67.84683446959757
 20
-9.942620484462977
 30
0.0
 10
-70.09154762537587
 20
-9.731992466874295
 30
0.0
 10
-71.77703445128592
 20
-9.51962339560848
 30
0.0
 10
-73.46237720819633
 20
-9.246977582363026
 30
0.0
 10
-75.14757145633684
 20
-8.917680497271497
 30
0.0
 10
-76.83260853853417
 20
-8.533306460935552
 30
0.0
 10
-78.51748563260459
 20
-8.096359426202734
 30
0.0
 10
-80.20219524024966
 20
-7.609522312548314
 30
0.0
 10
-81.8867407288001
 20
-7.075814664291613
 30
0.0
 10
-83.57111756734065
 20
-6.498527510192101
 30
0.0
 10
-85.25535281628611
 20
-5.881246868639994
 30
0.0
 10
-86.93945466135692
 20
-5.227767492891942
 30
0.0
 10
-88.62343858943999
 20
-4.542119065472245
 30
0.0
 10
-90.30732331402729
 20
-3.828531601203142
 30
0.0
 10
-91.99112359276968
 20
-3.091393272061197
 30
0.0
 10
-93.67485581329221
 20
-2.335237866800462
 30
0.0
 10
-95.35853782795657
 20
-1.56471907886392
 30
0.0
 10
-97.04218501730762
 20
-0.784575057170184
 30
0.0
 10
-98.7258180536231
 20
0.0003882011316381
 30
0.0
 10
-100.4094510895688
 20
0.7853514603873424
 30
0.0
 10
-102.0930982800293
 20
1.565495479220831
 30
0.0
 10
-103.7767802906385
 20
2.33601427761037
 30
0.0
 10
-105.4605125261978
 20
3.092169644104682
 30
0.0
 10
-107.1443127491854
 20
3.829308116988687
 30
0.0
 10
-108.8281976802512
 20
4.542895048930343
 30
0.0
 10
-110.5121845054827
 20
5.228546936004452
 30
0.0
 10
-112.1962928941607
 20
5.882020374561111
 30
0.0
 10
-113.8805311475239
 20
6.499304181316954
 30
0.0
 10
-115.5649079468474
 20
7.076591507190148
 30
0.0
 10
-117.2494465154761
 20
7.610294251129619
 30
0.0
 10
-118.9341448982476
 20
8.097138895741803
 30
0.0
 10
-120.6190151147628
 20
8.534087715451054
 30
0.0
 10
-122.3040512217491
 20
8.918436604019642
 30
0.0
 10
-123.9892467053709
 20
9.247829198242168
 30
0.0
 10
-125.6746002182688
 20
9.520085669770242
 30
0.0
 10
-127.3600783592925
 20
9.733949779735208
 30
0.0
 10
-129.0456607800289
 20
9.886530560940936
 30
0.0
 10
-130.7313043861531
 20
9.982543796919404
 30
0.0
 10
-131.855340890012
 20
9.99444270705295
 30
0.0
 10
-132.4169849802336
 20
10.00038820129061
 30
0.0
  0
SPLINE
  5
5EC7
330
1F
100
AcDbEntity
  8
AM_0
100
AcDbSpline
210
0.0
220
0.0
230
1.0
 70
     8
 71
     3
 72
    22
 73
    18
 74
     0
 42
0.0000000001
 43
0.0000000001
 40
17.17441611292
 40
17.17441611292
 40
17.17441611292
 40
17.17441611292
 40
17.38177636558528
 40
18.41823744757437
 40
19.46215659509824
 40
20.51397914882054
 40
21.57394542641293
 40
22.64209583141747
 40
23.71826625065247
 40
24.80210429862395
 40
25.8930771157021
 40
26.99048705697709
 40
28.09349309193389
 40
29.20112995599786
 40
30.31233024745139
 40
31.42594771747373
 40
32.5407895042663
 40
32.54078950426994
 40
32.54078950426994
 40
32.54078950426994
 10
-107.9402689674131
 20
-8.979684175200084
 30
0.0
 10
-108.0531421566992
 20
-8.956535156017771
 30
0.0
 10
-108.7297552828295
 20
-8.815531949928217
 30
0.0
 10
-109.9692724029025
 20
-8.532802169742751
 30
0.0
 10
-111.6541424916789
 20
-8.095854014098929
 30
0.0
 10
-113.33884089573
 20
-7.609009155139197
 30
0.0
 10
-115.023379508932
 20
-7.075306599187925
 30
0.0
 10
-116.7077561061267
 20
-6.498018732002218
 30
0.0
 10
-118.3919914200368
 20
-5.880738282741166
 30
0.0
 10
-120.0760932491452
 20
-5.227258858435561
 30
0.0
 10
-121.7600771753985
 20
-4.541610430888475
 30
0.0
 10
-123.4439619236303
 20
-3.828023016600998
 30
0.0
 10
-125.1277621089442
 20
-3.090884486162949
 30
0.0
 10
-126.8114946815115
 20
-2.334729840375054
 30
0.0
 10
-128.4951745661559
 20
-1.564208574391049
 30
0.0
 10
-130.1788267051306
 20
-0.7840752208949735
 30
0.0
 10
-131.3010411439456
 20
-0.2608563289927237
 30
0.0
 10
-131.8624566437387
 20
0.0008968275939583
 30
0.0
  0
SPLINE
  5
5EC8
330
1F
100
AcDbEntity
  8
AM_0
 48
0.5
100
AcDbSpline
210
0.0
220
0.0
230
1.0
 70
     8
 71
     3
 72
    26
 73
    22
 74
     0
 42
0.0000000001
 43
0.0000000001
 40
0.0
 40
0.0
 40
0.0
 40
0.0
 40
0.4211432018735474
 40
0.8428473235286537
 40
1.265657898956934
 40
1.690088643751428
 40
2.116607084860617
 40
2.545625100287603
 40
2.977483884449724
 40
3.412450195918404
 40
3.850709593302191
 40
4.292362208965671
 40
4.737427885281768
 40
5.185826256336565
 40
5.637431371058531
 40
6.092003378174421
 40
6.549257520372505
 40
7.008843368271169
 40
7.470358728297647
 40
7.933358849736796
 40
8.383035712276667
 40
8.383035712276667
 40
8.383035712276667
 40
8.383035712276667
 10
-132.4172164394187
 20
-9.999611798709384
 30
0.0
 10
-132.9788604297996
 20
-9.993662041233466
 30
0.0
 10
-134.1028964630598
 20
-9.98175460181163
 30
0.0
 10
-135.7885414535927
 20
-9.885767264211704
 30
0.0
 10
-137.4741144951899
 20
-9.733172493192743
 30
0.0
 10
-139.1595831979138
 20
-9.519305041222196
 30
0.0
 10
-140.8449308312668
 20
-9.247063558559794
 30
0.0
 10
-142.5301238165859
 20
-8.917657392362276
 30
0.0
 10
-144.2151610327872
 20
-8.533312138498938
 30
0.0
 10
-145.9000309879542
 20
-8.096362116469897
 30
0.0
 10
-147.584729698891
 20
-7.609518528155778
 30
0.0
 10
-149.2692710307309
 20
-7.075811528544218
 30
0.0
 10
-150.9536480032852
 20
-6.498536586325961
 30
0.0
 10
-152.6378797010188
 20
-5.881234849145542
 30
0.0
 10
-154.3219886432708
 20
-5.227774258561719
 30
0.0
 10
-156.0059784687673
 20
-4.542118874915988
 30
0.0
 10
-157.6898617307679
 20
-3.828528518157753
 30
0.0
 10
-159.3736693518077
 20
-3.091405886722978
 30
0.0
 10
-161.057373505096
 20
-2.335190236424427
 30
0.0
 10
-162.7237823586798
 20
-1.572847949514809
 30
0.0
 10
-163.565662072348
 20
-1.060701053652121
 30
0.0
 10
-163.9999802226174
 20
-0.8083657659942748
 30
0.0
  0
SPLINE
  5
5EC9
330
1F
100
AcDbEntity
  8
AM_0
100
AcDbSpline
210
0.0
220
0.0
230
1.0
 70
     8
 71
     3
 72
    13
 73
     9
 74
     0
 42
0.0000000001
 43
0.0000000001
 40
16.03460056234195
 40
16.03460056234195
 40
16.03460056234195
 40
16.03460056234195
 40
16.35212717791071
 40
17.38177067057215
 40
18.41822498539278
 40
19.46214186516937
 40
20.5139635832251
 40
21.34083983469381
 40
21.34083983469381
 40
21.34083983469381
 40
21.34083983469381
 10
-160.6663326062414
 20
-10.00000309539335
 30
0.0
 10
-160.1891180250405
 20
-9.96676400984397
 30
0.0
 10
-159.4551074163624
 20
-9.819760413861999
 30
0.0
 10
-158.1621415991424
 20
-9.531718037327426
 30
0.0
 10
-156.4877463576017
 20
-9.103408361654597
 30
0.0
 10
-154.8149066407047
 20
-8.622486332765276
 30
0.0
 10
-153.2669795896988
 20
-8.130940855212632
 30
0.0
 10
-152.2794293900045
 20
-7.792476812441584
 30
0.0
 10
-151.8323383568031
 20
-7.631486668742486
 30
0.0
  0
SPLINE
  5
5ECA
330
1F
100
AcDbEntity
  8
AM_0
 48
0.5
100
AcDbSpline
210
0.0
220
0.0
230
1.0
 70
     8
 71
     3
 72
    22
 73
    18
 74
     0
 42
0.0000000001
 43
0.0000000001
 40
0.0
 40
0.0
 40
0.0
 40
0.0
 40
1.010743684496582
 40
2.022833993863546
 40
3.037578683882831
 40
4.056212471389632
 40
5.079857945358201
 40
6.109499720892564
 40
7.145961650132166
 40
8.189873411961459
 40
9.241710626092514
 40
10.30166235592959
 40
11.36982472628033
 40
12.44598212828784
 40
13.52983440361964
 40
14.62080578343036
 40
14.90544694398022
 40
14.90544694398022
 40
14.90544694398022
 40
14.90544694398022
 10
-136.7634351265497
 20
-9.999611798709363
 30
0.0
 10
-137.3250792241836
 20
-9.99366381847636
 30
0.0
 10
-138.4491157040282
 20
-9.981759933451279
 30
0.0
 10
-140.1347589293378
 20
-9.885745861373482
 30
0.0
 10
-141.8203337910263
 20
-9.733176765353231
 30
0.0
 10
-143.5058034045465
 20
-9.519309172148815
 30
0.0
 10
-145.1911463927709
 20
-9.24704208023553
 30
0.0
 10
-146.8763451736967
 20
-8.917664395148445
 30
0.0
 10
-148.5613750531808
 20
-8.533305174573644
 30
0.0
 10
-150.2462476180769
 20
-8.09634882640411
 30
0.0
 10
-151.9309476936271
 20
-7.60952363302864
 30
0.0
 10
-153.6154840839092
 20
-7.075792467411762
 30
0.0
 10
-155.2998676479934
 20
-6.498551704985175
 30
0.0
 10
-156.9840971207096
 20
-5.881233017645023
 30
0.0
 10
-158.668204054113
 20
-5.227769004922794
 30
0.0
 10
-159.9339281074143
 20
-4.71244192870013
 30
0.0
 10
-160.6392337190898
 20
-4.417897536674484
 30
0.0
 10
-160.5374034298183
 20
-4.460693638334486
 30
0.0
  0
SPLINE
  5
5ECB
330
1F
100
AcDbEntity
  8
AM_0
100
AcDbSpline
210
0.0
220
0.0
230
1.0
 70
     8
 71
     3
 72
    11
 73
     7
 74
     0
 42
0.0000000001
 43
0.0000000001
 40
11.27226913003534
 40
11.27226913003534
 40
11.27226913003534
 40
11.2722691300354
 40
12.28301561507924
 40
13.29510212255852
 40
14.30984805882082
 40
15.18258238371378
 40
15.18258238371378
 40
15.18258238371378
 40
15.18258238371378
 10
-101.5065354531764
 20
-9.999611798709509
 30
0.0
 10
-102.0660437891536
 20
-9.950668892728483
 30
0.0
 10
-103.1840051219919
 20
-9.832180247430663
 30
0.0
 10
-104.8551741773445
 20
-9.593159341768046
 30
0.0
 10
-106.4411430781731
 20
-9.307675077574213
 30
0.0
 10
-107.4668546687223
 20
-9.08821482713169
 30
0.0
 10
-107.9395317767582
 20
-8.979807525123597
 30
0.0
  0
LINE
  5
5ECC
330
1F
100
AcDbEntity
  8
AM_0
 48
0.5
100
AcDbLine
 10
-137.1358770304403
 20
-9.999611798709228
 30
0.0
 11
-101.5065354580361
 21
-9.999611798709302
 31
0.0
  0
SPLINE
  5
5ECD
330
1F
100
AcDbEntity
  8
AM_0
100
AcDbSpline
210
0.0
220
0.0
230
1.0
 70
     8
 71
     3
 72
    17
 73
    13
 74
     0
 42
0.0000000001
 43
0.0000000001
 40
1.580019955310467
 40
1.580019955310467
 40
1.580019955310467
 40
1.580019955310467
 40
2.030549285115227
 40
3.082371838836284
 40
4.126290986361125
 40
5.162752068350215
 40
6.192395305374981
 40
7.216039564037012
 40
8.234688489606833
 40
9.249433870634691
 40
10.26152376260694
 40
11.27226744710342
 40
11.27226744710342
 40
11.27226744710342
 40
11.27226744710352
 10
-25.62006197639984
 20
-7.379906264613225
 30
0.0
 10
-25.85855260673151
 20
-7.455917166521743
 30
0.0
 10
-26.65519143587509
 20
-7.705053050234081
 30
0.0
 10
-28.01525147538526
 20
-8.09583159807348
 30
0.0
 10
-29.69988703410024
 20
-8.533451731333162
 30
0.0
 10
-31.38498637140729
 20
-8.917624104790103
 30
0.0
 10
-33.07016291937777
 20
-9.247058581270216
 30
0.0
 10
-34.75552306431299
 20
-9.519358838482304
 30
0.0
 10
-36.44099964594438
 20
-9.732970978926257
 30
0.0
 10
-38.12658117883978
 20
-9.886510724456446
 30
0.0
 10
-39.81222613463548
 20
-9.978989721900106
 30
0.0
 10
-40.93626218557398
 20
-9.999611855930094
 30
0.0
 10
-41.49790616847748
 20
-9.999611798709576
 30
0.0
  0
SPLINE
  5
5ECE
330
1F
100
AcDbEntity
  8
AM_0
100
AcDbSpline
210
0.0
220
0.0
230
1.0
 70
     8
 71
     3
 72
    11
 73
     7
 74
     0
 42
0.0000000001
 43
0.0000000001
 40
11.27226913003534
 40
11.27226913003534
 40
11.27226913003534
 40
11.2722691300354
 40
12.28301561507924
 40
13.29510212255852
 40
14.30984805882082
 40
15.18258238371378
 40
15.18258238371378
 40
15.18258238371378
 40
15.18258238371378
 10
-41.49790616847758
 20
-9.999611798709576
 30
0.0
 10
-42.05741450445457
 20
-9.95066889272855
 30
0.0
 10
-43.17537583729287
 20
-9.832180247430731
 30
0.0
 10
-44.84654489264541
 20
-9.593159341768085
 30
0.0
 10
-46.4325137934741
 20
-9.307675077574252
 30
0.0
 10
-47.45822538402332
 20
-9.088214827131725
 30
0.0
 10
-47.93090249205916
 20
-8.979807525123664
 30
0.0
  0
LINE
  5
5ECF
330
1F
100
AcDbEntity
  8
AM_0
 48
0.5
100
AcDbLine
 10
-69.75332443551744
 20
-9.999611798709647
 30
0.0
 11
-41.49790616847758
 21
-9.999611798709572
 31
0.0
  0
SPLINE
  5
5ED0
330
1F
100
AcDbEntity
  8
AM_0
100
AcDbSpline
210
0.0
220
0.0
230
1.0
 70
     8
 71
     3
 72
    23
 73
    19
 74
     0
 42
0.0000000001
 43
0.0000000001
 40
16.03460024169435
 40
16.03460024169435
 40
16.03460024169435
 40
16.03460024169435
 40
16.35212704903564
 40
17.38177054169784
 40
18.41822485651776
 40
19.46214173629503
 40
20.51396345435107
 40
21.57393551351153
 40
22.64208202342361
 40
23.7182574881101
 40
24.80209208578934
 40
25.89306333925047
 40
26.99048218457928
 40
28.09348763352352
 40
29.20111863782268
 40
30.31232390128032
 40
31.42594612798585
 40
32.5407912310448
 40
32.5407912310486
 40
32.5407912310486
 40
32.5407912310486
 10
-97.39065812294654
 20
10.00180888277187
 30
0.0
 10
-97.21747881582706
 20
9.968050643767998
 30
0.0
 10
-96.48346881452713
 20
9.821043014370662
 30
0.0
 10
-95.19050229249115
 20
9.533004000759216
 30
0.0
 10
-93.51610726166555
 20
9.104693137482971
 30
0.0
 10
-91.84326748770258
 20
8.62377143021678
 30
0.0
 10
-90.17188412116635
 20
8.093022208506649
 30
0.0
 10
-88.50189784169886
 20
7.515404411145528
 30
0.0
 10
-86.83321212809568
 20
6.894219945052167
 30
0.0
 10
-85.165710779426
 20
6.233083948003876
 30
0.0
 10
-83.49929904227455
 20
5.535740394605372
 30
0.0
 10
-81.83384331436934
 20
4.80624696450911
 30
0.0
 10
-80.16920862914799
 20
4.048843788707269
 30
0.0
 10
-78.50528407674913
 20
3.267885617936929
 30
0.0
 10
-76.84193043862641
 20
2.467913617013305
 30
0.0
 10
-75.17899365300571
 20
1.653599035516559
 30
0.0
 10
-73.51633830989006
 20
0.829660605937963
 30
0.0
 10
-72.4081991402431
 20
0.2772549413931489
 30
0.0
 10
-71.85382735903221
 20
0.0008968275903345
 30
0.0
  0
LINE
  5
5ED1
330
1F
100
AcDbEntity
  8
AM_0
100
AcDbLine
 10
-137.1358643127163
 20
10.00038820129063
 30
0.0
 11
-97.39065812294656
 21
10.00180888277187
 31
0.0
  0
SPLINE
  5
5ED2
330
1F
100
AcDbEntity
  8
AM_0
100
AcDbSpline
210
0.0
220
0.0
230
1.0
 70
     8
 71
     3
 72
    23
 73
    19
 74
     0
 42
0.0000000001
 43
0.0000000001
 40
16.03460024169435
 40
16.03460024169435
 40
16.03460024169435
 40
16.03460024169435
 40
16.35212704903564
 40
17.38177054169784
 40
18.41822485651776
 40
19.46214173629503
 40
20.51396345435107
 40
21.57393551351153
 40
22.64208202342361
 40
23.7182574881101
 40
24.80209208578934
 40
25.89306333925047
 40
26.99048218457928
 40
28.09348763352352
 40
29.20111863782268
 40
30.31232390128032
 40
31.42594612798585
 40
32.5407912310448
 40
32.5407912310486
 40
32.5407912310486
 40
32.5407912310486
 10
-157.3995188668305
 20
10.0018088827719
 30
0.0
 10
-157.226339559711
 20
9.968050643768034
 30
0.0
 10
-156.4923295584111
 20
9.821043014370697
 30
0.0
 10
-155.1993630363752
 20
9.533004000759252
 30
0.0
 10
-153.5249680055495
 20
9.104693137483014
 30
0.0
 10
-151.8521282315866
 20
8.623771430216816
 30
0.0
 10
-150.1807448650503
 20
8.093022208506685
 30
0.0
 10
-148.5107585855828
 20
7.515404411145571
 30
0.0
 10
-146.8420728719797
 20
6.894219945052181
 30
0.0
 10
-145.1745715233101
 20
6.233083948003912
 30
0.0
 10
-143.5081597861584
 20
5.535740394605415
 30
0.0
 10
-141.8427040582533
 20
4.806246964509153
 30
0.0
 10
-140.1780693730321
 20
4.048843788707305
 30
0.0
 10
-138.5141448206333
 20
3.267885617936993
 30
0.0
 10
-136.8507911825106
 20
2.46791361701329
 30
0.0
 10
-135.1878543968899
 20
1.653599035516595
 30
0.0
 10
-133.5251990537741
 20
0.8296606059379985
 30
0.0
 10
-132.4170598841271
 20
0.2772549413931916
 30
0.0
 10
-131.8626881029163
 20
0.0008968275903772
 30
0.0
  0
LINE
  5
5ED3
330
1F
100
AcDbEntity
  8
AM_0
 48
0.5
100
AcDbLine
 10
-142.4404404368037
 20
5.067202623897319
 30
0.0
 11
-163.9999802226174
 21
-0.8083594081659061
 31
0.0
  0
ELLIPSE
  5
5ED4
330
1F
100
AcDbEntity
  8
AM_0
 48
0.5
100
AcDbEllipse
 10
-160.6663315596879
 20
-6.666278465375977
 30
0.0
 11
-2.717602839302349
 21
1.93138084582445
 31
0.0
210
0.0
220
0.0
230
1.0
 40
0.9998729099171541
 41
0.6291718404365412
 42
2.188602366119601
  0
ELLIPSE
  5
5ED5
330
1F
100
AcDbEntity
  8
AM_0
 48
0.5
100
AcDbEllipse
 10
-161.5004068852593
 20
-6.767838422244331
 30
0.0
 11
2.500394632991287
 21
0.0000000000066309
 31
0.0
210
0.0
220
0.0
230
1.0
 40
0.9998421717171879
 41
1.17543617089063
 42
3.115961251476678
  0
ELLIPSE
  5
5F8D
330
1F
100
AcDbEntity
  8
AM_0
 48
0.5
100
AcDbEllipse
 10
14.09451160704742
 20
-12.96466167340697
 30
0.0
 11
16.14382895693959
 21
-8.019774585209715
 31
0.0
210
0.0
220
0.0
230
-1.0
 40
0.912337499000648
 41
2.87143131033609
 42
3.230655056394628
  0
LINE
  5
5F8E
330
1F
100
AcDbEntity
  8
AM_0
 48
0.5
100
AcDbLine
 10
-3.416488515123754
 20
-9.166657901520553
 30
0.0
 11
-4.000024898393466
 21
-10.00038392528636
 31
0.0
  0
LINE
  5
5F8F
330
1F
100
AcDbEntity
  8
AM_0
 48
0.5
100
AcDbLine
 10
0.0000005369356212
 20
-0.000001040912164
 30
0.0
 11
-1.334546940223692
 21
-3.666640099598738
 31
0.0
  0
LINE
  5
6077
330
1F
100
AcDbEntity
  8
AM_11
100
AcDbLine
 10
-160.666332606242
 20
-10.00000309539335
 30
0.0
 11
-136.7634351265497
 21
-9.999611798709363
 31
0.0
  0
DIMENSION
  5
6184
330
1F
100
AcDbEntity
  8
AM_5
100
AcDbDimension
  2
*D9
 10
-1.334546940223692
 20
-3.666640099598738
 30
0.0
 11
25.91493052398533
 21
-0.0000018103426336
 31
0.0
 70
    34
  1
<>
 51
359.9999999999998
  3
AM_JIS$2
100
AcDb2LineAngularDimension
 13
0.0000005369356408
 23
-0.0000014752187235
 33
0.0
 14
-1.334546940223708
 24
3.666638017774425
 34
0.0
 15
0.0000005369356212
 25
-0.000001040912164
 35
0.0
 16
26.6419767304143
 26
11.49222511608055
 36
0.0
1001
GENIUS_GENDTOL_13
1000

1000
h7
1000

1040
0.0
1001
ACAD
1000
DSTYLE
1002
{
1070
   271
1070
     0
1002
}
  0
ELLIPSE
  5
6282
330
1F
100
AcDbEntity
  8
AM_11
 48
0.5
100
AcDbEllipse
 10
6.884014526578152
 20
39.75271832148648
 30
0.0
 11
-44.39665476481057
 21
0.0000000000006139
 31
0.0
210
0.0
220
0.0
230
1.0
 40
0.9899999999999995
 41
1.130070686340335
 42
1.247868474200389
  0
ELLIPSE
  5
6283
330
1F
100
AcDbEntity
  8
AM_11
 48
0.5
100
AcDbEllipse
 10
-30.99472860637209
 20
-39.75268104506088
 30
0.0
 11
-44.39665476481052
 21
0.0000000000016589
 31
0.0
210
0.0
220
0.0
230
1.0
 40
0.9900000000000009
 41
4.271664206181739
 42
5.153113667165048
  0
ELLIPSE
  5
6284
330
1F
100
AcDbEntity
  8
AM_11
 48
0.5
100
AcDbEllipse
 10
-30.9947286063733
 20
39.75270912217508
 30
0.0
 11
-44.39665476481057
 21
0.0000000000006139
 31
0.0
210
0.0
220
0.0
230
1.0
 40
0.9899999999999995
 41
1.130070686340335
 42
2.011520147323624
  0
ELLIPSE
  5
6285
330
1F
100
AcDbEntity
  8
AM_11
 48
0.5
100
AcDbEllipse
 10
-68.87351648516126
 20
39.75270912217446
 30
0.0
 11
-44.39665476481057
 21
-0.0000000000006381
 31
0.0
210
0.0
220
0.0
230
1.0
 40
0.99
 41
1.130070686340306
 42
2.011520147323597
  0
ELLIPSE
  5
6286
330
1F
100
AcDbEntity
  8
AM_11
 48
0.5
100
AcDbEllipse
 10
-68.87351648515997
 20
-39.75268104506152
 30
0.0
 11
-44.39665476481044
 21
0.0000000000012448
 31
0.0
210
0.0
220
0.0
230
1.0
 40
0.9900000000000032
 41
4.271664206181728
 42
5.153113667165039
  0
ELLIPSE
  5
6287
330
1F
100
AcDbEntity
  8
AM_11
 48
0.5
100
AcDbEllipse
 10
-106.7522125433104
 20
39.75270912217453
 30
0.0
 11
-44.39665476481057
 21
0.0000000000006139
 31
0.0
210
0.0
220
0.0
230
1.0
 40
0.9899999999999995
 41
1.130070686340335
 42
2.011520147323624
  0
ELLIPSE
  5
6288
330
1F
100
AcDbEntity
  8
AM_11
 48
0.5
100
AcDbEllipse
 10
-106.7522125433092
 20
-39.75268104506143
 30
0.0
 11
-44.39665476481052
 21
0.0000000000016589
 31
0.0
210
0.0
220
0.0
230
1.0
 40
0.9900000000000009
 41
4.271664206181739
 42
5.153113667165048
  0
ELLIPSE
  5
6289
330
1F
100
AcDbEntity
  8
AM_11
 48
0.5
100
AcDbEllipse
 10
-144.6310004220971
 20
-39.75268104506209
 30
0.0
 11
-44.39665476481044
 21
0.0000000000012448
 31
0.0
210
0.0
220
0.0
230
1.0
 40
0.9900000000000032
 41
4.271664206181728
 42
5.153113667165039
  0
ELLIPSE
  5
628A
330
1F
100
AcDbEntity
  8
AM_11
 48
0.5
100
AcDbEllipse
 10
-144.6310004220983
 20
39.75270912217389
 30
0.0
 11
-44.39665476481057
 21
-0.0000000000006381
 31
0.0
210
0.0
220
0.0
230
1.0
 40
0.99
 41
1.130070686340306
 42
2.011520147323597
  0
ELLIPSE
  5
628B
330
1F
100
AcDbEntity
  8
AM_11
 48
0.5
100
AcDbEllipse
 10
-182.5097298681494
 20
39.75272471257365
 30
0.0
 11
-44.39665476481057
 21
0.0000000000006139
 31
0.0
210
0.0
220
0.0
230
1.0
 40
0.9899999999999995
 41
1.130070686340335
 42
2.011520147323624
  0
ELLIPSE
  5
628C
330
1F
100
AcDbEntity
  8
AM_11
 48
0.5
100
AcDbEllipse
 10
-220.3885177469361
 20
-39.75266545466296
 30
0.0
 11
-44.39665476481044
 21
0.0000000000012448
 31
0.0
210
0.0
220
0.0
230
1.0
 40
0.9900000000000032
 41
4.271664206181728
 42
5.023995308934358
  0
ELLIPSE
  5
628D
330
1F
100
AcDbEntity
  8
AM_11
 48
0.5
100
AcDbEllipse
 10
-220.3885177469374
 20
39.75272471257302
 30
0.0
 11
-44.39665476481057
 21
-0.0000000000006381
 31
0.0
210
0.0
220
0.0
230
1.0
 40
0.99
 41
1.259189998245275
 42
2.011520147323597
  0
ELLIPSE
  5
628E
330
1F
100
AcDbEntity
  8
AM_11
 48
0.5
100
AcDbEllipse
 10
-182.5097298681482
 20
-39.75266545466232
 30
0.0
 11
-44.39665476481052
 21
0.0000000000016589
 31
0.0
210
0.0
220
0.0
230
1.0
 40
0.9900000000000009
 41
4.271664206181739
 42
5.153113667165048
  0
VIEWPORT
  5
110
330
101
100
AcDbEntity
 67
     1
  8
0
100
AcDbViewport
 10
420.5
 20
297.0
 30
0.0
 40
948.9782706766916
 41
628.452
 68
     1
 69
     1
1001
ACAD
1000
MVIEW
1002
{
1070
    16
1010
0.0
1020
0.0
1030
0.0
1010
0.0
1020
0.0
1030
1.0
1040
0.0
1040
628.452
1040
420.5
1040
297.0
1040
50.0
1040
0.0
1040
0.0
1070
     0
1070
   100
1070
     1
1070
     1
1070
     0
1070
     0
1070
     0
1070
     0
1040
0.0
1040
0.0
1040
0.0
1040
10.0
1040
10.0
1040
10.0
1040
10.0
1070
     0
1002
{
1002
}
1002
}
  0
ENDSEC
  0
SECTION
  2
OBJECTS
  0
DICTIONARY
  5
C
330
0
100
AcDbDictionary
  3
ACAD_GROUP
350
D
  3
ACAD_LAYOUT
350
1A
  3
ACAD_MLINESTYLE
350
17
  3
ACAD_PLOTSETTINGS
350
19
  3
ACAD_PLOTSTYLENAME
350
E
  3
ACDBVARIABLEDICTIONARY
350
34
  3
ACMDICTIONARY
350
43
  3
AMG
350
2B
  3
AMGSNAPSETTINGS
350
6E
  3
DWGPROPS
350
62A9
  3
ACDBHEADERROUNDTRIPXREC
350
62B6
  0
DICTIONARY
  5
74
330
1F
100
AcDbDictionary
280
     1
  3
ACAD_INDEX
360
62AB
  3
ACAD_LAYOUTSELFREF
360
62D9
  0
DICTIONARY
  5
62DE
330
101
100
AcDbDictionary
280
     1
  3
ACAD_LAYOUTSELFREF
360
62DF
  0
DICTIONARY
  5
D
102
{ACAD_REACTORS
330
C
102
}
330
C
100
AcDbDictionary
  0
DICTIONARY
  5
1A
102
{ACAD_REACTORS
330
C
102
}
330
C
100
AcDbDictionary
  0
DICTIONARY
  5
17
102
{ACAD_REACTORS
330
C
102
}
330
C
100
AcDbDictionary
  3
STANDARD
350
18
  0
DICTIONARY
  5
19
102
{ACAD_REACTORS
330
C
102
}
330
C
100
AcDbDictionary
  0
ACDBDICTIONARYWDFLT
  5
E
102
{ACAD_REACTORS
330
C
102
}
330
C
100
AcDbDictionary
281
     1
  3
Normal
350
F
100
AcDbDictionaryWithDefault
340
F
  0
DICTIONARY
  5
34
102
{ACAD_REACTORS
330
C
102
}
330
C
100
AcDbDictionary
  3
INDEXCTL
350
35
  3
SORTENTS
350
B5E
  0
DICTIONARY
  5
43
102
{ACAD_REACTORS
330
C
102
}
330
C
100
AcDbDictionary
  3
ACMSTDDICTIONARY
350
260
  0
DICTIONARY
  5
2B
102
{ACAD_REACTORS
330
C
102
}
330
C
100
AcDbDictionary
  3
ACMGSETTINGS
350
2C
  0
DICTIONARY
  5
6E
102
{ACAD_REACTORS
330
C
102
}
330
C
100
AcDbDictionary
  0
XRECORD
  5
62A9
102
{ACAD_REACTORS
330
C
102
}
330
C
100
AcDbXrecord
  1
DWGPROPS COOKIE
  2

  3

  4

  6

  7

  8

  9

300
AmdtFileType=82
301
=
302
=
303
=
304
=
305
=
306
=
307
=
308
=
309
=
 40
0.1578475810185185
 41
2452800.443498622
 42
2452948.676851852
  1

 90
        1
  0
DICTIONARY
  5
62B6
102
{ACAD_REACTORS
330
C
102
}
330
C
100
AcDbDictionary
  3
TSTACKALIGN
350
62B7
  3
TSTACKSIZE
350
62B8
  3
HYPERLINKBASE
350
62B9
  3
STYLESHEET
350
62BA
  3
LAYOUTDICT
350
62BB
  3
PLOTSETDICT
350
62BC
  3
PLOTSTYLNAMDICT
350
62BD
  3
LWETCUNION
350
62BE
  3
INSUNITS
350
62BF
  3
CEPSNTYPE
350
62C0
  3
FINGERPRINTGUID
350
62C1
  3
VERSIONGUID
350
62C2
  3
PSVPSCALE
350
62C3
  3
DIMSTYLEDATA
350
62C4
  3
PUCSORTHOREF
350
62C5
  3
PUCSORTHOVIEW
350
62C6
  3
PUCSBASE
350
62C7
  3
PUCSORGTOP
350
62C8
  3
PUCSORGBOTTOM
350
62C9
  3
PUCSORGLEFT
350
62CA
  3
PUCSORGRIGHT
350
62CB
  3
PUCSORGFRONT
350
62CC
  3
PUCSORGBACK
350
62CD
  3
UCSORTHOREF
350
62CE
  3
UCSORTHOVIEW
350
62CF
  3
UCSBASE
350
62D0
  3
UCSORGTOP
350
62D1
  3
UCSORGBOTTOM
350
62D2
  3
UCSORGLEFT
350
62D3
  3
UCSORGRIGHT
350
62D4
  3
UCSORGFRONT
350
62D5
  3
UCSORGBACK
350
62D6
  0
DICTIONARY
  5
62AB
102
{ACAD_REACTORS
330
74
102
}
330
74
100
AcDbDictionary
  3
*A1
350
62AC
  0
XRECORD
  5
62D9
102
{ACAD_REACTORS
330
74
102
}
330
74
100
AcDbXrecord
340
1F
  0
XRECORD
  5
62DF
102
{ACAD_REACTORS
330
62DE
102
}
330
62DE
100
AcDbXrecord
340
101
  0
MLINESTYLE
  5
18
102
{ACAD_REACTORS
330
17
102
}
330
17
100
AcDbMlineStyle
  2
STANDARD
 70
     0
  3

 62
   256
 51
90.0
 52
90.0
 71
     2
 49
0.5
 62
   256
  6
BYLAYER
 49
-0.5
 62
   256
  6
BYLAYER
  0
ACDBPLACEHOLDER
  5
F
102
{ACAD_REACTORS
330
E
102
}
330
E
100
AcDbPlaceHolder
280
     0
  0
DICTIONARYVAR
  5
35
102
{ACAD_REACTORS
330
34
102
}
330
34
100
DictionaryVariables
280
     0
  1
1
  0
DICTIONARYVAR
  5
B5E
102
{ACAD_REACTORS
330
34
102
}
330
34
100
DictionaryVariables
280
     0
  1
96
  0
DICTIONARY
  5
260
102
{ACAD_REACTORS
330
43
102
}
330
43
100
AcDbDictionary
  0
DICTIONARY
  5
2C
102
{ACAD_REACTORS
330
2B
102
}
330
2B
100
AcDbDictionary
  3
DWGSETTINGS
350
2D
  0
XRECORD
  5
62B7
102
{ACAD_REACTORS
330
62B6
102
}
330
62B6
100
AcDbXrecord
 90
        1
  0
XRECORD
  5
62B8
102
{ACAD_REACTORS
330
62B6
102
}
330
62B6
100
AcDbXrecord
 90
       70
  0
XRECORD
  5
62B9
102
{ACAD_REACTORS
330
62B6
102
}
330
62B6
100
AcDbXrecord
  1

  0
XRECORD
  5
62BA
102
{ACAD_REACTORS
330
62B6
102
}
330
62B6
100
AcDbXrecord
  1
ASAMI.ctb
  0
XRECORD
  5
62BB
102
{ACAD_REACTORS
330
62B6
102
}
330
62B6
100
AcDbXrecord
340
1A
  0
XRECORD
  5
62BC
102
{ACAD_REACTORS
330
62B6
102
}
330
62B6
100
AcDbXrecord
340
19
  0
XRECORD
  5
62BD
102
{ACAD_REACTORS
330
62B6
102
}
330
62B6
100
AcDbXrecord
340
E
  0
XRECORD
  5
62BE
102
{ACAD_REACTORS
330
62B6
102
}
330
62B6
100
AcDbXrecord
 90
    10781
  0
XRECORD
  5
62BF
102
{ACAD_REACTORS
330
62B6
102
}
330
62B6
100
AcDbXrecord
 90
        4
  0
XRECORD
  5
62C0
102
{ACAD_REACTORS
330
62B6
102
}
330
62B6
100
AcDbXrecord
 90
        0
  0
XRECORD
  5
62C1
102
{ACAD_REACTORS
330
62B6
102
}
330
62B6
100
AcDbXrecord
  1
{AFB28963-8C59-40AE-9337-C84526B81ACE}
  0
XRECORD
  5
62C2
102
{ACAD_REACTORS
330
62B6
102
}
330
62B6
100
AcDbXrecord
  1
{289D65EC-0BA6-462B-BBC4-F5F199A0A25D}
  0
XRECORD
  5
62C3
102
{ACAD_REACTORS
330
62B6
102
}
330
62B6
100
AcDbXrecord
 40
0.0
  0
XRECORD
  5
62C4
102
{ACAD_REACTORS
330
62B6
102
}
330
62B6
100
AcDbXrecord
1000
DSTYLE
1002
{
1070
    79
 70
     2
1070
   341
340
59
1070
   342
340
59
1070
   371
 70
    -1
1070
   372
 70
    -1
1002
}
  0
XRECORD
  5
62C5
102
{ACAD_REACTORS
330
62B6
102
}
330
62B6
100
AcDbXrecord
340
0
  0
XRECORD
  5
62C6
102
{ACAD_REACTORS
330
62B6
102
}
330
62B6
100
AcDbXrecord
 70
     0
  0
XRECORD
  5
62C7
102
{ACAD_REACTORS
330
62B6
102
}
330
62B6
100
AcDbXrecord
340
0
  0
XRECORD
  5
62C8
102
{ACAD_REACTORS
330
62B6
102
}
330
62B6
100
AcDbXrecord
 10
0.0
 20
0.0
 30
0.0
  0
XRECORD
  5
62C9
102
{ACAD_REACTORS
330
62B6
102
}
330
62B6
100
AcDbXrecord
 10
0.0
 20
0.0
 30
0.0
  0
XRECORD
  5
62CA
102
{ACAD_REACTORS
330
62B6
102
}
330
62B6
100
AcDbXrecord
 10
0.0
 20
0.0
 30
0.0
  0
XRECORD
  5
62CB
102
{ACAD_REACTORS
330
62B6
102
}
330
62B6
100
AcDbXrecord
 10
0.0
 20
0.0
 30
0.0
  0
XRECORD
  5
62CC
102
{ACAD_REACTORS
330
62B6
102
}
330
62B6
100
AcDbXrecord
 10
0.0
 20
0.0
 30
0.0
  0
XRECORD
  5
62CD
102
{ACAD_REACTORS
330
62B6
102
}
330
62B6
100
AcDbXrecord
 10
0.0
 20
0.0
 30
0.0
  0
XRECORD
  5
62CE
102
{ACAD_REACTORS
330
62B6
102
}
330
62B6
100
AcDbXrecord
340
0
  0
XRECORD
  5
62CF
102
{ACAD_REACTORS
330
62B6
102
}
330
62B6
100
AcDbXrecord
 70
     0
  0
XRECORD
  5
62D0
102
{ACAD_REACTORS
330
62B6
102
}
330
62B6
100
AcDbXrecord
340
0
  0
XRECORD
  5
62D1
102
{ACAD_REACTORS
330
62B6
102
}
330
62B6
100
AcDbXrecord
 10
0.0
 20
0.0
 30
0.0
  0
XRECORD
  5
62D2
102
{ACAD_REACTORS
330
62B6
102
}
330
62B6
100
AcDbXrecord
 10
0.0
 20
0.0
 30
0.0
  0
XRECORD
  5
62D3
102
{ACAD_REACTORS
330
62B6
102
}
330
62B6
100
AcDbXrecord
 10
0.0
 20
0.0
 30
0.0
  0
XRECORD
  5
62D4
102
{ACAD_REACTORS
330
62B6
102
}
330
62B6
100
AcDbXrecord
 10
0.0
 20
0.0
 30
0.0
  0
XRECORD
  5
62D5
102
{ACAD_REACTORS
330
62B6
102
}
330
62B6
100
AcDbXrecord
 10
0.0
 20
0.0
 30
0.0
  0
XRECORD
  5
62D6
102
{ACAD_REACTORS
330
62B6
102
}
330
62B6
100
AcDbXrecord
 10
0.0
 20
0.0
 30
0.0
  0
LAYER_INDEX
  5
62AC
102
{ACAD_REACTORS
330
62AB
102
}
330
62AB
100
AcDbIndex
 40
2453151.674018716
100
AcDbLayerIndex
  8
0
360
62AD
 90
        0
  8
AM_0
360
62AE
 90
       48
  8
AM_7
360
62AF
 90
        1
  8
AM_11
360
62B0
 90
       19
  8
AM_5
360
62B1
 90
        5
  8
Defpoints
360
62B2
 90
        0
  8
AM_6
360
62B3
 90
        1
  8
AM_CL
360
62B4
 90
        0
  0
XRECORD
  5
2D
102
{ACAD_REACTORS
330
2C
102
}
330
2C
100
AcDbXrecord
  1
VERSION
140
15.0
  1
PRODUCT
  2
AutoCAD Mechanical 2000
  0
IDBUFFER
  5
62AD
330
0
100
AcDbIdBuffer
  0
IDBUFFER
  5
62AE
330
0
100
AcDbIdBuffer
330
5EB9
330
5EBA
330
5EBB
330
5EBC
330
5EBD
330
5EBE
330
5EBF
330
5EC0
330
5EC1
330
5EC2
330
5EC3
330
5EC4
330
5EC5
330
5EC6
330
5EC7
330
5EC8
330
5EC9
330
5ECA
330
5ECB
330
5ECC
330
5ECD
330
5ECE
330
5ECF
330
5ED0
330
5ED1
330
5ED2
330
5ED3
330
5ED4
330
5ED5
330
5F8D
330
5F8E
330
5F8F
330
21D8
330
21D9
330
21DC
330
21DD
330
53F6
330
53FC
330
5AFC
330
5B14
330
5EAE
330
5EAF
330
5EB0
330
5EB1
330
5EB3
330
5EB4
330
5EB6
330
5EB7
  0
IDBUFFER
  5
62AF
330
0
100
AcDbIdBuffer
330
C9F
  0
IDBUFFER
  5
62B0
330
0
100
AcDbIdBuffer
330
628C
330
628D
330
628E
330
5B04
330
5B05
330
5B15
330
5B16
330
5B3E
330
6077
330
6282
330
6283
330
6284
330
6285
330
6286
330
6287
330
6288
330
6289
330
628A
330
628B
  0
IDBUFFER
  5
62B1
330
0
100
AcDbIdBuffer
330
CC6
330
DF5
330
2216
330
5B6F
330
6184
  0
IDBUFFER
  5
62B2
330
0
100
AcDbIdBuffer
  0
IDBUFFER
  5
62B3
330
0
100
AcDbIdBuffer
330
19BD
  0
IDBUFFER
  5
62B4
330
0
100
AcDbIdBuffer
  0
ENDSEC
  0
EOF
