  0
SECTION
  2
HEADER
  9
$ACADVER
  1
AC1014
  9
$ACADMAINTVER
 70
     9
  9
$DWGCODEPAGE
  3
ANSI_932
  9
$INSBASE
 10
0.0
 20
0.0
 30
0.0
  9
$EXTMIN
 10
-264.3000009999997
 20
-57.00001416295815
 30
-0.00000001
  9
$EXTMAX
 10
29.71040341409649
 20
28.85832830313272
 30
0.00000001
  9
$LIMMIN
 10
-276.0583176205442
 20
-93.78612034952743
  9
$LIMMAX
 10
44.88989227647721
 20
50.77667461154442
  9
$ORTHOMODE
 70
     0
  9
$REGENMODE
 70
     1
  9
$FILLMODE
 70
     1
  9
$QTEXTMODE
 70
     0
  9
$MIRRTEXT
 70
     0
  9
$DRAGMODE
 70
     2
  9
$LTSCALE
 40
1.0
  9
$OSMODE
 70
    55
  9
$ATTMODE
 70
     1
  9
$TEXTSIZE
 40
2.5
  9
$TRACEWID
 40
1.0
  9
$TEXTSTYLE
  7
STANDARD
  9
$CLAYER
  8
AM_0
  9
$CELTYPE
  6
BYLAYER
  9
$CECOLOR
 62
   256
  9
$CELTSCALE
 40
1.0
  9
$DELOBJ
 70
     1
  9
$DISPSILH
 70
     0
  9
$DIMSCALE
 40
1.0
  9
$DIMASZ
 40
2.5
  9
$DIMEXO
 40
1.0
  9
$DIMDLI
 40
12.0
  9
$DIMRND
 40
0.0
  9
$DIMDLE
 40
0.0
  9
$DIMEXE
 40
1.0
  9
$DIMTP
 40
0.1
  9
$DIMTM
 40
0.1
  9
$DIMTXT
 40
3.2
  9
$DIMCEN
 40
0.0
  9
$DIMTSZ
 40
0.0
  9
$DIMTOL
 70
     0
  9
$DIMLIM
 70
     0
  9
$DIMTIH
 70
     0
  9
$DIMTOH
 70
     0
  9
$DIMSE1
 70
     0
  9
$DIMSE2
 70
     0
  9
$DIMTAD
 70
     3
  9
$DIMZIN
 70
     8
  9
$DIMBLK
  1
OPEN30
  9
$DIMASO
 70
     1
  9
$DIMSHO
 70
     1
  9
$DIMPOST
  1

  9
$DIMAPOST
  1
"
  9
$DIMALT
 70
     0
  9
$DIMALTD
 70
     2
  9
$DIMALTF
 40
0.0393701
  9
$DIMLFAC
 40
1.0
  9
$DIMTOFL
 70
     1
  9
$DIMTVP
 40
0.0
  9
$DIMTIX
 70
     0
  9
$DIMSOXD
 70
     0
  9
$DIMSAH
 70
     0
  9
$DIMBLK1
  1

  9
$DIMBLK2
  1

  9
$DIMSTYLE
  2
AM_JIS
  9
$DIMCLRD
 70
   256
  9
$DIMCLRE
 70
   256
  9
$DIMCLRT
 70
     2
  9
$DIMTFAC
 40
0.71
  9
$DIMGAP
 40
1.5
  9
$DIMJUST
 70
     0
  9
$DIMSD1
 70
     0
  9
$DIMSD2
 70
     0
  9
$DIMTOLJ
 70
     0
  9
$DIMTZIN
 70
     0
  9
$DIMALTZ
 70
     0
  9
$DIMALTTZ
 70
     0
  9
$DIMFIT
 70
     3
  9
$DIMUPT
 70
     0
  9
$DIMUNIT
 70
     2
  9
$DIMDEC
 70
     3
  9
$DIMTDEC
 70
     3
  9
$DIMALTU
 70
     2
  9
$DIMALTTD
 70
     2
  9
$DIMTXSTY
  7
ASAMI
  9
$DIMAUNIT
 70
     0
  9
$LUNITS
 70
     2
  9
$LUPREC
 70
     2
  9
$SKETCHINC
 40
1.0
  9
$FILLETRAD
 40
2.5
  9
$AUNITS
 70
     0
  9
$AUPREC
 70
     0
  9
$MENU
  1
.
  9
$ELEVATION
 40
0.0
  9
$PELEVATION
 40
0.0
  9
$THICKNESS
 40
0.0
  9
$LIMCHECK
 70
     0
  9
$BLIPMODE
 70
     0
  9
$CHAMFERA
 40
0.75
  9
$CHAMFERB
 40
0.75
  9
$CHAMFERC
 40
20.0
  9
$CHAMFERD
 40
0.0
  9
$SKPOLY
 70
     0
  9
$TDCREATE
 40
2452800.443498622
  9
$TDUPDATE
 40
2453151.674203541
  9
$TDINDWG
 40
0.1434062037
  9
$TDUSRTIMER
 40
0.1434062037
  9
$USRTIMER
 70
     1
  9
$ANGBASE
 50
0.0
  9
$ANGDIR
 70
     0
  9
$PDMODE
 70
     3
  9
$PDSIZE
 40
0.0
  9
$PLINEWID
 40
0.0
  9
$COORDS
 70
     1
  9
$SPLFRAME
 70
     0
  9
$SPLINETYPE
 70
     6
  9
$SPLINESEGS
 70
     8
  9
$ATTDIA
 70
     1
  9
$ATTREQ
 70
     1
  9
$HANDLING
 70
 12289
  9
$HANDSEED
  5
5CA0
  9
$SURFTAB1
 70
     6
  9
$SURFTAB2
 70
     6
  9
$SURFTYPE
 70
     6
  9
$SURFU
 70
     6
  9
$SURFV
 70
     6
  9
$UCSNAME
  2

  9
$UCSORG
 10
0.0
 20
0.0
 30
0.0
  9
$UCSXDIR
 10
1.0
 20
0.0000000000000027
 30
0.0
  9
$UCSYDIR
 10
-0.0000000000000027
 20
1.0
 30
0.0
  9
$PUCSNAME
  2

  9
$PUCSORG
 10
0.0
 20
0.0
 30
0.0
  9
$PUCSXDIR
 10
1.0
 20
0.0
 30
0.0
  9
$PUCSYDIR
 10
0.0
 20
1.0
 30
0.0
  9
$USERI1
 70
     0
  9
$USERI2
 70
     0
  9
$USERI3
 70
     0
  9
$USERI4
 70
     0
  9
$USERI5
 70
     0
  9
$USERR1
 40
0.0
  9
$USERR2
 40
0.0
  9
$USERR3
 40
0.0
  9
$USERR4
 40
0.0
  9
$USERR5
 40
0.0
  9
$WORLDVIEW
 70
     1
  9
$SHADEDGE
 70
     3
  9
$SHADEDIF
 70
    70
  9
$TILEMODE
 70
     1
  9
$MAXACTVP
 70
    64
  9
$PINSBASE
 10
0.0
 20
0.0
 30
0.0
  9
$PLIMCHECK
 70
     0
  9
$PEXTMIN
 10
1.000000000000000E+20
 20
1.000000000000000E+20
 30
1.000000000000000E+20
  9
$PEXTMAX
 10
-1.000000000000000E+20
 20
-1.000000000000000E+20
 30
-1.000000000000000E+20
  9
$PLIMMIN
 10
0.0
 20
0.0
  9
$PLIMMAX
 10
841.0
 20
594.0
  9
$UNITMODE
 70
     0
  9
$VISRETAIN
 70
     1
  9
$PLINEGEN
 70
     0
  9
$PSLTSCALE
 70
     0
  9
$TREEDEPTH
 70
  3020
  9
$PICKSTYLE
 70
     0
  9
$CMLSTYLE
  2
STANDARD
  9
$CMLJUST
 70
     0
  9
$CMLSCALE
 40
20.0
  9
$PROXYGRAPHICS
 70
     1
  9
$MEASUREMENT
 70
     1
  0
ENDSEC
  0
SECTION
  2
CLASSES
  0
CLASS
  1
ACDBDICTIONARYWDFLT
  2
AcDbDictionaryWithDefault
  3
AutoCAD 2000
 90
        0
280
     0
281
     0
  0
CLASS
  1
ACDBPLACEHOLDER
  2
AcDbPlaceHolder
  3
AutoCAD 2000
 90
        0
280
     0
281
     0
  0
CLASS
  1
LAYOUT
  2
AcDbLayout
  3
AutoCAD 2000
 90
        0
280
     0
281
     0
  0
CLASS
  1
AMGSETTINGSOBJ
  2
AmgSettingsObj
  3
"AcadM|Product Description: AutoCAD Mechanical 2000|Company: Autodesk"
 90
        0
280
     0
281
     0
  0
CLASS
  1
ACME_DOCUMENT
  2
AcMeDbDoc
  3
AcMeServices
 90
        0
280
     0
281
     0
  0
CLASS
  1
ACMESCOPE
  2
AcMeScope
  3
AcMeServices
 90
        0
280
     0
281
     0
  0
CLASS
  1
ACMECOMMANDHISTORY
  2
AcMeCommandHistory
  3
AcMeServices
 90
        0
280
     0
281
     0
  0
CLASS
  1
DICTIONARYVAR
  2
AcDbDictionaryVar
  3
AutoCAD 2000
 90
        0
280
     0
281
     0
  0
CLASS
  1
ACIMSYSVARMAN
  2
AcImSysVarManager
  3
AcMeServices
 90
        0
280
     0
281
     0
  0
CLASS
  1
ACIMREALSYSVAR
  2
AcImRealSysVar
  3
AcMeServices
 90
        0
280
     0
281
     0
  0
CLASS
  1
ACIMINTSYSVAR
  2
AcImIntSysVar
  3
AcMeServices
 90
        0
280
     0
281
     0
  0
CLASS
  1
ACMEDRAWINGMAN
  2
AcMeDrawingMan
  3
AcMeServices
 90
        0
280
     0
281
     0
  0
CLASS
  1
ACMEVIEW
  2
AcMeView
  3
AcMeServices
 90
        0
280
     0
281
     0
  0
CLASS
  1
ACDBENTITYCACHE
  2
AcMeEntityCache
  3
AcMeServices
 90
        0
280
     0
281
     0
  0
CLASS
  1
GSMANAGER
  2
AcMeGSManager
  3
AcMeServices
 90
        0
280
     0
281
     0
  0
CLASS
  1
AmdtInternalReactor
  2
AmdtInternalReactor
  3
AcMeServices
 90
        0
280
     0
281
     0
  0
CLASS
  1
ACMESTATEMGR
  2
AcMeStateMgr
  3
AcMeServices
 90
        0
280
     0
281
     0
  0
CLASS
  1
ACME_DATABASE
  2
AcMeDbDatabase
  3
AcMeServices
 90
        0
280
     0
281
     0
  0
CLASS
  1
ACRFINSADJUSTERMGR
  2
AcRfInsAdjusterMgr
  3
AcMeServices
 90
        0
280
     0
281
     0
  0
CLASS
  1
ACMDATADICTIONARY
  2
AcmDataDictionary
  3
"AcmSymBB|Product Description: AutoCAD Mechanical 2000|Company: Autodesk"
 90
        0
280
     0
281
     0
  0
CLASS
  1
ACMDATAENTRYBLOCK
  2
AcmDataEntryBlock
  3
"AcmSymBB|Product Description: AutoCAD Mechanical 2000|Company: Autodesk"
 90
        0
280
     0
281
     0
  0
CLASS
  1
AMGOBJPROPCFG
  2
AmgObjPropCfg
  3
"AmgLay|Product Description: AutoCAD Mechanical 2000|Company: Autodesk"
 90
        1
280
     0
281
     0
  0
CLASS
  1
ACAMGFILTERDAT
  2
AcAmgFilterDat
  3
"AcadM|Product Description: AutoCAD Mechanical 2000|Company: Autodesk"
 90
        0
280
     0
281
     0
  0
CLASS
  1
LAYER_INDEX
  2
AcDbLayerIndex
  3
AutoCAD 2000
 90
        0
280
     0
281
     0
  0
CLASS
  1
IDBUFFER
  2
AcDbIdBuffer
  3
AutoCAD 2000
 90
        0
280
     0
281
     0
  0
CLASS
  1
ACIMSTRSYSVAR
  2
AcImStrSysVar
  3
AcMeServices
 90
        0
280
     0
281
     0
  0
CLASS
  1
ACMSTANDARDJIS
  2
AcmStandardJIS
  3
"AcmSymBB|Product Description: AutoCAD Mechanical 2000|Company: Autodesk"
 90
        0
280
     0
281
     0
  0
CLASS
  1
ACMSURFSTANDARDJIS
  2
AcmSurfTextStdJIS
  3
"AcmSymBB|Product Description: AutoCAD Mechanical 2000|Company: Autodesk"
 90
        0
280
     0
281
     0
  0
CLASS
  1
ACMFCFSTANDARDJIS
  2
AcmFCFStdJIS
  3
"AcmSymBB|Product Description: AutoCAD Mechanical 2000|Company: Autodesk"
 90
        0
280
     0
281
     0
  0
CLASS
  1
ACMWELDSTANDARDJIS
  2
AcmWeldingStdJIS
  3
"AcmSymBB|Product Description: AutoCAD Mechanical 2000|Company: Autodesk"
 90
        0
280
     0
281
     0
  0
CLASS
  1
ACMIDSTANDARDJIS
  2
AcmIdStdJIS
  3
"AcmSymBB|Product Description: AutoCAD Mechanical 2000|Company: Autodesk"
 90
        0
280
     0
281
     0
  0
CLASS
  1
ACMDATUMSTANDARDJIS
  2
AcmDatumStdJIS
  3
"AcmSymBB|Product Description: AutoCAD Mechanical 2000|Company: Autodesk"
 90
        0
280
     0
281
     0
  0
CLASS
  1
ACMBOMSTANDARDJIS
  2
AcmBOMStdJIS
  3
"AcmSymBB|Product Description: AutoCAD Mechanical 2000|Company: Autodesk"
 90
        0
280
     0
281
     0
  0
CLASS
  1
ACMSTANDARDANSI
  2
AcmStandardANSI
  3
"AcmSymBB|Product Description: AutoCAD Mechanical 2000|Company: Autodesk"
 90
        0
280
     0
281
     0
  0
CLASS
  1
ACMSURFSTANDARDANSI
  2
AcmSurfTextStdANSI
  3
"AcmSymBB|Product Description: AutoCAD Mechanical 2000|Company: Autodesk"
 90
        0
280
     0
281
     0
  0
CLASS
  1
ACMFCFSTANDARDANSI
  2
AcmFCFStdANSI
  3
"AcmSymBB|Product Description: AutoCAD Mechanical 2000|Company: Autodesk"
 90
        0
280
     0
281
     0
  0
CLASS
  1
ACMWELDSTANDARDANSI
  2
AcmWeldingStdANSI
  3
"AcmSymBB|Product Description: AutoCAD Mechanical 2000|Company: Autodesk"
 90
        0
280
     0
281
     0
  0
CLASS
  1
ACMIDSTANDARDANSI
  2
AcmIdStdANSI
  3
"AcmSymBB|Product Description: AutoCAD Mechanical 2000|Company: Autodesk"
 90
        0
280
     0
281
     0
  0
CLASS
  1
ACMDATUMSTANDARDANSI
  2
AcmDatumStdANSI
  3
"AcmSymBB|Product Description: AutoCAD Mechanical 2000|Company: Autodesk"
 90
        0
280
     0
281
     0
  0
CLASS
  1
ACMBOMSTANDARDANSI
  2
AcmBOMStdANSI
  3
"AcmSymBB|Product Description: AutoCAD Mechanical 2000|Company: Autodesk"
 90
        0
280
     0
281
     0
  0
CLASS
  1
ACMSTANDARDBSI
  2
AcmStandardBSI
  3
"AcmSymBB|Product Description: AutoCAD Mechanical 2000|Company: Autodesk"
 90
        0
280
     0
281
     0
  0
CLASS
  1
ACMSURFSTANDARDBSI
  2
AcmSurfTextStdBSI
  3
"AcmSymBB|Product Description: AutoCAD Mechanical 2000|Company: Autodesk"
 90
        0
280
     0
281
     0
  0
CLASS
  1
ACMFCFSTANDARDBSI
  2
AcmFCFStdBSI
  3
"AcmSymBB|Product Description: AutoCAD Mechanical 2000|Company: Autodesk"
 90
        0
280
     0
281
     0
  0
CLASS
  1
ACMWELDSTANDARDBSI
  2
AcmWeldingStdBSI
  3
"AcmSymBB|Product Description: AutoCAD Mechanical 2000|Company: Autodesk"
 90
        0
280
     0
281
     0
  0
CLASS
  1
ACMIDSTANDARDBSI
  2
AcmIdStdBSI
  3
"AcmSymBB|Product Description: AutoCAD Mechanical 2000|Company: Autodesk"
 90
        0
280
     0
281
     0
  0
CLASS
  1
ACMDATUMSTANDARDBSI
  2
AcmDatumStdBSI
  3
"AcmSymBB|Product Description: AutoCAD Mechanical 2000|Company: Autodesk"
 90
        0
280
     0
281
     0
  0
CLASS
  1
ACMBOMSTANDARDBSI
  2
AcmBOMStdBSI
  3
"AcmSymBB|Product Description: AutoCAD Mechanical 2000|Company: Autodesk"
 90
        0
280
     0
281
     0
  0
CLASS
  1
LONG_TRANSACTION
  2
AcDbLongTransaction
  3
AutoCAD 2000
 90
        0
280
     0
281
     0
  0
CLASS
  1
LWPOLYLINE
  2
AcDbPolyline
  3
AutoCAD 2000
 90
        0
280
     0
281
     1
  0
CLASS
  1
HATCH
  2
AcDbHatch
  3
AutoCAD 2000
 90
        0
280
     0
281
     1
  0
CLASS
  1
XRECORD
  2
AcDbXrecord
  3
AutoCAD 2000
 90
        0
280
     0
281
     0
  0
ENDSEC
  0
SECTION
  2
TABLES
  0
TABLE
  2
VPORT
  5
8
330
0
100
AcDbSymbolTable
 70
     3
  0
VPORT
  5
5C6A
330
8
100
AcDbSymbolTableRecord
100
AcDbViewportTableRecord
  2
*ACTIVE
 70
     0
 10
0.0
 20
0.0
 11
1.0
 21
1.0
 12
-111.8499558566301
 22
-14.07099725796106
 13
0.0
 23
0.0
 14
2.5
 24
2.5
 15
10.0
 25
10.0
 16
0.0
 26
0.0
 36
1.0
 17
0.0
 27
0.0
 37
0.0
 40
195.6887946684686
 41
1.56570841889117
 42
50.0
 43
0.0
 44
0.0
 50
0.0
 51
0.0
 71
     0
 72
   100
 73
     1
 74
     1
 75
     0
 76
     0
 77
     0
 78
     0
  0
ENDTAB
  0
TABLE
  2
LTYPE
  5
5
330
0
100
AcDbSymbolTable
 70
    10
  0
LTYPE
  5
14
330
5
100
AcDbSymbolTableRecord
100
AcDbLinetypeTableRecord
  2
BYBLOCK
 70
     0
  3

 72
    65
 73
     0
 40
0.0
  0
LTYPE
  5
15
330
5
100
AcDbSymbolTableRecord
100
AcDbLinetypeTableRecord
  2
BYLAYER
 70
     0
  3

 72
    65
 73
     0
 40
0.0
  0
LTYPE
  5
16
330
5
100
AcDbSymbolTableRecord
100
AcDbLinetypeTableRecord
  2
CONTINUOUS
 70
     0
  3
Solid line
 72
    65
 73
     0
 40
0.0
  0
LTYPE
  5
4B
330
5
100
AcDbSymbolTableRecord
100
AcDbLinetypeTableRecord
  2
AM_ISO02W050
 70
     0
  3
__ __ __ __ __ __ __ __ __ __ __ __ __ __ __
 72
    65
 73
     2
 40
7.5
 49
6.0
 74
     0
 49
-1.5
 74
     0
  0
LTYPE
  5
4C
330
5
100
AcDbSymbolTableRecord
100
AcDbLinetypeTableRecord
  2
AM_ISO08W050
 70
     0
  3
____ . ____ . ____ . ____ . ____ . ____ . ____
 72
    65
 73
     4
 40
18.0
 49
12.0
 74
     0
 49
-1.5
 74
     0
 49
3.0
 74
     0
 49
-1.5
 74
     0
  0
LTYPE
  5
4D
330
5
100
AcDbSymbolTableRecord
100
AcDbLinetypeTableRecord
  2
AM_ISO09W050
 70
     0
  3
_____ . . _____ . . _____ . . ____ .. ____
 72
    65
 73
     6
 40
22.5
 49
12.0
 74
     0
 49
-1.5
 74
     0
 49
3.0
 74
     0
 49
-1.5
 74
     0
 49
3.0
 74
     0
 49
-1.5
 74
     0
  0
LTYPE
  5
4E
330
5
100
AcDbSymbolTableRecord
100
AcDbLinetypeTableRecord
  2
AMCONSTR
 70
     0
  3
_______________________
 72
    65
 73
     2
 40
9999.0
 49
9999.0
 74
     0
 49
0.0
 74
     0
  0
LTYPE
  5
4F
330
5
100
AcDbSymbolTableRecord
100
AcDbLinetypeTableRecord
  2
AM_ISO02W050X2
 70
     0
  3
 _ _ _ _ _ _ _ _ _ _ _ _
 72
    65
 73
     2
 40
3.75
 49
3.0
 74
     0
 49
-0.75
 74
     0
  0
LTYPE
  5
50
330
5
100
AcDbSymbolTableRecord
100
AcDbLinetypeTableRecord
  2
AM_ISO08W050X2
 70
     0
  3
__ . __ . __ . __ . __ . __
 72
    65
 73
     4
 40
9.0
 49
6.0
 74
     0
 49
-0.75
 74
     0
 49
1.5
 74
     0
 49
-0.75
 74
     0
  0
LTYPE
  5
53
330
5
100
AcDbSymbolTableRecord
100
AcDbLinetypeTableRecord
  2
AMZIGZAG
 70
     0
  3
/\/-/\/-/\/-/\/-/\/-/\/
 72
    65
 73
     2
 40
11.00009999999999
 49
0.0001
 74
     4
 75
   135
340
52
 46
0.04
 50
0.0
 44
0.0
 45
0.0
 49
-11.0
 74
     0
  0
LTYPE
  5
166
330
5
100
AcDbSymbolTableRecord
100
AcDbLinetypeTableRecord
  2
ACJISTGL
 70
     0
  3
_ _ _ _ _
 72
    65
 73
     2
 40
3.0
 49
2.0
 74
     0
 49
-1.0
 74
     0
  0
LTYPE
  5
26A
330
5
100
AcDbSymbolTableRecord
100
AcDbLinetypeTableRecord
  2
ACJISTGB
 70
     0
  3
__ . . __ . .
 72
    65
 73
     6
 40
9.0
 49
4.0
 74
     0
 49
-1.0
 74
     0
 49
1.0
 74
     0
 49
-1.0
 74
     0
 49
1.0
 74
     0
 49
-1.0
 74
     0
  0
ENDTAB
  0
TABLE
  2
LAYER
  5
2
330
0
100
AcDbSymbolTable
 70
     8
  0
LAYER
  5
10
330
2
100
AcDbSymbolTableRecord
100
AcDbLayerTableRecord
  2
0
 70
     0
 62
     7
  6
CONTINUOUS
  0
LAYER
  5
3F9
330
2
100
AcDbSymbolTableRecord
100
AcDbLayerTableRecord
  2
AM_0
 70
     0
 62
     7
  6
CONTINUOUS
  0
LAYER
  5
C7C
330
2
100
AcDbSymbolTableRecord
100
AcDbLayerTableRecord
  2
AM_7
 70
     0
 62
     4
  6
AM_ISO08W050
  0
LAYER
  5
C97
330
2
100
AcDbSymbolTableRecord
100
AcDbLayerTableRecord
  2
AM_11
 70
     0
 62
     3
  6
AM_ISO09W050
  0
LAYER
  5
CC5
330
2
100
AcDbSymbolTableRecord
100
AcDbLayerTableRecord
  2
AM_5
 70
     0
 62
     3
  6
CONTINUOUS
  0
LAYER
  5
CC7
330
2
100
AcDbSymbolTableRecord
100
AcDbLayerTableRecord
  2
DEFPOINTS
 70
     0
 62
     7
  6
CONTINUOUS
  0
LAYER
  5
19BC
330
2
100
AcDbSymbolTableRecord
100
AcDbLayerTableRecord
  2
AM_6
 70
     0
 62
     2
  6
CONTINUOUS
  0
LAYER
  5
5ABF
330
2
100
AcDbSymbolTableRecord
100
AcDbLayerTableRecord
  2
AM_CL
 70
     0
 62
     1
  6
AMCONSTR
  0
ENDTAB
  0
TABLE
  2
STYLE
  5
3
330
0
100
AcDbSymbolTable
 70
     5
  0
STYLE
  5
11
330
3
100
AcDbSymbolTableRecord
100
AcDbTextStyleTableRecord
  2
STANDARD
 70
     0
 40
0.0
 41
1.0
 50
0.0
 71
     0
 42
2.5
  3
simplex.shx
  4
EXTFONT.SHX
  0
STYLE
  5
52
330
3
100
AcDbSymbolTableRecord
100
AcDbTextStyleTableRecord
  2

 70
     1
 40
0.0
 41
1.0
 50
0.0
 71
     0
 42
2.5
  3
ltypeshp.shx
  4

  0
STYLE
  5
6B
330
3
100
AcDbSymbolTableRecord
100
AcDbTextStyleTableRecord
  2
ASAMI
 70
     0
 40
0.0
 41
1.0
 50
0.0
 71
     0
 42
2.5
  3
simplex.shx
  4
EXTFONT.SHX
  0
STYLE
  5
262
330
3
100
AcDbSymbolTableRecord
100
AcDbTextStyleTableRecord
  2
ACJISTS
 70
     0
 40
1.0
 41
1.0
 50
0.0
 71
     0
 42
2.5
  3
simplex.shx
  4
bigfont.shx
  0
STYLE
  5
269
330
3
100
AcDbSymbolTableRecord
100
AcDbTextStyleTableRecord
  2
ACJISGDT
 70
     0
 40
0.0
 41
1.0
 50
0.0
 71
     0
 42
2.5
  3
amgdtans.shx
  4

  0
ENDTAB
  0
TABLE
  2
VIEW
  5
6
330
0
100
AcDbSymbolTable
 70
     0
  0
ENDTAB
  0
TABLE
  2
UCS
  5
7
330
0
100
AcDbSymbolTable
 70
     0
  0
ENDTAB
  0
TABLE
  2
APPID
  5
9
330
0
100
AcDbSymbolTable
 70
    16
  0
APPID
  5
12
330
9
100
AcDbSymbolTableRecord
100
AcDbRegAppTableRecord
  2
ACAD
 70
     0
  0
APPID
  5
30
330
9
100
AcDbSymbolTableRecord
100
AcDbRegAppTableRecord
  2
MCAD_NO_VIS
 70
     0
  0
APPID
  5
31
330
9
100
AcDbSymbolTableRecord
100
AcDbRegAppTableRecord
  2
ACAD_TEMP_GRAPHIC
 70
     0
  0
APPID
  5
2C2
330
9
100
AcDbSymbolTableRecord
100
AcDbRegAppTableRecord
  2
GENIUS_GENDTOL_13
 70
     0
  0
APPID
  5
339
330
9
100
AcDbSymbolTableRecord
100
AcDbRegAppTableRecord
  2
GENIUS_GENODEF_13
 70
     0
  0
APPID
  5
33A
330
9
100
AcDbSymbolTableRecord
100
AcDbRegAppTableRecord
  2
GENIUS_GENOBJ-N-RSBK_13
 70
     0
  0
APPID
  5
33B
330
9
100
AcDbSymbolTableRecord
100
AcDbRegAppTableRecord
  2
GENIUS_GENOBJ-N-LIB_13
 70
     0
  0
APPID
  5
33C
330
9
100
AcDbSymbolTableRecord
100
AcDbRegAppTableRecord
  2
GENIUS_GENSCALE_13
 70
     0
  0
APPID
  5
378
330
9
100
AcDbSymbolTableRecord
100
AcDbRegAppTableRecord
  2
GENIUS_GENDIMSH_14
 70
     0
  0
APPID
  5
C82
330
9
100
AcDbSymbolTableRecord
100
AcDbRegAppTableRecord
  2
GENIUS_GENOBJ-N-CRS_13
 70
     0
  0
APPID
  5
C83
330
9
100
AcDbSymbolTableRecord
100
AcDbRegAppTableRecord
  2
GENIUS_GENOENT_13
 70
     0
  0
APPID
  5
C84
330
9
100
AcDbSymbolTableRecord
100
AcDbRegAppTableRecord
  2
GENIUS_GENOREF_13
 70
     0
  0
APPID
  5
C85
330
9
100
AcDbSymbolTableRecord
100
AcDbRegAppTableRecord
  2
GENIUS_GENOLIS_13
 70
     0
  0
APPID
  5
CA0
330
9
100
AcDbSymbolTableRecord
100
AcDbRegAppTableRecord
  2
GENIUS_GENOBJ-N-CEN_13
 70
     0
  0
APPID
  5
1E1E
330
9
100
AcDbSymbolTableRecord
100
AcDbRegAppTableRecord
  2
GENIUS_GENFIL_13
 70
     0
  0
APPID
  5
1E1F
330
9
100
AcDbSymbolTableRecord
100
AcDbRegAppTableRecord
  2
GENIUS_GENOBJ-N-CHA_13
 70
     0
  0
ENDTAB
  0
TABLE
  2
DIMSTYLE
  5
A
330
0
100
AcDbSymbolTable
 70
     9
  0
DIMSTYLE
105
58
330
A
100
AcDbSymbolTableRecord
100
AcDbDimStyleTableRecord
  2
AM_JIS
 70
     0
  3

  4
"
  5
OPEN30
  6

  7

 40
1.0
 41
2.5
 42
1.0
 43
12.0
 44
1.0
 45
0.0
 46
0.0
 47
0.1
 48
0.1
140
3.2
141
0.0
142
0.0
143
0.0393701
144
1.0
145
0.0
146
0.71
147
1.5
 71
     0
 72
     0
 73
     0
 74
     0
 75
     0
 76
     0
 77
     3
 78
     8
170
     0
171
     2
172
     1
173
     0
174
     0
175
     0
176
   256
177
   256
178
     2
270
     2
271
     3
272
     3
273
     2
274
     2
340
6B
275
     0
280
     0
281
     0
282
     0
283
     0
284
     0
285
     0
286
     0
287
     3
288
     0
  0
DIMSTYLE
105
5F
330
A
100
AcDbSymbolTableRecord
100
AcDbDimStyleTableRecord
  2
AM_JIS$3
 70
     0
  3

  4
"
  5
OPEN30
  6

  7

 40
1.0
 41
2.5
 42
1.0
 43
10.0
 44
1.0
 45
0.0
 46
0.0
 47
0.1
 48
0.1
140
3.2
141
0.0
142
0.0
143
0.0393701
144
1.0
145
0.0
146
0.71
147
1.5
 71
     0
 72
     0
 73
     0
 74
     1
 75
     0
 76
     0
 77
     3
 78
     8
170
     0
171
     2
172
     0
173
     0
174
     0
175
     0
176
   256
177
   256
178
     2
270
     2
271
     2
272
     3
273
     2
274
     2
340
6B
275
     0
280
     0
281
     0
282
     0
283
     0
284
     0
285
     0
286
     0
287
     0
288
     1
  0
DIMSTYLE
105
60
330
A
100
AcDbSymbolTableRecord
100
AcDbDimStyleTableRecord
  2
AM_JIS$4
 70
     0
  3

  4
"
  5
OPEN30
  6

  7

 40
1.0
 41
2.5
 42
1.0
 43
10.0
 44
1.0
 45
0.0
 46
0.0
 47
0.1
 48
0.1
140
3.2
141
0.0
142
0.0
143
0.0393701
144
1.0
145
0.0
146
0.71
147
1.5
 71
     0
 72
     0
 73
     0
 74
     1
 75
     0
 76
     0
 77
     3
 78
     8
170
     0
171
     2
172
     0
173
     0
174
     0
175
     0
176
   256
177
   256
178
     2
270
     2
271
     2
272
     3
273
     2
274
     2
340
6B
275
     0
280
     0
281
     0
282
     0
283
     0
284
     0
285
     0
286
     0
287
     0
288
     1
  0
DIMSTYLE
105
61
330
A
100
AcDbSymbolTableRecord
100
AcDbDimStyleTableRecord
  2
AM_JIS$6
 70
     0
  3

  4
"
  5
OPEN30
  6

  7

 40
1.0
 41
2.5
 42
1.0
 43
10.0
 44
1.0
 45
0.0
 46
0.0
 47
0.1
 48
0.1
140
3.2
141
0.0
142
0.0
143
0.0393701
144
1.0
145
0.0
146
0.71
147
1.5
 71
     0
 72
     0
 73
     0
 74
     0
 75
     0
 76
     0
 77
     0
 78
     8
170
     0
171
     2
172
     1
173
     0
174
     0
175
     0
176
   256
177
   256
178
     2
270
     2
271
     2
272
     2
273
     2
274
     2
340
6B
275
     0
280
     0
281
     0
282
     0
283
     0
284
     0
285
     0
286
     0
287
     3
288
     0
  0
DIMSTYLE
105
62
330
A
100
AcDbSymbolTableRecord
100
AcDbDimStyleTableRecord
  2
AM_JIS$7
 70
     0
  3

  4
"
  5
OPEN30
  6

  7

 40
1.0
 41
2.5
 42
1.0
 43
10.0
 44
1.0
 45
0.0
 46
0.0
 47
0.1
 48
0.1
140
3.2
141
0.0
142
0.0
143
0.0393701
144
1.0
145
0.0
146
0.71
147
1.5
 71
     0
 72
     0
 73
     0
 74
     0
 75
     0
 76
     0
 77
     3
 78
     8
170
     0
171
     2
172
     1
173
     0
174
     0
175
     0
176
   256
177
   256
178
     2
270
     2
271
     2
272
     3
273
     2
274
     2
340
6B
275
     0
280
     0
281
     0
282
     0
283
     0
284
     0
285
     0
286
     0
287
     3
288
     0
  0
DIMSTYLE
105
63
330
A
100
AcDbSymbolTableRecord
100
AcDbDimStyleTableRecord
  2
AM_JIS$SF
 70
     0
  3

  4
"
  5
OPEN30
  6

  7

 40
1.0
 41
2.5
 42
1.0
 43
10.0
 44
1.0
 45
0.0
 46
0.0
 47
0.1
 48
0.1
140
3.2
141
0.0
142
0.0
143
0.0393701
144
1.0
145
0.0
146
0.71
147
1.5
 71
     0
 72
     0
 73
     0
 74
     0
 75
     1
 76
     1
 77
     3
 78
     8
170
     0
171
     2
172
     1
173
     0
174
     0
175
     0
176
   256
177
   256
178
     2
270
     2
271
     2
272
     2
273
     2
274
     2
340
6B
275
     0
280
     0
281
     0
282
     0
283
     0
284
     0
285
     0
286
     0
287
     3
288
     0
  0
DIMSTYLE
105
68
330
A
100
AcDbSymbolTableRecord
100
AcDbDimStyleTableRecord
  2
AM_JIS$SH
 70
     0
  3

  4
"
  5

  6
GENAXEH
  7
OPEN30
 40
1.0
 41
2.5
 42
1.0
 43
10.0
 44
1.0
 45
0.0
 46
0.0
 47
0.1
 48
0.1
140
3.2
141
0.0
142
0.0
143
0.0393701
144
2.0
145
0.0
146
0.71
147
1.5
 71
     0
 72
     0
 73
     0
 74
     0
 75
     1
 76
     1
 77
     3
 78
     8
170
     0
171
     2
172
     1
173
     1
174
     0
175
     0
176
   256
177
   256
178
     2
270
     2
271
     2
272
     2
273
     2
274
     2
340
6B
275
     0
280
     0
281
     0
282
     0
283
     0
284
     0
285
     0
286
     0
287
     3
288
     0
  0
DIMSTYLE
105
B34
102
{ACAD_REACTORS
330
5B0A
102
}
330
A
100
AcDbSymbolTableRecord
100
AcDbDimStyleTableRecord
  2
AM_JIS$2
 70
     0
  3

  4
"
  5
OPEN30
  6

  7

 40
1.0
 41
2.5
 42
1.0
 43
12.0
 44
1.0
 45
0.0
 46
0.0
 47
0.1
 48
0.1
140
3.2
141
0.0
142
0.0
143
0.0393701
144
1.0
145
0.0
146
0.71
147
1.5
 71
     0
 72
     0
 73
     0
 74
     0
 75
     0
 76
     0
 77
     3
 78
     8
170
     0
171
     2
172
     1
173
     0
174
     0
175
     0
176
   256
177
   256
178
     2
270
     2
271
     3
272
     3
273
     2
274
     2
340
6B
275
     0
280
     0
281
     0
282
     0
283
     0
284
     0
285
     0
286
     0
287
     3
288
     0
  0
DIMSTYLE
105
BA5
102
{ACAD_REACTORS
330
2216
330
CC6
330
DF5
330
4D9C
102
}
330
A
100
AcDbSymbolTableRecord
100
AcDbDimStyleTableRecord
  2
AM_JIS$0
 70
     0
  3

  4
"
  5
OPEN30
  6

  7

 40
1.0
 41
2.5
 42
0.0
 43
10.0
 44
1.0
 45
0.0
 46
0.0
 47
0.1
 48
0.1000000001
140
3.799999999999999
141
0.0
142
0.0
143
0.0393701
144
1.0
145
0.0
146
0.71
147
1.5
 71
     0
 72
     0
 73
     0
 74
     0
 75
     0
 76
     0
 77
     3
 78
     1
170
     0
171
     2
172
     1
173
     0
174
     0
175
     0
176
     3
177
     3
178
     2
270
     2
271
     2
272
     2
273
     2
274
     2
340
11
275
     1
280
     0
281
     0
282
     0
283
     0
284
     8
285
     0
286
     0
287
     0
288
     0
  0
ENDTAB
  0
TABLE
  2
BLOCK_RECORD
  5
1
330
0
100
AcDbSymbolTable
 70
    10
  0
BLOCK_RECORD
  5
1F
102
{ACAD_XDICTIONARY
360
74
102
}
330
1
100
AcDbSymbolTableRecord
100
AcDbBlockTableRecord
  2
*MODEL_SPACE
  0
BLOCK_RECORD
  5
101
102
{ACAD_XDICTIONARY
360
5C93
102
}
330
1
100
AcDbSymbolTableRecord
100
AcDbBlockTableRecord
  2
*PAPER_SPACE
  0
BLOCK_RECORD
  5
59
330
1
100
AcDbSymbolTableRecord
100
AcDbBlockTableRecord
  2
_OPEN30
  0
BLOCK_RECORD
  5
64
330
1
100
AcDbSymbolTableRecord
100
AcDbBlockTableRecord
  2
GENAXEH
  0
BLOCK_RECORD
  5
CC8
330
1
100
AcDbSymbolTableRecord
100
AcDbBlockTableRecord
  2
*D5
  0
BLOCK_RECORD
  5
DF6
330
1
100
AcDbSymbolTableRecord
100
AcDbBlockTableRecord
  2
*D6
  0
BLOCK_RECORD
  5
2217
330
1
100
AcDbSymbolTableRecord
100
AcDbBlockTableRecord
  2
*D7
  0
BLOCK_RECORD
  5
4D9D
330
1
100
AcDbSymbolTableRecord
100
AcDbBlockTableRecord
  2
*D8
  0
BLOCK_RECORD
  5
5B0B
330
1
100
AcDbSymbolTableRecord
100
AcDbBlockTableRecord
  2
*D9
  0
ENDTAB
  0
ENDSEC
  0
SECTION
  2
BLOCKS
  0
BLOCK
  5
20
330
1F
100
AcDbEntity
  8
0
100
AcDbBlockBegin
  2
*MODEL_SPACE
 70
     0
 10
0.0
 20
0.0
 30
0.0
  3
*MODEL_SPACE
  1

  0
ENDBLK
  5
21
330
1F
100
AcDbEntity
  8
0
100
AcDbBlockEnd
  0
BLOCK
  5
103
330
101
100
AcDbEntity
 67
     1
  8
0
100
AcDbBlockBegin
  2
*PAPER_SPACE
 70
     0
 10
0.0
 20
0.0
 30
0.0
  3
*PAPER_SPACE
  1

  0
ENDBLK
  5
104
330
101
100
AcDbEntity
 67
     1
  8
0
100
AcDbBlockEnd
  0
BLOCK
  5
5D
330
59
100
AcDbEntity
  8
0
100
AcDbBlockBegin
  2
_OPEN30
 70
     0
 10
0.0
 20
0.0
 30
0.0
  3
_OPEN30
  1

  0
LINE
  5
5A
330
59
100
AcDbEntity
  8
0
 62
     0
100
AcDbLine
 10
-1.0
 20
0.26794919
 30
0.0
 11
0.0
 21
0.0
 31
0.0
  0
LINE
  5
5B
330
59
100
AcDbEntity
  8
0
 62
     0
100
AcDbLine
 10
0.0
 20
0.0
 30
0.0
 11
-1.0
 21
-0.26794919
 31
0.0
  0
LINE
  5
5C
330
59
100
AcDbEntity
  8
0
 62
     0
100
AcDbLine
 10
0.0
 20
0.0
 30
0.0
 11
-1.0
 21
0.0
 31
0.0
  0
ENDBLK
  5
5E
330
59
100
AcDbEntity
  8
0
100
AcDbBlockEnd
  0
BLOCK
  5
66
330
64
100
AcDbEntity
  8
0
100
AcDbBlockBegin
  2
GENAXEH
 70
     0
 10
0.0
 20
0.0
 30
0.0
  3
GENAXEH
  1

  0
LINE
  5
65
330
64
100
AcDbEntity
  8
0
100
AcDbLine
 10
-1.0
 20
0.0
 30
0.0
 11
1.0
 21
0.0
 31
0.0
  0
ENDBLK
  5
67
330
64
100
AcDbEntity
  8
0
100
AcDbBlockEnd
  0
BLOCK
  5
CD2
330
CC8
100
AcDbEntity
  8
0
100
AcDbBlockBegin
  2
*D5
 70
     1
 10
0.0
 20
0.0
 30
0.0
  3
*D5
  1

  0
LINE
  5
5BDB
330
CC8
100
AcDbEntity
  8
AM_5
 62
     3
100
AcDbLine
 10
-242.9999999999999
 20
-9.750002054481242
 30
0.0
 11
-242.9999999999999
 21
-35.50001416295808
 31
0.0
  0
LINE
  5
5BDC
330
CC8
100
AcDbEntity
  8
AM_5
 62
     3
100
AcDbLine
 10
-3.999999999999779
 20
-10.25000095276766
 30
0.0
 11
-3.99999999999978
 21
-35.50001416295808
 31
0.0
  0
LINE
  5
5BDD
330
CC8
100
AcDbEntity
  8
AM_5
 62
     3
100
AcDbLine
 10
-240.4999999999999
 20
-34.50001416295808
 30
0.0
 11
-6.49999999999978
 21
-34.50001416295808
 31
0.0
  0
INSERT
  5
5BDE
330
CC8
100
AcDbEntity
  8
AM_5
 62
     3
100
AcDbBlockReference
  2
_OPEN30
 10
-242.9999999999999
 20
-34.50001416295808
 30
0.0
 41
2.5
 42
2.5
 43
2.5
 50
180.0
  0
INSERT
  5
5BDF
330
CC8
100
AcDbEntity
  8
AM_5
 62
     3
100
AcDbBlockReference
  2
_OPEN30
 10
-3.99999999999978
 20
-34.50001416295808
 30
0.0
 41
2.5
 42
2.5
 43
2.5
  0
MTEXT
  5
5BE0
330
CC8
100
AcDbEntity
  8
AM_5
 62
     2
100
AcDbMText
 10
-123.4999999999998
 20
-31.10001416295808
 30
0.0
 40
3.799999999999999
 41
0.0
 71
     5
 72
     1
  1
239
1001
ACAD
1000
MTEXTBEGIN
1070
    73
1070
     1
1070
    44
1040
1.0
1070
    74
1070
     0
1000
MTEXTEND
  0
POINT
  5
5BE1
330
CC8
100
AcDbEntity
  8
DEFPOINTS
 62
     0
100
AcDbPoint
 10
-242.9999999999999
 20
-9.750002054481242
 30
0.0
  0
POINT
  5
5BE2
330
CC8
100
AcDbEntity
  8
DEFPOINTS
 62
     0
100
AcDbPoint
 10
-3.999999999999779
 20
-10.25000095276766
 30
0.0
  0
POINT
  5
5BE3
330
CC8
100
AcDbEntity
  8
DEFPOINTS
 62
     0
100
AcDbPoint
 10
-3.99999999999978
 20
-34.50001416295808
 30
0.0
  0
ENDBLK
  5
CD3
330
CC8
100
AcDbEntity
  8
0
100
AcDbBlockEnd
  0
BLOCK
  5
E00
330
DF6
100
AcDbEntity
  8
0
100
AcDbBlockBegin
  2
*D6
 70
     1
 10
0.0
 20
0.0
 30
0.0
  3
*D6
  1

  0
LINE
  5
5BE4
330
DF6
100
AcDbEntity
  8
AM_5
 62
     3
100
AcDbLine
 10
-171.9999999999997
 20
-10.50000205448113
 30
0.0
 11
-171.9999999999997
 21
-25.50001416295792
 31
0.0
  0
LINE
  5
5BE5
330
DF6
100
AcDbEntity
  8
AM_5
 62
     3
100
AcDbLine
 10
-3.999999999999779
 20
-10.25000095276766
 30
0.0
 11
-3.99999999999978
 21
-25.50001416295792
 31
0.0
  0
LINE
  5
5BE6
330
DF6
100
AcDbEntity
  8
AM_5
 62
     3
100
AcDbLine
 10
-169.4999999999997
 20
-24.50001416295792
 30
0.0
 11
-6.499999999999779
 21
-24.50001416295792
 31
0.0
  0
INSERT
  5
5BE7
330
DF6
100
AcDbEntity
  8
AM_5
 62
     3
100
AcDbBlockReference
  2
_OPEN30
 10
-171.9999999999997
 20
-24.50001416295792
 30
0.0
 41
2.5
 42
2.5
 43
2.5
 50
180.0
  0
INSERT
  5
5BE8
330
DF6
100
AcDbEntity
  8
AM_5
 62
     3
100
AcDbBlockReference
  2
_OPEN30
 10
-3.99999999999978
 20
-24.50001416295792
 30
0.0
 41
2.5
 42
2.5
 43
2.5
  0
MTEXT
  5
5BE9
330
DF6
100
AcDbEntity
  8
AM_5
 62
     2
100
AcDbMText
 10
-87.99999999999975
 20
-21.10001416295792
 30
0.0
 40
3.799999999999999
 41
0.0
 71
     5
 72
     1
  1
168
1001
ACAD
1000
MTEXTBEGIN
1070
    73
1070
     1
1070
    44
1040
1.0
1070
    74
1070
     0
1000
MTEXTEND
  0
POINT
  5
5BEA
330
DF6
100
AcDbEntity
  8
DEFPOINTS
 62
     0
100
AcDbPoint
 10
-171.9999999999997
 20
-10.50000205448113
 30
0.0
  0
POINT
  5
5BEB
330
DF6
100
AcDbEntity
  8
DEFPOINTS
 62
     0
100
AcDbPoint
 10
-3.999999999999779
 20
-10.25000095276766
 30
0.0
  0
POINT
  5
5BEC
330
DF6
100
AcDbEntity
  8
DEFPOINTS
 62
     0
100
AcDbPoint
 10
-3.99999999999978
 20
-24.50001416295792
 30
0.0
  0
ENDBLK
  5
E01
330
DF6
100
AcDbEntity
  8
0
100
AcDbBlockEnd
  0
BLOCK
  5
2221
330
2217
100
AcDbEntity
  8
0
100
AcDbBlockBegin
  2
*D7
 70
     1
 10
0.0
 20
0.0
 30
0.0
  3
*D7
  1

  0
LINE
  5
5BED
330
2217
100
AcDbEntity
  8
AM_5
 62
     3
100
AcDbLine
 10
-242.2500000000008
 20
10.49999999999806
 30
0.0
 11
-260.0000009999999
 21
10.49999999999801
 31
0.0
  0
LINE
  5
5BEE
330
2217
100
AcDbEntity
  8
AM_5
 62
     3
100
AcDbLine
 10
-242.2500000000007
 20
-10.50000205448107
 30
0.0
 11
-260.0000009999998
 21
-10.50000205448112
 31
0.0
  0
LINE
  5
5BEF
330
2217
100
AcDbEntity
  8
AM_5
 62
     3
100
AcDbLine
 10
-259.0000009999998
 20
7.999999999998022
 30
0.0
 11
-259.0000009999998
 21
-8.000002054481116
 31
0.0
  0
INSERT
  5
5BF0
330
2217
100
AcDbEntity
  8
AM_5
 62
     3
100
AcDbBlockReference
  2
_OPEN30
 10
-259.0000009999999
 20
10.49999999999802
 30
0.0
 41
2.5
 42
2.5
 43
2.5
 50
90.00000000000017
  0
INSERT
  5
5BF1
330
2217
100
AcDbEntity
  8
AM_5
 62
     3
100
AcDbBlockReference
  2
_OPEN30
 10
-259.0000009999998
 20
-10.50000205448111
 30
0.0
 41
2.5
 42
2.5
 43
2.5
 50
270.0000000000001
  0
MTEXT
  5
5BF2
330
2217
100
AcDbEntity
  8
AM_5
 62
     2
100
AcDbMText
 10
-262.4000009999998
 20
-0.0000010272415463
 30
0.0
 40
3.799999999999999
 41
0.0
 71
     5
 72
     1
  1
%%c21
 11
-0.0000000000000028
 21
1.0
 31
0.0
1001
ACAD
1000
MTEXTBEGIN
1070
    73
1070
     1
1070
    44
1040
1.0
1070
    74
1070
     0
1000
MTEXTEND
  0
POINT
  5
5BF3
330
2217
100
AcDbEntity
  8
DEFPOINTS
 62
     0
100
AcDbPoint
 10
-242.2500000000007
 20
10.49999999999882
 30
0.0
  0
POINT
  5
5BF4
330
2217
100
AcDbEntity
  8
DEFPOINTS
 62
     0
100
AcDbPoint
 10
-242.2500000000007
 20
-10.50000205448031
 30
0.0
  0
POINT
  5
5BF5
330
2217
100
AcDbEntity
  8
DEFPOINTS
 62
     0
100
AcDbPoint
 10
-259.0000009999998
 20
-10.50000205448031
 30
0.0
  0
ENDBLK
  5
2222
330
2217
100
AcDbEntity
  8
0
100
AcDbBlockEnd
  0
BLOCK
  5
4DA7
330
4D9D
100
AcDbEntity
  8
0
100
AcDbBlockBegin
  2
*D8
 70
     1
 10
0.0
 20
0.0
 30
0.0
  3
*D8
  1

  0
LINE
  5
5C01
330
4D9D
100
AcDbEntity
  8
AM_5
 62
     3
100
AcDbLine
 10
-3.999999999999864
 20
10.24999904723178
 30
0.0
 11
18.5428804829977
 21
10.24999904723184
 31
0.0
  0
LINE
  5
5C02
330
4D9D
100
AcDbEntity
  8
AM_5
 62
     3
100
AcDbLine
 10
-3.999999999999747
 20
-10.25000095276767
 30
0.0
 11
18.54288048299777
 21
-10.25000095276761
 31
0.0
  0
LINE
  5
5C03
330
4D9D
100
AcDbEntity
  8
AM_5
 62
     3
100
AcDbLine
 10
17.54288048299772
 20
7.749999047231843
 30
0.0
 11
17.54288048299776
 21
-7.750000952767615
 31
0.0
  0
INSERT
  5
5C04
330
4D9D
100
AcDbEntity
  8
AM_5
 62
     3
100
AcDbBlockReference
  2
_OPEN30
 10
17.54288048299771
 20
10.24999904723184
 30
0.0
 41
2.5
 42
2.5
 43
2.5
 50
90.00000000000017
  0
INSERT
  5
5C05
330
4D9D
100
AcDbEntity
  8
AM_5
 62
     3
100
AcDbBlockReference
  2
_OPEN30
 10
17.54288048299777
 20
-10.25000095276761
 30
0.0
 41
2.5
 42
2.5
 43
2.5
 50
270.0000000000001
  0
MTEXT
  5
5C06
330
4D9D
100
AcDbEntity
  8
AM_5
 62
     2
100
AcDbMText
 10
14.14288048299774
 20
-0.0000009527678961
 30
0.0
 40
3.799999999999999
 41
0.0
 71
     5
 72
     1
  1
%%c20.5
 11
-0.0000000000000028
 21
1.0
 31
0.0
1001
ACAD
1000
MTEXTBEGIN
1070
    73
1070
     1
1070
    44
1040
1.0
1070
    74
1070
     0
1000
MTEXTEND
  0
POINT
  5
5C07
330
4D9D
100
AcDbEntity
  8
DEFPOINTS
 62
     0
100
AcDbPoint
 10
-3.999999999999832
 20
10.24999904723179
 30
0.0
  0
POINT
  5
5C08
330
4D9D
100
AcDbEntity
  8
DEFPOINTS
 62
     0
100
AcDbPoint
 10
-3.999999999999779
 20
-10.25000095276766
 30
0.0
  0
POINT
  5
5C09
330
4D9D
100
AcDbEntity
  8
DEFPOINTS
 62
     0
100
AcDbPoint
 10
17.54288048299773
 20
-10.25000095276767
 30
0.0
  0
ENDBLK
  5
4DA8
330
4D9D
100
AcDbEntity
  8
0
100
AcDbBlockEnd
  0
BLOCK
  5
5B19
330
5B0B
100
AcDbEntity
  8
0
100
AcDbBlockBegin
  2
*D9
 70
     1
 10
0.0
 20
0.0
 30
0.0
  3
*D9
  1

  0
LINE
  5
5C95
330
5B0B
100
AcDbEntity
  8
AM_5
100
AcDbLine
 10
0.3420211423202152
 20
-0.9396922571809511
 30
0.0
 11
10.50360725680349
 21
-28.85832830313234
 31
0.0
  0
LINE
  5
5C96
330
5B0B
100
AcDbEntity
  8
AM_5
100
AcDbLine
 10
0.342021142320196
 20
0.939692257181122
 30
0.0
 11
10.5036072568029
 21
28.85832830313272
 31
0.0
  0
ARC
  5
5C97
330
5B0B
100
AcDbEntity
  8
AM_5
100
AcDbCircle
 10
0.0000000000000142
 20
0.0000000000000819
 30
0.0
 40
29.71040341409648
100
AcDbArc
 50
294.8226726750938
 51
65.17732732490725
  0
INSERT
  5
5C98
330
5B0B
100
AcDbEntity
  8
AM_5
100
AcDbBlockReference
  2
_OPEN30
 10
10.16158611448329
 20
-27.91863604595131
 30
0.0
 41
2.5
 42
2.5
 43
2.5
 50
202.4113667933472
  0
INSERT
  5
5C99
330
5B0B
100
AcDbEntity
  8
AM_5
100
AcDbBlockReference
  2
_OPEN30
 10
10.16158611448272
 20
27.91863604595168
 30
0.0
 41
2.5
 42
2.5
 43
2.5
 50
157.5886332066539
  0
MTEXT
  5
5C9A
330
5B0B
100
AcDbEntity
  8
AM_5
 62
     2
100
AcDbMText
 10
26.61040341409649
 20
0.0000000000003635
 30
0.0
 40
3.2
 41
0.0
 71
     5
 72
     1
  1
140°
  7
ASAMI
 11
-0.0000000000000028
 21
1.0
 31
0.0
  0
POINT
  5
5C9B
330
5B0B
100
AcDbEntity
  8
DEFPOINTS
 62
     0
100
AcDbPoint
 10
27.28057512684067
 20
-11.7676799657858
 30
0.0
  0
POINT
  5
5C9C
330
5B0B
100
AcDbEntity
  8
DEFPOINTS
 62
     0
100
AcDbPoint
 10
0.0000000000000142
 20
0.0000000000000819
 30
0.0
  0
POINT
  5
5C9D
330
5B0B
100
AcDbEntity
  8
DEFPOINTS
 62
     0
100
AcDbPoint
 10
0.0000000000000142
 20
0.0000000000000819
 30
0.0
  0
POINT
  5
5C9E
330
5B0B
100
AcDbEntity
  8
DEFPOINTS
 62
     0
100
AcDbPoint
 10
-0.7975973227785817
 20
2.191373385513468
 30
0.0
  0
POINT
  5
5C9F
330
5B0B
100
AcDbEntity
  8
DEFPOINTS
 62
     0
100
AcDbPoint
 10
-0.7975973227785492
 20
-2.191373385513316
 30
0.0
  0
ENDBLK
  5
5B1A
330
5B0B
100
AcDbEntity
  8
0
100
AcDbBlockEnd
  0
ENDSEC
  0
SECTION
  2
ENTITIES
  0
LINE
  5
C9F
330
1F
100
AcDbEntity
  8
AM_7
100
AcDbLine
 10
-244.9999999999999
 20
-0.0000000000004388
 30
0.0
 11
3.542879482998912
 21
0.0000000000001083
 31
0.0
1001
GENIUS_GENODEF_13
1002
{
1000
HIER
1070
     0
1002
}
1002
{
1000
MANEDIT
1070
     0
1002
}
1002
{
1000
NOSEL
1070
     0
1002
}
1002
{
1000
BEHIND
1070
     0
1002
}
1002
{
1000
REACTOR
1002
}
1001
GENIUS_GENOBJ-N-CEN_13
1002
{
1000
OWNER
1000
GEN
1002
}
  0
DIMENSION
  5
CC6
330
1F
100
AcDbEntity
  8
AM_5
100
AcDbDimension
  2
*D5
 10
-3.99999999999978
 20
-34.50001416295808
 30
0.0
 11
-123.4999999999998
 21
-31.10001416295808
 31
0.0
 70
    32
  1
<>
  3
AM_JIS$0
100
AcDbAlignedDimension
 13
-242.9999999999999
 23
-9.750002054481242
 33
0.0
 14
-3.999999999999779
 24
-10.25000095276766
 34
0.0
 50
0.0000000000001132
100
AcDbRotatedDimension
1001
GENIUS_GENDTOL_13
1000

1000
h7
1000

1040
0.0
1001
ACAD
1000
DSTYLE
1002
{
1070
   271
1070
     0
1002
}
  0
DIMENSION
  5
DF5
330
1F
100
AcDbEntity
  8
AM_5
100
AcDbDimension
  2
*D6
 10
-3.99999999999978
 20
-24.50001416295792
 30
0.0
 11
-87.99999999999975
 21
-21.10001416295792
 31
0.0
 70
    32
  1
<>
  3
AM_JIS$0
100
AcDbAlignedDimension
 13
-171.9999999999997
 23
-10.50000205448113
 33
0.0
 14
-3.999999999999779
 24
-10.25000095276766
 34
0.0
 50
0.0000000000001527
100
AcDbRotatedDimension
1001
GENIUS_GENDTOL_13
1000

1000
h7
1000

1040
0.0
1001
ACAD
1000
DSTYLE
1002
{
1070
   271
1070
     0
1002
}
  0
TEXT
  5
19BD
330
1F
100
AcDbEntity
  8
AM_6
100
AcDbText
 10
-145.1666666666664
 20
-57.00001416295815
 30
0.0
 40
5.0
  1
MDW205LHK
 50
0.0000000000001527
 72
     4
 11
-123.4999999999997
 21
-54.50001416295808
 31
0.0
100
AcDbText
  0
LINE
  5
1E25
330
1F
100
AcDbEntity
  8
AM_0
100
AcDbLine
 10
-171.9999999999996
 20
-10.50001316295836
 30
0.0
 11
-171.5645089164228
 21
-10.2485822686255
 31
0.0
  0
LINE
  5
1E26
330
1F
100
AcDbEntity
  8
AM_0
100
AcDbLine
 10
-171.5617930487514
 20
10.2469899902585
 30
0.0
 11
-172.0000192404466
 21
10.4999999999997
 31
0.0
  0
LINE
  5
1FD9
330
1F
100
AcDbEntity
  8
AM_0
100
AcDbLine
 10
-171.561785688022
 20
-10.24858250966367
 30
0.0
 11
-171.5617930487514
 21
10.24698999025851
 31
0.0
  0
LINE
  5
21D7
330
1F
100
AcDbEntity
  8
AM_0
 48
0.5
100
AcDbLine
 10
-171.9999999999997
 20
-10.50000205448113
 30
0.0
 11
-171.9999999999997
 21
10.49999999999971
 31
0.0
  0
LINE
  5
21D8
330
1F
100
AcDbEntity
  8
AM_0
 48
0.5
100
AcDbLine
 10
-242.25
 20
10.49999999999956
 30
0.0
 11
-171.9999999999997
 21
10.49999999999971
 31
0.0
1001
GENIUS_GENODEF_13
1002
{
1000
HIER
1070
     0
1002
}
1002
{
1000
MANEDIT
1070
     0
1002
}
1002
{
1000
NOSEL
1070
     0
1002
}
1002
{
1000
BEHIND
1070
     0
1002
}
1002
{
1000
REACTOR
1002
}
1001
GENIUS_GENOBJ-N-CEN_13
1002
{
1000
OWNER
1000
GEN
1002
}
  0
LINE
  5
21D9
330
1F
100
AcDbEntity
  8
AM_0
 48
0.5
100
AcDbLine
 10
-242.2499999999998
 20
-10.50000205448126
 30
0.0
 11
-171.9999999999997
 21
-10.50000205448113
 31
0.0
1001
GENIUS_GENODEF_13
1002
{
1000
HIER
1070
     0
1002
}
1002
{
1000
MANEDIT
1070
     0
1002
}
1002
{
1000
NOSEL
1070
     0
1002
}
1002
{
1000
BEHIND
1070
     0
1002
}
1002
{
1000
REACTOR
1002
}
1001
GENIUS_GENOBJ-N-CEN_13
1002
{
1000
OWNER
1000
GEN
1002
}
  0
LINE
  5
21DC
330
1F
100
AcDbEntity
  8
AM_0
100
AcDbLine
 10
-242.2500000000007
 20
-10.50000205448031
 30
0.0
 11
-242.2500000000007
 21
10.49999999999885
 31
0.0
  0
LINE
  5
21DD
330
1F
100
AcDbEntity
  8
AM_0
 48
0.5
100
AcDbLine
 10
-242.9999999999999
 20
-9.750002054481269
 30
0.0
 11
-243.0000000000001
 21
9.74999999999952
 31
0.0
  0
DIMENSION
  5
2216
330
1F
100
AcDbEntity
  8
AM_5
100
AcDbDimension
  2
*D7
 10
-259.0000009999998
 20
-10.50000205448031
 30
0.0
 11
-262.4000009999998
 21
-0.0000010272407828
 31
0.0
 70
    32
  1
%%c<>
 51
359.9999999999998
  3
AM_JIS$0
100
AcDbAlignedDimension
 13
-242.2500000000007
 23
10.49999999999882
 33
0.0
 14
-242.2500000000007
 24
-10.50000205448031
 34
0.0
 50
269.9999999999999
100
AcDbRotatedDimension
1001
ACAD
1000
DSTYLE
1002
{
1070
   271
1070
     0
1002
}
1001
GENIUS_GENDTOL_13
1000

1000
h7
1000

1040
0.0
  0
LINE
  5
4D3D
330
1F
100
AcDbEntity
  8
AM_0
 48
0.5
100
AcDbLine
 10
-2.383333922482038
 20
6.513893356283876
 30
0.0
 11
-3.999999999999832
 21
10.24999904723179
 31
0.0
  0
LINE
  5
4D3F
330
1F
100
AcDbEntity
  8
AM_0
 48
0.5
100
AcDbLine
 10
0.0000000000000142
 20
0.0000000000000819
 30
0.0
 11
-0.7975973227785817
 21
2.191373385513468
 31
0.0
  0
ELLIPSE
  5
4D44
330
1F
100
AcDbEntity
  8
AM_0
 48
0.5
100
AcDbEllipse
 10
11.13856039513743
 20
8.995919688554586
 30
0.0
 11
-8.686345669214729
 21
10.69661724298865
 31
0.0
210
0.0
220
0.0
230
1.0
 40
0.9970295268095405
 41
1.07152878000935
 42
1.407348049653516
  0
LINE
  5
4D4B
330
1F
100
AcDbEntity
  8
AM_0
 48
0.5
100
AcDbLine
 10
-2.383333922482038
 20
-6.513893356283697
 30
0.0
 11
-3.999999999999747
 21
-10.25000095276767
 31
0.0
  0
DIMENSION
  5
4D9C
330
1F
100
AcDbEntity
  8
AM_5
100
AcDbDimension
  2
*D8
 10
17.54288048299773
 20
-10.25000095276767
 30
0.0
 11
14.14288048299774
 21
-0.0000009527679372
 31
0.0
 70
    32
  1
%%c<>
 51
359.9999999999998
  3
AM_JIS$0
100
AcDbAlignedDimension
 13
-3.999999999999832
 23
10.24999904723179
 33
0.0
 14
-3.999999999999779
 24
-10.25000095276766
 34
0.0
 50
89.99999999999635
100
AcDbRotatedDimension
1001
ACAD
1000
DSTYLE
1002
{
1070
   271
1070
     1
1002
}
1001
GENIUS_GENDTOL_13
1000

1000
h7
1000

1040
0.0
  0
LINE
  5
53F6
330
1F
100
AcDbEntity
  8
AM_0
 48
0.5
100
AcDbLine
 10
-242.25
 20
10.49999999999956
 30
0.0
 11
-243.0
 21
9.749999999999559
 31
0.0
1001
GENIUS_GENFIL_13
1070
     0
1040
0.75
1040
0.75
1040
20.0
1040
0.0
1002
{
1002
}
1001
GENIUS_GENODEF_13
1002
{
1000
HIER
1070
     0
1002
}
1002
{
1000
MANEDIT
1070
     0
1002
}
1002
{
1000
NOSEL
1070
     0
1002
}
1002
{
1000
BEHIND
1070
     0
1002
}
1002
{
1000
REACTOR
1002
}
1001
GENIUS_GENOBJ-N-CHA_13
1002
{
1000
OWNER
1000
GEN
1002
}
  0
LINE
  5
53FC
330
1F
100
AcDbEntity
  8
AM_0
 48
0.5
100
AcDbLine
 10
-242.9999999999998
 20
-9.750002054481271
 30
0.0
 11
-242.2499999999998
 21
-10.50000205448126
 31
0.0
1001
GENIUS_GENFIL_13
1070
     0
1040
0.75
1040
0.75
1040
20.0
1040
0.0
1002
{
1002
}
1001
GENIUS_GENODEF_13
1002
{
1000
HIER
1070
     0
1002
}
1002
{
1000
MANEDIT
1070
     0
1002
}
1002
{
1000
NOSEL
1070
     0
1002
}
1002
{
1000
BEHIND
1070
     0
1002
}
1002
{
1000
REACTOR
1002
}
1001
GENIUS_GENOBJ-N-CHA_13
1002
{
1000
OWNER
1000
GEN
1002
}
  0
LINE
  5
5735
330
1F
100
AcDbEntity
  8
AM_0
100
AcDbLine
 10
-164.4783371706228
 20
-10.24919373330956
 30
0.0
 11
-171.5645089164228
 21
-10.2485822686255
 31
0.0
  0
LINE
  5
5736
330
1F
100
AcDbEntity
  8
AM_0
100
AcDbLine
 10
-156.5407138129337
 20
10.24698999025652
 30
0.0
 11
-171.5617930487514
 21
10.24698999025851
 31
0.0
  0
LINE
  5
5737
330
1F
100
AcDbEntity
  8
AM_0
 48
0.5
100
AcDbLine
 10
-11.66038996547879
 20
10.24999904723246
 30
0.0
 11
-3.999999999999833
 21
10.24999904723178
 31
0.0
  0
LINE
  5
5738
330
1F
100
AcDbEntity
  8
AM_0
 48
0.5
100
AcDbLine
 10
-0.0000000000000142
 20
0.0000000000000038
 30
0.0
 11
-8.123531507944207
 21
3.987712729304572
 31
0.0
  0
LINE
  5
5739
330
1F
100
AcDbEntity
  8
AM_11
 48
0.5
100
AcDbLine
 10
-87.77718719589161
 20
10.25145524575757
 30
0.0
 11
-70.17903989685056
 21
10.24999904723775
 31
0.0
  0
LINE
  5
573A
330
1F
100
AcDbEntity
  8
AM_0
 48
0.5
100
AcDbLine
 10
-70.17906364816887
 20
10.24999904723775
 30
0.0
 11
-39.23670543381673
 21
10.24999904723495
 31
0.0
  0
LINE
  5
573B
330
1F
100
AcDbEntity
  8
AM_11
 48
0.5
100
AcDbLine
 10
-39.23670543381673
 20
10.24999904723495
 30
0.0
 11
-11.66038996547879
 21
10.24999904723246
 31
0.0
  0
SPLINE
  5
573C
330
1F
100
AcDbEntity
  8
AM_0
 48
0.5
100
AcDbSpline
210
0.0
220
0.0
230
1.0
 70
     8
 71
     3
 72
    10
 73
     6
 74
     0
 42
0.0000000001
 43
0.0000000001
 40
0.0
 40
0.0
 40
0.0
 40
0.0
 40
2.69986029516136
 40
4.147722969032201
 40
6.285750005020438
 40
6.285750005020438
 40
6.285750005020438
 40
6.285750005020438
 10
-13.36744471846353
 20
1.855194410595054
 30
0.0
 10
-12.32554963330992
 20
0.9028985799026388
 30
0.0
 10
-10.72491415459344
 20
-0.5600879669773713
 30
0.0
 10
-6.939626264662512
 20
0.1481694497289675
 30
0.0
 10
-7.652506076222826
 20
2.533674145602532
 30
0.0
 10
-8.123531507944207
 20
3.987712729304572
 30
0.0
  0
SPLINE
  5
573D
330
1F
100
AcDbEntity
  8
AM_0
 48
0.5
100
AcDbSpline
210
0.0
220
0.0
230
1.0
 70
     8
 71
     3
 72
    25
 73
    21
 74
     0
 42
0.0000000001
 43
0.0000000001
 40
6.846175049578289
 40
6.846175049578289
 40
6.846175049578289
 40
6.846175049578289
 40
7.604337694224321
 40
8.711974558287883
 40
9.814980593243754
 40
10.91239053451967
 40
12.0033633515982
 40
13.08720139956839
 40
14.16337181880432
 40
15.23152222380919
 40
16.29148850140128
 40
17.34331105512262
 40
18.38723020264746
 40
19.42369128463655
 40
20.45333379090873
 40
21.47697865721768
 40
22.49561244472435
 40
23.5103574802404
 40
24.52244778960836
 40
25.53320666051913
 40
25.53320666051913
 40
25.53320666051913
 40
25.53320666051913
 10
-13.36767876561915
 20
1.855316152453712
 30
0.0
 10
-13.700229256129
 20
2.035287922895854
 30
0.0
 10
-14.51931887995615
 20
2.476388317361637
 30
0.0
 10
-15.82616489138616
 20
3.169074725203987
 30
0.0
 10
-17.28847377512181
 20
3.924641932405224
 30
0.0
 10
-18.75085619932097
 20
4.656068975197904
 30
0.0
 10
-20.21332472857401
 20
5.358858628794334
 30
0.0
 10
-21.67589565838949
 20
6.028675033683844
 30
0.0
 10
-23.13858251295449
 20
6.661387499003209
 30
0.0
 10
-24.60139206373876
 20
7.253107548689437
 30
0.0
 10
-26.06434232880333
 20
7.800152719899577
 30
0.0
 10
-27.52743132713892
 20
8.299168511090497
 30
0.0
 10
-28.99066956780682
 20
8.747041068949974
 30
0.0
 10
-30.45405188697195
 20
9.140998580046046
 30
0.0
 10
-31.91757256792335
 20
9.478626366699092
 30
0.0
 10
-33.38122346685641
 20
9.757686475334841
 30
0.0
 10
-34.84498180995071
 20
9.97690172244132
 30
0.0
 10
-36.30883146510388
 20
10.13329462107896
 30
0.0
 10
-37.77274866962489
 20
10.23170913176783
 30
0.0
 10
-38.74893402067835
 20
10.24390508453622
 30
0.0
 10
-39.23670543381672
 20
10.24999904723495
 30
0.0
  0
SPLINE
  5
573F
330
1F
100
AcDbEntity
  8
AM_0
 48
0.5
100
AcDbSpline
210
0.0
220
0.0
230
1.0
 70
     8
 71
     3
 72
    17
 73
    13
 74
     0
 42
0.0000000001
 43
0.0000000001
 40
0.0
 40
0.0
 40
0.0
 40
0.0
 40
1.010743614677189
 40
2.022833924044153
 40
3.037578959561199
 40
4.056212747067873
 40
5.079857613375832
 40
6.109500119648989
 40
7.14596120163808
 40
8.18989512056258
 40
9.241717674284874
 40
9.693948937866434
 40
9.693948937866434
 40
9.693948937866434
 40
9.693948937866434
 10
-11.66038996547878
 20
10.24999904723245
 30
0.0
 10
-12.14815401138286
 20
10.24390494043078
 30
0.0
 10
-13.12433199030485
 20
10.23170860716082
 30
0.0
 10
-14.58824185656059
 20
10.13329466745111
 30
0.0
 10
-16.05209145449688
 20
9.976901566657565
 30
0.0
 10
-17.51585001344596
 20
9.757687055487641
 30
0.0
 10
-18.9795001004675
 20
9.478624185888895
 30
0.0
 10
-20.44302383852253
 20
9.14100679319729
 30
0.0
 10
-21.90640158466276
 20
8.747008232223567
 30
0.0
 10
-23.36969012381894
 20
8.299281002750646
 30
0.0
 10
-24.55089478974375
 20
7.895946448134642
 30
0.0
 10
-25.24456742487974
 20
7.643804349452774
 30
0.0
 10
-25.45277073395062
 20
7.566625340959554
 30
0.0
  0
SPLINE
  5
5740
330
1F
100
AcDbEntity
  8
AM_0
100
AcDbSpline
210
0.0
220
0.0
230
1.0
 70
     8
 71
     3
 72
    23
 73
    19
 74
     0
 42
0.0000000001
 43
0.0000000001
 40
16.03460024169435
 40
16.03460024169435
 40
16.03460024169435
 40
16.03460024169435
 40
16.35212704903564
 40
17.38177054169784
 40
18.41822485651776
 40
19.46214173629503
 40
20.51396345435107
 40
21.57393551351153
 40
22.64208202342361
 40
23.7182574881101
 40
24.80209208578934
 40
25.89306333925047
 40
26.99048218457928
 40
28.09348763352352
 40
29.20111863782268
 40
30.31232390128032
 40
31.42594612798585
 40
32.5407912310448
 40
32.5407912310486
 40
32.5407912310486
 40
32.5407912310486
 10
-87.77718719589159
 20
10.25145524575757
 30
0.0
 10
-87.62678832117433
 20
10.2168530507786
 30
0.0
 10
-86.98933180247754
 20
10.06617023064627
 30
0.0
 10
-85.86644527985685
 20
9.770930241694454
 30
0.0
 10
-84.4123042935174
 20
9.331911606836174
 30
0.0
 10
-82.95951398172418
 20
8.838966856888196
 30
0.0
 10
-81.50798849793909
 20
8.294948904635193
 30
0.0
 10
-80.05767632495038
 20
7.70289066233992
 30
0.0
 10
-78.60849363819037
 20
7.066176584594082
 30
0.0
 10
-77.16033952208483
 20
6.3885121876195
 30
0.0
 10
-75.71313168731577
 20
5.673735045385892
 30
0.0
 10
-74.26675410598327
 20
4.926004279537096
 30
0.0
 10
-72.82108956535868
 20
4.149666024340078
 30
0.0
 10
-71.37604174493688
 20
3.349183899300366
 30
0.0
 10
-69.93148973932195
 20
2.529212598353494
 30
0.0
 10
-68.48729975240456
 20
1.694540152319242
 30
0.0
 10
-67.04335418635224
 20
0.8500032620010388
 30
0.0
 10
-66.08098237116752
 20
0.2837874558425617
 30
0.0
 10
-65.5995340188446
 20
0.0005203891946141
 30
0.0
  0
ELLIPSE
  5
5741
330
1F
100
AcDbEntity
  8
AM_0
 48
0.5
100
AcDbEllipse
 10
-17.72466352417171
 20
17.2032149641838
 30
0.0
 11
34.80292032929301
 21
13.30070179477669
 31
0.0
210
0.0
220
0.0
230
1.0
 40
0.6280406546484692
 41
-1.548944531344574
 42
-1.470113452480735
  0
ELLIPSE
  5
5742
330
1F
100
AcDbEntity
  8
AM_0
 48
0.5
100
AcDbEllipse
 10
-5.276764334790516
 20
-2.671298502970128
 30
0.0
 11
-0.2300800162574843
 21
1.686042283580174
 31
0.0
210
0.0
220
0.0
230
1.0
 40
0.4270267538725231
 41
1.83558973909766
 42
4.970931628809641
  0
ELLIPSE
  5
5743
330
1F
100
AcDbEntity
  8
AM_0
 48
0.5
100
AcDbEllipse
 10
-5.276764334790516
 20
-2.671298502970128
 30
0.0
 11
-1.207386877157377
 21
0.9289384727619731
 31
0.0
210
0.0
220
0.0
230
1.0
 40
0.5328310723594109
 41
4.591856131186077
 42
7.73529647251558
  0
ELLIPSE
  5
5744
330
1F
100
AcDbEntity
  8
AM_0
 48
0.5
100
AcDbEllipse
 10
-26.90164948453416
 20
70.35841202627691
 30
0.0
 11
0.001611103439534
 21
76.84853900812505
 31
0.0
210
0.0
220
0.0
230
1.0
 40
0.8703499881698824
 41
3.480476384349714
 42
3.555542629429528
  0
ELLIPSE
  5
5745
330
1F
100
AcDbEntity
  8
AM_0
 48
0.5
100
AcDbEllipse
 10
1.733381770428552
 20
12.30575466246558
 30
0.0
 11
0.0000000000004265
 21
20.65830874443027
 31
0.0
210
0.0
220
0.0
230
1.0
 40
0.8474093921320456
 41
2.101163880028919
 42
2.50928481022381
  0
LINE
  5
5746
330
1F
100
AcDbEntity
  8
AM_0
 48
0.5
100
AcDbLine
 10
-11.66038996548033
 20
-10.25000095276754
 30
0.0
 11
-3.999999999999777
 21
-10.25000095276766
 31
0.0
  0
LINE
  5
5747
330
1F
100
AcDbEntity
  8
AM_0
 48
0.5
100
AcDbLine
 10
-63.77533642104028
 20
-10.25000095276303
 30
0.0
 11
-39.23670543381829
 21
-10.25000095276502
 31
0.0
  0
LINE
  5
5748
330
1F
100
AcDbEntity
  8
AM_11
 48
0.5
100
AcDbLine
 10
-91.35165188937477
 20
-10.2500009527605
 30
0.0
 11
-63.77533642104028
 21
-10.25145715128121
 31
0.0
  0
LINE
  5
5749
330
1F
100
AcDbEntity
  8
AM_11
 48
0.5
100
AcDbLine
 10
-39.23670543381829
 20
-10.25000095276502
 30
0.0
 11
-11.66038996548033
 21
-10.25000095276754
 31
0.0
  0
SPLINE
  5
574A
330
1F
100
AcDbEntity
  8
AM_0
100
AcDbSpline
210
0.0
220
0.0
230
1.0
 70
     8
 71
     3
 72
    11
 73
     7
 74
     0
 42
0.0000000001
 43
0.0000000001
 40
11.27226913003534
 40
11.27226913003534
 40
11.27226913003534
 40
11.2722691300354
 40
12.28301561507924
 40
13.29510212255852
 40
14.30984805882082
 40
15.18258238371378
 40
15.18258238371378
 40
15.18258238371378
 40
15.18258238371378
 10
-39.23670543381822
 20
-10.25000095276503
 30
0.0
 10
-39.72261466584797
 20
-10.19983447413445
 30
0.0
 10
-40.69351661269691
 20
-10.07838361270409
 30
0.0
 10
-42.14485597631896
 20
-9.833387184399777
 30
0.0
 10
-43.52220262349432
 20
-9.540765813600986
 30
0.0
 10
-44.41298958626116
 20
-9.315819056897311
 30
0.0
 10
-44.82348958383966
 20
-9.204701572339009
 30
0.0
  0
SPLINE
  5
574B
330
1F
100
AcDbEntity
  8
AM_0
100
AcDbSpline
210
0.0
220
0.0
230
1.0
 70
     8
 71
     3
 72
    11
 73
     7
 74
     0
 42
0.0000000001
 43
0.0000000001
 40
11.27226913003534
 40
11.27226913003534
 40
11.27226913003534
 40
11.2722691300354
 40
12.28301561507924
 40
13.29510212255852
 40
14.30984805882082
 40
15.18258238371378
 40
15.18258238371378
 40
15.18258238371378
 40
15.18258238371378
 10
-91.35165188937824
 20
-10.25000095276051
 30
0.0
 10
-91.83756112140793
 20
-10.19983447412993
 30
0.0
 10
-92.80846306825685
 20
-10.07838361269957
 30
0.0
 10
-94.25980243187888
 20
-9.833387184395261
 30
0.0
 10
-95.63714907905426
 20
-9.540765813596475
 30
0.0
 10
-96.52793604182104
 20
-9.315819056892795
 30
0.0
 10
-96.93843603939956
 20
-9.20470157233449
 30
0.0
  0
SPLINE
  5
574C
330
1F
100
AcDbEntity
  8
AM_0
100
AcDbSpline
210
0.0
220
0.0
230
1.0
 70
     8
 71
     3
 72
    55
 73
    51
 74
     0
 42
0.0000000001
 43
0.0000000001
 40
0.0
 40
0.0
 40
0.0
 40
0.0
 40
1.010743684496582
 40
2.022833576467832
 40
3.037578957496688
 40
4.056212745003489
 40
5.079857003664532
 40
6.109500240690281
 40
7.145961322679372
 40
8.189895241603872
 40
9.241717795325891
 40
10.30168407291828
 40
11.36983447792315
 40
12.44600489715814
 40
13.52984294512926
 40
14.62081576220742
 40
15.7182257034828
 40
16.82123173843959
 40
17.92886860250316
 40
19.0400688939571
 40
20.15368796660465
 40
21.26852814259644
 40
22.38336992938901
 40
23.49698739941135
 40
24.6081876908653
 40
25.71582455492886
 40
26.81883757994213
 40
27.91624752121713
 40
29.00722033829659
 40
30.09105838626677
 40
31.16722880550176
 40
32.23537921050758
 40
33.29534548809967
 40
34.347168041821
 40
35.39108718934584
 40
36.42754827133493
 40
37.45720575381954
 40
38.48085062012849
 40
39.49948440763516
 40
40.51422944315121
 40
41.52631975251916
 40
42.53706336719636
 40
43.54780698187354
 40
44.55989729124051
 40
45.57464232675757
 40
46.59327611426424
 40
47.6169209805722
 40
48.64656348684535
 40
49.68302456883444
 40
50.58557219878025
 40
50.58557219878025
 40
50.58557219878025
 40
50.58557219878025
 10
-11.66038996548032
 20
-10.25000095276753
 30
0.0
 10
-12.14815392261719
 20
-10.24390245108891
 30
0.0
 10
-13.12433148872163
 20
-10.23169732514964
 30
0.0
 10
-14.5882425882552
 20
-10.13331030810585
 30
0.0
 10
-16.05209119894354
 20
-9.976900652562578
 30
0.0
 10
-17.51584921177451
 20
-9.757686571611619
 30
0.0
 10
-18.97950202074735
 20
-9.478638836340007
 30
0.0
 10
-20.44302075126464
 20
-9.140998327557211
 30
0.0
 10
-21.90641029873166
 20
-8.747039512075676
 30
0.0
 10
-23.36965768584053
 20
-8.299174805186575
 30
0.0
 10
-24.8327529452098
 20
-7.800154069020943
 30
0.0
 10
-26.29570336956049
 20
-7.253109605155275
 30
0.0
 10
-27.75851287696559
 20
-6.661389363211337
 30
0.0
 10
-29.22119974405817
 20
-6.028676952002399
 30
0.0
 10
-30.68377066756355
 20
-5.358860524857994
 30
0.0
 10
-32.14623920951855
 20
-4.656070905930449
 30
0.0
 10
-33.6086215888972
 20
-3.924643745931145
 30
0.0
 10
-35.07093064034804
 20
-3.169076975830467
 30
0.0
 10
-36.53318055574704
 20
-2.394017625187249
 30
0.0
 10
-37.9953869817897
 20
-1.604236092223056
 30
0.0
 10
-39.45756274341807
 20
-0.8045876292307807
 30
0.0
 10
-40.91972848881908
 20
-0.0000030441372219
 30
0.0
 10
-42.38188767031934
 20
0.804596023980293
 30
0.0
 10
-43.84406833284221
 20
1.604232034330878
 30
0.0
 10
-45.30627295377135
 20
2.394015957918807
 30
0.0
 10
-46.7685254763458
 20
3.169078261192692
 30
0.0
 10
-48.23084059415609
 20
3.924638583153883
 30
0.0
 10
-49.69322528156049
 20
4.656069452506583
 30
0.0
 10
-51.15569403464726
 20
5.358858501544212
 30
0.0
 10
-52.61826490493439
 20
6.028675069548484
 30
0.0
 10
-54.08095177577233
 20
6.66138748168295
 30
0.0
 10
-55.54376132043632
 20
7.253107582137658
 30
0.0
 10
-57.00671159379457
 20
7.800152604586044
 30
0.0
 10
-58.46980056531787
 20
8.299168934404974
 30
0.0
 10
-59.93303890393175
 20
8.747039507204338
 30
0.0
 10
-61.39642790855713
 20
9.141006244702044
 30
0.0
 10
-62.85995708908869
 20
9.478608190251794
 30
0.0
 10
-64.32361473355683
 20
9.757742296696436
 30
0.0
 10
-65.78737318031115
 20
9.976696527648968
 30
0.0
 10
-67.251222808126
 20
10.13405600205294
 30
0.0
 10
-68.7151326664374
 20
10.22887671753083
 30
0.0
 10
-70.17907469328015
 20
10.26055318104457
 30
0.0
 10
-71.64301671796891
 20
10.22887671748143
 30
0.0
 10
-73.10692658275482
 20
10.13405600225268
 30
0.0
 10
-74.57077618673237
 20
9.97669652689882
 30
0.0
 10
-76.03453472285846
 20
9.757742299519048
 30
0.0
 10
-77.49818489573449
 20
9.478609540466722
 30
0.0
 10
-78.96170831051815
 20
9.141009696500971
 30
0.0
 10
-80.35856019290964
 20
8.764923102869829
 30
0.0
 10
-81.26485360200662
 20
8.489887421547491
 30
0.0
 10
-81.68532092122729
 20
8.355849116990576
 30
0.0
  0
SPLINE
  5
574D
330
1F
100
AcDbEntity
  8
AM_0
100
AcDbSpline
210
0.0
220
0.0
230
1.0
 70
     8
 71
     3
 72
    46
 73
    42
 74
     0
 42
0.0000000001
 43
0.0000000001
 40
0.0
 40
0.0
 40
0.0
 40
0.0
 40
1.348332046947657
 40
2.024828967632895
 40
2.703918159304097
 40
3.386347665078124
 40
4.072776489761952
 40
4.763750544421347
 40
5.459696642770596
 40
6.160921452191754
 40
6.867565637253344
 40
7.579665907256596
 40
8.297112853413899
 40
9.019671552060676
 40
9.746986763446127
 40
10.47859339096366
 40
11.21393074760089
 40
11.95235532364328
 40
12.69315551794651
 40
13.43556823304427
 40
14.1787950170388
 40
14.92202180103393
 40
15.66443451613169
 40
16.40523471043432
 40
17.14365928647669
 40
17.87899664311455
 40
18.61060327063121
 40
19.3379184820169
 40
20.06048192311554
 40
20.77792886927283
 40
21.49002913927608
 40
22.19667332433747
 40
22.89788836015233
 40
23.59383445850158
 40
24.28480851316097
 40
24.97123685067576
 40
25.65366676154838
 40
26.33276604526152
 40
27.00926273560555
 40
27.68398960851751
 40
28.357818684969
 40
28.357818684969
 40
28.357818684969
 40
28.357818684969
 10
-7.562433605348677
 20
-10.25000095276789
 30
0.0
 10
-8.538658865933296
 20
-10.22665066043344
 30
0.0
 10
-10.00468438319479
 20
-10.19158485566485
 30
0.0
 10
-11.95412244428554
 20
-9.975691137636246
 30
0.0
 10
-13.41789618367764
 20
-9.758012839588671
 30
0.0
 10
-14.8815448052608
 20
-9.478550881011987
 30
0.0
 10
-16.34506445328336
 20
-9.14102136879303
 30
0.0
 10
-17.80844760935789
 20
-8.747037981548546
 30
0.0
 10
-19.27169182253749
 20
-8.299167270947281
 30
0.0
 10
-20.73479058086855
 20
-7.800159229451408
 30
0.0
 10
-22.19774680873459
 20
-7.253108889988157
 30
0.0
 10
-23.66055657122822
 20
-6.661389557036021
 30
0.0
 10
-25.12324336917089
 20
-6.02867689944499
 30
0.0
 10
-26.58581431151281
 20
-5.358860539303115
 30
0.0
 10
-28.0482828479579
 20
-4.656070901197753
 30
0.0
 10
-29.5106652303792
 20
-3.924643750321835
 30
0.0
 10
-30.97297427517004
 20
-3.169076962951204
 30
0.0
 10
-32.43522421428684
 20
-2.394017672558843
 30
0.0
 10
-33.89743055174753
 20
-1.604235914923759
 30
0.0
 10
-35.35960664490237
 20
-0.804588292687532
 30
0.0
 10
-36.8217704467469
 20
-0.0000009529280537
 30
0.0
 10
-38.28393424827022
 20
0.8045863878091621
 30
0.0
 10
-39.74611034238854
 20
1.604234007113616
 30
0.0
 10
-41.20831667632747
 20
2.394015775463032
 30
0.0
 10
-42.67056662850307
 20
3.169075026119803
 30
0.0
 10
-44.13287562487335
 20
3.924641960826019
 30
0.0
 10
-45.59525818661248
 20
4.656068566066389
 30
0.0
 10
-47.05772923910782
 20
5.35886175031747
 30
0.0
 10
-48.52030586429486
 20
6.028672024838168
 30
0.0
 10
-49.98299527144659
 20
6.661387926763036
 30
0.0
 10
-51.44580499988181
 20
7.253107435783134
 30
0.0
 10
-52.90875521808992
 20
7.800152748321269
 30
0.0
 10
-54.3718442280948
 20
8.299168509048856
 30
0.0
 10
-55.83508246840965
 20
8.747041049250983
 30
0.0
 10
-57.29846477755486
 20
9.140998660033893
 30
0.0
 10
-58.76198549854049
 20
9.478626069112118
 30
0.0
 10
-60.22564346124209
 20
9.757688952428496
 30
0.0
 10
-61.6894096581792
 20
9.976899665142699
 30
0.0
 10
-63.15326641761862
 20
10.13329496587873
 30
0.0
 10
-64.61717631396947
 20
10.23170853275676
 30
0.0
 10
-65.59335428888686
 20
10.24390491564375
 30
0.0
 10
-66.08111833278977
 20
10.24999904723739
 30
0.0
  0
SPLINE
  5
574E
330
1F
100
AcDbEntity
  8
AM_0
100
AcDbSpline
210
0.0
220
0.0
230
1.0
 70
     8
 71
     3
 72
    22
 73
    18
 74
     0
 42
0.0000000001
 43
0.0000000001
 40
17.17441611292
 40
17.17441611292
 40
17.17441611292
 40
17.17441611292
 40
17.38177636558528
 40
18.41823744757437
 40
19.46215659509824
 40
20.51397914882054
 40
21.57394542641293
 40
22.64209583141747
 40
23.71826625065247
 40
24.80210429862395
 40
25.8930771157021
 40
26.99048705697709
 40
28.09349309193389
 40
29.20112995599786
 40
30.31233024745139
 40
31.42594771747373
 40
32.5407895042663
 40
32.54078950426994
 40
32.54078950426994
 40
32.54078950426994
 10
-44.82412980262096
 20
-9.204575138667388
 30
0.0
 10
-44.92215537470992
 20
-9.180847394005512
 30
0.0
 10
-45.50976514450019
 20
-9.036319107763665
 30
0.0
 10
-46.58623313107731
 20
-8.74652108307348
 30
0.0
 10
-48.04947126045653
 20
-8.298649223538415
 30
0.0
 10
-49.5125602889419
 20
-7.799633243104581
 30
0.0
 10
-50.97551054585991
 20
-7.25258812325441
 30
0.0
 10
-52.43832009875498
 20
-6.660868059388916
 30
0.0
 10
-53.90100695311651
 20
-6.028155598896224
 30
0.0
 10
-55.3635778815958
 20
-5.358339188982819
 30
0.0
 10
-56.82604641645174
 20
-4.655549550746949
 30
0.0
 10
-58.28842881940736
 20
-3.924122451102153
 30
0.0
 10
-59.75073778305957
 20
-3.168555457403035
 30
0.0
 10
-61.21298802791226
 20
-2.39349694547032
 30
0.0
 10
-62.67519251554097
 20
-1.603712647836604
 30
0.0
 10
-64.13737290723382
 20
-0.8040759605030205
 30
0.0
 10
-65.11196849602871
 20
-0.2677765963031314
 30
0.0
 10
-65.59953401885107
 20
0.0005203891982969
 30
0.0
  0
SPLINE
  5
574F
330
1F
100
AcDbEntity
  8
AM_0
100
AcDbSpline
210
0.0
220
0.0
230
1.0
 70
     8
 71
     3
 72
    17
 73
    13
 74
     0
 42
0.0000000001
 43
0.0000000001
 40
1.580019955310467
 40
1.580019955310467
 40
1.580019955310467
 40
1.580019955310467
 40
2.030549285115227
 40
3.082371838836284
 40
4.126290986361125
 40
5.162752068350215
 40
6.192395305374981
 40
7.216039564037012
 40
8.234688489606833
 40
9.249433870634691
 40
10.26152376260694
 40
11.27226744710342
 40
11.27226744710342
 40
11.27226744710342
 40
11.27226744710352
 10
-25.44747195584488
 20
-7.564802780317475
 30
0.0
 10
-25.65459094153145
 20
-7.642713954773673
 30
0.0
 10
-26.34643793787378
 20
-7.898078235578766
 30
0.0
 10
-27.5275923315052
 20
-8.298626247114045
 30
0.0
 10
-28.99062678148474
 20
-8.747186883705094
 30
0.0
 10
-30.45406400347858
 20
-9.140963566498324
 30
0.0
 10
-31.91756827965509
 20
-9.478633904890338
 30
0.0
 10
-33.38123200199955
 20
-9.757741668532602
 30
0.0
 10
-34.84499684467059
 20
-9.976694112487511
 30
0.0
 10
-36.30885283305803
 20
-10.13407235165585
 30
0.0
 10
-37.77276390154123
 20
-10.22886332403546
 30
0.0
 10
-38.74894148311634
 20
-10.25000101141611
 30
0.0
 10
-39.23670543381816
 20
-10.25000095276503
 30
0.0
  0
SPLINE
  5
5750
330
1F
100
AcDbEntity
  8
AM_0
100
AcDbSpline
210
0.0
220
0.0
230
1.0
 70
     8
 71
     3
 72
    17
 73
    13
 74
     0
 42
0.0000000001
 43
0.0000000001
 40
1.580019955310467
 40
1.580019955310467
 40
1.580019955310467
 40
1.580019955310467
 40
2.030549285115227
 40
3.082371838836284
 40
4.126290986361125
 40
5.162752068350215
 40
6.192395305374981
 40
7.216039564037012
 40
8.234688489606833
 40
9.249433870634691
 40
10.26152376260694
 40
11.27226744710342
 40
11.27226744710342
 40
11.27226744710342
 40
11.27226744710352
 10
-77.5624184114048
 20
-7.564802780312971
 30
0.0
 10
-77.76953739709135
 20
-7.64271395476917
 30
0.0
 10
-78.46138439343363
 20
-7.898078235574255
 30
0.0
 10
-79.64253878706505
 20
-8.298626247109533
 30
0.0
 10
-81.10557323704462
 20
-8.747186883700603
 30
0.0
 10
-82.5690104590385
 20
-9.14096356649382
 30
0.0
 10
-84.032514735215
 20
-9.478633904885839
 30
0.0
 10
-85.49617845755948
 20
-9.757741668528099
 30
0.0
 10
-86.95994330023046
 20
-9.976694112482988
 30
0.0
 10
-88.42379928861795
 20
-10.13407235165134
 30
0.0
 10
-89.88771035710119
 20
-10.22886332403095
 30
0.0
 10
-90.86388793867632
 20
-10.25000101141161
 30
0.0
 10
-91.35165188937817
 20
-10.25000095276051
 30
0.0
  0
ELLIPSE
  5
5751
330
1F
100
AcDbEntity
  8
AM_0
 48
0.5
100
AcDbEllipse
 10
5.172430326021781
 20
-2.278434752512078
 30
0.0
 11
13.62139897293618
 21
3.468519976747786
 31
0.0
210
0.0
220
0.0
230
0.9999999999999998
 40
0.6116882692584108
 41
2.979702517498398
 42
3.829894279861006
  0
LINE
  5
5752
330
1F
100
AcDbEntity
  8
AM_11
 48
0.5
100
AcDbLine
 10
-156.5407138129337
 20
10.24698999025652
 30
0.0
 11
-122.3295956319488
 21
10.24698999025402
 31
0.0
  0
LINE
  5
5753
330
1F
100
AcDbEntity
  8
AM_0
 48
0.5
100
AcDbLine
 10
-134.105823434611
 20
7.239742856694102
 30
0.0
 11
-167.9999999999997
 21
-0.5335333576480236
 31
0.0
  0
ELLIPSE
  5
5754
330
1F
100
AcDbEntity
  8
AM_0
 48
0.5
100
AcDbEllipse
 10
-164.965633450263
 20
-6.39806837847551
 30
0.0
 11
2.698247082250416
 21
1.735306834511895
 31
0.0
210
0.0
220
0.0
230
1.0
 40
0.8012395774656791
 41
0.6962982554294768
 42
2.639508191095274
  0
LINE
  5
5755
330
1F
100
AcDbEntity
  8
AM_11
 48
0.5
100
AcDbLine
 10
-164.4783371706228
 20
-10.24919373330956
 30
0.0
 11
-139.0389701950754
 21
-10.25008997754366
 31
0.0
  0
SPLINE
  5
5756
330
1F
100
AcDbEntity
  8
AM_0
 48
0.5
100
AcDbSpline
210
0.0
220
0.0
230
1.0
 70
     8
 71
     3
 72
    19
 73
    15
 74
     0
 42
0.0000000001
 43
0.0000000001
 40
3.111699631838226
 40
3.111699631838226
 40
3.111699631838226
 40
3.111699631838226
 40
4.056212471389632
 40
5.079857945358201
 40
6.109499720892564
 40
7.145961650132166
 40
8.189873411961459
 40
9.241710626092514
 40
10.30166235592959
 40
11.36982472628033
 40
12.44598212828784
 40
13.52983440361964
 40
14.62080578343036
 40
14.90544694398022
 40
14.90544694398022
 40
14.90544694398022
 40
14.90544694398022
 10
-139.9130175171224
 20
-10.25008997754364
 30
0.0
 10
-141.0129836204186
 20
-10.09448375464473
 30
0.0
 10
-142.0605247008483
 20
-9.899488199158886
 30
0.0
 10
-143.9562804278041
 20
-9.581980271736147
 30
0.0
 10
-145.5848559987037
 20
-9.141525311746056
 30
0.0
 10
-147.3682863455577
 20
-8.747557110656794
 30
0.0
 10
-149.1515501911443
 20
-8.299676853782907
 30
0.0
 10
-150.9346314745478
 20
-7.800681030572916
 30
0.0
 10
-152.7175395139757
 20
-7.253606585815491
 30
0.0
 10
-154.5002858026345
 20
-6.661934804328081
 30
0.0
 10
-156.282869001472
 20
-6.029183149804303
 30
0.0
 10
-158.0653225050847
 20
-5.359382536763924
 30
0.0
 10
-159.4518997586724
 20
-4.914175437230588
 30
0.0
 10
-160.1983930090196
 20
-4.612267435404229
 30
0.0
 10
-163.787255153813
 20
-3.680072396035035
 30
0.0
  0
SPLINE
  5
5757
330
1F
100
AcDbEntity
  8
AM_0
100
AcDbSpline
210
0.0
220
0.0
230
1.0
 70
     8
 71
     3
 72
    13
 73
     9
 74
     0
 42
0.0000000001
 43
0.0000000001
 40
16.03460056234195
 40
16.03460056234195
 40
16.03460056234195
 40
16.03460056234195
 40
16.35212717791071
 40
17.38177067057215
 40
18.41822498539278
 40
19.46214186516937
 40
20.5139635832251
 40
21.34083983469381
 40
21.34083983469381
 40
21.34083983469381
 40
21.34083983469381
 10
-164.4730970364641
 20
-10.24920014052576
 30
0.0
 10
-163.9665953858823
 20
-10.2168524168079
 30
0.0
 10
-163.1897208566129
 20
-10.0661737309264
 30
0.0
 10
-161.8212498852964
 20
-9.770930294978603
 30
0.0
 10
-160.0490752059337
 20
-9.331912877414056
 30
0.0
 10
-158.2785468889818
 20
-8.838967797802643
 30
0.0
 10
-156.6402257463766
 20
-8.335133683311331
 30
0.0
 10
-155.5950057080735
 20
-7.988208039471077
 30
0.0
 10
-153.5219211477746
 20
-6.984782454555729
 30
0.0
  0
SPLINE
  5
5758
330
1F
100
AcDbEntity
  8
AM_0
 48
0.5
100
AcDbSpline
210
0.0
220
0.0
230
1.0
 70
     8
 71
     3
 72
    26
 73
    22
 74
     0
 42
0.0000000001
 43
0.0000000001
 40
0.0
 40
0.0
 40
0.0
 40
0.0
 40
0.4211432018735474
 40
0.8428473235286537
 40
1.265657898956934
 40
1.690088643751428
 40
2.116607084860617
 40
2.545625100287603
 40
2.977483884449724
 40
3.412450195918404
 40
3.850709593302191
 40
4.292362208965671
 40
4.737427885281768
 40
5.185826256336565
 40
5.637431371058531
 40
6.092003378174421
 40
6.549257520372505
 40
7.008843368271169
 40
7.470358728297647
 40
7.933358849736796
 40
8.383035712276667
 40
8.383035712276667
 40
8.383035712276667
 40
8.383035712276667
 10
-130.0866580748276
 20
-10.25052140039719
 30
0.0
 10
-130.6811003151516
 20
-10.2444228989843
 30
0.0
 10
-131.8707765322209
 20
-10.23221777357685
 30
0.0
 10
-133.6548579106824
 20
-10.13383075253679
 30
0.0
 10
-135.4388631386155
 20
-9.977421112242254
 30
0.0
 10
-137.222757934612
 20
-9.758206973972301
 30
0.0
 10
-139.0065245911654
 20
-9.479159454243177
 30
0.0
 10
-140.7901275687242
 20
-9.14151813389061
 30
0.0
 10
-142.5735656807366
 20
-8.74756424868053
 30
0.0
 10
-144.3568267641941
 20
-8.299690476100687
 30
0.0
 10
-146.1399066032947
 20
-7.800675798078572
 30
0.0
 10
-147.9228198728522
 20
-7.253626123476622
 30
0.0
 10
-149.7055591850566
 20
-6.661919307702775
 30
0.0
 10
-151.4881447388454
 20
-6.029185027092681
 30
0.0
 10
-153.2706003686171
 20
-5.359387921744162
 30
0.0
 10
-155.0529299255881
 20
-4.656591153507162
 30
0.0
 10
-157.3449602245391
 20
-3.925161037829829
 30
0.0
 10
-159.3700294715873
 20
-3.169610340609082
 30
0.0
 10
-161.20384139414
 20
-2.60891556720574
 30
0.0
 10
-162.9489819898334
 20
-2.086787780916585
 30
0.0
 10
-165.082330721656
 20
-1.599363105266156
 30
0.0
 10
-167.9999999999997
 20
-0.5335333576480236
 30
0.0
  0
ELLIPSE
  5
5759
330
1F
100
AcDbEntity
  8
AM_0
 48
0.5
100
AcDbEllipse
 10
-164.4708074395721
 20
-6.833854733728156
 30
0.0
 11
3.529485595960902
 21
0.006840637546165
 31
0.0
210
0.0
220
0.0
230
1.0
 40
0.9676591467251963
 41
3.152739079783021
 42
4.70986481913967
  0
SPLINE
  5
575A
330
1F
100
AcDbEntity
  8
AM_0
100
AcDbSpline
210
0.0
220
0.0
230
1.0
 70
     8
 71
     3
 72
    46
 73
    42
 74
     0
 42
0.0000000001
 43
0.0000000001
 40
0.0
 40
0.0
 40
0.0
 40
0.0
 40
1.348332046947654
 40
2.024828967632893
 40
2.703918159304094
 40
3.386347665078122
 40
4.072776489761951
 40
4.763750544421345
 40
5.459696642770595
 40
6.160921452191748
 40
6.867565637253344
 40
7.579665907256597
 40
8.297112853413899
 40
9.019671552060666
 40
9.746986763446125
 40
10.47859339096365
 40
11.21393074760088
 40
11.95235532364327
 40
12.69315551794651
 40
13.43556823304427
 40
14.1787950170388
 40
14.92202180103393
 40
15.66443451613169
 40
16.40523471043432
 40
17.14365928647669
 40
17.87899664311455
 40
18.61060327063121
 40
19.33791848201689
 40
20.06048192311554
 40
20.77792886927282
 40
21.49002913927608
 40
22.19667332433747
 40
22.89788836015233
 40
23.59383445850157
 40
24.28480851316097
 40
24.97123685067575
 40
25.65366676154837
 40
26.33276604526151
 40
27.00926273560554
 40
27.68398960851752
 40
28.35781868496899
 40
28.35781868496899
 40
28.35781868496899
 40
28.35781868496899
 10
-59.67738006090861
 20
-10.25000095276339
 30
0.0
 10
-60.65360532149323
 20
-10.22665066042894
 30
0.0
 10
-62.11963083875474
 20
-10.19158485566033
 30
0.0
 10
-64.06906889984547
 20
-9.975691137631747
 30
0.0
 10
-65.53284263923758
 20
-9.758012839584159
 30
0.0
 10
-66.99649126082075
 20
-9.478550881007475
 30
0.0
 10
-68.46001090884337
 20
-9.141021368788521
 30
0.0
 10
-69.9233940649179
 20
-8.747037981544043
 30
0.0
 10
-71.38663827809733
 20
-8.299167270942774
 30
0.0
 10
-72.84973703642845
 20
-7.800159229446882
 30
0.0
 10
-74.31269326429452
 20
-7.253108889983653
 30
0.0
 10
-75.77550302678815
 20
-6.661389557031521
 30
0.0
 10
-77.23818982473083
 20
-6.02867689944049
 30
0.0
 10
-78.70076076707274
 20
-5.358860539298594
 30
0.0
 10
-80.16322930351794
 20
-4.656070901193266
 30
0.0
 10
-81.62561168593933
 20
-3.924643750317306
 30
0.0
 10
-83.08792073072995
 20
-3.169076962946711
 30
0.0
 10
-84.55017066984668
 20
-2.394017672554325
 30
0.0
 10
-86.01237700730733
 20
-1.604235914919259
 30
0.0
 10
-87.47455310046229
 20
-0.8045882926830229
 30
0.0
 10
-88.93671690230688
 20
-0.0000009529235433
 30
0.0
 10
-90.39888070383019
 20
0.8045863878136682
 30
0.0
 10
-91.86105679794868
 20
1.604234007118124
 30
0.0
 10
-93.32326313188765
 20
2.394015775467538
 30
0.0
 10
-94.78551308406311
 20
3.169075026124304
 30
0.0
 10
-96.24782208043326
 20
3.924641960830533
 30
0.0
 10
-97.71020464217228
 20
4.656068566070893
 30
0.0
 10
-99.17267569466767
 20
5.358861750321987
 30
0.0
 10
-100.6352523198547
 20
6.028672024842682
 30
0.0
 10
-102.0979417270065
 20
6.661387926767539
 30
0.0
 10
-103.5607514554418
 20
7.253107435787654
 30
0.0
 10
-105.0237016736499
 20
7.800152748325785
 30
0.0
 10
-106.4867906836548
 20
8.299168509053361
 30
0.0
 10
-107.9500289239697
 20
8.747041049255487
 30
0.0
 10
-109.4134112331148
 20
9.140998660038397
 30
0.0
 10
-110.8769319541005
 20
9.478626069116632
 30
0.0
 10
-112.340589916802
 20
9.75768895243301
 30
0.0
 10
-113.8043561137391
 20
9.97689966514722
 30
0.0
 10
-115.2682128731786
 20
10.13329496588326
 30
0.0
 10
-116.7321227695294
 20
10.23170853276127
 30
0.0
 10
-117.7083007444468
 20
10.24390491564827
 30
0.0
 10
-118.1960647883497
 20
10.2499990472419
 30
0.0
  0
LINE
  5
575B
330
1F
100
AcDbEntity
  8
AM_0
 48
0.5
100
AcDbLine
 10
-139.0389701950754
 20
-10.25008997754366
 30
0.0
 11
-91.35164782647978
 21
-10.25000095276027
 31
0.0
  0
LINE
  5
575C
330
1F
100
AcDbEntity
  8
AM_0
100
AcDbLine
 10
-122.2942111162028
 20
10.24999904724227
 30
0.0
 11
-87.77718719589161
 21
10.25145524575757
 31
0.0
  0
SPLINE
  5
575D
330
1F
100
AcDbEntity
  8
AM_0
100
AcDbSpline
210
0.0
220
0.0
230
1.0
 70
     8
 71
     3
 72
    22
 73
    18
 74
     0
 42
0.0000000001
 43
0.0000000001
 40
17.17441611292
 40
17.17441611292
 40
17.17441611292
 40
17.17441611292
 40
17.38177636558528
 40
18.41823744757437
 40
19.46215659509824
 40
20.51397914882054
 40
21.57394542641293
 40
22.64209583141747
 40
23.71826625065247
 40
24.80210429862395
 40
25.8930771157021
 40
26.99048705697709
 40
28.09349309193389
 40
29.20112995599786
 40
30.31233024745139
 40
31.42594771747373
 40
32.5407895042663
 40
32.54078950426994
 40
32.54078950426994
 40
32.54078950426994
 10
-96.93907625818088
 20
-9.204575138662866
 30
0.0
 10
-97.03710183026979
 20
-9.180847394001002
 30
0.0
 10
-97.62471160006011
 20
-9.036319107759142
 30
0.0
 10
-98.70117958663723
 20
-8.746521083068987
 30
0.0
 10
-100.1644177160164
 20
-8.298649223533901
 30
0.0
 10
-101.6275067445018
 20
-7.79963324310007
 30
0.0
 10
-103.0904570014198
 20
-7.25258812324989
 30
0.0
 10
-104.5532665543149
 20
-6.660868059384414
 30
0.0
 10
-106.0159534086765
 20
-6.028155598891719
 30
0.0
 10
-107.4785243371558
 20
-5.358339188978314
 30
0.0
 10
-108.9409928720119
 20
-4.655549550742443
 30
0.0
 10
-110.4033752749674
 20
-3.924122451097649
 30
0.0
 10
-111.8656842386194
 20
-3.168555457398531
 30
0.0
 10
-113.3279344834719
 20
-2.393496945465812
 30
0.0
 10
-114.7901389711008
 20
-1.603712647832097
 30
0.0
 10
-116.2523193627937
 20
-0.8040759604985124
 30
0.0
 10
-117.2269149515886
 20
-0.2677765962986235
 30
0.0
 10
-117.714480474411
 20
0.0005203892028049
 30
0.0
  0
SPLINE
  5
575E
330
1F
100
AcDbEntity
  8
AM_0
100
AcDbSpline
210
0.0
220
0.0
230
1.0
 70
     8
 71
     3
 72
    23
 73
    19
 74
     0
 42
0.0000000001
 43
0.0000000001
 40
16.03460024169435
 40
16.03460024169435
 40
16.03460024169435
 40
16.03460024169435
 40
16.35212704903564
 40
17.38177054169784
 40
18.41822485651776
 40
19.46214173629503
 40
20.51396345435107
 40
21.57393551351153
 40
22.64208202342361
 40
23.7182574881101
 40
24.80209208578934
 40
25.89306333925047
 40
26.99048218457928
 40
28.09348763352352
 40
29.20111863782268
 40
30.31232390128032
 40
31.42594612798585
 40
32.5407912310448
 40
32.5407912310486
 40
32.5407912310486
 40
32.5407912310486
 10
-156.5407138129337
 20
10.24698999025652
 30
0.0
 10
-148.3693688535673
 20
9.724510639229245
 30
0.0
 10
-145.0982865157262
 20
9.48757801730327
 30
0.0
 10
-143.5402312084603
 20
9.194625159325918
 30
0.0
 10
-141.8928776805269
 20
8.951240453337502
 30
0.0
 10
-139.6909269185837
 20
8.638115325419382
 30
0.0
 10
-137.8368267242535
 20
8.153541136845618
 30
0.0
 10
-135.3691848575166
 20
7.69936115771669
 30
0.0
 10
-133.6030531246406
 20
7.062647079970846
 30
0.0
 10
-131.8381749199006
 20
6.384982682996302
 30
0.0
 10
-130.0744499565785
 20
5.67020554076264
 30
0.0
 10
-128.3117368304486
 20
4.922474774913837
 30
0.0
 10
-126.5498926933238
 20
4.146136519716834
 30
0.0
 10
-124.7888001585543
 20
3.34565439467712
 30
0.0
 10
-123.0283118776666
 20
2.525683093730218
 30
0.0
 10
-121.2682647921611
 20
1.691010647696008
 30
0.0
 10
-119.5085155845214
 20
0.84647375737777
 30
0.0
 10
-118.3356645581105
 20
0.2802579512192862
 30
0.0
 10
-117.7489192011952
 20
-0.0030091154286418
 30
0.0
  0
SPLINE
  5
575F
330
1F
100
AcDbEntity
  8
AM_0
100
AcDbSpline
210
0.0
220
0.0
230
1.0
 70
     8
 71
     3
 72
    55
 73
    51
 74
     0
 42
0.0000000001
 43
0.0000000001
 40
0.0
 40
0.0
 40
0.0
 40
0.0
 40
1.010743684496582
 40
2.022833576467832
 40
3.037578957496688
 40
4.056212745003489
 40
5.079857003664532
 40
6.109500240690281
 40
7.145961322679372
 40
8.189895241603872
 40
9.241717795325891
 40
10.30168407291828
 40
11.36983447792315
 40
12.44600489715814
 40
13.52984294512926
 40
14.62081576220742
 40
15.7182257034828
 40
16.82123173843959
 40
17.92886860250316
 40
19.0400688939571
 40
20.15368796660465
 40
21.26852814259644
 40
22.38336992938901
 40
23.49698739941135
 40
24.6081876908653
 40
25.71582455492886
 40
26.81883757994213
 40
27.91624752121713
 40
29.00722033829659
 40
30.09105838626677
 40
31.16722880550176
 40
32.23537921050758
 40
33.29534548809967
 40
34.347168041821
 40
35.39108718934584
 40
36.42754827133493
 40
37.45720575381954
 40
38.48085062012849
 40
39.49948440763516
 40
40.51422944315121
 40
41.52631975251916
 40
42.53706336719636
 40
43.54780698187354
 40
44.55989729124051
 40
45.57464232675757
 40
46.59327611426424
 40
47.6169209805722
 40
48.64656348684535
 40
49.68302456883444
 40
50.58557219878025
 40
50.58557219878025
 40
50.58557219878025
 40
50.58557219878025
 10
-63.77533642104027
 20
-10.25000095276303
 30
0.0
 10
-64.26310037817713
 20
-10.2439024510844
 30
0.0
 10
-65.23927794428158
 20
-10.23169732514513
 30
0.0
 10
-66.70318904381516
 20
-10.13331030810133
 30
0.0
 10
-68.16703765450348
 20
-9.976900652558065
 30
0.0
 10
-69.63079566733447
 20
-9.757686571607097
 30
0.0
 10
-71.09444847630737
 20
-9.478638836335496
 30
0.0
 10
-72.55796720682467
 20
-9.140998327552704
 30
0.0
 10
-74.02135675429156
 20
-8.747039512071172
 30
0.0
 10
-75.48460414140037
 20
-8.299174805182069
 30
0.0
 10
-76.9476994007697
 20
-7.800154069016437
 30
0.0
 10
-78.41064982512041
 20
-7.253109605150773
 30
0.0
 10
-79.87345933252554
 20
-6.661389363206826
 30
0.0
 10
-81.33614619961809
 20
-6.02867695199789
 30
0.0
 10
-82.79871712312353
 20
-5.358860524853484
 30
0.0
 10
-84.26118566507861
 20
-4.656070905925939
 30
0.0
 10
-85.7235680444573
 20
-3.924643745926638
 30
0.0
 10
-87.18587709590797
 20
-3.16907697582596
 30
0.0
 10
-88.64812701130686
 20
-2.394017625182744
 30
0.0
 10
-90.11033343734949
 20
-1.604236092218547
 30
0.0
 10
-91.57250919897803
 20
-0.8045876292262736
 30
0.0
 10
-93.03467494437906
 20
-0.0000030441327139
 30
0.0
 10
-94.49683412587928
 20
0.8045960239848021
 30
0.0
 10
-95.95901478840232
 20
1.604232034335388
 30
0.0
 10
-97.42121940933154
 20
2.394015957923315
 30
0.0
 10
-98.88347193190586
 20
3.1690782611972
 30
0.0
 10
-100.3457870497159
 20
3.924638583158393
 30
0.0
 10
-101.8081717371202
 20
4.656069452511091
 30
0.0
 10
-103.2706404902071
 20
5.358858501548718
 30
0.0
 10
-104.7332113604943
 20
6.028675069552996
 30
0.0
 10
-106.1958982313322
 20
6.661387481687465
 30
0.0
 10
-107.6587077759963
 20
7.253107582142163
 30
0.0
 10
-109.1216580493545
 20
7.800152604590556
 30
0.0
 10
-110.5847470208779
 20
8.299168934409483
 30
0.0
 10
-112.0479853594917
 20
8.747039507208848
 30
0.0
 10
-113.5113743641171
 20
9.141006244706558
 30
0.0
 10
-114.9749035446487
 20
9.478608190256284
 30
0.0
 10
-116.4385611891167
 20
9.757742296700939
 30
0.0
 10
-117.9023196358711
 20
9.976696527653473
 30
0.0
 10
-119.3661692636859
 20
10.13405600205745
 30
0.0
 10
-120.8300791219973
 20
10.22887671753534
 30
0.0
 10
-122.29402114884
 20
10.26055318104908
 30
0.0
 10
-123.7579631735289
 20
10.22887671748593
 30
0.0
 10
-125.2218730383148
 20
10.13405600225719
 30
0.0
 10
-126.6857226422924
 20
9.97669652690333
 30
0.0
 10
-128.1494811784185
 20
9.757742299523558
 30
0.0
 10
-129.6131313512945
 20
9.478609540471225
 30
0.0
 10
-131.0766547660781
 20
9.141009696505475
 30
0.0
 10
-132.4735066484695
 20
8.764923102874336
 30
0.0
 10
-133.3798000575665
 20
8.489887421551992
 30
0.0
 10
-135.4225110886114
 20
7.65238778674229
 30
0.0
  0
ELLIPSE
  5
59CB
330
1F
100
AcDbEntity
  8
AM_0
 48
0.5
100
AcDbEllipse
 10
11.13856039513757
 20
-8.995919688554256
 30
0.0
 11
-8.686345669214571
 21
-10.69661724298878
 31
0.0
210
0.0
220
0.0
230
-1.0
 40
0.9970295268095405
 41
1.07152878000935
 42
1.407348049653516
  0
LINE
  5
59CC
330
1F
100
AcDbEntity
  8
AM_0
 48
0.5
100
AcDbLine
 10
0.0000000000000142
 20
0.0000000000000819
 30
0.0
 11
-0.7975973227785492
 21
-2.191373385513316
 31
0.0
  0
DIMENSION
  5
5B0A
330
1F
100
AcDbEntity
  8
AM_5
100
AcDbDimension
  2
*D9
 10
-0.7975973227785492
 20
-2.191373385513316
 30
0.0
 11
26.61040341409649
 21
0.0000000000002818
 31
0.0
 70
    34
  1
<>
 51
359.9999999999998
  3
AM_JIS$2
100
AcDb2LineAngularDimension
 13
0.0000000000000142
 23
0.0000000000000819
 33
0.0
 14
-0.7975973227785817
 24
2.191373385513468
 34
0.0
 15
0.0000000000000142
 25
0.0000000000000819
 35
0.0
 16
27.28057512684067
 26
-11.7676799657858
 36
0.0
1001
GENIUS_GENDTOL_13
1000

1000
h7
1000

1040
0.0
1001
ACAD
1000
DSTYLE
1002
{
1070
   271
1070
     0
1002
}
  0
ELLIPSE
  5
5C37
330
1F
100
AcDbEntity
  8
AM_11
 48
0.5
100
AcDbEllipse
 10
7.830970553822465
 20
41.74035586701503
 30
0.0
 11
-46.6164875030511
 21
0.0000000000006446
 31
0.0
210
0.0
220
0.0
230
1.0
 40
0.9899999999999996
 41
1.130070686340335
 42
1.247868474200389
  0
ELLIPSE
  5
5C38
330
1F
100
AcDbEntity
  8
AM_11
 48
0.5
100
AcDbEllipse
 10
-31.94170973577529
 20
-41.7403134678597
 30
0.0
 11
-46.61648750305105
 21
0.0000000000017418
 31
0.0
210
0.0
220
0.0
230
1.0
 40
0.9900000000000009
 41
4.271664206181739
 42
5.153113667165048
  0
ELLIPSE
  5
5C39
330
1F
100
AcDbEntity
  8
AM_11
 48
0.5
100
AcDbEllipse
 10
-31.94170973577657
 20
41.74034620773805
 30
0.0
 11
-46.6164875030511
 21
0.0000000000006446
 31
0.0
210
0.0
220
0.0
230
1.0
 40
0.9899999999999996
 41
1.130070686340335
 42
2.011520147323624
  0
ELLIPSE
  5
5C3A
330
1F
100
AcDbEntity
  8
AM_11
 48
0.5
100
AcDbEllipse
 10
-71.71443700850391
 20
41.7403462077374
 30
0.0
 11
-46.6164875030511
 21
-0.00000000000067
 31
0.0
210
0.0
220
0.0
230
1.0
 40
0.99
 41
1.130070686340306
 42
2.011520147323597
  0
ELLIPSE
  5
5C3B
330
1F
100
AcDbEntity
  8
AM_11
 48
0.5
100
AcDbEllipse
 10
-71.71443700850256
 20
-41.74031346786038
 30
0.0
 11
-46.61648750305096
 21
0.0000000000013071
 31
0.0
210
0.0
220
0.0
230
1.0
 40
0.9900000000000032
 41
4.271664206181728
 42
5.153113667165039
  0
ELLIPSE
  5
5C3C
330
1F
100
AcDbEntity
  8
AM_11
 48
0.5
100
AcDbEllipse
 10
-111.4870678695605
 20
41.74034620773748
 30
0.0
 11
-46.6164875030511
 21
0.0000000000006446
 31
0.0
210
0.0
220
0.0
230
1.0
 40
0.9899999999999996
 41
1.130070686340335
 42
2.011520147323624
  0
ELLIPSE
  5
5C3D
330
1F
100
AcDbEntity
  8
AM_11
 48
0.5
100
AcDbEllipse
 10
-111.4870678695593
 20
-41.74031346786029
 30
0.0
 11
-46.61648750305105
 21
0.0000000000017418
 31
0.0
210
0.0
220
0.0
230
1.0
 40
0.9900000000000009
 41
4.271664206181739
 42
5.153113667165048
  0
ELLIPSE
  5
5C3E
330
1F
100
AcDbEntity
  8
AM_11
 48
0.5
100
AcDbEllipse
 10
-151.2597951422865
 20
-41.74031346786096
 30
0.0
 11
-46.61648750305096
 21
0.0000000000013071
 31
0.0
210
0.0
220
0.0
230
1.0
 40
0.9900000000000032
 41
4.271664206181728
 42
5.153113667165039
  0
ELLIPSE
  5
5C3F
330
1F
100
AcDbEntity
  8
AM_11
 48
0.5
100
AcDbEllipse
 10
-151.2597951422879
 20
41.74034620773681
 30
0.0
 11
-46.6164875030511
 21
-0.00000000000067
 31
0.0
210
0.0
220
0.0
230
1.0
 40
0.99
 41
1.130070686340306
 42
2.011520147323597
  0
ELLIPSE
  5
5C40
330
1F
100
AcDbEntity
  8
AM_11
 48
0.5
100
AcDbEllipse
 10
-191.0324610606415
 20
41.74036257765656
 30
0.0
 11
-46.6164875030511
 21
0.0000000000006446
 31
0.0
210
0.0
220
0.0
230
1.0
 40
0.9899999999999996
 41
1.130070686340335
 42
2.011520147323624
  0
ELLIPSE
  5
5C41
330
1F
100
AcDbEntity
  8
AM_11
 48
0.5
100
AcDbEllipse
 10
-230.8051883333674
 20
-41.74029709794189
 30
0.0
 11
-46.61648750305096
 21
0.0000000000013071
 31
0.0
210
0.0
220
0.0
230
1.0
 40
0.9900000000000032
 41
4.271664206181728
 42
4.977067173822112
  0
ELLIPSE
  5
5C42
330
1F
100
AcDbEntity
  8
AM_11
 48
0.5
100
AcDbEllipse
 10
-230.8051883333688
 20
41.74036257765589
 30
0.0
 11
-46.6164875030511
 21
-0.00000000000067
 31
0.0
210
0.0
220
0.0
230
1.0
 40
0.99
 41
1.306118133357519
 42
2.011520147323597
  0
ELLIPSE
  5
5C43
330
1F
100
AcDbEntity
  8
AM_11
 48
0.5
100
AcDbEllipse
 10
-191.0324610606402
 20
-41.74029709794122
 30
0.0
 11
-46.61648750305105
 21
0.0000000000017418
 31
0.0
210
0.0
220
0.0
230
1.0
 40
0.9900000000000009
 41
4.271664206181739
 42
5.153113667165048
  0
VIEWPORT
  5
110
330
101
100
AcDbEntity
 67
     1
  8
0
100
AcDbViewport
 10
420.5
 20
297.0
 30
0.0
 40
948.9782706766916
 41
628.452
 68
     1
 69
     1
1001
ACAD
1000
MVIEW
1002
{
1070
    16
1010
0.0
1020
0.0
1030
0.0
1010
0.0
1020
0.0
1030
1.0
1040
0.0
1040
628.452
1040
420.5
1040
297.0
1040
50.0
1040
0.0
1040
0.0
1070
     0
1070
   100
1070
     1
1070
     1
1070
     0
1070
     0
1070
     0
1070
     0
1040
0.0
1040
0.0
1040
0.0
1040
10.0
1040
10.0
1040
10.0
1040
10.0
1070
     0
1002
{
1002
}
1002
}
  0
ENDSEC
  0
SECTION
  2
OBJECTS
  0
DICTIONARY
  5
C
330
0
100
AcDbDictionary
  3
ACAD_GROUP
350
D
  3
ACAD_LAYOUT
350
1A
  3
ACAD_MLINESTYLE
350
17
  3
ACAD_PLOTSETTINGS
350
19
  3
ACAD_PLOTSTYLENAME
350
E
  3
ACDBVARIABLEDICTIONARY
350
34
  3
ACMDICTIONARY
350
43
  3
AMG
350
2B
  3
AMGSNAPSETTINGS
350
6E
  3
DWGPROPS
350
5C5E
  3
ACDBHEADERROUNDTRIPXREC
350
5C6B
  0
DICTIONARY
  5
74
330
1F
100
AcDbDictionary
280
     1
  3
ACAD_INDEX
360
5C60
  3
ACAD_LAYOUTSELFREF
360
5C8E
  0
DICTIONARY
  5
5C93
330
101
100
AcDbDictionary
280
     1
  3
ACAD_LAYOUTSELFREF
360
5C94
  0
DICTIONARY
  5
D
102
{ACAD_REACTORS
330
C
102
}
330
C
100
AcDbDictionary
  0
DICTIONARY
  5
1A
102
{ACAD_REACTORS
330
C
102
}
330
C
100
AcDbDictionary
  0
DICTIONARY
  5
17
102
{ACAD_REACTORS
330
C
102
}
330
C
100
AcDbDictionary
  3
STANDARD
350
18
  0
DICTIONARY
  5
19
102
{ACAD_REACTORS
330
C
102
}
330
C
100
AcDbDictionary
  0
ACDBDICTIONARYWDFLT
  5
E
102
{ACAD_REACTORS
330
C
102
}
330
C
100
AcDbDictionary
281
     1
  3
Normal
350
F
100
AcDbDictionaryWithDefault
340
F
  0
DICTIONARY
  5
34
102
{ACAD_REACTORS
330
C
102
}
330
C
100
AcDbDictionary
  3
INDEXCTL
350
35
  3
SORTENTS
350
B5E
  0
DICTIONARY
  5
43
102
{ACAD_REACTORS
330
C
102
}
330
C
100
AcDbDictionary
  3
ACMSTDDICTIONARY
350
260
  0
DICTIONARY
  5
2B
102
{ACAD_REACTORS
330
C
102
}
330
C
100
AcDbDictionary
  3
ACMGSETTINGS
350
2C
  0
DICTIONARY
  5
6E
102
{ACAD_REACTORS
330
C
102
}
330
C
100
AcDbDictionary
  0
XRECORD
  5
5C5E
102
{ACAD_REACTORS
330
C
102
}
330
C
100
AcDbXrecord
  1
DWGPROPS COOKIE
  2

  3

  4

  6

  7

  8

  9

300
AmdtFileType=82
301
=
302
=
303
=
304
=
305
=
306
=
307
=
308
=
309
=
 40
0.1432541087962963
 41
2452800.443498622
 42
2452948.677445555
  1

 90
        1
  0
DICTIONARY
  5
5C6B
102
{ACAD_REACTORS
330
C
102
}
330
C
100
AcDbDictionary
  3
TSTACKALIGN
350
5C6C
  3
TSTACKSIZE
350
5C6D
  3
HYPERLINKBASE
350
5C6E
  3
STYLESHEET
350
5C6F
  3
LAYOUTDICT
350
5C70
  3
PLOTSETDICT
350
5C71
  3
PLOTSTYLNAMDICT
350
5C72
  3
LWETCUNION
350
5C73
  3
INSUNITS
350
5C74
  3
CEPSNTYPE
350
5C75
  3
FINGERPRINTGUID
350
5C76
  3
VERSIONGUID
350
5C77
  3
PSVPSCALE
350
5C78
  3
DIMSTYLEDATA
350
5C79
  3
PUCSORTHOREF
350
5C7A
  3
PUCSORTHOVIEW
350
5C7B
  3
PUCSBASE
350
5C7C
  3
PUCSORGTOP
350
5C7D
  3
PUCSORGBOTTOM
350
5C7E
  3
PUCSORGLEFT
350
5C7F
  3
PUCSORGRIGHT
350
5C80
  3
PUCSORGFRONT
350
5C81
  3
PUCSORGBACK
350
5C82
  3
UCSORTHOREF
350
5C83
  3
UCSORTHOVIEW
350
5C84
  3
UCSBASE
350
5C85
  3
UCSORGTOP
350
5C86
  3
UCSORGBOTTOM
350
5C87
  3
UCSORGLEFT
350
5C88
  3
UCSORGRIGHT
350
5C89
  3
UCSORGFRONT
350
5C8A
  3
UCSORGBACK
350
5C8B
  0
DICTIONARY
  5
5C60
102
{ACAD_REACTORS
330
74
102
}
330
74
100
AcDbDictionary
  3
*A1
350
5C61
  0
XRECORD
  5
5C8E
102
{ACAD_REACTORS
330
74
102
}
330
74
100
AcDbXrecord
340
1F
  0
XRECORD
  5
5C94
102
{ACAD_REACTORS
330
5C93
102
}
330
5C93
100
AcDbXrecord
340
101
  0
MLINESTYLE
  5
18
102
{ACAD_REACTORS
330
17
102
}
330
17
100
AcDbMlineStyle
  2
STANDARD
 70
     0
  3

 62
   256
 51
90.0
 52
90.0
 71
     2
 49
0.5
 62
   256
  6
BYLAYER
 49
-0.5
 62
   256
  6
BYLAYER
  0
ACDBPLACEHOLDER
  5
F
102
{ACAD_REACTORS
330
E
102
}
330
E
100
AcDbPlaceHolder
280
     0
  0
DICTIONARYVAR
  5
35
102
{ACAD_REACTORS
330
34
102
}
330
34
100
DictionaryVariables
280
     0
  1
1
  0
DICTIONARYVAR
  5
B5E
102
{ACAD_REACTORS
330
34
102
}
330
34
100
DictionaryVariables
280
     0
  1
96
  0
DICTIONARY
  5
260
102
{ACAD_REACTORS
330
43
102
}
330
43
100
AcDbDictionary
  0
DICTIONARY
  5
2C
102
{ACAD_REACTORS
330
2B
102
}
330
2B
100
AcDbDictionary
  3
DWGSETTINGS
350
2D
  0
XRECORD
  5
5C6C
102
{ACAD_REACTORS
330
5C6B
102
}
330
5C6B
100
AcDbXrecord
 90
        1
  0
XRECORD
  5
5C6D
102
{ACAD_REACTORS
330
5C6B
102
}
330
5C6B
100
AcDbXrecord
 90
       70
  0
XRECORD
  5
5C6E
102
{ACAD_REACTORS
330
5C6B
102
}
330
5C6B
100
AcDbXrecord
  1

  0
XRECORD
  5
5C6F
102
{ACAD_REACTORS
330
5C6B
102
}
330
5C6B
100
AcDbXrecord
  1
ASAMI.ctb
  0
XRECORD
  5
5C70
102
{ACAD_REACTORS
330
5C6B
102
}
330
5C6B
100
AcDbXrecord
340
1A
  0
XRECORD
  5
5C71
102
{ACAD_REACTORS
330
5C6B
102
}
330
5C6B
100
AcDbXrecord
340
19
  0
XRECORD
  5
5C72
102
{ACAD_REACTORS
330
5C6B
102
}
330
5C6B
100
AcDbXrecord
340
E
  0
XRECORD
  5
5C73
102
{ACAD_REACTORS
330
5C6B
102
}
330
5C6B
100
AcDbXrecord
 90
    10781
  0
XRECORD
  5
5C74
102
{ACAD_REACTORS
330
5C6B
102
}
330
5C6B
100
AcDbXrecord
 90
        4
  0
XRECORD
  5
5C75
102
{ACAD_REACTORS
330
5C6B
102
}
330
5C6B
100
AcDbXrecord
 90
        0
  0
XRECORD
  5
5C76
102
{ACAD_REACTORS
330
5C6B
102
}
330
5C6B
100
AcDbXrecord
  1
{AFB28963-8C59-40AE-9337-C84526B81ACE}
  0
XRECORD
  5
5C77
102
{ACAD_REACTORS
330
5C6B
102
}
330
5C6B
100
AcDbXrecord
  1
{6596628C-3666-44AC-BA43-F7ECDCA633D7}
  0
XRECORD
  5
5C78
102
{ACAD_REACTORS
330
5C6B
102
}
330
5C6B
100
AcDbXrecord
 40
0.0
  0
XRECORD
  5
5C79
102
{ACAD_REACTORS
330
5C6B
102
}
330
5C6B
100
AcDbXrecord
1000
DSTYLE
1002
{
1070
    79
 70
     2
1070
   341
340
59
1070
   342
340
59
1070
   371
 70
    -1
1070
   372
 70
    -1
1002
}
  0
XRECORD
  5
5C7A
102
{ACAD_REACTORS
330
5C6B
102
}
330
5C6B
100
AcDbXrecord
340
0
  0
XRECORD
  5
5C7B
102
{ACAD_REACTORS
330
5C6B
102
}
330
5C6B
100
AcDbXrecord
 70
     0
  0
XRECORD
  5
5C7C
102
{ACAD_REACTORS
330
5C6B
102
}
330
5C6B
100
AcDbXrecord
340
0
  0
XRECORD
  5
5C7D
102
{ACAD_REACTORS
330
5C6B
102
}
330
5C6B
100
AcDbXrecord
 10
0.0
 20
0.0
 30
0.0
  0
XRECORD
  5
5C7E
102
{ACAD_REACTORS
330
5C6B
102
}
330
5C6B
100
AcDbXrecord
 10
0.0
 20
0.0
 30
0.0
  0
XRECORD
  5
5C7F
102
{ACAD_REACTORS
330
5C6B
102
}
330
5C6B
100
AcDbXrecord
 10
0.0
 20
0.0
 30
0.0
  0
XRECORD
  5
5C80
102
{ACAD_REACTORS
330
5C6B
102
}
330
5C6B
100
AcDbXrecord
 10
0.0
 20
0.0
 30
0.0
  0
XRECORD
  5
5C81
102
{ACAD_REACTORS
330
5C6B
102
}
330
5C6B
100
AcDbXrecord
 10
0.0
 20
0.0
 30
0.0
  0
XRECORD
  5
5C82
102
{ACAD_REACTORS
330
5C6B
102
}
330
5C6B
100
AcDbXrecord
 10
0.0
 20
0.0
 30
0.0
  0
XRECORD
  5
5C83
102
{ACAD_REACTORS
330
5C6B
102
}
330
5C6B
100
AcDbXrecord
340
0
  0
XRECORD
  5
5C84
102
{ACAD_REACTORS
330
5C6B
102
}
330
5C6B
100
AcDbXrecord
 70
     0
  0
XRECORD
  5
5C85
102
{ACAD_REACTORS
330
5C6B
102
}
330
5C6B
100
AcDbXrecord
340
0
  0
XRECORD
  5
5C86
102
{ACAD_REACTORS
330
5C6B
102
}
330
5C6B
100
AcDbXrecord
 10
0.0
 20
0.0
 30
0.0
  0
XRECORD
  5
5C87
102
{ACAD_REACTORS
330
5C6B
102
}
330
5C6B
100
AcDbXrecord
 10
0.0
 20
0.0
 30
0.0
  0
XRECORD
  5
5C88
102
{ACAD_REACTORS
330
5C6B
102
}
330
5C6B
100
AcDbXrecord
 10
0.0
 20
0.0
 30
0.0
  0
XRECORD
  5
5C89
102
{ACAD_REACTORS
330
5C6B
102
}
330
5C6B
100
AcDbXrecord
 10
0.0
 20
0.0
 30
0.0
  0
XRECORD
  5
5C8A
102
{ACAD_REACTORS
330
5C6B
102
}
330
5C6B
100
AcDbXrecord
 10
0.0
 20
0.0
 30
0.0
  0
XRECORD
  5
5C8B
102
{ACAD_REACTORS
330
5C6B
102
}
330
5C6B
100
AcDbXrecord
 10
0.0
 20
0.0
 30
0.0
  0
LAYER_INDEX
  5
5C61
102
{ACAD_REACTORS
330
5C60
102
}
330
5C60
100
AcDbIndex
 40
2453151.674203541
100
AcDbLayerIndex
  8
0
360
5C62
 90
        0
  8
AM_0
360
5C63
 90
       52
  8
AM_7
360
5C64
 90
        1
  8
AM_11
360
5C65
 90
       19
  8
AM_5
360
5C66
 90
        5
  8
Defpoints
360
5C67
 90
        0
  8
AM_6
360
5C68
 90
        1
  8
AM_CL
360
5C69
 90
        0
  0
XRECORD
  5
2D
102
{ACAD_REACTORS
330
2C
102
}
330
2C
100
AcDbXrecord
  1
VERSION
140
15.0
  1
PRODUCT
  2
AutoCAD Mechanical 2000
  0
IDBUFFER
  5
5C62
330
0
100
AcDbIdBuffer
  0
IDBUFFER
  5
5C63
330
0
100
AcDbIdBuffer
330
575E
330
575F
330
59CB
330
59CC
330
1E25
330
1E26
330
1FD9
330
21D7
330
21D8
330
21D9
330
21DC
330
21DD
330
4D3D
330
4D3F
330
4D44
330
4D4B
330
53F6
330
53FC
330
5735
330
5736
330
5737
330
5738
330
573A
330
573C
330
573D
330
573F
330
5740
330
5741
330
5742
330
5743
330
5744
330
5745
330
5746
330
5747
330
574A
330
574B
330
574C
330
574D
330
574E
330
574F
330
5750
330
5751
330
5753
330
5754
330
5756
330
5757
330
5758
330
5759
330
575A
330
575B
330
575C
330
575D
  0
IDBUFFER
  5
5C64
330
0
100
AcDbIdBuffer
330
C9F
  0
IDBUFFER
  5
5C65
330
0
100
AcDbIdBuffer
330
5C41
330
5C42
330
5C43
330
5739
330
573B
330
5748
330
5749
330
5752
330
5755
330
5C37
330
5C38
330
5C39
330
5C3A
330
5C3B
330
5C3C
330
5C3D
330
5C3E
330
5C3F
330
5C40
  0
IDBUFFER
  5
5C66
330
0
100
AcDbIdBuffer
330
CC6
330
DF5
330
2216
330
4D9C
330
5B0A
  0
IDBUFFER
  5
5C67
330
0
100
AcDbIdBuffer
  0
IDBUFFER
  5
5C68
330
0
100
AcDbIdBuffer
330
19BD
  0
IDBUFFER
  5
5C69
330
0
100
AcDbIdBuffer
  0
ENDSEC
  0
EOF
