  0
SECTION
  2
HEADER
  9
$ACADVER
  1
AC1014
  9
$ACADMAINTVER
 70
     9
  9
$DWGCODEPAGE
  3
ANSI_932
  9
$INSBASE
 10
0.0
 20
0.0
 30
0.0
  9
$EXTMIN
 10
-264.300000999999
 20
-57.00149369155618
 30
-0.00000001
  9
$EXTMAX
 10
28.7997166351394
 20
28.00256298822882
 30
0.00000001
  9
$LIMMIN
 10
-276.0583176205442
 20
-93.78612034952743
  9
$LIMMAX
 10
44.88989227647721
 20
50.77667461154442
  9
$ORTHOMODE
 70
     0
  9
$REGENMODE
 70
     1
  9
$FILLMODE
 70
     1
  9
$QTEXTMODE
 70
     0
  9
$MIRRTEXT
 70
     0
  9
$DRAGMODE
 70
     2
  9
$LTSCALE
 40
1.0
  9
$OSMODE
 70
    55
  9
$ATTMODE
 70
     1
  9
$TEXTSIZE
 40
2.5
  9
$TRACEWID
 40
1.0
  9
$TEXTSTYLE
  7
STANDARD
  9
$CLAYER
  8
AM_0
  9
$CELTYPE
  6
BYLAYER
  9
$CECOLOR
 62
   256
  9
$CELTSCALE
 40
1.0
  9
$DELOBJ
 70
     1
  9
$DISPSILH
 70
     0
  9
$DIMSCALE
 40
1.0
  9
$DIMASZ
 40
2.5
  9
$DIMEXO
 40
1.0
  9
$DIMDLI
 40
12.0
  9
$DIMRND
 40
0.0
  9
$DIMDLE
 40
0.0
  9
$DIMEXE
 40
1.0
  9
$DIMTP
 40
0.1
  9
$DIMTM
 40
0.1
  9
$DIMTXT
 40
3.2
  9
$DIMCEN
 40
0.0
  9
$DIMTSZ
 40
0.0
  9
$DIMTOL
 70
     0
  9
$DIMLIM
 70
     0
  9
$DIMTIH
 70
     0
  9
$DIMTOH
 70
     0
  9
$DIMSE1
 70
     0
  9
$DIMSE2
 70
     0
  9
$DIMTAD
 70
     3
  9
$DIMZIN
 70
     8
  9
$DIMBLK
  1
OPEN30
  9
$DIMASO
 70
     1
  9
$DIMSHO
 70
     1
  9
$DIMPOST
  1

  9
$DIMAPOST
  1
"
  9
$DIMALT
 70
     0
  9
$DIMALTD
 70
     2
  9
$DIMALTF
 40
0.0393701
  9
$DIMLFAC
 40
1.0
  9
$DIMTOFL
 70
     1
  9
$DIMTVP
 40
0.0
  9
$DIMTIX
 70
     0
  9
$DIMSOXD
 70
     0
  9
$DIMSAH
 70
     0
  9
$DIMBLK1
  1

  9
$DIMBLK2
  1

  9
$DIMSTYLE
  2
AM_JIS
  9
$DIMCLRD
 70
   256
  9
$DIMCLRE
 70
   256
  9
$DIMCLRT
 70
     2
  9
$DIMTFAC
 40
0.71
  9
$DIMGAP
 40
1.5
  9
$DIMJUST
 70
     0
  9
$DIMSD1
 70
     0
  9
$DIMSD2
 70
     0
  9
$DIMTOLJ
 70
     0
  9
$DIMTZIN
 70
     0
  9
$DIMALTZ
 70
     0
  9
$DIMALTTZ
 70
     0
  9
$DIMFIT
 70
     3
  9
$DIMUPT
 70
     0
  9
$DIMUNIT
 70
     2
  9
$DIMDEC
 70
     3
  9
$DIMTDEC
 70
     3
  9
$DIMALTU
 70
     2
  9
$DIMALTTD
 70
     2
  9
$DIMTXSTY
  7
ASAMI
  9
$DIMAUNIT
 70
     0
  9
$LUNITS
 70
     2
  9
$LUPREC
 70
     2
  9
$SKETCHINC
 40
1.0
  9
$FILLETRAD
 40
2.5
  9
$AUNITS
 70
     0
  9
$AUPREC
 70
     0
  9
$MENU
  1
.
  9
$ELEVATION
 40
0.0
  9
$PELEVATION
 40
0.0
  9
$THICKNESS
 40
0.0
  9
$LIMCHECK
 70
     0
  9
$BLIPMODE
 70
     0
  9
$CHAMFERA
 40
0.75
  9
$CHAMFERB
 40
0.75
  9
$CHAMFERC
 40
20.0
  9
$CHAMFERD
 40
0.0
  9
$SKPOLY
 70
     0
  9
$TDCREATE
 40
2452800.443498622
  9
$TDUPDATE
 40
2453151.674388183
  9
$TDINDWG
 40
0.1491270949
  9
$TDUSRTIMER
 40
0.1491270949
  9
$USRTIMER
 70
     1
  9
$ANGBASE
 50
0.0
  9
$ANGDIR
 70
     0
  9
$PDMODE
 70
     3
  9
$PDSIZE
 40
0.0
  9
$PLINEWID
 40
0.0
  9
$COORDS
 70
     1
  9
$SPLFRAME
 70
     0
  9
$SPLINETYPE
 70
     6
  9
$SPLINESEGS
 70
     8
  9
$ATTDIA
 70
     1
  9
$ATTREQ
 70
     1
  9
$HANDLING
 70
 12289
  9
$HANDSEED
  5
5EDA
  9
$SURFTAB1
 70
     6
  9
$SURFTAB2
 70
     6
  9
$SURFTYPE
 70
     6
  9
$SURFU
 70
     6
  9
$SURFV
 70
     6
  9
$UCSNAME
  2

  9
$UCSORG
 10
0.0
 20
0.0
 30
0.0
  9
$UCSXDIR
 10
1.0
 20
0.0000000000000027
 30
0.0
  9
$UCSYDIR
 10
-0.0000000000000027
 20
1.0
 30
0.0
  9
$PUCSNAME
  2

  9
$PUCSORG
 10
0.0
 20
0.0
 30
0.0
  9
$PUCSXDIR
 10
1.0
 20
0.0
 30
0.0
  9
$PUCSYDIR
 10
0.0
 20
1.0
 30
0.0
  9
$USERI1
 70
     0
  9
$USERI2
 70
     0
  9
$USERI3
 70
     0
  9
$USERI4
 70
     0
  9
$USERI5
 70
     0
  9
$USERR1
 40
0.0
  9
$USERR2
 40
0.0
  9
$USERR3
 40
0.0
  9
$USERR4
 40
0.0
  9
$USERR5
 40
0.0
  9
$WORLDVIEW
 70
     1
  9
$SHADEDGE
 70
     3
  9
$SHADEDIF
 70
    70
  9
$TILEMODE
 70
     1
  9
$MAXACTVP
 70
    64
  9
$PINSBASE
 10
0.0
 20
0.0
 30
0.0
  9
$PLIMCHECK
 70
     0
  9
$PEXTMIN
 10
1.000000000000000E+20
 20
1.000000000000000E+20
 30
1.000000000000000E+20
  9
$PEXTMAX
 10
-1.000000000000000E+20
 20
-1.000000000000000E+20
 30
-1.000000000000000E+20
  9
$PLIMMIN
 10
0.0
 20
0.0
  9
$PLIMMAX
 10
841.0
 20
594.0
  9
$UNITMODE
 70
     0
  9
$VISRETAIN
 70
     1
  9
$PLINEGEN
 70
     0
  9
$PSLTSCALE
 70
     0
  9
$TREEDEPTH
 70
  3020
  9
$PICKSTYLE
 70
     0
  9
$CMLSTYLE
  2
STANDARD
  9
$CMLJUST
 70
     0
  9
$CMLSCALE
 40
20.0
  9
$PROXYGRAPHICS
 70
     1
  9
$MEASUREMENT
 70
     1
  0
ENDSEC
  0
SECTION
  2
CLASSES
  0
CLASS
  1
ACDBDICTIONARYWDFLT
  2
AcDbDictionaryWithDefault
  3
AutoCAD 2000
 90
        0
280
     0
281
     0
  0
CLASS
  1
ACDBPLACEHOLDER
  2
AcDbPlaceHolder
  3
AutoCAD 2000
 90
        0
280
     0
281
     0
  0
CLASS
  1
LAYOUT
  2
AcDbLayout
  3
AutoCAD 2000
 90
        0
280
     0
281
     0
  0
CLASS
  1
AMGSETTINGSOBJ
  2
AmgSettingsObj
  3
"AcadM|Product Description: AutoCAD Mechanical 2000|Company: Autodesk"
 90
        0
280
     0
281
     0
  0
CLASS
  1
ACME_DOCUMENT
  2
AcMeDbDoc
  3
AcMeServices
 90
        0
280
     0
281
     0
  0
CLASS
  1
ACMESCOPE
  2
AcMeScope
  3
AcMeServices
 90
        0
280
     0
281
     0
  0
CLASS
  1
ACMECOMMANDHISTORY
  2
AcMeCommandHistory
  3
AcMeServices
 90
        0
280
     0
281
     0
  0
CLASS
  1
DICTIONARYVAR
  2
AcDbDictionaryVar
  3
AutoCAD 2000
 90
        0
280
     0
281
     0
  0
CLASS
  1
ACIMSYSVARMAN
  2
AcImSysVarManager
  3
AcMeServices
 90
        0
280
     0
281
     0
  0
CLASS
  1
ACIMREALSYSVAR
  2
AcImRealSysVar
  3
AcMeServices
 90
        0
280
     0
281
     0
  0
CLASS
  1
ACIMINTSYSVAR
  2
AcImIntSysVar
  3
AcMeServices
 90
        0
280
     0
281
     0
  0
CLASS
  1
ACMEDRAWINGMAN
  2
AcMeDrawingMan
  3
AcMeServices
 90
        0
280
     0
281
     0
  0
CLASS
  1
ACMEVIEW
  2
AcMeView
  3
AcMeServices
 90
        0
280
     0
281
     0
  0
CLASS
  1
ACDBENTITYCACHE
  2
AcMeEntityCache
  3
AcMeServices
 90
        0
280
     0
281
     0
  0
CLASS
  1
GSMANAGER
  2
AcMeGSManager
  3
AcMeServices
 90
        0
280
     0
281
     0
  0
CLASS
  1
AmdtInternalReactor
  2
AmdtInternalReactor
  3
AcMeServices
 90
        0
280
     0
281
     0
  0
CLASS
  1
ACMESTATEMGR
  2
AcMeStateMgr
  3
AcMeServices
 90
        0
280
     0
281
     0
  0
CLASS
  1
ACME_DATABASE
  2
AcMeDbDatabase
  3
AcMeServices
 90
        0
280
     0
281
     0
  0
CLASS
  1
ACRFINSADJUSTERMGR
  2
AcRfInsAdjusterMgr
  3
AcMeServices
 90
        0
280
     0
281
     0
  0
CLASS
  1
ACMDATADICTIONARY
  2
AcmDataDictionary
  3
"AcmSymBB|Product Description: AutoCAD Mechanical 2000|Company: Autodesk"
 90
        0
280
     0
281
     0
  0
CLASS
  1
ACMDATAENTRYBLOCK
  2
AcmDataEntryBlock
  3
"AcmSymBB|Product Description: AutoCAD Mechanical 2000|Company: Autodesk"
 90
        0
280
     0
281
     0
  0
CLASS
  1
AMGOBJPROPCFG
  2
AmgObjPropCfg
  3
"AmgLay|Product Description: AutoCAD Mechanical 2000|Company: Autodesk"
 90
        1
280
     0
281
     0
  0
CLASS
  1
ACAMGFILTERDAT
  2
AcAmgFilterDat
  3
"AcadM|Product Description: AutoCAD Mechanical 2000|Company: Autodesk"
 90
        0
280
     0
281
     0
  0
CLASS
  1
LAYER_INDEX
  2
AcDbLayerIndex
  3
AutoCAD 2000
 90
        0
280
     0
281
     0
  0
CLASS
  1
IDBUFFER
  2
AcDbIdBuffer
  3
AutoCAD 2000
 90
        0
280
     0
281
     0
  0
CLASS
  1
ACIMSTRSYSVAR
  2
AcImStrSysVar
  3
AcMeServices
 90
        0
280
     0
281
     0
  0
CLASS
  1
ACMSTANDARDJIS
  2
AcmStandardJIS
  3
"AcmSymBB|Product Description: AutoCAD Mechanical 2000|Company: Autodesk"
 90
        0
280
     0
281
     0
  0
CLASS
  1
ACMSURFSTANDARDJIS
  2
AcmSurfTextStdJIS
  3
"AcmSymBB|Product Description: AutoCAD Mechanical 2000|Company: Autodesk"
 90
        0
280
     0
281
     0
  0
CLASS
  1
ACMFCFSTANDARDJIS
  2
AcmFCFStdJIS
  3
"AcmSymBB|Product Description: AutoCAD Mechanical 2000|Company: Autodesk"
 90
        0
280
     0
281
     0
  0
CLASS
  1
ACMWELDSTANDARDJIS
  2
AcmWeldingStdJIS
  3
"AcmSymBB|Product Description: AutoCAD Mechanical 2000|Company: Autodesk"
 90
        0
280
     0
281
     0
  0
CLASS
  1
ACMIDSTANDARDJIS
  2
AcmIdStdJIS
  3
"AcmSymBB|Product Description: AutoCAD Mechanical 2000|Company: Autodesk"
 90
        0
280
     0
281
     0
  0
CLASS
  1
ACMDATUMSTANDARDJIS
  2
AcmDatumStdJIS
  3
"AcmSymBB|Product Description: AutoCAD Mechanical 2000|Company: Autodesk"
 90
        0
280
     0
281
     0
  0
CLASS
  1
ACMBOMSTANDARDJIS
  2
AcmBOMStdJIS
  3
"AcmSymBB|Product Description: AutoCAD Mechanical 2000|Company: Autodesk"
 90
        0
280
     0
281
     0
  0
CLASS
  1
ACMSTANDARDANSI
  2
AcmStandardANSI
  3
"AcmSymBB|Product Description: AutoCAD Mechanical 2000|Company: Autodesk"
 90
        0
280
     0
281
     0
  0
CLASS
  1
ACMSURFSTANDARDANSI
  2
AcmSurfTextStdANSI
  3
"AcmSymBB|Product Description: AutoCAD Mechanical 2000|Company: Autodesk"
 90
        0
280
     0
281
     0
  0
CLASS
  1
ACMFCFSTANDARDANSI
  2
AcmFCFStdANSI
  3
"AcmSymBB|Product Description: AutoCAD Mechanical 2000|Company: Autodesk"
 90
        0
280
     0
281
     0
  0
CLASS
  1
ACMWELDSTANDARDANSI
  2
AcmWeldingStdANSI
  3
"AcmSymBB|Product Description: AutoCAD Mechanical 2000|Company: Autodesk"
 90
        0
280
     0
281
     0
  0
CLASS
  1
ACMIDSTANDARDANSI
  2
AcmIdStdANSI
  3
"AcmSymBB|Product Description: AutoCAD Mechanical 2000|Company: Autodesk"
 90
        0
280
     0
281
     0
  0
CLASS
  1
ACMDATUMSTANDARDANSI
  2
AcmDatumStdANSI
  3
"AcmSymBB|Product Description: AutoCAD Mechanical 2000|Company: Autodesk"
 90
        0
280
     0
281
     0
  0
CLASS
  1
ACMBOMSTANDARDANSI
  2
AcmBOMStdANSI
  3
"AcmSymBB|Product Description: AutoCAD Mechanical 2000|Company: Autodesk"
 90
        0
280
     0
281
     0
  0
CLASS
  1
ACMSTANDARDBSI
  2
AcmStandardBSI
  3
"AcmSymBB|Product Description: AutoCAD Mechanical 2000|Company: Autodesk"
 90
        0
280
     0
281
     0
  0
CLASS
  1
ACMSURFSTANDARDBSI
  2
AcmSurfTextStdBSI
  3
"AcmSymBB|Product Description: AutoCAD Mechanical 2000|Company: Autodesk"
 90
        0
280
     0
281
     0
  0
CLASS
  1
ACMFCFSTANDARDBSI
  2
AcmFCFStdBSI
  3
"AcmSymBB|Product Description: AutoCAD Mechanical 2000|Company: Autodesk"
 90
        0
280
     0
281
     0
  0
CLASS
  1
ACMWELDSTANDARDBSI
  2
AcmWeldingStdBSI
  3
"AcmSymBB|Product Description: AutoCAD Mechanical 2000|Company: Autodesk"
 90
        0
280
     0
281
     0
  0
CLASS
  1
ACMIDSTANDARDBSI
  2
AcmIdStdBSI
  3
"AcmSymBB|Product Description: AutoCAD Mechanical 2000|Company: Autodesk"
 90
        0
280
     0
281
     0
  0
CLASS
  1
ACMDATUMSTANDARDBSI
  2
AcmDatumStdBSI
  3
"AcmSymBB|Product Description: AutoCAD Mechanical 2000|Company: Autodesk"
 90
        0
280
     0
281
     0
  0
CLASS
  1
ACMBOMSTANDARDBSI
  2
AcmBOMStdBSI
  3
"AcmSymBB|Product Description: AutoCAD Mechanical 2000|Company: Autodesk"
 90
        0
280
     0
281
     0
  0
CLASS
  1
LONG_TRANSACTION
  2
AcDbLongTransaction
  3
AutoCAD 2000
 90
        0
280
     0
281
     0
  0
CLASS
  1
LWPOLYLINE
  2
AcDbPolyline
  3
AutoCAD 2000
 90
        0
280
     0
281
     1
  0
CLASS
  1
HATCH
  2
AcDbHatch
  3
AutoCAD 2000
 90
        0
280
     0
281
     1
  0
CLASS
  1
XRECORD
  2
AcDbXrecord
  3
AutoCAD 2000
 90
        0
280
     0
281
     0
  0
ENDSEC
  0
SECTION
  2
TABLES
  0
TABLE
  2
VPORT
  5
8
330
0
100
AcDbSymbolTable
 70
     3
  0
VPORT
  5
5EA4
330
8
100
AcDbSymbolTableRecord
100
AcDbViewportTableRecord
  2
*ACTIVE
 70
     0
 10
0.0
 20
0.0
 11
1.0
 21
1.0
 12
-112.3197420997334
 22
-14.50113863140811
 13
0.0
 23
0.0
 14
2.5
 24
2.5
 15
10.0
 25
10.0
 16
0.0
 26
0.0
 36
1.0
 17
0.0
 27
0.0
 37
0.0
 40
195.0858228653428
 41
1.56570841889117
 42
50.0
 43
0.0
 44
0.0
 50
0.0
 51
0.0
 71
     0
 72
   100
 73
     1
 74
     1
 75
     0
 76
     0
 77
     0
 78
     0
  0
ENDTAB
  0
TABLE
  2
LTYPE
  5
5
330
0
100
AcDbSymbolTable
 70
    10
  0
LTYPE
  5
14
330
5
100
AcDbSymbolTableRecord
100
AcDbLinetypeTableRecord
  2
BYBLOCK
 70
     0
  3

 72
    65
 73
     0
 40
0.0
  0
LTYPE
  5
15
330
5
100
AcDbSymbolTableRecord
100
AcDbLinetypeTableRecord
  2
BYLAYER
 70
     0
  3

 72
    65
 73
     0
 40
0.0
  0
LTYPE
  5
16
330
5
100
AcDbSymbolTableRecord
100
AcDbLinetypeTableRecord
  2
CONTINUOUS
 70
     0
  3
Solid line
 72
    65
 73
     0
 40
0.0
  0
LTYPE
  5
4B
330
5
100
AcDbSymbolTableRecord
100
AcDbLinetypeTableRecord
  2
AM_ISO02W050
 70
     0
  3
__ __ __ __ __ __ __ __ __ __ __ __ __ __ __
 72
    65
 73
     2
 40
7.5
 49
6.0
 74
     0
 49
-1.5
 74
     0
  0
LTYPE
  5
4C
330
5
100
AcDbSymbolTableRecord
100
AcDbLinetypeTableRecord
  2
AM_ISO08W050
 70
     0
  3
____ . ____ . ____ . ____ . ____ . ____ . ____
 72
    65
 73
     4
 40
18.0
 49
12.0
 74
     0
 49
-1.5
 74
     0
 49
3.0
 74
     0
 49
-1.5
 74
     0
  0
LTYPE
  5
4D
330
5
100
AcDbSymbolTableRecord
100
AcDbLinetypeTableRecord
  2
AM_ISO09W050
 70
     0
  3
_____ . . _____ . . _____ . . ____ .. ____
 72
    65
 73
     6
 40
22.5
 49
12.0
 74
     0
 49
-1.5
 74
     0
 49
3.0
 74
     0
 49
-1.5
 74
     0
 49
3.0
 74
     0
 49
-1.5
 74
     0
  0
LTYPE
  5
4E
330
5
100
AcDbSymbolTableRecord
100
AcDbLinetypeTableRecord
  2
AMCONSTR
 70
     0
  3
_______________________
 72
    65
 73
     2
 40
9999.0
 49
9999.0
 74
     0
 49
0.0
 74
     0
  0
LTYPE
  5
4F
330
5
100
AcDbSymbolTableRecord
100
AcDbLinetypeTableRecord
  2
AM_ISO02W050X2
 70
     0
  3
 _ _ _ _ _ _ _ _ _ _ _ _
 72
    65
 73
     2
 40
3.75
 49
3.0
 74
     0
 49
-0.75
 74
     0
  0
LTYPE
  5
50
330
5
100
AcDbSymbolTableRecord
100
AcDbLinetypeTableRecord
  2
AM_ISO08W050X2
 70
     0
  3
__ . __ . __ . __ . __ . __
 72
    65
 73
     4
 40
9.0
 49
6.0
 74
     0
 49
-0.75
 74
     0
 49
1.5
 74
     0
 49
-0.75
 74
     0
  0
LTYPE
  5
53
330
5
100
AcDbSymbolTableRecord
100
AcDbLinetypeTableRecord
  2
AMZIGZAG
 70
     0
  3
/\/-/\/-/\/-/\/-/\/-/\/
 72
    65
 73
     2
 40
11.00009999999999
 49
0.0001
 74
     4
 75
   135
340
52
 46
0.04
 50
0.0
 44
0.0
 45
0.0
 49
-11.0
 74
     0
  0
LTYPE
  5
166
330
5
100
AcDbSymbolTableRecord
100
AcDbLinetypeTableRecord
  2
ACJISTGL
 70
     0
  3
_ _ _ _ _
 72
    65
 73
     2
 40
3.0
 49
2.0
 74
     0
 49
-1.0
 74
     0
  0
LTYPE
  5
26A
330
5
100
AcDbSymbolTableRecord
100
AcDbLinetypeTableRecord
  2
ACJISTGB
 70
     0
  3
__ . . __ . .
 72
    65
 73
     6
 40
9.0
 49
4.0
 74
     0
 49
-1.0
 74
     0
 49
1.0
 74
     0
 49
-1.0
 74
     0
 49
1.0
 74
     0
 49
-1.0
 74
     0
  0
ENDTAB
  0
TABLE
  2
LAYER
  5
2
330
0
100
AcDbSymbolTable
 70
     8
  0
LAYER
  5
10
330
2
100
AcDbSymbolTableRecord
100
AcDbLayerTableRecord
  2
0
 70
     0
 62
     7
  6
CONTINUOUS
  0
LAYER
  5
3F9
330
2
100
AcDbSymbolTableRecord
100
AcDbLayerTableRecord
  2
AM_0
 70
     0
 62
     7
  6
CONTINUOUS
  0
LAYER
  5
C7C
330
2
100
AcDbSymbolTableRecord
100
AcDbLayerTableRecord
  2
AM_7
 70
     0
 62
     4
  6
AM_ISO08W050
  0
LAYER
  5
C97
330
2
100
AcDbSymbolTableRecord
100
AcDbLayerTableRecord
  2
AM_11
 70
     0
 62
     3
  6
AM_ISO09W050
  0
LAYER
  5
CC5
330
2
100
AcDbSymbolTableRecord
100
AcDbLayerTableRecord
  2
AM_5
 70
     0
 62
     3
  6
CONTINUOUS
  0
LAYER
  5
CC7
330
2
100
AcDbSymbolTableRecord
100
AcDbLayerTableRecord
  2
DEFPOINTS
 70
     0
 62
     7
  6
CONTINUOUS
  0
LAYER
  5
19BC
330
2
100
AcDbSymbolTableRecord
100
AcDbLayerTableRecord
  2
AM_6
 70
     0
 62
     2
  6
CONTINUOUS
  0
LAYER
  5
5D2A
330
2
100
AcDbSymbolTableRecord
100
AcDbLayerTableRecord
  2
AM_CL
 70
     0
 62
     1
  6
AMCONSTR
  0
ENDTAB
  0
TABLE
  2
STYLE
  5
3
330
0
100
AcDbSymbolTable
 70
     5
  0
STYLE
  5
11
330
3
100
AcDbSymbolTableRecord
100
AcDbTextStyleTableRecord
  2
STANDARD
 70
     0
 40
0.0
 41
1.0
 50
0.0
 71
     0
 42
2.5
  3
simplex.shx
  4
EXTFONT.SHX
  0
STYLE
  5
52
330
3
100
AcDbSymbolTableRecord
100
AcDbTextStyleTableRecord
  2

 70
     1
 40
0.0
 41
1.0
 50
0.0
 71
     0
 42
2.5
  3
ltypeshp.shx
  4

  0
STYLE
  5
6B
330
3
100
AcDbSymbolTableRecord
100
AcDbTextStyleTableRecord
  2
ASAMI
 70
     0
 40
0.0
 41
1.0
 50
0.0
 71
     0
 42
2.5
  3
simplex.shx
  4
EXTFONT.SHX
  0
STYLE
  5
262
330
3
100
AcDbSymbolTableRecord
100
AcDbTextStyleTableRecord
  2
ACJISTS
 70
     0
 40
1.0
 41
1.0
 50
0.0
 71
     0
 42
2.5
  3
simplex.shx
  4
bigfont.shx
  0
STYLE
  5
269
330
3
100
AcDbSymbolTableRecord
100
AcDbTextStyleTableRecord
  2
ACJISGDT
 70
     0
 40
0.0
 41
1.0
 50
0.0
 71
     0
 42
2.5
  3
amgdtans.shx
  4

  0
ENDTAB
  0
TABLE
  2
VIEW
  5
6
330
0
100
AcDbSymbolTable
 70
     0
  0
ENDTAB
  0
TABLE
  2
UCS
  5
7
330
0
100
AcDbSymbolTable
 70
     0
  0
ENDTAB
  0
TABLE
  2
APPID
  5
9
330
0
100
AcDbSymbolTable
 70
    16
  0
APPID
  5
12
330
9
100
AcDbSymbolTableRecord
100
AcDbRegAppTableRecord
  2
ACAD
 70
     0
  0
APPID
  5
30
330
9
100
AcDbSymbolTableRecord
100
AcDbRegAppTableRecord
  2
MCAD_NO_VIS
 70
     0
  0
APPID
  5
31
330
9
100
AcDbSymbolTableRecord
100
AcDbRegAppTableRecord
  2
ACAD_TEMP_GRAPHIC
 70
     0
  0
APPID
  5
2C2
330
9
100
AcDbSymbolTableRecord
100
AcDbRegAppTableRecord
  2
GENIUS_GENDTOL_13
 70
     0
  0
APPID
  5
339
330
9
100
AcDbSymbolTableRecord
100
AcDbRegAppTableRecord
  2
GENIUS_GENODEF_13
 70
     0
  0
APPID
  5
33A
330
9
100
AcDbSymbolTableRecord
100
AcDbRegAppTableRecord
  2
GENIUS_GENOBJ-N-RSBK_13
 70
     0
  0
APPID
  5
33B
330
9
100
AcDbSymbolTableRecord
100
AcDbRegAppTableRecord
  2
GENIUS_GENOBJ-N-LIB_13
 70
     0
  0
APPID
  5
33C
330
9
100
AcDbSymbolTableRecord
100
AcDbRegAppTableRecord
  2
GENIUS_GENSCALE_13
 70
     0
  0
APPID
  5
378
330
9
100
AcDbSymbolTableRecord
100
AcDbRegAppTableRecord
  2
GENIUS_GENDIMSH_14
 70
     0
  0
APPID
  5
C82
330
9
100
AcDbSymbolTableRecord
100
AcDbRegAppTableRecord
  2
GENIUS_GENOBJ-N-CRS_13
 70
     0
  0
APPID
  5
C83
330
9
100
AcDbSymbolTableRecord
100
AcDbRegAppTableRecord
  2
GENIUS_GENOENT_13
 70
     0
  0
APPID
  5
C84
330
9
100
AcDbSymbolTableRecord
100
AcDbRegAppTableRecord
  2
GENIUS_GENOREF_13
 70
     0
  0
APPID
  5
C85
330
9
100
AcDbSymbolTableRecord
100
AcDbRegAppTableRecord
  2
GENIUS_GENOLIS_13
 70
     0
  0
APPID
  5
CA0
330
9
100
AcDbSymbolTableRecord
100
AcDbRegAppTableRecord
  2
GENIUS_GENOBJ-N-CEN_13
 70
     0
  0
APPID
  5
1E1E
330
9
100
AcDbSymbolTableRecord
100
AcDbRegAppTableRecord
  2
GENIUS_GENFIL_13
 70
     0
  0
APPID
  5
1E1F
330
9
100
AcDbSymbolTableRecord
100
AcDbRegAppTableRecord
  2
GENIUS_GENOBJ-N-CHA_13
 70
     0
  0
ENDTAB
  0
TABLE
  2
DIMSTYLE
  5
A
330
0
100
AcDbSymbolTable
 70
     9
  0
DIMSTYLE
105
58
330
A
100
AcDbSymbolTableRecord
100
AcDbDimStyleTableRecord
  2
AM_JIS
 70
     0
  3

  4
"
  5
OPEN30
  6

  7

 40
1.0
 41
2.5
 42
1.0
 43
12.0
 44
1.0
 45
0.0
 46
0.0
 47
0.1
 48
0.1
140
3.2
141
0.0
142
0.0
143
0.0393701
144
1.0
145
0.0
146
0.71
147
1.5
 71
     0
 72
     0
 73
     0
 74
     0
 75
     0
 76
     0
 77
     3
 78
     8
170
     0
171
     2
172
     1
173
     0
174
     0
175
     0
176
   256
177
   256
178
     2
270
     2
271
     3
272
     3
273
     2
274
     2
340
6B
275
     0
280
     0
281
     0
282
     0
283
     0
284
     0
285
     0
286
     0
287
     3
288
     0
  0
DIMSTYLE
105
5F
330
A
100
AcDbSymbolTableRecord
100
AcDbDimStyleTableRecord
  2
AM_JIS$3
 70
     0
  3

  4
"
  5
OPEN30
  6

  7

 40
1.0
 41
2.5
 42
1.0
 43
10.0
 44
1.0
 45
0.0
 46
0.0
 47
0.1
 48
0.1
140
3.2
141
0.0
142
0.0
143
0.0393701
144
1.0
145
0.0
146
0.71
147
1.5
 71
     0
 72
     0
 73
     0
 74
     1
 75
     0
 76
     0
 77
     3
 78
     8
170
     0
171
     2
172
     0
173
     0
174
     0
175
     0
176
   256
177
   256
178
     2
270
     2
271
     2
272
     3
273
     2
274
     2
340
6B
275
     0
280
     0
281
     0
282
     0
283
     0
284
     0
285
     0
286
     0
287
     0
288
     1
  0
DIMSTYLE
105
60
330
A
100
AcDbSymbolTableRecord
100
AcDbDimStyleTableRecord
  2
AM_JIS$4
 70
     0
  3

  4
"
  5
OPEN30
  6

  7

 40
1.0
 41
2.5
 42
1.0
 43
10.0
 44
1.0
 45
0.0
 46
0.0
 47
0.1
 48
0.1
140
3.2
141
0.0
142
0.0
143
0.0393701
144
1.0
145
0.0
146
0.71
147
1.5
 71
     0
 72
     0
 73
     0
 74
     1
 75
     0
 76
     0
 77
     3
 78
     8
170
     0
171
     2
172
     0
173
     0
174
     0
175
     0
176
   256
177
   256
178
     2
270
     2
271
     2
272
     3
273
     2
274
     2
340
6B
275
     0
280
     0
281
     0
282
     0
283
     0
284
     0
285
     0
286
     0
287
     0
288
     1
  0
DIMSTYLE
105
61
330
A
100
AcDbSymbolTableRecord
100
AcDbDimStyleTableRecord
  2
AM_JIS$6
 70
     0
  3

  4
"
  5
OPEN30
  6

  7

 40
1.0
 41
2.5
 42
1.0
 43
10.0
 44
1.0
 45
0.0
 46
0.0
 47
0.1
 48
0.1
140
3.2
141
0.0
142
0.0
143
0.0393701
144
1.0
145
0.0
146
0.71
147
1.5
 71
     0
 72
     0
 73
     0
 74
     0
 75
     0
 76
     0
 77
     0
 78
     8
170
     0
171
     2
172
     1
173
     0
174
     0
175
     0
176
   256
177
   256
178
     2
270
     2
271
     2
272
     2
273
     2
274
     2
340
6B
275
     0
280
     0
281
     0
282
     0
283
     0
284
     0
285
     0
286
     0
287
     3
288
     0
  0
DIMSTYLE
105
62
330
A
100
AcDbSymbolTableRecord
100
AcDbDimStyleTableRecord
  2
AM_JIS$7
 70
     0
  3

  4
"
  5
OPEN30
  6

  7

 40
1.0
 41
2.5
 42
1.0
 43
10.0
 44
1.0
 45
0.0
 46
0.0
 47
0.1
 48
0.1
140
3.2
141
0.0
142
0.0
143
0.0393701
144
1.0
145
0.0
146
0.71
147
1.5
 71
     0
 72
     0
 73
     0
 74
     0
 75
     0
 76
     0
 77
     3
 78
     8
170
     0
171
     2
172
     1
173
     0
174
     0
175
     0
176
   256
177
   256
178
     2
270
     2
271
     2
272
     3
273
     2
274
     2
340
6B
275
     0
280
     0
281
     0
282
     0
283
     0
284
     0
285
     0
286
     0
287
     3
288
     0
  0
DIMSTYLE
105
63
330
A
100
AcDbSymbolTableRecord
100
AcDbDimStyleTableRecord
  2
AM_JIS$SF
 70
     0
  3

  4
"
  5
OPEN30
  6

  7

 40
1.0
 41
2.5
 42
1.0
 43
10.0
 44
1.0
 45
0.0
 46
0.0
 47
0.1
 48
0.1
140
3.2
141
0.0
142
0.0
143
0.0393701
144
1.0
145
0.0
146
0.71
147
1.5
 71
     0
 72
     0
 73
     0
 74
     0
 75
     1
 76
     1
 77
     3
 78
     8
170
     0
171
     2
172
     1
173
     0
174
     0
175
     0
176
   256
177
   256
178
     2
270
     2
271
     2
272
     2
273
     2
274
     2
340
6B
275
     0
280
     0
281
     0
282
     0
283
     0
284
     0
285
     0
286
     0
287
     3
288
     0
  0
DIMSTYLE
105
68
330
A
100
AcDbSymbolTableRecord
100
AcDbDimStyleTableRecord
  2
AM_JIS$SH
 70
     0
  3

  4
"
  5

  6
GENAXEH
  7
OPEN30
 40
1.0
 41
2.5
 42
1.0
 43
10.0
 44
1.0
 45
0.0
 46
0.0
 47
0.1
 48
0.1
140
3.2
141
0.0
142
0.0
143
0.0393701
144
2.0
145
0.0
146
0.71
147
1.5
 71
     0
 72
     0
 73
     0
 74
     0
 75
     1
 76
     1
 77
     3
 78
     8
170
     0
171
     2
172
     1
173
     1
174
     0
175
     0
176
   256
177
   256
178
     2
270
     2
271
     2
272
     2
273
     2
274
     2
340
6B
275
     0
280
     0
281
     0
282
     0
283
     0
284
     0
285
     0
286
     0
287
     3
288
     0
  0
DIMSTYLE
105
B34
102
{ACAD_REACTORS
330
5D74
102
}
330
A
100
AcDbSymbolTableRecord
100
AcDbDimStyleTableRecord
  2
AM_JIS$2
 70
     0
  3

  4
"
  5
OPEN30
  6

  7

 40
1.0
 41
2.5
 42
1.0
 43
12.0
 44
1.0
 45
0.0
 46
0.0
 47
0.1
 48
0.1
140
3.2
141
0.0
142
0.0
143
0.0393701
144
1.0
145
0.0
146
0.71
147
1.5
 71
     0
 72
     0
 73
     0
 74
     0
 75
     0
 76
     0
 77
     3
 78
     8
170
     0
171
     2
172
     1
173
     0
174
     0
175
     0
176
   256
177
   256
178
     2
270
     2
271
     3
272
     3
273
     2
274
     2
340
6B
275
     0
280
     0
281
     0
282
     0
283
     0
284
     0
285
     0
286
     0
287
     3
288
     0
  0
DIMSTYLE
105
BA5
102
{ACAD_REACTORS
330
2216
330
CC6
330
DF5
330
5B3A
102
}
330
A
100
AcDbSymbolTableRecord
100
AcDbDimStyleTableRecord
  2
AM_JIS$0
 70
     0
  3

  4
"
  5
OPEN30
  6

  7

 40
1.0
 41
2.5
 42
0.0
 43
10.0
 44
1.0
 45
0.0
 46
0.0
 47
0.1
 48
0.1000000001
140
3.799999999999999
141
0.0
142
0.0
143
0.0393701
144
1.0
145
0.0
146
0.71
147
1.5
 71
     0
 72
     0
 73
     0
 74
     0
 75
     0
 76
     0
 77
     3
 78
     1
170
     0
171
     2
172
     1
173
     0
174
     0
175
     0
176
     3
177
     3
178
     2
270
     2
271
     2
272
     2
273
     2
274
     2
340
11
275
     1
280
     0
281
     0
282
     0
283
     0
284
     8
285
     0
286
     0
287
     0
288
     0
  0
ENDTAB
  0
TABLE
  2
BLOCK_RECORD
  5
1
330
0
100
AcDbSymbolTable
 70
    10
  0
BLOCK_RECORD
  5
1F
102
{ACAD_XDICTIONARY
360
74
102
}
330
1
100
AcDbSymbolTableRecord
100
AcDbBlockTableRecord
  2
*MODEL_SPACE
  0
BLOCK_RECORD
  5
101
102
{ACAD_XDICTIONARY
360
5ECD
102
}
330
1
100
AcDbSymbolTableRecord
100
AcDbBlockTableRecord
  2
*PAPER_SPACE
  0
BLOCK_RECORD
  5
59
330
1
100
AcDbSymbolTableRecord
100
AcDbBlockTableRecord
  2
_OPEN30
  0
BLOCK_RECORD
  5
64
330
1
100
AcDbSymbolTableRecord
100
AcDbBlockTableRecord
  2
GENAXEH
  0
BLOCK_RECORD
  5
CC8
330
1
100
AcDbSymbolTableRecord
100
AcDbBlockTableRecord
  2
*D5
  0
BLOCK_RECORD
  5
DF6
330
1
100
AcDbSymbolTableRecord
100
AcDbBlockTableRecord
  2
*D6
  0
BLOCK_RECORD
  5
2217
330
1
100
AcDbSymbolTableRecord
100
AcDbBlockTableRecord
  2
*D7
  0
BLOCK_RECORD
  5
5B3B
330
1
100
AcDbSymbolTableRecord
100
AcDbBlockTableRecord
  2
*D8
  0
BLOCK_RECORD
  5
5D75
330
1
100
AcDbSymbolTableRecord
100
AcDbBlockTableRecord
  2
*D9
  0
ENDTAB
  0
ENDSEC
  0
SECTION
  2
BLOCKS
  0
BLOCK
  5
20
330
1F
100
AcDbEntity
  8
0
100
AcDbBlockBegin
  2
*MODEL_SPACE
 70
     0
 10
0.0
 20
0.0
 30
0.0
  3
*MODEL_SPACE
  1

  0
ENDBLK
  5
21
330
1F
100
AcDbEntity
  8
0
100
AcDbBlockEnd
  0
BLOCK
  5
103
330
101
100
AcDbEntity
 67
     1
  8
0
100
AcDbBlockBegin
  2
*PAPER_SPACE
 70
     0
 10
0.0
 20
0.0
 30
0.0
  3
*PAPER_SPACE
  1

  0
ENDBLK
  5
104
330
101
100
AcDbEntity
 67
     1
  8
0
100
AcDbBlockEnd
  0
BLOCK
  5
5D
330
59
100
AcDbEntity
  8
0
100
AcDbBlockBegin
  2
_OPEN30
 70
     0
 10
0.0
 20
0.0
 30
0.0
  3
_OPEN30
  1

  0
LINE
  5
5A
330
59
100
AcDbEntity
  8
0
 62
     0
100
AcDbLine
 10
-1.0
 20
0.26794919
 30
0.0
 11
0.0
 21
0.0
 31
0.0
  0
LINE
  5
5B
330
59
100
AcDbEntity
  8
0
 62
     0
100
AcDbLine
 10
0.0
 20
0.0
 30
0.0
 11
-1.0
 21
-0.26794919
 31
0.0
  0
LINE
  5
5C
330
59
100
AcDbEntity
  8
0
 62
     0
100
AcDbLine
 10
0.0
 20
0.0
 30
0.0
 11
-1.0
 21
0.0
 31
0.0
  0
ENDBLK
  5
5E
330
59
100
AcDbEntity
  8
0
100
AcDbBlockEnd
  0
BLOCK
  5
66
330
64
100
AcDbEntity
  8
0
100
AcDbBlockBegin
  2
GENAXEH
 70
     0
 10
0.0
 20
0.0
 30
0.0
  3
GENAXEH
  1

  0
LINE
  5
65
330
64
100
AcDbEntity
  8
0
100
AcDbLine
 10
-1.0
 20
0.0
 30
0.0
 11
1.0
 21
0.0
 31
0.0
  0
ENDBLK
  5
67
330
64
100
AcDbEntity
  8
0
100
AcDbBlockEnd
  0
BLOCK
  5
CD2
330
CC8
100
AcDbEntity
  8
0
100
AcDbBlockBegin
  2
*D5
 70
     1
 10
0.0
 20
0.0
 30
0.0
  3
*D5
  1

  0
LINE
  5
5D41
330
CC8
100
AcDbEntity
  8
AM_5
 62
     3
100
AcDbLine
 10
-242.9999999999992
 20
-9.750002054481344
 30
0.0
 11
-242.9999999999992
 21
-35.50149369155612
 31
0.0
  0
LINE
  5
5D42
330
CC8
100
AcDbEntity
  8
AM_5
 62
     3
100
AcDbLine
 10
-3.999999999999109
 20
-10.50000097600599
 30
0.0
 11
-3.99999999999911
 21
-35.50149369155612
 31
0.0
  0
LINE
  5
5D43
330
CC8
100
AcDbEntity
  8
AM_5
 62
     3
100
AcDbLine
 10
-240.4999999999992
 20
-34.50149369155612
 30
0.0
 11
-6.49999999999911
 21
-34.50149369155612
 31
0.0
  0
INSERT
  5
5D44
330
CC8
100
AcDbEntity
  8
AM_5
 62
     3
100
AcDbBlockReference
  2
_OPEN30
 10
-242.9999999999992
 20
-34.50149369155612
 30
0.0
 41
2.5
 42
2.5
 43
2.5
 50
180.0
  0
INSERT
  5
5D45
330
CC8
100
AcDbEntity
  8
AM_5
 62
     3
100
AcDbBlockReference
  2
_OPEN30
 10
-3.99999999999911
 20
-34.50149369155612
 30
0.0
 41
2.5
 42
2.5
 43
2.5
  0
MTEXT
  5
5D46
330
CC8
100
AcDbEntity
  8
AM_5
 62
     2
100
AcDbMText
 10
-123.4999999999991
 20
-31.10149369155613
 30
0.0
 40
3.799999999999999
 41
0.0
 71
     5
 72
     1
  1
239
1001
ACAD
1000
MTEXTBEGIN
1070
    73
1070
     1
1070
    44
1040
1.0
1070
    74
1070
     0
1000
MTEXTEND
  0
POINT
  5
5D47
330
CC8
100
AcDbEntity
  8
DEFPOINTS
 62
     0
100
AcDbPoint
 10
-242.9999999999992
 20
-9.750002054481344
 30
0.0
  0
POINT
  5
5D48
330
CC8
100
AcDbEntity
  8
DEFPOINTS
 62
     0
100
AcDbPoint
 10
-3.999999999999109
 20
-10.50000097600599
 30
0.0
  0
POINT
  5
5D49
330
CC8
100
AcDbEntity
  8
DEFPOINTS
 62
     0
100
AcDbPoint
 10
-3.99999999999911
 20
-34.50149369155612
 30
0.0
  0
ENDBLK
  5
CD3
330
CC8
100
AcDbEntity
  8
0
100
AcDbBlockEnd
  0
BLOCK
  5
E00
330
DF6
100
AcDbEntity
  8
0
100
AcDbBlockBegin
  2
*D6
 70
     1
 10
0.0
 20
0.0
 30
0.0
  3
*D6
  1

  0
LINE
  5
5D38
330
DF6
100
AcDbEntity
  8
AM_5
 62
     3
100
AcDbLine
 10
-171.999999999999
 20
-7.046537689246429
 30
0.0
 11
-171.999999999999
 21
-25.50149369155596
 31
0.0
  0
LINE
  5
5D39
330
DF6
100
AcDbEntity
  8
AM_5
 62
     3
100
AcDbLine
 10
-3.999999999999109
 20
-10.50000097600599
 30
0.0
 11
-3.99999999999911
 21
-25.50149369155596
 31
0.0
  0
LINE
  5
5D3A
330
DF6
100
AcDbEntity
  8
AM_5
 62
     3
100
AcDbLine
 10
-169.499999999999
 20
-24.50149369155596
 30
0.0
 11
-6.49999999999911
 21
-24.50149369155596
 31
0.0
  0
INSERT
  5
5D3B
330
DF6
100
AcDbEntity
  8
AM_5
 62
     3
100
AcDbBlockReference
  2
_OPEN30
 10
-171.999999999999
 20
-24.50149369155596
 30
0.0
 41
2.5
 42
2.5
 43
2.5
 50
180.0
  0
INSERT
  5
5D3C
330
DF6
100
AcDbEntity
  8
AM_5
 62
     3
100
AcDbBlockReference
  2
_OPEN30
 10
-3.99999999999911
 20
-24.50149369155596
 30
0.0
 41
2.5
 42
2.5
 43
2.5
  0
MTEXT
  5
5D3D
330
DF6
100
AcDbEntity
  8
AM_5
 62
     2
100
AcDbMText
 10
-87.9999999999991
 20
-21.10149369155596
 30
0.0
 40
3.799999999999999
 41
0.0
 71
     5
 72
     1
  1
168
1001
ACAD
1000
MTEXTBEGIN
1070
    73
1070
     1
1070
    44
1040
1.0
1070
    74
1070
     0
1000
MTEXTEND
  0
POINT
  5
5D3E
330
DF6
100
AcDbEntity
  8
DEFPOINTS
 62
     0
100
AcDbPoint
 10
-171.999999999999
 20
-7.046537689246429
 30
0.0
  0
POINT
  5
5D3F
330
DF6
100
AcDbEntity
  8
DEFPOINTS
 62
     0
100
AcDbPoint
 10
-3.999999999999109
 20
-10.50000097600599
 30
0.0
  0
POINT
  5
5D40
330
DF6
100
AcDbEntity
  8
DEFPOINTS
 62
     0
100
AcDbPoint
 10
-3.99999999999911
 20
-24.50149369155596
 30
0.0
  0
ENDBLK
  5
E01
330
DF6
100
AcDbEntity
  8
0
100
AcDbBlockEnd
  0
BLOCK
  5
2221
330
2217
100
AcDbEntity
  8
0
100
AcDbBlockBegin
  2
*D7
 70
     1
 10
0.0
 20
0.0
 30
0.0
  3
*D7
  1

  0
LINE
  5
5D4A
330
2217
100
AcDbEntity
  8
AM_5
 62
     3
100
AcDbLine
 10
-242.2500000000001
 20
10.49999999999796
 30
0.0
 11
-260.0000009999992
 21
10.49999999999791
 31
0.0
  0
LINE
  5
5D4B
330
2217
100
AcDbEntity
  8
AM_5
 62
     3
100
AcDbLine
 10
-242.25
 20
-10.50000205448117
 30
0.0
 11
-260.0000009999991
 21
-10.50000205448122
 31
0.0
  0
LINE
  5
5D4C
330
2217
100
AcDbEntity
  8
AM_5
 62
     3
100
AcDbLine
 10
-259.0000009999992
 20
7.999999999997921
 30
0.0
 11
-259.0000009999992
 21
-8.000002054481218
 31
0.0
  0
INSERT
  5
5D4D
330
2217
100
AcDbEntity
  8
AM_5
 62
     3
100
AcDbBlockReference
  2
_OPEN30
 10
-259.0000009999992
 20
10.49999999999792
 30
0.0
 41
2.5
 42
2.5
 43
2.5
 50
90.00000000000017
  0
INSERT
  5
5D4E
330
2217
100
AcDbEntity
  8
AM_5
 62
     3
100
AcDbBlockReference
  2
_OPEN30
 10
-259.0000009999991
 20
-10.50000205448121
 30
0.0
 41
2.5
 42
2.5
 43
2.5
 50
270.0000000000001
  0
MTEXT
  5
5D4F
330
2217
100
AcDbEntity
  8
AM_5
 62
     2
100
AcDbMText
 10
-262.4000009999992
 20
-0.0000010272416475
 30
0.0
 40
3.799999999999999
 41
0.0
 71
     5
 72
     1
  1
%%c21
 11
-0.0000000000000028
 21
1.0
 31
0.0
1001
ACAD
1000
MTEXTBEGIN
1070
    73
1070
     1
1070
    44
1040
1.0
1070
    74
1070
     0
1000
MTEXTEND
  0
POINT
  5
5D50
330
2217
100
AcDbEntity
  8
DEFPOINTS
 62
     0
100
AcDbPoint
 10
-242.2500000000001
 20
10.49999999999872
 30
0.0
  0
POINT
  5
5D51
330
2217
100
AcDbEntity
  8
DEFPOINTS
 62
     0
100
AcDbPoint
 10
-242.2500000000001
 20
-10.50000205448041
 30
0.0
  0
POINT
  5
5D52
330
2217
100
AcDbEntity
  8
DEFPOINTS
 62
     0
100
AcDbPoint
 10
-259.0000009999992
 20
-10.50000205448041
 30
0.0
  0
ENDBLK
  5
2222
330
2217
100
AcDbEntity
  8
0
100
AcDbBlockEnd
  0
BLOCK
  5
5B45
330
5B3B
100
AcDbEntity
  8
0
100
AcDbBlockBegin
  2
*D8
 70
     1
 10
0.0
 20
0.0
 30
0.0
  3
*D8
  1

  0
LINE
  5
5D5E
330
5B3B
100
AcDbEntity
  8
AM_5
 62
     3
100
AcDbLine
 10
-3.999999999999142
 20
10.49999902399342
 30
0.0
 11
18.54288048299758
 21
10.49999902399348
 31
0.0
  0
LINE
  5
5D5F
330
5B3B
100
AcDbEntity
  8
AM_5
 62
     3
100
AcDbLine
 10
-3.999999999999053
 20
-10.500000976006
 30
0.0
 11
18.54288048299764
 21
-10.50000097600594
 31
0.0
  0
LINE
  5
5D60
330
5B3B
100
AcDbEntity
  8
AM_5
 62
     3
100
AcDbLine
 10
17.54288048299759
 20
7.999999023993486
 30
0.0
 11
17.54288048299764
 21
-8.000000976005949
 31
0.0
  0
INSERT
  5
5D61
330
5B3B
100
AcDbEntity
  8
AM_5
 62
     3
100
AcDbBlockReference
  2
_OPEN30
 10
17.54288048299758
 20
10.49999902399348
 30
0.0
 41
2.5
 42
2.5
 43
2.5
 50
90.00000000000017
  0
INSERT
  5
5D62
330
5B3B
100
AcDbEntity
  8
AM_5
 62
     3
100
AcDbBlockReference
  2
_OPEN30
 10
17.54288048299764
 20
-10.50000097600594
 30
0.0
 41
2.5
 42
2.5
 43
2.5
 50
270.0000000000001
  0
MTEXT
  5
5D63
330
5B3B
100
AcDbEntity
  8
AM_5
 62
     2
100
AcDbMText
 10
14.14288048299761
 20
-0.0000009760062424
 30
0.0
 40
3.799999999999999
 41
0.0
 71
     5
 72
     1
  1
%%c21
 11
-0.0000000000000028
 21
1.0
 31
0.0
1001
ACAD
1000
MTEXTBEGIN
1070
    73
1070
     1
1070
    44
1040
1.0
1070
    74
1070
     0
1000
MTEXTEND
  0
POINT
  5
5D64
330
5B3B
100
AcDbEntity
  8
DEFPOINTS
 62
     0
100
AcDbPoint
 10
-3.999999999999109
 20
10.49999902399343
 30
0.0
  0
POINT
  5
5D65
330
5B3B
100
AcDbEntity
  8
DEFPOINTS
 62
     0
100
AcDbPoint
 10
-3.999999999999086
 20
-10.500000976006
 30
0.0
  0
POINT
  5
5D66
330
5B3B
100
AcDbEntity
  8
DEFPOINTS
 62
     0
100
AcDbPoint
 10
17.54288048299761
 20
-10.500000976006
 30
0.0
  0
ENDBLK
  5
5B46
330
5B3B
100
AcDbEntity
  8
0
100
AcDbBlockEnd
  0
BLOCK
  5
5D83
330
5D75
100
AcDbEntity
  8
0
100
AcDbBlockBegin
  2
*D9
 70
     1
 10
0.0
 20
0.0
 30
0.0
  3
*D9
  1

  0
LINE
  5
5ECF
330
5D75
100
AcDbEntity
  8
AM_5
100
AcDbLine
 10
0.3420211423209116
 20
-0.9396922571810517
 30
0.0
 11
10.19213312436913
 21
-28.00256298822864
 31
0.0
  0
LINE
  5
5ED0
330
5D75
100
AcDbEntity
  8
AM_5
100
AcDbLine
 10
0.3420211423208923
 20
0.9396922571810215
 30
0.0
 11
10.19213312436855
 21
28.00256298822882
 31
0.0
  0
ARC
  5
5ED1
330
5D75
100
AcDbEntity
  8
AM_5
100
AcDbCircle
 10
0.0000000000007105
 20
-0.0000000000000185
 30
0.0
 40
28.79971663513866
100
AcDbArc
 50
294.9752647335632
 51
65.02473526643791
  0
INSERT
  5
5ED2
330
5D75
100
AcDbEntity
  8
AM_5
100
AcDbBlockReference
  2
_OPEN30
 10
9.850111982048932
 20
-27.06287073104761
 30
0.0
 41
2.5
 42
2.5
 43
2.5
 50
202.4876628225819
  0
INSERT
  5
5ED3
330
5D75
100
AcDbEntity
  8
AM_5
100
AcDbBlockReference
  2
_OPEN30
 10
9.850111982048376
 20
27.06287073104778
 30
0.0
 41
2.5
 42
2.5
 43
2.5
 50
157.5123371774193
  0
MTEXT
  5
5ED4
330
5D75
100
AcDbEntity
  8
AM_5
 62
     2
100
AcDbMText
 10
25.69971663513937
 20
0.0000000000002542
 30
0.0
 40
3.2
 41
0.0
 71
     5
 72
     1
  1
140°
  7
ASAMI
 11
-0.0000000000000028
 21
1.0
 31
0.0
  0
POINT
  5
5ED5
330
5D75
100
AcDbEntity
  8
DEFPOINTS
 62
     0
100
AcDbPoint
 10
26.44436773025679
 20
-11.40697565576756
 30
0.0
  0
POINT
  5
5ED6
330
5D75
100
AcDbEntity
  8
DEFPOINTS
 62
     0
100
AcDbPoint
 10
0.0000000000007105
 20
-0.0000000000000185
 30
0.0
  0
POINT
  5
5ED7
330
5D75
100
AcDbEntity
  8
DEFPOINTS
 62
     0
100
AcDbPoint
 10
0.0000000000007105
 20
-0.0000000000000185
 30
0.0
  0
POINT
  5
5ED8
330
5D75
100
AcDbEntity
  8
DEFPOINTS
 62
     0
100
AcDbPoint
 10
-0.7975973227778854
 20
2.191373385513368
 30
0.0
  0
POINT
  5
5ED9
330
5D75
100
AcDbEntity
  8
DEFPOINTS
 62
     0
100
AcDbPoint
 10
-0.7975973227778529
 20
-2.191373385513417
 30
0.0
  0
ENDBLK
  5
5D84
330
5D75
100
AcDbEntity
  8
0
100
AcDbBlockEnd
  0
ENDSEC
  0
SECTION
  2
ENTITIES
  0
LINE
  5
C9F
330
1F
100
AcDbEntity
  8
AM_7
100
AcDbLine
 10
-244.9999999999992
 20
-0.0000000000005393
 30
0.0
 11
3.542879482999609
 21
0.0000000000000078
 31
0.0
1001
GENIUS_GENODEF_13
1002
{
1000
HIER
1070
     0
1002
}
1002
{
1000
MANEDIT
1070
     0
1002
}
1002
{
1000
NOSEL
1070
     0
1002
}
1002
{
1000
BEHIND
1070
     0
1002
}
1002
{
1000
REACTOR
1002
}
1001
GENIUS_GENOBJ-N-CEN_13
1002
{
1000
OWNER
1000
GEN
1002
}
  0
DIMENSION
  5
CC6
330
1F
100
AcDbEntity
  8
AM_5
100
AcDbDimension
  2
*D5
 10
-3.99999999999911
 20
-34.50149369155612
 30
0.0
 11
-123.4999999999991
 21
-31.10149369155613
 31
0.0
 70
    32
  1
<>
  3
AM_JIS$0
100
AcDbAlignedDimension
 13
-242.9999999999992
 23
-9.750002054481344
 33
0.0
 14
-3.999999999999109
 24
-10.50000097600599
 34
0.0
 50
0.0000000000001132
100
AcDbRotatedDimension
1001
GENIUS_GENDTOL_13
1000

1000
h7
1000

1040
0.0
1001
ACAD
1000
DSTYLE
1002
{
1070
   271
1070
     0
1002
}
  0
DIMENSION
  5
DF5
330
1F
100
AcDbEntity
  8
AM_5
100
AcDbDimension
  2
*D6
 10
-3.99999999999911
 20
-24.50149369155596
 30
0.0
 11
-87.9999999999991
 21
-21.10149369155596
 31
0.0
 70
    32
  1
<>
  3
AM_JIS$0
100
AcDbAlignedDimension
 13
-171.999999999999
 23
-7.046537689246429
 33
0.0
 14
-3.999999999999109
 24
-10.50000097600599
 34
0.0
 50
0.0000000000001527
100
AcDbRotatedDimension
1001
GENIUS_GENDTOL_13
1000

1000
h7
1000

1040
0.0
1001
ACAD
1000
DSTYLE
1002
{
1070
   271
1070
     0
1002
}
  0
TEXT
  5
19BD
330
1F
100
AcDbEntity
  8
AM_6
100
AcDbText
 10
-144.6904761904753
 20
-57.00149369155618
 30
0.0
 40
5.0
  1
MDW210LHK
 50
0.0000000000001527
 72
     4
 11
-123.499999999999
 21
-54.50149369155613
 31
0.0
100
AcDbText
  0
LINE
  5
21D9
330
1F
100
AcDbEntity
  8
AM_0
 48
0.5
100
AcDbLine
 10
-242.2499999999991
 20
-10.50000205448137
 30
0.0
 11
-168.484635988573
 21
-10.49909301001386
 31
0.0
1001
GENIUS_GENODEF_13
1002
{
1000
HIER
1070
     0
1002
}
1002
{
1000
MANEDIT
1070
     0
1002
}
1002
{
1000
NOSEL
1070
     0
1002
}
1002
{
1000
BEHIND
1070
     0
1002
}
1002
{
1000
REACTOR
1002
}
1001
GENIUS_GENOBJ-N-CEN_13
1002
{
1000
OWNER
1000
GEN
1002
}
  0
LINE
  5
21DC
330
1F
100
AcDbEntity
  8
AM_0
100
AcDbLine
 10
-242.2500000000001
 20
-10.50000205448041
 30
0.0
 11
-242.2500000000001
 21
10.49999999999875
 31
0.0
  0
LINE
  5
21DD
330
1F
100
AcDbEntity
  8
AM_0
 48
0.5
100
AcDbLine
 10
-242.9999999999992
 20
-9.75000205448137
 30
0.0
 11
-242.9999999999993
 21
9.749999999999419
 31
0.0
  0
DIMENSION
  5
2216
330
1F
100
AcDbEntity
  8
AM_5
100
AcDbDimension
  2
*D7
 10
-259.0000009999992
 20
-10.50000205448041
 30
0.0
 11
-262.4000009999992
 21
-0.0000010272408841
 31
0.0
 70
    32
  1
%%c<>
 51
359.9999999999998
  3
AM_JIS$0
100
AcDbAlignedDimension
 13
-242.2500000000001
 23
10.49999999999872
 33
0.0
 14
-242.2500000000001
 24
-10.50000205448041
 34
0.0
 50
269.9999999999999
100
AcDbRotatedDimension
1001
ACAD
1000
DSTYLE
1002
{
1070
   271
1070
     0
1002
}
1001
GENIUS_GENDTOL_13
1000

1000
h7
1000

1040
0.0
  0
LINE
  5
4D3D
330
1F
100
AcDbEntity
  8
AM_0
 48
0.5
100
AcDbLine
 10
-2.383333922481342
 20
6.513893356283776
 30
0.0
 11
-3.999999999999109
 21
10.49999902399344
 31
0.0
  0
LINE
  5
4D3F
330
1F
100
AcDbEntity
  8
AM_0
 48
0.5
100
AcDbLine
 10
0.0000000000007105
 20
-0.0000000000000185
 30
0.0
 11
-0.7975973227778854
 21
2.191373385513368
 31
0.0
  0
ELLIPSE
  5
4D44
330
1F
100
AcDbEntity
  8
AM_0
 48
0.5
100
AcDbEllipse
 10
11.13856039513813
 20
8.995919688554485
 30
0.0
 11
-8.686345669214729
 21
10.69661724298865
 31
0.0
210
0.0
220
0.0
230
1.0
 40
0.9970295268095405
 41
1.07152878000935
 42
1.407348049653516
  0
LINE
  5
4D4B
330
1F
100
AcDbEntity
  8
AM_0
 48
0.5
100
AcDbLine
 10
-2.383333922481342
 20
-6.513893356283797
 30
0.0
 11
-3.999999999999109
 21
-10.50000097600599
 31
0.0
  0
LINE
  5
53F6
330
1F
100
AcDbEntity
  8
AM_0
 48
0.5
100
AcDbLine
 10
-242.2499999999993
 20
10.49999999999946
 30
0.0
 11
-242.9999999999993
 21
9.749999999999458
 31
0.0
1001
GENIUS_GENFIL_13
1070
     0
1040
0.75
1040
0.75
1040
20.0
1040
0.0
1002
{
1002
}
1001
GENIUS_GENODEF_13
1002
{
1000
HIER
1070
     0
1002
}
1002
{
1000
MANEDIT
1070
     0
1002
}
1002
{
1000
NOSEL
1070
     0
1002
}
1002
{
1000
BEHIND
1070
     0
1002
}
1002
{
1000
REACTOR
1002
}
1001
GENIUS_GENOBJ-N-CHA_13
1002
{
1000
OWNER
1000
GEN
1002
}
  0
LINE
  5
53FC
330
1F
100
AcDbEntity
  8
AM_0
 48
0.5
100
AcDbLine
 10
-242.9999999999992
 20
-9.750002054481372
 30
0.0
 11
-242.2499999999991
 21
-10.50000205448137
 31
0.0
1001
GENIUS_GENFIL_13
1070
     0
1040
0.75
1040
0.75
1040
20.0
1040
0.0
1002
{
1002
}
1001
GENIUS_GENODEF_13
1002
{
1000
HIER
1070
     0
1002
}
1002
{
1000
MANEDIT
1070
     0
1002
}
1002
{
1000
NOSEL
1070
     0
1002
}
1002
{
1000
BEHIND
1070
     0
1002
}
1002
{
1000
REACTOR
1002
}
1001
GENIUS_GENOBJ-N-CHA_13
1002
{
1000
OWNER
1000
GEN
1002
}
  0
ELLIPSE
  5
59CB
330
1F
100
AcDbEntity
  8
AM_0
 48
0.5
100
AcDbEllipse
 10
11.13856039513826
 20
-8.995919688554357
 30
0.0
 11
-8.686345669214571
 21
-10.69661724298878
 31
0.0
210
0.0
220
0.0
230
-1.0
 40
0.9970295268095405
 41
1.07152878000935
 42
1.407348049653516
  0
LINE
  5
59CC
330
1F
100
AcDbEntity
  8
AM_0
 48
0.5
100
AcDbLine
 10
0.0000000000007105
 20
-0.0000000000000185
 30
0.0
 11
-0.7975973227778529
 21
-2.191373385513417
 31
0.0
  0
LINE
  5
5AE6
330
1F
100
AcDbEntity
  8
AM_0
 48
0.5
100
AcDbLine
 10
-11.66038996547806
 20
10.49999902399415
 30
0.0
 11
-3.999999999999109
 21
10.49999902399344
 31
0.0
  0
LINE
  5
5AE7
330
1F
100
AcDbEntity
  8
AM_0
 48
0.5
100
AcDbLine
 10
-11.66038996547966
 20
-10.50000097600584
 30
0.0
 11
-3.999999999999109
 21
-10.50000097600599
 31
0.0
  0
LINE
  5
5AE8
330
1F
100
AcDbEntity
  8
AM_0
 48
0.5
100
AcDbLine
 10
0.0000000000005969
 20
0.0000000000002938
 30
0.0
 11
-8.1235315079435
 21
4.084974015385091
 31
0.0
  0
LINE
  5
5AEA
330
1F
100
AcDbEntity
  8
AM_11
 48
0.5
100
AcDbLine
 10
-89.91809420066756
 20
10.50149073955666
 30
0.0
 11
-70.17903989684983
 21
10.49999902399973
 31
0.0
  0
LINE
  5
5AED
330
1F
100
AcDbEntity
  8
AM_11
 48
0.5
100
AcDbLine
 10
-39.23670543381762
 20
-10.50000097600319
 30
0.0
 11
-11.66038996547966
 21
-10.50000097600584
 31
0.0
  0
LINE
  5
5AEE
330
1F
100
AcDbEntity
  8
AM_11
 48
0.5
100
AcDbLine
 10
-39.236705433816
 20
10.49999902399678
 30
0.0
 11
-11.66038996547806
 21
10.49999902399415
 31
0.0
  0
SPLINE
  5
5AF3
330
1F
100
AcDbEntity
  8
AM_0
 48
0.5
100
AcDbSpline
210
0.0
220
0.0
230
1.0
 70
     8
 71
     3
 72
    17
 73
    13
 74
     0
 42
0.0000000001
 43
0.0000000001
 40
0.0
 40
0.0
 40
0.0
 40
0.0
 40
1.010743614677189
 40
2.022833924044153
 40
3.037578959561199
 40
4.056212747067873
 40
5.079857613375832
 40
6.109500119648989
 40
7.14596120163808
 40
8.18989512056258
 40
9.241717674284874
 40
9.693948937866434
 40
9.693948937866434
 40
9.693948937866434
 40
9.693948937866434
 10
-11.66038996547805
 20
10.49999902399415
 30
0.0
 10
-12.14815401138214
 20
10.49375628044122
 30
0.0
 10
-13.12433199030413
 20
10.48126247562809
 30
0.0
 10
-14.58824185655987
 20
10.38044819592547
 30
0.0
 10
-16.05209145449615
 20
10.2202406292589
 30
0.0
 10
-17.51585001344524
 20
9.995679422694603
 30
0.0
 10
-18.97950010046678
 20
9.709810141642233
 30
0.0
 10
-20.44302383852181
 20
9.363958178397178
 30
0.0
 10
-21.90640158466203
 20
8.9603498964241
 30
0.0
 10
-23.36969012381822
 20
8.501702490622573
 30
0.0
 10
-24.55089478974303
 20
8.088530507845206
 30
0.0
 10
-25.24456742487902
 20
7.830238601878417
 30
0.0
 10
-25.6943165732648
 20
7.611720623193811
 30
0.0
  0
SPLINE
  5
5AF6
330
1F
100
AcDbEntity
  8
AM_0
 48
0.5
100
AcDbSpline
210
0.0
220
0.0
230
1.0
 70
     8
 71
     3
 72
    10
 73
     6
 74
     0
 42
0.0000000001
 43
0.0000000001
 40
0.0
 40
0.0
 40
0.0
 40
0.0
 40
2.69986029516136
 40
4.147722969032201
 40
6.285750005020438
 40
6.285750005020438
 40
6.285750005020438
 40
6.285750005020438
 10
-13.36744471846283
 20
1.900443054755843
 30
0.0
 10
-12.32554963330922
 20
0.9249204964855612
 30
0.0
 10
-10.72491415459275
 20
-0.5737486490988437
 30
0.0
 10
-6.939626264661816
 20
0.1517833387466637
 30
0.0
 10
-7.652506076222123
 20
2.595471075983001
 30
0.0
 10
-8.1235315079435
 20
4.084974015385091
 30
0.0
  0
ELLIPSE
  5
5AF7
330
1F
100
AcDbEntity
  8
AM_0
 48
0.5
100
AcDbEllipse
 10
-17.72466352417096
 20
17.62280557306628
 30
0.0
 11
34.65252225017011
 21
14.01210258611464
 31
0.0
210
0.0
220
0.0
230
1.0
 40
0.6392215549119062
 41
-1.566320890456374
 42
-1.487489811592538
  0
ELLIPSE
  5
5AF8
330
1F
100
AcDbEntity
  8
AM_0
 48
0.5
100
AcDbEllipse
 10
-5.276764334789826
 20
-2.736452124993878
 30
0.0
 11
-0.2277303299442132
 21
1.727484369392738
 31
0.0
210
0.0
220
0.0
230
0.9999999999999998
 40
0.417214665200188
 41
1.8388515653535
 42
4.97419345506548
  0
ELLIPSE
  5
5AF9
330
1F
100
AcDbEntity
  8
AM_0
 48
0.5
100
AcDbEllipse
 10
-5.276764334789826
 20
-2.736452124993878
 30
0.0
 11
-1.198532765623949
 21
0.9629917815525585
 31
0.0
210
0.0
220
0.0
230
0.9999999999999998
 40
0.5358692506670582
 41
4.609371149349144
 42
7.752811490678647
  0
ELLIPSE
  5
5AFA
330
1F
100
AcDbEntity
  8
AM_0
 48
0.5
100
AcDbEllipse
 10
-26.90164948453327
 20
72.07447085618607
 30
0.0
 11
0.0014046422937519
 21
78.72289362212146
 31
0.0
210
0.0
220
0.0
230
1.0
 40
0.8496273694181171
 41
3.480473297548134
 42
3.555539542628081
  0
ELLIPSE
  5
5AFB
330
1F
100
AcDbEntity
  8
AM_0
 48
0.5
100
AcDbEllipse
 10
1.733381770429281
 20
12.60589502008659
 30
0.0
 11
0.0000000000004485
 21
21.16216993331881
 31
0.0
210
0.0
220
0.0
230
1.0
 40
0.8272329780336637
 41
2.101163880028916
 42
2.509284810223809
  0
ELLIPSE
  5
5B00
330
1F
100
AcDbEntity
  8
AM_0
 48
0.5
100
AcDbEllipse
 10
5.172430326022471
 20
-2.334006331841758
 30
0.0
 11
13.59539568988133
 21
3.653659118331123
 31
0.0
210
0.0
220
0.0
230
0.9999999999999998
 40
0.6246760855461499
 41
2.967893733323632
 42
3.81808549568624
  0
LINE
  5
5B01
330
1F
100
AcDbEntity
  8
AM_11
 48
0.5
100
AcDbLine
 10
-160.3587800034856
 20
10.49691657538504
 30
0.0
 11
-122.3295956319481
 21
10.4969165753824
 31
0.0
  0
LINE
  5
5B02
330
1F
100
AcDbEntity
  8
AM_11
 48
0.5
100
AcDbLine
 10
-168.4821629578877
 20
-10.49893530225805
 30
0.0
 11
-143.3261747786767
 21
-10.5000009760065
 31
0.0
  0
DIMENSION
  5
5B3A
330
1F
100
AcDbEntity
  8
AM_5
100
AcDbDimension
  2
*D8
 10
17.54288048299761
 20
-10.500000976006
 30
0.0
 11
14.14288048299761
 21
-0.0000009760062836
 31
0.0
 70
    32
  1
%%c<>
 51
359.9999999999998
  3
AM_JIS$0
100
AcDbAlignedDimension
 13
-3.999999999999109
 23
10.49999902399343
 33
0.0
 14
-3.999999999999086
 24
-10.500000976006
 34
0.0
 50
89.99999999999463
100
AcDbRotatedDimension
1001
ACAD
1000
DSTYLE
1002
{
1070
   271
1070
     0
1002
}
1001
GENIUS_GENDTOL_13
1000

1000
h7
1000

1040
0.0
  0
LINE
  5
5BEE
330
1F
100
AcDbEntity
  8
AM_0
 48
0.5
100
AcDbLine
 10
-71.89074812739176
 20
10.49999902399992
 30
0.0
 11
-40.19369824927492
 21
10.49999902399688
 31
0.0
  0
LINE
  5
5BEF
330
1F
100
AcDbEntity
  8
AM_0
100
AcDbLine
 10
-125.2769967531826
 20
10.49999902400483
 30
0.0
 11
-89.9180942006687
 21
10.50149073955691
 31
0.0
  0
LINE
  5
5BF0
330
1F
100
AcDbEntity
  8
AM_0
 48
0.5
100
AcDbLine
 10
-143.3261747786766
 20
-10.50000097600651
 30
0.0
 11
-93.5797367978567
 21
-10.50000097599794
 31
0.0
  0
ELLIPSE
  5
5BF1
330
1F
100
AcDbEntity
  8
AM_0
 48
0.5
100
AcDbEllipse
 10
-168.8916245100248
 20
-6.554118826730222
 30
0.0
 11
2.764057986695545
 21
1.777631391451201
 31
0.0
210
0.0
220
0.0
230
1.0
 40
0.801239577465685
 41
0.6962982554294644
 42
2.639508191095272
  0
SPLINE
  5
5BF2
330
1F
100
AcDbEntity
  8
AM_0
 48
0.5
100
AcDbSpline
210
0.0
220
0.0
230
1.0
 70
     8
 71
     3
 72
    26
 73
    22
 74
     0
 42
0.0000000001
 43
0.0000000001
 40
0.0
 40
0.0
 40
0.0
 40
0.0
 40
0.4211432018735474
 40
0.8428473235286537
 40
1.265657898956934
 40
1.690088643751428
 40
2.116607084860617
 40
2.545625100287603
 40
2.977483884449724
 40
3.412450195918404
 40
3.850709593302191
 40
4.292362208965671
 40
4.737427885281768
 40
5.185826256336565
 40
5.637431371058531
 40
6.092003378174421
 40
6.549257520372505
 40
7.008843368271169
 40
7.470358728297647
 40
7.933358849736796
 40
8.383035712276667
 40
8.383035712276667
 40
8.383035712276667
 40
8.383035712276667
 10
-133.2595033937252
 20
-10.50053411747944
 30
0.0
 10
-133.8684442252766
 20
-10.49428687212966
 30
0.0
 10
-135.0871369354452
 20
-10.48178406073666
 30
0.0
 10
-136.9147324938691
 20
-10.38099735625658
 30
0.0
 10
-138.7422500444348
 20
-10.22077284668656
 30
0.0
 10
-140.569654469602
 20
-9.99621202211733
 30
0.0
 10
-142.3969276299738
 20
-9.710358465321631
 30
0.0
 10
-144.2240331191802
 20
-9.364481990814113
 30
0.0
 10
-146.0509697217295
 20
-8.960919474257439
 30
0.0
 10
-147.8777249779543
 20
-8.502121951126856
 30
0.0
 10
-149.7042945692281
 20
-7.990936183396876
 30
0.0
 10
-151.530693528287
 20
-7.430543833804626
 30
0.0
 10
-153.3569142871305
 20
-6.824405144475308
 30
0.0
 10
-155.1829775373532
 20
-6.17623832043569
 30
0.0
 10
-157.0089076946803
 20
-5.490104700322565
 30
0.0
 10
-158.8347087042603
 20
-4.770166547494408
 30
0.0
 10
-161.1826421812345
 20
-4.020896672898103
 30
0.0
 10
-163.2571033611375
 20
-3.246917909891472
 30
0.0
 10
-165.1356424037525
 20
-2.67254765420999
 30
0.0
 10
-166.9233474042189
 20
-2.137685043864994
 30
0.0
 10
-169.1087290319396
 20
-1.638371961491372
 30
0.0
 10
-172.0975609756088
 20
-0.5465463663703425
 30
0.0
  0
SPLINE
  5
5BF3
330
1F
100
AcDbEntity
  8
AM_0
 48
0.5
100
AcDbSpline
210
0.0
220
0.0
230
1.0
 70
     8
 71
     3
 72
    19
 73
    15
 74
     0
 42
0.0000000001
 43
0.0000000001
 40
3.111879769097286
 40
3.111879769097286
 40
3.111879769097286
 40
3.111879769097286
 40
4.056212471389632
 40
5.079857945358201
 40
6.109499720892564
 40
7.145961650132166
 40
8.189873411961459
 40
9.241710626092514
 40
10.30166235592959
 40
11.36982472628033
 40
12.44598212828784
 40
13.52983440361964
 40
14.62080578343036
 40
14.90544694398022
 40
14.90544694398022
 40
14.90544694398022
 40
14.90544694398022
 10
-143.3261747786766
 20
-10.50000097600651
 30
0.0
 10
-144.4525211170157
 20
-10.34065411053475
 30
0.0
 10
-145.5255322412543
 20
-10.14091958651044
 30
0.0
 10
-147.4674092187256
 20
-9.815687107631477
 30
0.0
 10
-149.1357061450129
 20
-9.364489343739178
 30
0.0
 10
-150.9626347930097
 20
-8.960912162135537
 30
0.0
 10
-152.7893928787325
 20
-8.502107996557398
 30
0.0
 10
-154.6159639495361
 20
-7.990941543513009
 30
0.0
 10
-156.4423575509013
 20
-7.430523819615148
 30
0.0
 10
-158.2685854563567
 20
-6.82442101906706
 30
0.0
 10
-160.0946462941902
 20
-6.176236397359765
 30
0.0
 10
-161.9205742735007
 20
-5.490099184001319
 30
0.0
 10
-163.340970484493
 20
-5.03403337472326
 30
0.0
 10
-164.1056708872877
 20
-4.724761763096254
 30
0.0
 10
-167.7820662551248
 20
-3.769830259352181
 30
0.0
  0
SPLINE
  5
5BF4
330
1F
100
AcDbEntity
  8
AM_0
100
AcDbSpline
210
0.0
220
0.0
230
1.0
 70
     8
 71
     3
 72
    13
 73
     9
 74
     0
 42
0.0000000001
 43
0.0000000001
 40
16.03460056234195
 40
16.03460056234195
 40
16.03460056234195
 40
16.03460056234195
 40
16.35212717791071
 40
17.38177067057215
 40
18.41822498539278
 40
19.46214186516937
 40
20.5139635832251
 40
21.34083983469381
 40
21.34083983469381
 40
21.34083983469381
 40
21.34083983469381
 10
-168.4846359885723
 20
-10.49909301001388
 30
0.0
 10
-167.9657806391959
 20
-10.46604393916829
 30
0.0
 10
-167.169957950676
 20
-10.31169016338724
 30
0.0
 10
-165.7681096385957
 20
-10.00924566802609
 30
0.0
 10
-163.9527111865656
 20
-9.559520508569738
 30
0.0
 10
-162.1389992521271
 20
-9.054552378236101
 30
0.0
 10
-160.4607190572632
 20
-8.538429626805989
 30
0.0
 10
-159.3900058472942
 20
-8.183042381896465
 30
0.0
 10
-157.2663582489392
 20
-7.155143002227096
 30
0.0
  0
ELLIPSE
  5
5BF5
330
1F
100
AcDbEntity
  8
AM_0
 48
0.5
100
AcDbEllipse
 10
-168.3847295722439
 20
-7.000534117476839
 30
0.0
 11
-3.615569329027598
 21
0.0140471848908137
 31
0.0
210
0.0
220
0.0
230
1.0
 40
0.9680056835663485
 41
0.0171581412476774
 42
1.546921598051086
  0
SPLINE
  5
5BF6
330
1F
100
AcDbEntity
  8
AM_0
100
AcDbSpline
210
0.0
220
0.0
230
1.0
 70
     8
 71
     3
 72
    22
 73
    18
 74
     0
 42
0.0000000001
 43
0.0000000001
 40
17.17441611292
 40
17.17441611292
 40
17.17441611292
 40
17.17441611292
 40
17.38177636558528
 40
18.41823744757437
 40
19.46215659509824
 40
20.51397914882054
 40
21.57394542641293
 40
22.64209583141747
 40
23.71826625065247
 40
24.80210429862395
 40
25.8930771157021
 40
26.99048705697709
 40
28.09349309193389
 40
29.20112995599786
 40
30.31233024745139
 40
31.42594771747373
 40
32.5407895042663
 40
32.54078950426994
 40
32.54078950426994
 40
32.54078950426994
 10
-45.91740126122082
 20
-9.429076971317671
 30
0.0
 10
-46.01781770092171
 20
-9.404770501176237
 30
0.0
 10
-46.61975941631662
 20
-9.256717134782146
 30
0.0
 10
-47.72248271963952
 20
-8.959850865587318
 30
0.0
 10
-49.22140958388165
 20
-8.501055302161148
 30
0.0
 10
-50.72018371062276
 20
-7.98986820025331
 30
0.0
 10
-52.21881568112412
 20
-7.429480516504345
 30
0.0
 10
-53.71730351579713
 20
-6.823328255959197
 30
0.0
 10
-55.21566565928941
 20
-6.175183784234969
 30
0.0
 10
-56.71390904943893
 20
-5.489030388713912
 30
0.0
 10
-58.21204754855966
 20
-4.769099539789355
 30
0.0
 10
-59.71009781500199
 20
-4.019832754787359
 30
0.0
 10
-61.20807285093839
 20
-3.24583729782728
 30
0.0
 10
-62.70598773590943
 20
-2.451874919749855
 30
0.0
 10
-64.20385574762666
 20
-1.64282759046653
 30
0.0
 10
-65.70169907570225
 20
-0.8236875692955337
 30
0.0
 10
-66.70006528861408
 20
-0.2743077327980811
 30
0.0
 10
-67.1995226534565
 20
0.0005330816180189
 30
0.0
  0
LINE
  5
5BF7
330
1F
100
AcDbEntity
  8
AM_0
 48
0.5
100
AcDbLine
 10
-65.33083243130892
 20
-10.50000097600091
 30
0.0
 11
-40.19369824927664
 21
-10.50000097600308
 31
0.0
  0
LINE
  5
5BF8
330
1F
100
AcDbEntity
  8
AM_11
 48
0.5
100
AcDbLine
 10
-93.57974095984671
 20
-10.50000097599817
 30
0.0
 11
-65.33083243130892
 21
-10.50149269155612
 31
0.0
  0
SPLINE
  5
5BF9
330
1F
100
AcDbEntity
  8
AM_0
100
AcDbSpline
210
0.0
220
0.0
230
1.0
 70
     8
 71
     3
 72
    11
 73
     7
 74
     0
 42
0.0000000001
 43
0.0000000001
 40
11.27226913003534
 40
11.27226913003534
 40
11.27226913003534
 40
11.2722691300354
 40
12.28301561507924
 40
13.29510212255852
 40
14.30984805882082
 40
15.18258238371378
 40
15.18258238371378
 40
15.18258238371378
 40
15.18258238371378
 10
-93.57974095985024
 20
-10.50000097599818
 30
0.0
 10
-94.07750163656357
 20
-10.44861092471807
 30
0.0
 10
-95.0720841187015
 20
-10.32419784715526
 30
0.0
 10
-96.5588220033875
 20
-10.07322589620937
 30
0.0
 10
-97.9697624712257
 20
-9.773467418805731
 30
0.0
 10
-98.88227594527945
 20
-9.543034155840983
 30
0.0
 10
-99.30278813792087
 20
-9.429206488732472
 30
0.0
  0
SPLINE
  5
5BFA
330
1F
100
AcDbEntity
  8
AM_0
100
AcDbSpline
210
0.0
220
0.0
230
1.0
 70
     8
 71
     3
 72
    11
 73
     7
 74
     0
 42
0.0000000001
 43
0.0000000001
 40
11.27226913003534
 40
11.27226913003534
 40
11.27226913003534
 40
11.2722691300354
 40
12.28301561507924
 40
13.29510212255852
 40
14.30984805882082
 40
15.18258238371378
 40
15.18258238371378
 40
15.18258238371378
 40
15.18258238371378
 10
-40.19369824927657
 20
-10.50000097600309
 30
0.0
 10
-40.69145892598997
 20
-10.44861092472298
 30
0.0
 10
-41.6860414081279
 20
-10.32419784716017
 30
0.0
 10
-43.17277929281391
 20
-10.07322589621427
 30
0.0
 10
-44.58371976065208
 20
-9.773467418810632
 30
0.0
 10
-45.4962332347059
 20
-9.543034155845887
 30
0.0
 10
-45.91674542734731
 20
-9.429206488737381
 30
0.0
  0
SPLINE
  5
5BFB
330
1F
100
AcDbEntity
  8
AM_0
100
AcDbSpline
210
0.0
220
0.0
230
1.0
 70
     8
 71
     3
 72
    17
 73
    13
 74
     0
 42
0.0000000001
 43
0.0000000001
 40
1.580019955310467
 40
1.580019955310467
 40
1.580019955310467
 40
1.580019955310467
 40
2.030549285115227
 40
3.082371838836284
 40
4.126290986361125
 40
5.162752068350215
 40
6.192395305374981
 40
7.216039564037012
 40
8.234688489606833
 40
9.249433870634691
 40
10.26152376260694
 40
11.27226744710342
 40
11.27226744710342
 40
11.27226744710342
 40
11.27226744710352
 10
-79.45418471412132
 20
-7.749310165198339
 30
0.0
 10
-79.6663553823856
 20
-7.829121612202248
 30
0.0
 10
-80.37507669571185
 20
-8.090714290100136
 30
0.0
 10
-81.5850397330904
 20
-8.501031765331388
 30
0.0
 10
-83.08375795014264
 20
-8.960532905253941
 30
0.0
 10
-84.58288876291687
 20
-9.36391389738357
 30
0.0
 10
-86.08208826534157
 20
-9.709820097687583
 30
0.0
 10
-87.58145110286518
 20
-9.995735367760131
 30
0.0
 10
-89.08091752706472
 20
-10.2200281152261
 30
0.0
 10
-90.58047732004702
 20
-10.38124484803271
 30
0.0
 10
-92.08009353654203
 20
-10.4783477953484
 30
0.0
 10
-93.08008032742391
 20
-10.5000010360798
 30
0.0
 10
-93.57974095985017
 20
-10.50000097599818
 30
0.0
  0
SPLINE
  5
5BFC
330
1F
100
AcDbEntity
  8
AM_0
100
AcDbSpline
210
0.0
220
0.0
230
1.0
 70
     8
 71
     3
 72
    17
 73
    13
 74
     0
 42
0.0000000001
 43
0.0000000001
 40
1.580019955310467
 40
1.580019955310467
 40
1.580019955310467
 40
1.580019955310467
 40
2.030549285115227
 40
3.082371838836284
 40
4.126290986361125
 40
5.162752068350215
 40
6.192395305374981
 40
7.216039564037012
 40
8.234688489606833
 40
9.249433870634691
 40
10.26152376260694
 40
11.27226744710342
 40
11.27226744710342
 40
11.27226744710342
 40
11.27226744710352
 10
-26.06814200354776
 20
-7.749310165203233
 30
0.0
 10
-26.28031267181205
 20
-7.829121612207142
 30
0.0
 10
-26.98903398513834
 20
-8.090714290105038
 30
0.0
 10
-28.19899702251687
 20
-8.501031765336291
 30
0.0
 10
-29.69771523956909
 20
-8.960532905258821
 30
0.0
 10
-31.19684605234327
 20
-9.363913897388465
 30
0.0
 10
-32.69604555476799
 20
-9.709820097692473
 30
0.0
 10
-34.19540839229158
 20
-9.995735367765028
 30
0.0
 10
-35.69487481649119
 20
-10.22002811523102
 30
0.0
 10
-37.19443460947344
 20
-10.38124484803761
 30
0.0
 10
-38.69405082596843
 20
-10.4783477953533
 30
0.0
 10
-39.69403761685025
 20
-10.50000103608469
 30
0.0
 10
-40.1936982492765
 20
-10.50000097600309
 30
0.0
  0
SPLINE
  5
5BFD
330
1F
100
AcDbEntity
  8
AM_0
100
AcDbSpline
210
0.0
220
0.0
230
1.0
 70
     8
 71
     3
 72
    22
 73
    18
 74
     0
 42
0.0000000001
 43
0.0000000001
 40
17.17441611292
 40
17.17441611292
 40
17.17441611292
 40
17.17441611292
 40
17.38177636558528
 40
18.41823744757437
 40
19.46215659509824
 40
20.51397914882054
 40
21.57394542641293
 40
22.64209583141747
 40
23.71826625065247
 40
24.80210429862395
 40
25.8930771157021
 40
26.99048705697709
 40
28.09349309193389
 40
29.20112995599786
 40
30.31233024745139
 40
31.42594771747373
 40
32.5407895042663
 40
32.54078950426994
 40
32.54078950426994
 40
32.54078950426994
 10
-99.30344397179441
 20
-9.429076971312758
 30
0.0
 10
-99.40386041149524
 20
-9.404770501171336
 30
0.0
 10
-100.0058021268902
 20
-9.256717134777233
 30
0.0
 10
-101.1085254302131
 20
-8.959850865582437
 30
0.0
 10
-102.6074522944552
 20
-8.50105530215624
 30
0.0
 10
-104.1062264211963
 20
-7.989868200248406
 30
0.0
 10
-105.6048583916977
 20
-7.429480516499435
 30
0.0
 10
-107.1033462263707
 20
-6.823328255954305
 30
0.0
 10
-108.6017083698631
 20
-6.175183784230072
 30
0.0
 10
-110.0999517600126
 20
-5.489030388709016
 30
0.0
 10
-111.5980902591334
 20
-4.769099539784458
 30
0.0
 10
-113.0961405255757
 20
-4.019832754782465
 30
0.0
 10
-114.5941155615119
 20
-3.245837297822383
 30
0.0
 10
-116.0920304464827
 20
-2.451874919744957
 30
0.0
 10
-117.5898984582001
 20
-1.642827590461632
 30
0.0
 10
-119.0877417862758
 20
-0.8236875692906346
 30
0.0
 10
-120.0861079991877
 20
-0.274307732793182
 30
0.0
 10
-120.5855653640301
 20
0.000533081622918
 30
0.0
  0
SPLINE
  5
5BFE
330
1F
100
AcDbEntity
  8
AM_0
100
AcDbSpline
210
0.0
220
0.0
230
1.0
 70
     8
 71
     3
 72
    23
 73
    19
 74
     0
 42
0.0000000001
 43
0.0000000001
 40
16.03460024169435
 40
16.03460024169435
 40
16.03460024169435
 40
16.03460024169435
 40
16.35212704903564
 40
17.38177054169784
 40
18.41822485651776
 40
19.46214173629503
 40
20.51396345435107
 40
21.57393551351153
 40
22.64208202342361
 40
23.7182574881101
 40
24.80209208578934
 40
25.89306333925047
 40
26.99048218457928
 40
28.09348763352352
 40
29.20111863782268
 40
30.31232390128032
 40
31.42594612798585
 40
32.5407912310448
 40
32.5407912310486
 40
32.5407912310486
 40
32.5407912310486
 10
-89.9180942006687
 20
10.5014907395569
 30
0.0
 10
-89.76402706071441
 20
10.46604458860284
 30
0.0
 10
-89.11102282204941
 20
10.31168657773557
 30
0.0
 10
-87.96074882326724
 20
10.00924561344346
 30
0.0
 10
-86.47114098360246
 20
9.559519207003264
 30
0.0
 10
-84.98291676176547
 20
9.054551414373621
 30
0.0
 10
-83.49598821740027
 20
8.497264731577853
 30
0.0
 10
-82.01030257677771
 20
7.890766044348541
 30
0.0
 10
-80.52577397082844
 20
7.238522354950356
 30
0.0
 10
-79.04229902262277
 20
6.544329558049557
 30
0.0
 10
-77.55979343578616
 20
5.812118826980976
 30
0.0
 10
-76.07813835246993
 20
5.046150725379761
 30
0.0
 10
-74.59721370109841
 20
4.250877390787686
 30
0.0
 10
-73.11692081188585
 20
3.430871311478707
 30
0.0
 10
-71.63713583052423
 20
2.590900710508733
 30
0.0
 10
-70.15772169758448
 20
1.735870399937051
 30
0.0
 10
-68.67855794699429
 20
0.870735048879372
 30
0.0
 10
-67.69271364851238
 20
0.2907091011072685
 30
0.0
 10
-67.19952265344987
 20
0.0005330816142464
 30
0.0
  0
SPLINE
  5
5BFF
330
1F
100
AcDbEntity
  8
AM_0
100
AcDbSpline
210
0.0
220
0.0
230
1.0
 70
     8
 71
     3
 72
    46
 73
    42
 74
     0
 42
0.0000000001
 43
0.0000000001
 40
0.0
 40
0.0
 40
0.0
 40
0.0
 40
1.348332046947657
 40
2.024828967632895
 40
2.703918159304097
 40
3.386347665078124
 40
4.072776489761952
 40
4.763750544421347
 40
5.459696642770596
 40
6.160921452191754
 40
6.867565637253344
 40
7.579665907256596
 40
8.297112853413899
 40
9.019671552060676
 40
9.746986763446127
 40
10.47859339096366
 40
11.21393074760089
 40
11.95235532364328
 40
12.69315551794651
 40
13.43556823304427
 40
14.1787950170388
 40
14.92202180103393
 40
15.66443451613169
 40
16.40523471043432
 40
17.14365928647669
 40
17.87899664311455
 40
18.61060327063121
 40
19.3379184820169
 40
20.06048192311554
 40
20.77792886927283
 40
21.49002913927608
 40
22.19667332433747
 40
22.89788836015233
 40
23.59383445850158
 40
24.28480851316097
 40
24.97123685067576
 40
25.65366676154838
 40
26.33276604526152
 40
27.00926273560555
 40
27.68398960851751
 40
28.357818684969
 40
28.357818684969
 40
28.357818684969
 40
28.357818684969
 10
-7.746883205478494
 20
-10.5000009760062
 30
0.0
 10
-8.746918838272494
 20
-10.4760811643465
 30
0.0
 10
-10.2487010754672
 20
-10.44016009604696
 30
0.0
 10
-12.24568640634065
 20
-10.21900067757863
 30
0.0
 10
-13.74516194425451
 20
-9.996013152749402
 30
0.0
 10
-15.24450931270554
 20
-9.709735048841569
 30
0.0
 10
-16.74372456189939
 20
-9.363973109495312
 30
0.0
 10
-18.24279999007329
 20
-8.960380371342418
 30
0.0
 10
-19.74173308650116
 20
-8.501585984872823
 30
0.0
 10
-21.24051718040128
 20
-7.99040701553558
 30
0.0
 10
-22.73915526748357
 20
-7.430013984865901
 30
0.0
 10
-24.23764331686728
 20
-6.823862473061264
 30
0.0
 10
-25.73600540256464
 20
-6.175717799431421
 30
0.0
 10
-27.2342488069149
 20
-5.489564454895834
 30
0.0
 10
-28.73238730766352
 20
-4.769633606104966
 30
0.0
 10
-30.2304375530707
 20
-4.020366768622312
 30
0.0
 10
-31.72841267212472
 20
-3.24637152302312
 30
0.0
 10
-33.22632724390291
 20
-2.45240834749923
 30
0.0
 10
-34.72419715056996
 20
-1.643363620165722
 30
0.0
 10
-36.22203607526515
 20
-0.8242123973871397
 30
0.0
 10
-37.71986240886198
 20
-0.0000009761701052
 30
0.0
 10
-39.21768874212977
 20
0.8242104460485141
 30
0.0
 10
-40.71552766781194
 20
1.643361665823816
 30
0.0
 10
-42.21339757087133
 20
2.452406404132982
 30
0.0
 10
-43.71131215602682
 20
3.246369538952121
 30
0.0
 10
-45.2092872254793
 20
4.020364935480448
 30
0.0
 10
-46.70733765457792
 20
4.76963121401937
 30
0.0
 10
-48.20547873274387
 20
5.489565695447316
 30
0.0
 10
-49.70372795854522
 20
6.17571280593194
 30
0.0
 10
-51.2020927170909
 20
6.823860803025716
 30
0.0
 10
-52.70058073158551
 20
7.430012495192654
 30
0.0
 10
-54.19921266243284
 20
7.990400376329287
 30
0.0
 10
-55.69798677024272
 20
8.501587253172191
 30
0.0
 10
-57.19691374812622
 20
8.960383513867059
 30
0.0
 10
-58.69598830871399
 20
9.363949846864194
 30
0.0
 10
-60.19520465704073
 20
9.709812070797994
 30
0.0
 10
-61.69456159444237
 20
9.995681365902587
 30
0.0
 10
-63.19402940593892
 20
10.22023868136592
 30
0.0
 10
-64.69358998877931
 20
10.3804485016321
 30
0.0
 10
-66.19320500455334
 20
10.48126239940961
 30
0.0
 10
-67.19319219837115
 20
10.49375625504995
 30
0.0
 10
-67.6928529262717
 20
10.49999902399953
 30
0.0
  0
SPLINE
  5
5C00
330
1F
100
AcDbEntity
  8
AM_0
100
AcDbSpline
210
0.0
220
0.0
230
1.0
 70
     8
 71
     3
 72
    55
 73
    51
 74
     0
 42
0.0000000001
 43
0.0000000001
 40
0.0
 40
0.0
 40
0.0
 40
0.0
 40
1.010743684496582
 40
2.022833576467832
 40
3.037578957496688
 40
4.056212745003489
 40
5.079857003664532
 40
6.109500240690281
 40
7.145961322679372
 40
8.189895241603872
 40
9.241717795325891
 40
10.30168407291828
 40
11.36983447792315
 40
12.44600489715814
 40
13.52984294512926
 40
14.62081576220742
 40
15.7182257034828
 40
16.82123173843959
 40
17.92886860250316
 40
19.0400688939571
 40
20.15368796660465
 40
21.26852814259644
 40
22.38336992938901
 40
23.49698739941135
 40
24.6081876908653
 40
25.71582455492886
 40
26.81883757994213
 40
27.91624752121713
 40
29.00722033829659
 40
30.09105838626677
 40
31.16722880550176
 40
32.23537921050758
 40
33.29534548809967
 40
34.347168041821
 40
35.39108718934584
 40
36.42754827133493
 40
37.45720575381954
 40
38.48085062012849
 40
39.49948440763516
 40
40.51422944315121
 40
41.52631975251916
 40
42.53706336719636
 40
43.54780698187354
 40
44.55989729124051
 40
45.57464232675757
 40
46.59327611426424
 40
47.6169209805722
 40
48.64656348684535
 40
49.68302456883444
 40
50.58557219878025
 40
50.58557219878025
 40
50.58557219878025
 40
50.58557219878025
 10
-11.9447897207353
 20
-10.5000009760058
 30
0.0
 10
-12.44445035975356
 20
-10.4937537303838
 30
0.0
 10
-13.44443713478738
 20
-10.481250918446
 30
0.0
 10
-14.94405338309006
 20
-10.38046421805968
 30
0.0
 10
-16.44360561842933
 20
-10.220239692869
 30
0.0
 10
-17.94306504620739
 20
-9.995678927016788
 30
0.0
 10
-19.44241670417957
 20
-9.709825149421469
 30
0.0
 10
-20.94163101348996
 20
-9.36394950627811
 30
0.0
 10
-22.44071298894398
 20
-8.960381939199459
 30
0.0
 10
-23.93964933671404
 20
-8.50159370287403
 30
0.0
 10
-25.43842984631183
 20
-7.990401729240936
 30
0.0
 10
-26.9370619883296
 20
-7.430014717476096
 30
0.0
 10
-28.43554977640311
 20
-6.823862274509128
 30
0.0
 10
-29.93391193293698
 20
-6.175717853270696
 30
0.0
 10
-31.43215531799126
 20
-5.489564440098369
 30
0.0
 10
-32.93029382438418
 20
-4.769633610953072
 30
0.0
 10
-34.4283440666745
 20
-4.02036676412451
 30
0.0
 10
-35.92631919255097
 20
-3.246371536216489
 30
0.0
 10
-37.42423374003287
 20
-2.452408298972208
 30
0.0
 10
-38.92210373744243
 20
-1.643363801789369
 30
0.0
 10
-40.41994232252513
 20
-0.8242117177484946
 30
0.0
 10
-41.91777064708226
 20
-0.000003118384353
 30
0.0
 10
-43.41559224764352
 20
0.8242203172482312
 30
0.0
 10
-44.91343585315473
 20
1.643359644924448
 30
0.0
 10
-46.41130400142359
 20
2.45240659103892
 30
0.0
 10
-47.90922121967059
 20
3.246372852929249
 30
0.0
 10
-49.40720255986651
 20
4.020361475426086
 30
0.0
 10
-50.90525516647588
 20
4.76963212208008
 30
0.0
 10
-52.40339388915013
 20
5.489562367435707
 30
0.0
 10
-53.90163721968817
 20
6.175715924903507
 30
0.0
 10
-55.39999938005872
 20
6.82386034709004
 30
0.0
 10
-56.89848720629989
 20
7.430012645116821
 30
0.0
 10
-58.39711919364248
 20
7.990400229088349
 30
0.0
 10
-59.89589326203221
 20
8.501587688902869
 30
0.0
 10
-61.39482034061227
 20
8.960381934209541
 30
0.0
 10
-62.89390175998461
 20
9.363957616524272
 30
0.0
 10
-64.39312677418766
 20
9.709793755867929
 30
0.0
 10
-65.89248338559406
 20
9.995736011250254
 30
0.0
 10
-67.39194325787896
 20
10.22003058929919
 30
0.0
 10
-68.89149653515271
 20
10.38122809966425
 30
0.0
 10
-70.3911115119595
 20
10.47836151551965
 30
0.0
 10
-71.890759441896
 20
10.51081057570447
 30
0.0
 10
-73.39040736962594
 20
10.47836151546907
 30
0.0
 10
-74.89002235306516
 20
10.38122809986889
 30
0.0
 10
-76.38957560592022
 20
10.22003058853079
 30
0.0
 10
-77.8890355697567
 20
9.995736014141771
 30
0.0
 10
-79.38838452733702
 20
9.709795139015009
 30
0.0
 10
-80.88760363516419
 20
9.363961152513514
 30
0.0
 10
-82.31852507566278
 20
8.978701715135279
 30
0.0
 10
-83.24692320205482
 20
8.69695784646362
 30
0.0
 10
-83.67764582174428
 20
8.559650314966296
 30
0.0
  0
LINE
  5
5C01
330
1F
100
AcDbEntity
  8
AM_0
 48
0.5
100
AcDbLine
 10
-137.3766971769178
 20
7.416321950760432
 30
0.0
 11
-172.0975609756088
 21
-0.5465463663703425
 31
0.0
  0
SPLINE
  5
5C02
330
1F
100
AcDbEntity
  8
AM_0
100
AcDbSpline
210
0.0
220
0.0
230
1.0
 70
     8
 71
     3
 72
    55
 73
    51
 74
     0
 42
0.0000000001
 43
0.0000000001
 40
0.0
 40
0.0
 40
0.0
 40
0.0
 40
1.010743684496582
 40
2.022833576467832
 40
3.037578957496688
 40
4.056212745003489
 40
5.079857003664532
 40
6.109500240690281
 40
7.145961322679372
 40
8.189895241603872
 40
9.241717795325891
 40
10.30168407291828
 40
11.36983447792315
 40
12.44600489715814
 40
13.52984294512926
 40
14.62081576220742
 40
15.7182257034828
 40
16.82123173843959
 40
17.92886860250316
 40
19.0400688939571
 40
20.15368796660465
 40
21.26852814259644
 40
22.38336992938901
 40
23.49698739941135
 40
24.6081876908653
 40
25.71582455492886
 40
26.81883757994213
 40
27.91624752121713
 40
29.00722033829659
 40
30.09105838626677
 40
31.16722880550176
 40
32.23537921050758
 40
33.29534548809967
 40
34.347168041821
 40
35.39108718934584
 40
36.42754827133493
 40
37.45720575381954
 40
38.48085062012849
 40
39.49948440763516
 40
40.51422944315121
 40
41.52631975251916
 40
42.53706336719636
 40
43.54780698187354
 40
44.55989729124051
 40
45.57464232675757
 40
46.59327611426424
 40
47.6169209805722
 40
48.64656348684535
 40
49.68302456883444
 40
50.58557219878025
 40
50.58557219878025
 40
50.58557219878025
 40
50.58557219878025
 10
-65.3308324313089
 20
-10.50000097600091
 30
0.0
 10
-65.83049307032715
 20
-10.4937537303789
 30
0.0
 10
-66.83047984536099
 20
-10.4812509184411
 30
0.0
 10
-68.33009609366367
 20
-10.38046421805477
 30
0.0
 10
-69.82964832900293
 20
-10.22023969286409
 30
0.0
 10
-71.32910775678102
 20
-9.995678927011875
 30
0.0
 10
-72.82845941475326
 20
-9.709825149416568
 30
0.0
 10
-74.32767372406366
 20
-9.363949506273213
 30
0.0
 10
-75.82675569951755
 20
-8.960381939194563
 30
0.0
 10
-77.32569204728754
 20
-8.501593702869129
 30
0.0
 10
-78.82447255688536
 20
-7.990401729236037
 30
0.0
 10
-80.32310469890317
 20
-7.430014717471204
 30
0.0
 10
-81.8215924869767
 20
-6.823862274504226
 30
0.0
 10
-83.31995464351054
 20
-6.175717853265795
 30
0.0
 10
-84.8181980285649
 20
-5.489564440093469
 30
0.0
 10
-86.31633653495791
 20
-4.769633610948172
 30
0.0
 10
-87.81438677724828
 20
-4.020366764119611
 30
0.0
 10
-89.31236190312457
 20
-3.246371536211591
 30
0.0
 10
-90.81027645060633
 20
-2.452408298967313
 30
0.0
 10
-92.30814644801585
 20
-1.64336380178447
 30
0.0
 10
-93.80598503309874
 20
-0.8242117177435963
 30
0.0
 10
-95.30381335765591
 20
-0.0000031183794538
 30
0.0
 10
-96.80163495821711
 20
0.8242203172531313
 30
0.0
 10
-98.29947856372852
 20
1.643359644929349
 30
0.0
 10
-99.79734671199748
 20
2.45240659104382
 30
0.0
 10
-101.2952639302443
 20
3.246372852934149
 30
0.0
 10
-102.79324527044
 20
4.020361475430988
 30
0.0
 10
-104.2912978770492
 20
4.769632122084979
 30
0.0
 10
-105.7894365997236
 20
5.489562367440604
 30
0.0
 10
-107.2876799302617
 20
6.175715924908409
 30
0.0
 10
-108.7860420906323
 20
6.823860347094946
 30
0.0
 10
-110.2845299168735
 20
7.430012645121719
 30
0.0
 10
-111.7831619042161
 20
7.99040022909325
 30
0.0
 10
-113.2819359726058
 20
8.501587688907768
 30
0.0
 10
-114.7808630511859
 20
8.960381934214442
 30
0.0
 10
-116.2799444705582
 20
9.36395761652918
 30
0.0
 10
-117.7791694847613
 20
9.70979375587281
 30
0.0
 10
-119.2785260961676
 20
9.995736011255146
 30
0.0
 10
-120.7779859684526
 20
10.22003058930409
 30
0.0
 10
-122.2775392457263
 20
10.38122809966915
 30
0.0
 10
-123.7771542225331
 20
10.47836151552456
 30
0.0
 10
-125.2768021524695
 20
10.51081057570937
 30
0.0
 10
-126.7764500801995
 20
10.47836151547396
 30
0.0
 10
-128.2760650636388
 20
10.38122809987379
 30
0.0
 10
-129.7756183164939
 20
10.2200305885357
 30
0.0
 10
-131.2750782803304
 20
9.995736014146675
 30
0.0
 10
-132.7744272379107
 20
9.709795139019902
 30
0.0
 10
-134.2736463457377
 20
9.36396115251841
 30
0.0
 10
-135.7045677862363
 20
8.978701715140175
 30
0.0
 10
-136.6329659126284
 20
8.69695784646851
 30
0.0
 10
-138.7254991639426
 20
7.839031391297608
 30
0.0
  0
SPLINE
  5
5C03
330
1F
100
AcDbEntity
  8
AM_0
100
AcDbSpline
210
0.0
220
0.0
230
1.0
 70
     8
 71
     3
 72
    23
 73
    19
 74
     0
 42
0.0000000001
 43
0.0000000001
 40
16.03460024169435
 40
16.03460024169435
 40
16.03460024169435
 40
16.03460024169435
 40
16.35212704903564
 40
17.38177054169784
 40
18.41822485651776
 40
19.46214173629503
 40
20.51396345435107
 40
21.57393551351153
 40
22.64208202342361
 40
23.7182574881101
 40
24.80209208578934
 40
25.89306333925047
 40
26.99048218457928
 40
28.09348763352352
 40
29.20111863782268
 40
30.31232390128032
 40
31.42594612798585
 40
32.5407912310448
 40
32.5407912310486
 40
32.5407912310486
 40
32.5407912310486
 10
-160.3587800034923
 20
10.49691657538547
 30
0.0
 10
-151.988133947556
 20
9.961693825552609
 30
0.0
 10
-148.6372691136701
 20
9.718982359189396
 30
0.0
 10
-147.0412124574464
 20
9.418884309554053
 30
0.0
 10
-145.3536795751731
 20
9.169563391224446
 30
0.0
 10
-143.098022697085
 20
8.84880106506441
 30
0.0
 10
-141.1987005467956
 20
8.352407993842493
 30
0.0
 10
-138.670872293065
 20
7.887150454246993
 30
0.0
 10
-136.8616641764603
 20
7.2349067648488
 30
0.0
 10
-135.0537401618486
 20
6.540713967948039
 30
0.0
 10
-133.2469975164943
 20
5.808503236879401
 30
0.0
 10
-131.4412913872881
 20
5.042535135278179
 30
0.0
 10
-129.6364754419407
 20
4.247261800686116
 30
0.0
 10
-127.8324294307134
 20
3.427255721377133
 30
0.0
 10
-126.0290024112675
 20
2.587285120407127
 30
0.0
 10
-124.2260273480667
 20
1.732254809835487
 30
0.0
 10
-122.4233574280456
 20
0.8671194587777701
 30
0.0
 10
-121.2219002790393
 20
0.2870935110056583
 30
0.0
 10
-120.6208440597602
 20
-0.0030825084873443
 30
0.0
  0
SPLINE
  5
5C04
330
1F
100
AcDbEntity
  8
AM_0
100
AcDbSpline
210
0.0
220
0.0
230
1.0
 70
     8
 71
     3
 72
    46
 73
    42
 74
     0
 42
0.0000000001
 43
0.0000000001
 40
0.0
 40
0.0
 40
0.0
 40
0.0
 40
1.348332046947654
 40
2.024828967632893
 40
2.703918159304094
 40
3.386347665078122
 40
4.072776489761951
 40
4.763750544421345
 40
5.459696642770595
 40
6.160921452191748
 40
6.867565637253344
 40
7.579665907256597
 40
8.297112853413899
 40
9.019671552060666
 40
9.746986763446125
 40
10.47859339096365
 40
11.21393074760088
 40
11.95235532364327
 40
12.69315551794651
 40
13.43556823304427
 40
14.1787950170388
 40
14.92202180103393
 40
15.66443451613169
 40
16.40523471043432
 40
17.14365928647669
 40
17.87899664311455
 40
18.61060327063121
 40
19.33791848201689
 40
20.06048192311554
 40
20.77792886927282
 40
21.49002913927608
 40
22.19667332433747
 40
22.89788836015233
 40
23.59383445850157
 40
24.28480851316097
 40
24.97123685067575
 40
25.65366676154837
 40
26.33276604526151
 40
27.00926273560554
 40
27.68398960851752
 40
28.35781868496899
 40
28.35781868496899
 40
28.35781868496899
 40
28.35781868496899
 10
-61.13292591605209
 20
-10.5000009760013
 30
0.0
 10
-62.13296154884609
 20
-10.47608116434161
 30
0.0
 10
-63.6347437860408
 20
-10.44016009604206
 30
0.0
 10
-65.63172911691424
 20
-10.21900067757374
 30
0.0
 10
-67.13120465482811
 20
-9.996013152744495
 30
0.0
 10
-68.63055202327915
 20
-9.709735048836666
 30
0.0
 10
-70.12976727247306
 20
-9.363973109490414
 30
0.0
 10
-71.62884270064697
 20
-8.960380371337526
 30
0.0
 10
-73.12777579707469
 20
-8.501585984867926
 30
0.0
 10
-74.62655989097481
 20
-7.990407015530663
 30
0.0
 10
-76.12519797805714
 20
-7.430013984861005
 30
0.0
 10
-77.62368602744087
 20
-6.823862473056374
 30
0.0
 10
-79.12204811313825
 20
-6.175717799426531
 30
0.0
 10
-80.62029151748848
 20
-5.489564454890921
 30
0.0
 10
-82.11843001823721
 20
-4.769633606100089
 30
0.0
 10
-83.6164802636445
 20
-4.020366768617391
 30
0.0
 10
-85.1144553826983
 20
-3.246371523018236
 30
0.0
 10
-86.61236995447639
 20
-2.45240834749432
 30
0.0
 10
-88.1102398611434
 20
-1.643363620160831
 30
0.0
 10
-89.60807878583873
 20
-0.8242123973822394
 30
0.0
 10
-91.10590511943561
 20
-0.0000009761652037
 30
0.0
 10
-92.60373145270341
 20
0.8242104460534111
 30
0.0
 10
-94.10157037838576
 20
1.643361665828715
 30
0.0
 10
-95.59944028144519
 20
2.452406404137879
 30
0.0
 10
-97.09735486660051
 20
3.246369538957014
 30
0.0
 10
-98.59532993605284
 20
4.020364935485353
 30
0.0
 10
-100.0933803651513
 20
4.769631214024267
 30
0.0
 10
-101.5915214433173
 20
5.489565695452224
 30
0.0
 10
-103.0897706691187
 20
6.175712805936847
 30
0.0
 10
-104.5881354276645
 20
6.82386080303061
 30
0.0
 10
-106.0866234421592
 20
7.430012495197565
 30
0.0
 10
-107.5852553730065
 20
7.990400376334195
 30
0.0
 10
-109.0840294808164
 20
8.501587253177085
 30
0.0
 10
-110.5829564586999
 20
8.960383513871954
 30
0.0
 10
-112.0820310192876
 20
9.363949846869088
 30
0.0
 10
-113.5812473676143
 20
9.709812070802902
 30
0.0
 10
-115.0806043050159
 20
9.99568136590749
 30
0.0
 10
-116.5800721165125
 20
10.22023868137083
 30
0.0
 10
-118.0796326993529
 20
10.38044850163703
 30
0.0
 10
-119.5792477151269
 20
10.48126239941451
 30
0.0
 10
-120.5792349089447
 20
10.49375625505486
 30
0.0
 10
-121.0788956368453
 20
10.49999902400443
 30
0.0
  0
SPLINE
  5
5C05
330
1F
100
AcDbEntity
  8
AM_0
 48
0.5
100
AcDbSpline
210
0.0
220
0.0
230
1.0
 70
     8
 71
     3
 72
    25
 73
    21
 74
     0
 42
0.0000000001
 43
0.0000000001
 40
6.846175049578289
 40
6.846175049578289
 40
6.846175049578289
 40
6.846175049578289
 40
7.604337694224321
 40
8.711974558287883
 40
9.814980593243754
 40
10.91239053451967
 40
12.0033633515982
 40
13.08720139956839
 40
14.16337181880432
 40
15.23152222380919
 40
16.29148850140128
 40
17.34331105512262
 40
18.38723020264746
 40
19.42369128463655
 40
20.45333379090873
 40
21.47697865721768
 40
22.49561244472435
 40
23.5103574802404
 40
24.52244778960836
 40
25.53320666051913
 40
25.53320666051913
 40
25.53320666051913
 40
25.53320666051913
 10
-13.36770368208558
 20
1.901002162678692
 30
0.0
 10
-13.98263207855364
 20
2.174561180640931
 30
0.0
 10
-14.87344860873486
 20
2.536788032419214
 30
0.0
 10
-16.21216891312657
 20
3.246369230696751
 30
0.0
 10
-17.71014386719723
 20
4.020364906366317
 30
0.0
 10
-19.20819415540124
 20
4.769631633129558
 30
0.0
 10
-20.70633264878241
 20
5.489562497789323
 30
0.0
 10
-22.2045760403007
 20
6.175715888163953
 30
0.0
 10
-23.70293818400142
 20
6.823860364832578
 30
0.0
 10
-25.20142601651214
 20
7.430012610852624
 30
0.0
 10
-26.70005799535877
 20
7.990400347214238
 30
0.0
 10
-28.19883209121473
 20
8.501587255263483
 30
0.0
 10
-29.6977590694599
 20
8.96038353404637
 30
0.0
 10
-31.19683364031199
 20
9.36394976492528
 30
0.0
 10
-32.69604994762805
 20
9.709812375643043
 30
0.0
 10
-34.19539964897411
 20
9.995678828391865
 30
0.0
 10
-35.6948594150707
 20
10.22024078884241
 30
0.0
 10
-37.19441272034957
 20
10.38044814842244
 30
0.0
 10
-38.69403522254182
 20
10.48126301303056
 30
0.0
 10
-39.69402997240147
 20
10.4937564280616
 30
0.0
 10
-40.19369824927491
 20
10.49999902399689
 30
0.0
  0
LINE
  5
5CC9
330
1F
100
AcDbEntity
  8
AM_0
100
AcDbLine
 10
-242.2499999999993
 20
10.49999999999946
 30
0.0
 11
-160.3587800034856
 21
10.49691657538504
 31
0.0
  0
DIMENSION
  5
5D74
330
1F
100
AcDbEntity
  8
AM_5
100
AcDbDimension
  2
*D9
 10
-0.7975973227778529
 20
-2.191373385513417
 30
0.0
 11
25.69971663513937
 21
0.0000000000001753
 31
0.0
 70
    34
  1
<>
 51
359.9999999999998
  3
AM_JIS$2
100
AcDb2LineAngularDimension
 13
0.0000000000007105
 23
-0.0000000000000185
 33
0.0
 14
-0.7975973227778854
 24
2.191373385513368
 34
0.0
 15
0.0000000000007105
 25
-0.0000000000000185
 35
0.0
 16
26.44436773025679
 26
-11.40697565576756
 36
0.0
1001
GENIUS_GENDTOL_13
1000

1000
h7
1000

1040
0.0
1001
ACAD
1000
DSTYLE
1002
{
1070
   271
1070
     0
1002
}
  0
ELLIPSE
  5
5E72
330
1F
100
AcDbEntity
  8
AM_11
 48
0.5
100
AcDbEllipse
 10
7.83099086570268
 20
41.74034638240093
 30
0.0
 11
-46.6164875030511
 21
0.0000000000006446
 31
0.0
210
0.0
220
0.0
230
1.0
 40
0.9899999999999996
 41
1.130070686340335
 42
1.247868474200389
  0
ELLIPSE
  5
5E73
330
1F
100
AcDbEntity
  8
AM_11
 48
0.5
100
AcDbEllipse
 10
-31.94168942389508
 20
-41.7403229524738
 30
0.0
 11
-46.61648750305105
 21
0.0000000000017418
 31
0.0
210
0.0
220
0.0
230
1.0
 40
0.9900000000000009
 41
4.271664206181739
 42
5.153113667165048
  0
ELLIPSE
  5
5E74
330
1F
100
AcDbEntity
  8
AM_11
 48
0.5
100
AcDbEllipse
 10
-31.94168942389635
 20
41.74033672312396
 30
0.0
 11
-46.6164875030511
 21
0.0000000000006446
 31
0.0
210
0.0
220
0.0
230
1.0
 40
0.9899999999999996
 41
1.130070686340335
 42
2.011520147323624
  0
ELLIPSE
  5
5E75
330
1F
100
AcDbEntity
  8
AM_11
 48
0.5
100
AcDbEllipse
 10
-71.71441669662368
 20
41.74033672312331
 30
0.0
 11
-46.6164875030511
 21
-0.00000000000067
 31
0.0
210
0.0
220
0.0
230
1.0
 40
0.99
 41
1.130070686340306
 42
2.011520147323597
  0
ELLIPSE
  5
5E76
330
1F
100
AcDbEntity
  8
AM_11
 48
0.5
100
AcDbEllipse
 10
-71.71441669662233
 20
-41.74032295247448
 30
0.0
 11
-46.61648750305096
 21
0.0000000000013071
 31
0.0
210
0.0
220
0.0
230
1.0
 40
0.9900000000000032
 41
4.271664206181728
 42
5.153113667165039
  0
ELLIPSE
  5
5E77
330
1F
100
AcDbEntity
  8
AM_11
 48
0.5
100
AcDbEllipse
 10
-111.4870475576803
 20
41.74033672312339
 30
0.0
 11
-46.6164875030511
 21
0.0000000000006446
 31
0.0
210
0.0
220
0.0
230
1.0
 40
0.9899999999999996
 41
1.130070686340335
 42
2.011520147323624
  0
ELLIPSE
  5
5E78
330
1F
100
AcDbEntity
  8
AM_11
 48
0.5
100
AcDbEllipse
 10
-111.487047557679
 20
-41.74032295247438
 30
0.0
 11
-46.61648750305105
 21
0.0000000000017418
 31
0.0
210
0.0
220
0.0
230
1.0
 40
0.9900000000000009
 41
4.271664206181739
 42
5.153113667165048
  0
ELLIPSE
  5
5E79
330
1F
100
AcDbEntity
  8
AM_11
 48
0.5
100
AcDbEllipse
 10
-151.2597748304063
 20
-41.74032295247505
 30
0.0
 11
-46.61648750305096
 21
0.0000000000013071
 31
0.0
210
0.0
220
0.0
230
1.0
 40
0.9900000000000032
 41
4.271664206181728
 42
5.153113667165039
  0
ELLIPSE
  5
5E7A
330
1F
100
AcDbEntity
  8
AM_11
 48
0.5
100
AcDbEllipse
 10
-151.2597748304076
 20
41.74033672312272
 30
0.0
 11
-46.6164875030511
 21
-0.00000000000067
 31
0.0
210
0.0
220
0.0
230
1.0
 40
0.99
 41
1.130070686340306
 42
2.011520147323597
  0
ELLIPSE
  5
5E7B
330
1F
100
AcDbEntity
  8
AM_11
 48
0.5
100
AcDbEllipse
 10
-191.0324407487612
 20
41.74035309304246
 30
0.0
 11
-46.6164875030511
 21
0.0000000000006446
 31
0.0
210
0.0
220
0.0
230
1.0
 40
0.9899999999999996
 41
1.130070686340335
 42
2.011520147323624
  0
ELLIPSE
  5
5E7C
330
1F
100
AcDbEntity
  8
AM_11
 48
0.5
100
AcDbEllipse
 10
-230.8051680214872
 20
-41.74030658255598
 30
0.0
 11
-46.61648750305096
 21
0.0000000000013071
 31
0.0
210
0.0
220
0.0
230
1.0
 40
0.9900000000000032
 41
4.271664206181728
 42
4.977067625265968
  0
ELLIPSE
  5
5E7D
330
1F
100
AcDbEntity
  8
AM_11
 48
0.5
100
AcDbEllipse
 10
-230.8051680214886
 20
41.7403530930418
 30
0.0
 11
-46.6164875030511
 21
-0.00000000000067
 31
0.0
210
0.0
220
0.0
230
1.0
 40
0.99
 41
1.306117681913663
 42
2.011520147323597
  0
ELLIPSE
  5
5E7E
330
1F
100
AcDbEntity
  8
AM_11
 48
0.5
100
AcDbEllipse
 10
-191.03244074876
 20
-41.74030658255531
 30
0.0
 11
-46.61648750305105
 21
0.0000000000017418
 31
0.0
210
0.0
220
0.0
230
1.0
 40
0.9900000000000009
 41
4.271664206181739
 42
5.153113667165048
  0
VIEWPORT
  5
110
330
101
100
AcDbEntity
 67
     1
  8
0
100
AcDbViewport
 10
420.5
 20
297.0
 30
0.0
 40
948.9782706766916
 41
628.452
 68
     1
 69
     1
1001
ACAD
1000
MVIEW
1002
{
1070
    16
1010
0.0
1020
0.0
1030
0.0
1010
0.0
1020
0.0
1030
1.0
1040
0.0
1040
628.452
1040
420.5
1040
297.0
1040
50.0
1040
0.0
1040
0.0
1070
     0
1070
   100
1070
     1
1070
     1
1070
     0
1070
     0
1070
     0
1070
     0
1040
0.0
1040
0.0
1040
0.0
1040
10.0
1040
10.0
1040
10.0
1040
10.0
1070
     0
1002
{
1002
}
1002
}
  0
ENDSEC
  0
SECTION
  2
OBJECTS
  0
DICTIONARY
  5
C
330
0
100
AcDbDictionary
  3
ACAD_GROUP
350
D
  3
ACAD_LAYOUT
350
1A
  3
ACAD_MLINESTYLE
350
17
  3
ACAD_PLOTSETTINGS
350
19
  3
ACAD_PLOTSTYLENAME
350
E
  3
ACDBVARIABLEDICTIONARY
350
34
  3
ACMDICTIONARY
350
43
  3
AMG
350
2B
  3
AMGSNAPSETTINGS
350
6E
  3
DWGPROPS
350
5E98
  3
ACDBHEADERROUNDTRIPXREC
350
5EA5
  0
DICTIONARY
  5
74
330
1F
100
AcDbDictionary
280
     1
  3
ACAD_INDEX
360
5E9A
  3
ACAD_LAYOUTSELFREF
360
5EC8
  0
DICTIONARY
  5
5ECD
330
101
100
AcDbDictionary
280
     1
  3
ACAD_LAYOUTSELFREF
360
5ECE
  0
DICTIONARY
  5
D
102
{ACAD_REACTORS
330
C
102
}
330
C
100
AcDbDictionary
  0
DICTIONARY
  5
1A
102
{ACAD_REACTORS
330
C
102
}
330
C
100
AcDbDictionary
  0
DICTIONARY
  5
17
102
{ACAD_REACTORS
330
C
102
}
330
C
100
AcDbDictionary
  3
STANDARD
350
18
  0
DICTIONARY
  5
19
102
{ACAD_REACTORS
330
C
102
}
330
C
100
AcDbDictionary
  0
ACDBDICTIONARYWDFLT
  5
E
102
{ACAD_REACTORS
330
C
102
}
330
C
100
AcDbDictionary
281
     1
  3
Normal
350
F
100
AcDbDictionaryWithDefault
340
F
  0
DICTIONARY
  5
34
102
{ACAD_REACTORS
330
C
102
}
330
C
100
AcDbDictionary
  3
INDEXCTL
350
35
  3
SORTENTS
350
B5E
  0
DICTIONARY
  5
43
102
{ACAD_REACTORS
330
C
102
}
330
C
100
AcDbDictionary
  3
ACMSTDDICTIONARY
350
260
  0
DICTIONARY
  5
2B
102
{ACAD_REACTORS
330
C
102
}
330
C
100
AcDbDictionary
  3
ACMGSETTINGS
350
2C
  0
DICTIONARY
  5
6E
102
{ACAD_REACTORS
330
C
102
}
330
C
100
AcDbDictionary
  0
XRECORD
  5
5E98
102
{ACAD_REACTORS
330
C
102
}
330
C
100
AcDbXrecord
  1
DWGPROPS COOKIE
  2

  3

  4

  6

  7

  8

  9

300
AmdtFileType=82
301
=
302
=
303
=
304
=
305
=
306
=
307
=
308
=
309
=
 40
0.1489744560185185
 41
2452800.443498622
 42
2452948.678042893
  1

 90
        1
  0
DICTIONARY
  5
5EA5
102
{ACAD_REACTORS
330
C
102
}
330
C
100
AcDbDictionary
  3
TSTACKALIGN
350
5EA6
  3
TSTACKSIZE
350
5EA7
  3
HYPERLINKBASE
350
5EA8
  3
STYLESHEET
350
5EA9
  3
LAYOUTDICT
350
5EAA
  3
PLOTSETDICT
350
5EAB
  3
PLOTSTYLNAMDICT
350
5EAC
  3
LWETCUNION
350
5EAD
  3
INSUNITS
350
5EAE
  3
CEPSNTYPE
350
5EAF
  3
FINGERPRINTGUID
350
5EB0
  3
VERSIONGUID
350
5EB1
  3
PSVPSCALE
350
5EB2
  3
DIMSTYLEDATA
350
5EB3
  3
PUCSORTHOREF
350
5EB4
  3
PUCSORTHOVIEW
350
5EB5
  3
PUCSBASE
350
5EB6
  3
PUCSORGTOP
350
5EB7
  3
PUCSORGBOTTOM
350
5EB8
  3
PUCSORGLEFT
350
5EB9
  3
PUCSORGRIGHT
350
5EBA
  3
PUCSORGFRONT
350
5EBB
  3
PUCSORGBACK
350
5EBC
  3
UCSORTHOREF
350
5EBD
  3
UCSORTHOVIEW
350
5EBE
  3
UCSBASE
350
5EBF
  3
UCSORGTOP
350
5EC0
  3
UCSORGBOTTOM
350
5EC1
  3
UCSORGLEFT
350
5EC2
  3
UCSORGRIGHT
350
5EC3
  3
UCSORGFRONT
350
5EC4
  3
UCSORGBACK
350
5EC5
  0
DICTIONARY
  5
5E9A
102
{ACAD_REACTORS
330
74
102
}
330
74
100
AcDbDictionary
  3
*A1
350
5E9B
  0
XRECORD
  5
5EC8
102
{ACAD_REACTORS
330
74
102
}
330
74
100
AcDbXrecord
340
1F
  0
XRECORD
  5
5ECE
102
{ACAD_REACTORS
330
5ECD
102
}
330
5ECD
100
AcDbXrecord
340
101
  0
MLINESTYLE
  5
18
102
{ACAD_REACTORS
330
17
102
}
330
17
100
AcDbMlineStyle
  2
STANDARD
 70
     0
  3

 62
   256
 51
90.0
 52
90.0
 71
     2
 49
0.5
 62
   256
  6
BYLAYER
 49
-0.5
 62
   256
  6
BYLAYER
  0
ACDBPLACEHOLDER
  5
F
102
{ACAD_REACTORS
330
E
102
}
330
E
100
AcDbPlaceHolder
280
     0
  0
DICTIONARYVAR
  5
35
102
{ACAD_REACTORS
330
34
102
}
330
34
100
DictionaryVariables
280
     0
  1
1
  0
DICTIONARYVAR
  5
B5E
102
{ACAD_REACTORS
330
34
102
}
330
34
100
DictionaryVariables
280
     0
  1
96
  0
DICTIONARY
  5
260
102
{ACAD_REACTORS
330
43
102
}
330
43
100
AcDbDictionary
  0
DICTIONARY
  5
2C
102
{ACAD_REACTORS
330
2B
102
}
330
2B
100
AcDbDictionary
  3
DWGSETTINGS
350
2D
  0
XRECORD
  5
5EA6
102
{ACAD_REACTORS
330
5EA5
102
}
330
5EA5
100
AcDbXrecord
 90
        1
  0
XRECORD
  5
5EA7
102
{ACAD_REACTORS
330
5EA5
102
}
330
5EA5
100
AcDbXrecord
 90
       70
  0
XRECORD
  5
5EA8
102
{ACAD_REACTORS
330
5EA5
102
}
330
5EA5
100
AcDbXrecord
  1

  0
XRECORD
  5
5EA9
102
{ACAD_REACTORS
330
5EA5
102
}
330
5EA5
100
AcDbXrecord
  1
ASAMI.ctb
  0
XRECORD
  5
5EAA
102
{ACAD_REACTORS
330
5EA5
102
}
330
5EA5
100
AcDbXrecord
340
1A
  0
XRECORD
  5
5EAB
102
{ACAD_REACTORS
330
5EA5
102
}
330
5EA5
100
AcDbXrecord
340
19
  0
XRECORD
  5
5EAC
102
{ACAD_REACTORS
330
5EA5
102
}
330
5EA5
100
AcDbXrecord
340
E
  0
XRECORD
  5
5EAD
102
{ACAD_REACTORS
330
5EA5
102
}
330
5EA5
100
AcDbXrecord
 90
    10781
  0
XRECORD
  5
5EAE
102
{ACAD_REACTORS
330
5EA5
102
}
330
5EA5
100
AcDbXrecord
 90
        4
  0
XRECORD
  5
5EAF
102
{ACAD_REACTORS
330
5EA5
102
}
330
5EA5
100
AcDbXrecord
 90
        0
  0
XRECORD
  5
5EB0
102
{ACAD_REACTORS
330
5EA5
102
}
330
5EA5
100
AcDbXrecord
  1
{AFB28963-8C59-40AE-9337-C84526B81ACE}
  0
XRECORD
  5
5EB1
102
{ACAD_REACTORS
330
5EA5
102
}
330
5EA5
100
AcDbXrecord
  1
{020477A1-195B-4132-998C-98B3E85478C6}
  0
XRECORD
  5
5EB2
102
{ACAD_REACTORS
330
5EA5
102
}
330
5EA5
100
AcDbXrecord
 40
0.0
  0
XRECORD
  5
5EB3
102
{ACAD_REACTORS
330
5EA5
102
}
330
5EA5
100
AcDbXrecord
1000
DSTYLE
1002
{
1070
    79
 70
     2
1070
   341
340
59
1070
   342
340
59
1070
   371
 70
    -1
1070
   372
 70
    -1
1002
}
  0
XRECORD
  5
5EB4
102
{ACAD_REACTORS
330
5EA5
102
}
330
5EA5
100
AcDbXrecord
340
0
  0
XRECORD
  5
5EB5
102
{ACAD_REACTORS
330
5EA5
102
}
330
5EA5
100
AcDbXrecord
 70
     0
  0
XRECORD
  5
5EB6
102
{ACAD_REACTORS
330
5EA5
102
}
330
5EA5
100
AcDbXrecord
340
0
  0
XRECORD
  5
5EB7
102
{ACAD_REACTORS
330
5EA5
102
}
330
5EA5
100
AcDbXrecord
 10
0.0
 20
0.0
 30
0.0
  0
XRECORD
  5
5EB8
102
{ACAD_REACTORS
330
5EA5
102
}
330
5EA5
100
AcDbXrecord
 10
0.0
 20
0.0
 30
0.0
  0
XRECORD
  5
5EB9
102
{ACAD_REACTORS
330
5EA5
102
}
330
5EA5
100
AcDbXrecord
 10
0.0
 20
0.0
 30
0.0
  0
XRECORD
  5
5EBA
102
{ACAD_REACTORS
330
5EA5
102
}
330
5EA5
100
AcDbXrecord
 10
0.0
 20
0.0
 30
0.0
  0
XRECORD
  5
5EBB
102
{ACAD_REACTORS
330
5EA5
102
}
330
5EA5
100
AcDbXrecord
 10
0.0
 20
0.0
 30
0.0
  0
XRECORD
  5
5EBC
102
{ACAD_REACTORS
330
5EA5
102
}
330
5EA5
100
AcDbXrecord
 10
0.0
 20
0.0
 30
0.0
  0
XRECORD
  5
5EBD
102
{ACAD_REACTORS
330
5EA5
102
}
330
5EA5
100
AcDbXrecord
340
0
  0
XRECORD
  5
5EBE
102
{ACAD_REACTORS
330
5EA5
102
}
330
5EA5
100
AcDbXrecord
 70
     0
  0
XRECORD
  5
5EBF
102
{ACAD_REACTORS
330
5EA5
102
}
330
5EA5
100
AcDbXrecord
340
0
  0
XRECORD
  5
5EC0
102
{ACAD_REACTORS
330
5EA5
102
}
330
5EA5
100
AcDbXrecord
 10
0.0
 20
0.0
 30
0.0
  0
XRECORD
  5
5EC1
102
{ACAD_REACTORS
330
5EA5
102
}
330
5EA5
100
AcDbXrecord
 10
0.0
 20
0.0
 30
0.0
  0
XRECORD
  5
5EC2
102
{ACAD_REACTORS
330
5EA5
102
}
330
5EA5
100
AcDbXrecord
 10
0.0
 20
0.0
 30
0.0
  0
XRECORD
  5
5EC3
102
{ACAD_REACTORS
330
5EA5
102
}
330
5EA5
100
AcDbXrecord
 10
0.0
 20
0.0
 30
0.0
  0
XRECORD
  5
5EC4
102
{ACAD_REACTORS
330
5EA5
102
}
330
5EA5
100
AcDbXrecord
 10
0.0
 20
0.0
 30
0.0
  0
XRECORD
  5
5EC5
102
{ACAD_REACTORS
330
5EA5
102
}
330
5EA5
100
AcDbXrecord
 10
0.0
 20
0.0
 30
0.0
  0
LAYER_INDEX
  5
5E9B
102
{ACAD_REACTORS
330
5E9A
102
}
330
5E9A
100
AcDbIndex
 40
2453151.674388183
100
AcDbLayerIndex
  8
0
360
5E9C
 90
        0
  8
AM_0
360
5E9D
 90
       46
  8
AM_7
360
5E9E
 90
        1
  8
AM_11
360
5E9F
 90
       19
  8
AM_5
360
5EA0
 90
        5
  8
Defpoints
360
5EA1
 90
        0
  8
AM_6
360
5EA2
 90
        1
  8
AM_CL
360
5EA3
 90
        0
  0
XRECORD
  5
2D
102
{ACAD_REACTORS
330
2C
102
}
330
2C
100
AcDbXrecord
  1
VERSION
140
15.0
  1
PRODUCT
  2
AutoCAD Mechanical 2000
  0
IDBUFFER
  5
5E9C
330
0
100
AcDbIdBuffer
  0
IDBUFFER
  5
5E9D
330
0
100
AcDbIdBuffer
330
5AF7
330
5AF8
330
5AF9
330
5AFA
330
5AFB
330
5B00
330
5BEE
330
5BEF
330
5BF0
330
5BF1
330
5BF2
330
5BF3
330
5BF4
330
5BF5
330
5BF6
330
5BF7
330
5BF9
330
5BFA
330
5BFB
330
5BFC
330
5BFD
330
5BFE
330
5BFF
330
5C00
330
5C01
330
5C02
330
5C03
330
5C04
330
5C05
330
5CC9
330
21D9
330
21DC
330
21DD
330
4D3D
330
4D3F
330
4D44
330
4D4B
330
53F6
330
53FC
330
59CB
330
59CC
330
5AE6
330
5AE7
330
5AE8
330
5AF3
330
5AF6
  0
IDBUFFER
  5
5E9E
330
0
100
AcDbIdBuffer
330
C9F
  0
IDBUFFER
  5
5E9F
330
0
100
AcDbIdBuffer
330
5E7C
330
5E7D
330
5E7E
330
5AEA
330
5AED
330
5AEE
330
5B01
330
5B02
330
5BF8
330
5E72
330
5E73
330
5E74
330
5E75
330
5E76
330
5E77
330
5E78
330
5E79
330
5E7A
330
5E7B
  0
IDBUFFER
  5
5EA0
330
0
100
AcDbIdBuffer
330
CC6
330
DF5
330
2216
330
5B3A
330
5D74
  0
IDBUFFER
  5
5EA1
330
0
100
AcDbIdBuffer
  0
IDBUFFER
  5
5EA2
330
0
100
AcDbIdBuffer
330
19BD
  0
IDBUFFER
  5
5EA3
330
0
100
AcDbIdBuffer
  0
ENDSEC
  0
EOF
