  0
SECTION
  2
HEADER
  9
$ACADVER
  1
AC1014
  9
$ACADMAINTVER
 70
     9
  9
$DWGCODEPAGE
  3
ANSI_932
  9
$INSBASE
 10
0.0
 20
0.0
 30
0.0
  9
$EXTMIN
 10
-292.3000009999997
 20
-58.50001416295825
 30
-0.00000001
  9
$EXTMAX
 10
24.22241364505831
 20
23.78586980108879
 30
0.00000001
  9
$LIMMIN
 10
-308.6544387950494
 20
-82.26759786981563
  9
$LIMMAX
 10
35.95513751791338
 20
56.73207469383772
  9
$ORTHOMODE
 70
     0
  9
$REGENMODE
 70
     1
  9
$FILLMODE
 70
     1
  9
$QTEXTMODE
 70
     0
  9
$MIRRTEXT
 70
     0
  9
$DRAGMODE
 70
     2
  9
$LTSCALE
 40
1.0
  9
$OSMODE
 70
    55
  9
$ATTMODE
 70
     1
  9
$TEXTSIZE
 40
2.5
  9
$TRACEWID
 40
1.0
  9
$TEXTSTYLE
  7
STANDARD
  9
$CLAYER
  8
AM_0
  9
$CELTYPE
  6
BYLAYER
  9
$CECOLOR
 62
   256
  9
$CELTSCALE
 40
1.0
  9
$DELOBJ
 70
     1
  9
$DISPSILH
 70
     0
  9
$DIMSCALE
 40
1.0
  9
$DIMASZ
 40
2.5
  9
$DIMEXO
 40
1.0
  9
$DIMDLI
 40
12.0
  9
$DIMRND
 40
0.0
  9
$DIMDLE
 40
0.0
  9
$DIMEXE
 40
1.0
  9
$DIMTP
 40
0.1
  9
$DIMTM
 40
0.1
  9
$DIMTXT
 40
3.2
  9
$DIMCEN
 40
0.0
  9
$DIMTSZ
 40
0.0
  9
$DIMTOL
 70
     0
  9
$DIMLIM
 70
     0
  9
$DIMTIH
 70
     0
  9
$DIMTOH
 70
     0
  9
$DIMSE1
 70
     0
  9
$DIMSE2
 70
     0
  9
$DIMTAD
 70
     3
  9
$DIMZIN
 70
     8
  9
$DIMBLK
  1
OPEN30
  9
$DIMASO
 70
     1
  9
$DIMSHO
 70
     1
  9
$DIMPOST
  1

  9
$DIMAPOST
  1
"
  9
$DIMALT
 70
     0
  9
$DIMALTD
 70
     2
  9
$DIMALTF
 40
0.0393701
  9
$DIMLFAC
 40
1.0
  9
$DIMTOFL
 70
     1
  9
$DIMTVP
 40
0.0
  9
$DIMTIX
 70
     0
  9
$DIMSOXD
 70
     0
  9
$DIMSAH
 70
     0
  9
$DIMBLK1
  1

  9
$DIMBLK2
  1

  9
$DIMSTYLE
  2
AM_JIS
  9
$DIMCLRD
 70
   256
  9
$DIMCLRE
 70
   256
  9
$DIMCLRT
 70
     2
  9
$DIMTFAC
 40
0.71
  9
$DIMGAP
 40
1.5
  9
$DIMJUST
 70
     0
  9
$DIMSD1
 70
     0
  9
$DIMSD2
 70
     0
  9
$DIMTOLJ
 70
     0
  9
$DIMTZIN
 70
     0
  9
$DIMALTZ
 70
     0
  9
$DIMALTTZ
 70
     0
  9
$DIMFIT
 70
     3
  9
$DIMUPT
 70
     0
  9
$DIMUNIT
 70
     2
  9
$DIMDEC
 70
     3
  9
$DIMTDEC
 70
     3
  9
$DIMALTU
 70
     2
  9
$DIMALTTD
 70
     2
  9
$DIMTXSTY
  7
ASAMI
  9
$DIMAUNIT
 70
     0
  9
$LUNITS
 70
     2
  9
$LUPREC
 70
     2
  9
$SKETCHINC
 40
1.0
  9
$FILLETRAD
 40
2.5
  9
$AUNITS
 70
     0
  9
$AUPREC
 70
     0
  9
$MENU
  1
.
  9
$ELEVATION
 40
0.0
  9
$PELEVATION
 40
0.0
  9
$THICKNESS
 40
0.0
  9
$LIMCHECK
 70
     0
  9
$BLIPMODE
 70
     0
  9
$CHAMFERA
 40
0.75
  9
$CHAMFERB
 40
0.75
  9
$CHAMFERC
 40
20.0
  9
$CHAMFERD
 40
0.0
  9
$SKPOLY
 70
     0
  9
$TDCREATE
 40
2452800.443498622
  9
$TDUPDATE
 40
2453151.675509606
  9
$TDINDWG
 40
0.1614393403
  9
$TDUSRTIMER
 40
0.1614393403
  9
$USRTIMER
 70
     1
  9
$ANGBASE
 50
0.0
  9
$ANGDIR
 70
     0
  9
$PDMODE
 70
     3
  9
$PDSIZE
 40
0.0
  9
$PLINEWID
 40
0.0
  9
$COORDS
 70
     1
  9
$SPLFRAME
 70
     0
  9
$SPLINETYPE
 70
     6
  9
$SPLINESEGS
 70
     8
  9
$ATTDIA
 70
     1
  9
$ATTREQ
 70
     1
  9
$HANDLING
 70
 12289
  9
$HANDSEED
  5
643B
  9
$SURFTAB1
 70
     6
  9
$SURFTAB2
 70
     6
  9
$SURFTYPE
 70
     6
  9
$SURFU
 70
     6
  9
$SURFV
 70
     6
  9
$UCSNAME
  2

  9
$UCSORG
 10
0.0
 20
0.0
 30
0.0
  9
$UCSXDIR
 10
1.0
 20
0.0000000000000027
 30
0.0
  9
$UCSYDIR
 10
-0.0000000000000027
 20
1.0
 30
0.0
  9
$PUCSNAME
  2

  9
$PUCSORG
 10
0.0
 20
0.0
 30
0.0
  9
$PUCSXDIR
 10
1.0
 20
0.0
 30
0.0
  9
$PUCSYDIR
 10
0.0
 20
1.0
 30
0.0
  9
$USERI1
 70
     0
  9
$USERI2
 70
     0
  9
$USERI3
 70
     0
  9
$USERI4
 70
     0
  9
$USERI5
 70
     0
  9
$USERR1
 40
0.0
  9
$USERR2
 40
0.0
  9
$USERR3
 40
0.0
  9
$USERR4
 40
0.0
  9
$USERR5
 40
0.0
  9
$WORLDVIEW
 70
     1
  9
$SHADEDGE
 70
     3
  9
$SHADEDIF
 70
    70
  9
$TILEMODE
 70
     1
  9
$MAXACTVP
 70
    64
  9
$PINSBASE
 10
0.0
 20
0.0
 30
0.0
  9
$PLIMCHECK
 70
     0
  9
$PEXTMIN
 10
1.000000000000000E+20
 20
1.000000000000000E+20
 30
1.000000000000000E+20
  9
$PEXTMAX
 10
-1.000000000000000E+20
 20
-1.000000000000000E+20
 30
-1.000000000000000E+20
  9
$PLIMMIN
 10
0.0
 20
0.0
  9
$PLIMMAX
 10
841.0
 20
594.0
  9
$UNITMODE
 70
     0
  9
$VISRETAIN
 70
     1
  9
$PLINEGEN
 70
     0
  9
$PSLTSCALE
 70
     0
  9
$TREEDEPTH
 70
  3020
  9
$PICKSTYLE
 70
     0
  9
$CMLSTYLE
  2
STANDARD
  9
$CMLJUST
 70
     0
  9
$CMLSCALE
 40
20.0
  9
$PROXYGRAPHICS
 70
     1
  9
$MEASUREMENT
 70
     1
  0
ENDSEC
  0
SECTION
  2
CLASSES
  0
CLASS
  1
ACDBDICTIONARYWDFLT
  2
AcDbDictionaryWithDefault
  3
AutoCAD 2000
 90
        0
280
     0
281
     0
  0
CLASS
  1
ACDBPLACEHOLDER
  2
AcDbPlaceHolder
  3
AutoCAD 2000
 90
        0
280
     0
281
     0
  0
CLASS
  1
LAYOUT
  2
AcDbLayout
  3
AutoCAD 2000
 90
        0
280
     0
281
     0
  0
CLASS
  1
AMGSETTINGSOBJ
  2
AmgSettingsObj
  3
"AcadM|Product Description: AutoCAD Mechanical 2000|Company: Autodesk"
 90
        0
280
     0
281
     0
  0
CLASS
  1
ACME_DOCUMENT
  2
AcMeDbDoc
  3
AcMeServices
 90
        0
280
     0
281
     0
  0
CLASS
  1
ACMESCOPE
  2
AcMeScope
  3
AcMeServices
 90
        0
280
     0
281
     0
  0
CLASS
  1
ACMECOMMANDHISTORY
  2
AcMeCommandHistory
  3
AcMeServices
 90
        0
280
     0
281
     0
  0
CLASS
  1
DICTIONARYVAR
  2
AcDbDictionaryVar
  3
AutoCAD 2000
 90
        0
280
     0
281
     0
  0
CLASS
  1
ACIMSYSVARMAN
  2
AcImSysVarManager
  3
AcMeServices
 90
        0
280
     0
281
     0
  0
CLASS
  1
ACIMREALSYSVAR
  2
AcImRealSysVar
  3
AcMeServices
 90
        0
280
     0
281
     0
  0
CLASS
  1
ACIMINTSYSVAR
  2
AcImIntSysVar
  3
AcMeServices
 90
        0
280
     0
281
     0
  0
CLASS
  1
ACMEDRAWINGMAN
  2
AcMeDrawingMan
  3
AcMeServices
 90
        0
280
     0
281
     0
  0
CLASS
  1
ACMEVIEW
  2
AcMeView
  3
AcMeServices
 90
        0
280
     0
281
     0
  0
CLASS
  1
ACDBENTITYCACHE
  2
AcMeEntityCache
  3
AcMeServices
 90
        0
280
     0
281
     0
  0
CLASS
  1
GSMANAGER
  2
AcMeGSManager
  3
AcMeServices
 90
        0
280
     0
281
     0
  0
CLASS
  1
AmdtInternalReactor
  2
AmdtInternalReactor
  3
AcMeServices
 90
        0
280
     0
281
     0
  0
CLASS
  1
ACMESTATEMGR
  2
AcMeStateMgr
  3
AcMeServices
 90
        0
280
     0
281
     0
  0
CLASS
  1
ACME_DATABASE
  2
AcMeDbDatabase
  3
AcMeServices
 90
        0
280
     0
281
     0
  0
CLASS
  1
ACRFINSADJUSTERMGR
  2
AcRfInsAdjusterMgr
  3
AcMeServices
 90
        0
280
     0
281
     0
  0
CLASS
  1
ACMDATADICTIONARY
  2
AcmDataDictionary
  3
"AcmSymBB|Product Description: AutoCAD Mechanical 2000|Company: Autodesk"
 90
        0
280
     0
281
     0
  0
CLASS
  1
ACMDATAENTRYBLOCK
  2
AcmDataEntryBlock
  3
"AcmSymBB|Product Description: AutoCAD Mechanical 2000|Company: Autodesk"
 90
        0
280
     0
281
     0
  0
CLASS
  1
AMGOBJPROPCFG
  2
AmgObjPropCfg
  3
"AmgLay|Product Description: AutoCAD Mechanical 2000|Company: Autodesk"
 90
        1
280
     0
281
     0
  0
CLASS
  1
ACAMGFILTERDAT
  2
AcAmgFilterDat
  3
"AcadM|Product Description: AutoCAD Mechanical 2000|Company: Autodesk"
 90
        0
280
     0
281
     0
  0
CLASS
  1
LAYER_INDEX
  2
AcDbLayerIndex
  3
AutoCAD 2000
 90
        0
280
     0
281
     0
  0
CLASS
  1
IDBUFFER
  2
AcDbIdBuffer
  3
AutoCAD 2000
 90
        0
280
     0
281
     0
  0
CLASS
  1
ACIMSTRSYSVAR
  2
AcImStrSysVar
  3
AcMeServices
 90
        0
280
     0
281
     0
  0
CLASS
  1
ACMSTANDARDJIS
  2
AcmStandardJIS
  3
"AcmSymBB|Product Description: AutoCAD Mechanical 2000|Company: Autodesk"
 90
        0
280
     0
281
     0
  0
CLASS
  1
ACMSURFSTANDARDJIS
  2
AcmSurfTextStdJIS
  3
"AcmSymBB|Product Description: AutoCAD Mechanical 2000|Company: Autodesk"
 90
        0
280
     0
281
     0
  0
CLASS
  1
ACMFCFSTANDARDJIS
  2
AcmFCFStdJIS
  3
"AcmSymBB|Product Description: AutoCAD Mechanical 2000|Company: Autodesk"
 90
        0
280
     0
281
     0
  0
CLASS
  1
ACMWELDSTANDARDJIS
  2
AcmWeldingStdJIS
  3
"AcmSymBB|Product Description: AutoCAD Mechanical 2000|Company: Autodesk"
 90
        0
280
     0
281
     0
  0
CLASS
  1
ACMIDSTANDARDJIS
  2
AcmIdStdJIS
  3
"AcmSymBB|Product Description: AutoCAD Mechanical 2000|Company: Autodesk"
 90
        0
280
     0
281
     0
  0
CLASS
  1
ACMDATUMSTANDARDJIS
  2
AcmDatumStdJIS
  3
"AcmSymBB|Product Description: AutoCAD Mechanical 2000|Company: Autodesk"
 90
        0
280
     0
281
     0
  0
CLASS
  1
ACMBOMSTANDARDJIS
  2
AcmBOMStdJIS
  3
"AcmSymBB|Product Description: AutoCAD Mechanical 2000|Company: Autodesk"
 90
        0
280
     0
281
     0
  0
CLASS
  1
ACMSTANDARDANSI
  2
AcmStandardANSI
  3
"AcmSymBB|Product Description: AutoCAD Mechanical 2000|Company: Autodesk"
 90
        0
280
     0
281
     0
  0
CLASS
  1
ACMSURFSTANDARDANSI
  2
AcmSurfTextStdANSI
  3
"AcmSymBB|Product Description: AutoCAD Mechanical 2000|Company: Autodesk"
 90
        0
280
     0
281
     0
  0
CLASS
  1
ACMFCFSTANDARDANSI
  2
AcmFCFStdANSI
  3
"AcmSymBB|Product Description: AutoCAD Mechanical 2000|Company: Autodesk"
 90
        0
280
     0
281
     0
  0
CLASS
  1
ACMWELDSTANDARDANSI
  2
AcmWeldingStdANSI
  3
"AcmSymBB|Product Description: AutoCAD Mechanical 2000|Company: Autodesk"
 90
        0
280
     0
281
     0
  0
CLASS
  1
ACMIDSTANDARDANSI
  2
AcmIdStdANSI
  3
"AcmSymBB|Product Description: AutoCAD Mechanical 2000|Company: Autodesk"
 90
        0
280
     0
281
     0
  0
CLASS
  1
ACMDATUMSTANDARDANSI
  2
AcmDatumStdANSI
  3
"AcmSymBB|Product Description: AutoCAD Mechanical 2000|Company: Autodesk"
 90
        0
280
     0
281
     0
  0
CLASS
  1
ACMBOMSTANDARDANSI
  2
AcmBOMStdANSI
  3
"AcmSymBB|Product Description: AutoCAD Mechanical 2000|Company: Autodesk"
 90
        0
280
     0
281
     0
  0
CLASS
  1
ACMSTANDARDBSI
  2
AcmStandardBSI
  3
"AcmSymBB|Product Description: AutoCAD Mechanical 2000|Company: Autodesk"
 90
        0
280
     0
281
     0
  0
CLASS
  1
ACMSURFSTANDARDBSI
  2
AcmSurfTextStdBSI
  3
"AcmSymBB|Product Description: AutoCAD Mechanical 2000|Company: Autodesk"
 90
        0
280
     0
281
     0
  0
CLASS
  1
ACMFCFSTANDARDBSI
  2
AcmFCFStdBSI
  3
"AcmSymBB|Product Description: AutoCAD Mechanical 2000|Company: Autodesk"
 90
        0
280
     0
281
     0
  0
CLASS
  1
ACMWELDSTANDARDBSI
  2
AcmWeldingStdBSI
  3
"AcmSymBB|Product Description: AutoCAD Mechanical 2000|Company: Autodesk"
 90
        0
280
     0
281
     0
  0
CLASS
  1
ACMIDSTANDARDBSI
  2
AcmIdStdBSI
  3
"AcmSymBB|Product Description: AutoCAD Mechanical 2000|Company: Autodesk"
 90
        0
280
     0
281
     0
  0
CLASS
  1
ACMDATUMSTANDARDBSI
  2
AcmDatumStdBSI
  3
"AcmSymBB|Product Description: AutoCAD Mechanical 2000|Company: Autodesk"
 90
        0
280
     0
281
     0
  0
CLASS
  1
ACMBOMSTANDARDBSI
  2
AcmBOMStdBSI
  3
"AcmSymBB|Product Description: AutoCAD Mechanical 2000|Company: Autodesk"
 90
        0
280
     0
281
     0
  0
CLASS
  1
LONG_TRANSACTION
  2
AcDbLongTransaction
  3
AutoCAD 2000
 90
        0
280
     0
281
     0
  0
CLASS
  1
LWPOLYLINE
  2
AcDbPolyline
  3
AutoCAD 2000
 90
        0
280
     0
281
     1
  0
CLASS
  1
HATCH
  2
AcDbHatch
  3
AutoCAD 2000
 90
        0
280
     0
281
     1
  0
CLASS
  1
XRECORD
  2
AcDbXrecord
  3
AutoCAD 2000
 90
        0
280
     0
281
     0
  0
ENDSEC
  0
SECTION
  2
TABLES
  0
TABLE
  2
VPORT
  5
8
330
0
100
AcDbSymbolTable
 70
     3
  0
VPORT
  5
6405
330
8
100
AcDbSymbolTableRecord
100
AcDbViewportTableRecord
  2
*ACTIVE
 70
     0
 10
0.0
 20
0.0
 11
1.0
 21
1.0
 12
-128.1284819391126
 22
-17.35965413927337
 13
0.0
 23
0.0
 14
2.5
 24
2.5
 15
10.0
 25
10.0
 16
0.0
 26
0.0
 36
1.0
 17
0.0
 27
0.0
 37
0.0
 40
210.7655833992473
 41
1.56570841889117
 42
50.0
 43
0.0
 44
0.0
 50
0.0
 51
0.0
 71
     0
 72
   100
 73
     1
 74
     1
 75
     0
 76
     0
 77
     0
 78
     0
  0
ENDTAB
  0
TABLE
  2
LTYPE
  5
5
330
0
100
AcDbSymbolTable
 70
    10
  0
LTYPE
  5
14
330
5
100
AcDbSymbolTableRecord
100
AcDbLinetypeTableRecord
  2
BYBLOCK
 70
     0
  3

 72
    65
 73
     0
 40
0.0
  0
LTYPE
  5
15
330
5
100
AcDbSymbolTableRecord
100
AcDbLinetypeTableRecord
  2
BYLAYER
 70
     0
  3

 72
    65
 73
     0
 40
0.0
  0
LTYPE
  5
16
330
5
100
AcDbSymbolTableRecord
100
AcDbLinetypeTableRecord
  2
CONTINUOUS
 70
     0
  3
Solid line
 72
    65
 73
     0
 40
0.0
  0
LTYPE
  5
4B
330
5
100
AcDbSymbolTableRecord
100
AcDbLinetypeTableRecord
  2
AM_ISO02W050
 70
     0
  3
__ __ __ __ __ __ __ __ __ __ __ __ __ __ __
 72
    65
 73
     2
 40
7.5
 49
6.0
 74
     0
 49
-1.5
 74
     0
  0
LTYPE
  5
4C
330
5
100
AcDbSymbolTableRecord
100
AcDbLinetypeTableRecord
  2
AM_ISO08W050
 70
     0
  3
____ . ____ . ____ . ____ . ____ . ____ . ____
 72
    65
 73
     4
 40
18.0
 49
12.0
 74
     0
 49
-1.5
 74
     0
 49
3.0
 74
     0
 49
-1.5
 74
     0
  0
LTYPE
  5
4D
330
5
100
AcDbSymbolTableRecord
100
AcDbLinetypeTableRecord
  2
AM_ISO09W050
 70
     0
  3
_____ . . _____ . . _____ . . ____ .. ____
 72
    65
 73
     6
 40
22.5
 49
12.0
 74
     0
 49
-1.5
 74
     0
 49
3.0
 74
     0
 49
-1.5
 74
     0
 49
3.0
 74
     0
 49
-1.5
 74
     0
  0
LTYPE
  5
4E
330
5
100
AcDbSymbolTableRecord
100
AcDbLinetypeTableRecord
  2
AMCONSTR
 70
     0
  3
_______________________
 72
    65
 73
     2
 40
9999.0
 49
9999.0
 74
     0
 49
0.0
 74
     0
  0
LTYPE
  5
4F
330
5
100
AcDbSymbolTableRecord
100
AcDbLinetypeTableRecord
  2
AM_ISO02W050X2
 70
     0
  3
 _ _ _ _ _ _ _ _ _ _ _ _
 72
    65
 73
     2
 40
3.75
 49
3.0
 74
     0
 49
-0.75
 74
     0
  0
LTYPE
  5
50
330
5
100
AcDbSymbolTableRecord
100
AcDbLinetypeTableRecord
  2
AM_ISO08W050X2
 70
     0
  3
__ . __ . __ . __ . __ . __
 72
    65
 73
     4
 40
9.0
 49
6.0
 74
     0
 49
-0.75
 74
     0
 49
1.5
 74
     0
 49
-0.75
 74
     0
  0
LTYPE
  5
53
330
5
100
AcDbSymbolTableRecord
100
AcDbLinetypeTableRecord
  2
AMZIGZAG
 70
     0
  3
/\/-/\/-/\/-/\/-/\/-/\/
 72
    65
 73
     2
 40
11.00009999999999
 49
0.0001
 74
     4
 75
   135
340
52
 46
0.04
 50
0.0
 44
0.0
 45
0.0
 49
-11.0
 74
     0
  0
LTYPE
  5
166
330
5
100
AcDbSymbolTableRecord
100
AcDbLinetypeTableRecord
  2
ACJISTGL
 70
     0
  3
_ _ _ _ _
 72
    65
 73
     2
 40
3.0
 49
2.0
 74
     0
 49
-1.0
 74
     0
  0
LTYPE
  5
26A
330
5
100
AcDbSymbolTableRecord
100
AcDbLinetypeTableRecord
  2
ACJISTGB
 70
     0
  3
__ . . __ . .
 72
    65
 73
     6
 40
9.0
 49
4.0
 74
     0
 49
-1.0
 74
     0
 49
1.0
 74
     0
 49
-1.0
 74
     0
 49
1.0
 74
     0
 49
-1.0
 74
     0
  0
ENDTAB
  0
TABLE
  2
LAYER
  5
2
330
0
100
AcDbSymbolTable
 70
     8
  0
LAYER
  5
10
330
2
100
AcDbSymbolTableRecord
100
AcDbLayerTableRecord
  2
0
 70
     0
 62
     7
  6
CONTINUOUS
  0
LAYER
  5
3F9
330
2
100
AcDbSymbolTableRecord
100
AcDbLayerTableRecord
  2
AM_0
 70
     0
 62
     7
  6
CONTINUOUS
  0
LAYER
  5
C7C
330
2
100
AcDbSymbolTableRecord
100
AcDbLayerTableRecord
  2
AM_7
 70
     0
 62
     4
  6
AM_ISO08W050
  0
LAYER
  5
C97
330
2
100
AcDbSymbolTableRecord
100
AcDbLayerTableRecord
  2
AM_11
 70
     0
 62
     3
  6
AM_ISO09W050
  0
LAYER
  5
CC5
330
2
100
AcDbSymbolTableRecord
100
AcDbLayerTableRecord
  2
AM_5
 70
     0
 62
     3
  6
CONTINUOUS
  0
LAYER
  5
CC7
330
2
100
AcDbSymbolTableRecord
100
AcDbLayerTableRecord
  2
DEFPOINTS
 70
     0
 62
     7
  6
CONTINUOUS
  0
LAYER
  5
19BC
330
2
100
AcDbSymbolTableRecord
100
AcDbLayerTableRecord
  2
AM_6
 70
     0
 62
     2
  6
CONTINUOUS
  0
LAYER
  5
6289
330
2
100
AcDbSymbolTableRecord
100
AcDbLayerTableRecord
  2
AM_CL
 70
     0
 62
     1
  6
AMCONSTR
  0
ENDTAB
  0
TABLE
  2
STYLE
  5
3
330
0
100
AcDbSymbolTable
 70
     5
  0
STYLE
  5
11
330
3
100
AcDbSymbolTableRecord
100
AcDbTextStyleTableRecord
  2
STANDARD
 70
     0
 40
0.0
 41
1.0
 50
0.0
 71
     0
 42
2.5
  3
simplex.shx
  4
EXTFONT.SHX
  0
STYLE
  5
52
330
3
100
AcDbSymbolTableRecord
100
AcDbTextStyleTableRecord
  2

 70
     1
 40
0.0
 41
1.0
 50
0.0
 71
     0
 42
2.5
  3
ltypeshp.shx
  4

  0
STYLE
  5
6B
330
3
100
AcDbSymbolTableRecord
100
AcDbTextStyleTableRecord
  2
ASAMI
 70
     0
 40
0.0
 41
1.0
 50
0.0
 71
     0
 42
2.5
  3
simplex.shx
  4
EXTFONT.SHX
  0
STYLE
  5
262
330
3
100
AcDbSymbolTableRecord
100
AcDbTextStyleTableRecord
  2
ACJISTS
 70
     0
 40
1.0
 41
1.0
 50
0.0
 71
     0
 42
2.5
  3
simplex.shx
  4
bigfont.shx
  0
STYLE
  5
269
330
3
100
AcDbSymbolTableRecord
100
AcDbTextStyleTableRecord
  2
ACJISGDT
 70
     0
 40
0.0
 41
1.0
 50
0.0
 71
     0
 42
2.5
  3
amgdtans.shx
  4

  0
ENDTAB
  0
TABLE
  2
VIEW
  5
6
330
0
100
AcDbSymbolTable
 70
     0
  0
ENDTAB
  0
TABLE
  2
UCS
  5
7
330
0
100
AcDbSymbolTable
 70
     0
  0
ENDTAB
  0
TABLE
  2
APPID
  5
9
330
0
100
AcDbSymbolTable
 70
    16
  0
APPID
  5
12
330
9
100
AcDbSymbolTableRecord
100
AcDbRegAppTableRecord
  2
ACAD
 70
     0
  0
APPID
  5
30
330
9
100
AcDbSymbolTableRecord
100
AcDbRegAppTableRecord
  2
MCAD_NO_VIS
 70
     0
  0
APPID
  5
31
330
9
100
AcDbSymbolTableRecord
100
AcDbRegAppTableRecord
  2
ACAD_TEMP_GRAPHIC
 70
     0
  0
APPID
  5
2C2
330
9
100
AcDbSymbolTableRecord
100
AcDbRegAppTableRecord
  2
GENIUS_GENDTOL_13
 70
     0
  0
APPID
  5
339
330
9
100
AcDbSymbolTableRecord
100
AcDbRegAppTableRecord
  2
GENIUS_GENODEF_13
 70
     0
  0
APPID
  5
33A
330
9
100
AcDbSymbolTableRecord
100
AcDbRegAppTableRecord
  2
GENIUS_GENOBJ-N-RSBK_13
 70
     0
  0
APPID
  5
33B
330
9
100
AcDbSymbolTableRecord
100
AcDbRegAppTableRecord
  2
GENIUS_GENOBJ-N-LIB_13
 70
     0
  0
APPID
  5
33C
330
9
100
AcDbSymbolTableRecord
100
AcDbRegAppTableRecord
  2
GENIUS_GENSCALE_13
 70
     0
  0
APPID
  5
378
330
9
100
AcDbSymbolTableRecord
100
AcDbRegAppTableRecord
  2
GENIUS_GENDIMSH_14
 70
     0
  0
APPID
  5
C82
330
9
100
AcDbSymbolTableRecord
100
AcDbRegAppTableRecord
  2
GENIUS_GENOBJ-N-CRS_13
 70
     0
  0
APPID
  5
C83
330
9
100
AcDbSymbolTableRecord
100
AcDbRegAppTableRecord
  2
GENIUS_GENOENT_13
 70
     0
  0
APPID
  5
C84
330
9
100
AcDbSymbolTableRecord
100
AcDbRegAppTableRecord
  2
GENIUS_GENOREF_13
 70
     0
  0
APPID
  5
C85
330
9
100
AcDbSymbolTableRecord
100
AcDbRegAppTableRecord
  2
GENIUS_GENOLIS_13
 70
     0
  0
APPID
  5
CA0
330
9
100
AcDbSymbolTableRecord
100
AcDbRegAppTableRecord
  2
GENIUS_GENOBJ-N-CEN_13
 70
     0
  0
APPID
  5
1E1E
330
9
100
AcDbSymbolTableRecord
100
AcDbRegAppTableRecord
  2
GENIUS_GENFIL_13
 70
     0
  0
APPID
  5
1E1F
330
9
100
AcDbSymbolTableRecord
100
AcDbRegAppTableRecord
  2
GENIUS_GENOBJ-N-CHA_13
 70
     0
  0
ENDTAB
  0
TABLE
  2
DIMSTYLE
  5
A
330
0
100
AcDbSymbolTable
 70
     9
  0
DIMSTYLE
105
58
330
A
100
AcDbSymbolTableRecord
100
AcDbDimStyleTableRecord
  2
AM_JIS
 70
     0
  3

  4
"
  5
OPEN30
  6

  7

 40
1.0
 41
2.5
 42
1.0
 43
12.0
 44
1.0
 45
0.0
 46
0.0
 47
0.1
 48
0.1
140
3.2
141
0.0
142
0.0
143
0.0393701
144
1.0
145
0.0
146
0.71
147
1.5
 71
     0
 72
     0
 73
     0
 74
     0
 75
     0
 76
     0
 77
     3
 78
     8
170
     0
171
     2
172
     1
173
     0
174
     0
175
     0
176
   256
177
   256
178
     2
270
     2
271
     3
272
     3
273
     2
274
     2
340
6B
275
     0
280
     0
281
     0
282
     0
283
     0
284
     0
285
     0
286
     0
287
     3
288
     0
  0
DIMSTYLE
105
5F
330
A
100
AcDbSymbolTableRecord
100
AcDbDimStyleTableRecord
  2
AM_JIS$3
 70
     0
  3

  4
"
  5
OPEN30
  6

  7

 40
1.0
 41
2.5
 42
1.0
 43
10.0
 44
1.0
 45
0.0
 46
0.0
 47
0.1
 48
0.1
140
3.2
141
0.0
142
0.0
143
0.0393701
144
1.0
145
0.0
146
0.71
147
1.5
 71
     0
 72
     0
 73
     0
 74
     1
 75
     0
 76
     0
 77
     3
 78
     8
170
     0
171
     2
172
     0
173
     0
174
     0
175
     0
176
   256
177
   256
178
     2
270
     2
271
     2
272
     3
273
     2
274
     2
340
6B
275
     0
280
     0
281
     0
282
     0
283
     0
284
     0
285
     0
286
     0
287
     0
288
     1
  0
DIMSTYLE
105
60
330
A
100
AcDbSymbolTableRecord
100
AcDbDimStyleTableRecord
  2
AM_JIS$4
 70
     0
  3

  4
"
  5
OPEN30
  6

  7

 40
1.0
 41
2.5
 42
1.0
 43
10.0
 44
1.0
 45
0.0
 46
0.0
 47
0.1
 48
0.1
140
3.2
141
0.0
142
0.0
143
0.0393701
144
1.0
145
0.0
146
0.71
147
1.5
 71
     0
 72
     0
 73
     0
 74
     1
 75
     0
 76
     0
 77
     3
 78
     8
170
     0
171
     2
172
     0
173
     0
174
     0
175
     0
176
   256
177
   256
178
     2
270
     2
271
     2
272
     3
273
     2
274
     2
340
6B
275
     0
280
     0
281
     0
282
     0
283
     0
284
     0
285
     0
286
     0
287
     0
288
     1
  0
DIMSTYLE
105
61
330
A
100
AcDbSymbolTableRecord
100
AcDbDimStyleTableRecord
  2
AM_JIS$6
 70
     0
  3

  4
"
  5
OPEN30
  6

  7

 40
1.0
 41
2.5
 42
1.0
 43
10.0
 44
1.0
 45
0.0
 46
0.0
 47
0.1
 48
0.1
140
3.2
141
0.0
142
0.0
143
0.0393701
144
1.0
145
0.0
146
0.71
147
1.5
 71
     0
 72
     0
 73
     0
 74
     0
 75
     0
 76
     0
 77
     0
 78
     8
170
     0
171
     2
172
     1
173
     0
174
     0
175
     0
176
   256
177
   256
178
     2
270
     2
271
     2
272
     2
273
     2
274
     2
340
6B
275
     0
280
     0
281
     0
282
     0
283
     0
284
     0
285
     0
286
     0
287
     3
288
     0
  0
DIMSTYLE
105
62
330
A
100
AcDbSymbolTableRecord
100
AcDbDimStyleTableRecord
  2
AM_JIS$7
 70
     0
  3

  4
"
  5
OPEN30
  6

  7

 40
1.0
 41
2.5
 42
1.0
 43
10.0
 44
1.0
 45
0.0
 46
0.0
 47
0.1
 48
0.1
140
3.2
141
0.0
142
0.0
143
0.0393701
144
1.0
145
0.0
146
0.71
147
1.5
 71
     0
 72
     0
 73
     0
 74
     0
 75
     0
 76
     0
 77
     3
 78
     8
170
     0
171
     2
172
     1
173
     0
174
     0
175
     0
176
   256
177
   256
178
     2
270
     2
271
     2
272
     3
273
     2
274
     2
340
6B
275
     0
280
     0
281
     0
282
     0
283
     0
284
     0
285
     0
286
     0
287
     3
288
     0
  0
DIMSTYLE
105
63
330
A
100
AcDbSymbolTableRecord
100
AcDbDimStyleTableRecord
  2
AM_JIS$SF
 70
     0
  3

  4
"
  5
OPEN30
  6

  7

 40
1.0
 41
2.5
 42
1.0
 43
10.0
 44
1.0
 45
0.0
 46
0.0
 47
0.1
 48
0.1
140
3.2
141
0.0
142
0.0
143
0.0393701
144
1.0
145
0.0
146
0.71
147
1.5
 71
     0
 72
     0
 73
     0
 74
     0
 75
     1
 76
     1
 77
     3
 78
     8
170
     0
171
     2
172
     1
173
     0
174
     0
175
     0
176
   256
177
   256
178
     2
270
     2
271
     2
272
     2
273
     2
274
     2
340
6B
275
     0
280
     0
281
     0
282
     0
283
     0
284
     0
285
     0
286
     0
287
     3
288
     0
  0
DIMSTYLE
105
68
330
A
100
AcDbSymbolTableRecord
100
AcDbDimStyleTableRecord
  2
AM_JIS$SH
 70
     0
  3

  4
"
  5

  6
GENAXEH
  7
OPEN30
 40
1.0
 41
2.5
 42
1.0
 43
10.0
 44
1.0
 45
0.0
 46
0.0
 47
0.1
 48
0.1
140
3.2
141
0.0
142
0.0
143
0.0393701
144
2.0
145
0.0
146
0.71
147
1.5
 71
     0
 72
     0
 73
     0
 74
     0
 75
     1
 76
     1
 77
     3
 78
     8
170
     0
171
     2
172
     1
173
     1
174
     0
175
     0
176
   256
177
   256
178
     2
270
     2
271
     2
272
     2
273
     2
274
     2
340
6B
275
     0
280
     0
281
     0
282
     0
283
     0
284
     0
285
     0
286
     0
287
     3
288
     0
  0
DIMSTYLE
105
B34
102
{ACAD_REACTORS
330
62D4
102
}
330
A
100
AcDbSymbolTableRecord
100
AcDbDimStyleTableRecord
  2
AM_JIS$2
 70
     0
  3

  4
"
  5
OPEN30
  6

  7

 40
1.0
 41
2.5
 42
1.0
 43
12.0
 44
1.0
 45
0.0
 46
0.0
 47
0.1
 48
0.1
140
3.2
141
0.0
142
0.0
143
0.0393701
144
1.0
145
0.0
146
0.71
147
1.5
 71
     0
 72
     0
 73
     0
 74
     0
 75
     0
 76
     0
 77
     3
 78
     8
170
     0
171
     2
172
     1
173
     0
174
     0
175
     0
176
   256
177
   256
178
     2
270
     2
271
     3
272
     3
273
     2
274
     2
340
6B
275
     0
280
     0
281
     0
282
     0
283
     0
284
     0
285
     0
286
     0
287
     3
288
     0
  0
DIMSTYLE
105
BA5
102
{ACAD_REACTORS
330
2216
330
CC6
330
DF5
330
60F6
102
}
330
A
100
AcDbSymbolTableRecord
100
AcDbDimStyleTableRecord
  2
AM_JIS$0
 70
     0
  3

  4
"
  5
OPEN30
  6

  7

 40
1.0
 41
2.5
 42
0.0
 43
10.0
 44
1.0
 45
0.0
 46
0.0
 47
0.1
 48
0.1000000001
140
3.799999999999999
141
0.0
142
0.0
143
0.0393701
144
1.0
145
0.0
146
0.71
147
1.5
 71
     0
 72
     0
 73
     0
 74
     0
 75
     0
 76
     0
 77
     3
 78
     1
170
     0
171
     2
172
     1
173
     0
174
     0
175
     0
176
     3
177
     3
178
     2
270
     2
271
     2
272
     2
273
     2
274
     2
340
11
275
     1
280
     0
281
     0
282
     0
283
     0
284
     8
285
     0
286
     0
287
     0
288
     0
  0
ENDTAB
  0
TABLE
  2
BLOCK_RECORD
  5
1
330
0
100
AcDbSymbolTable
 70
    10
  0
BLOCK_RECORD
  5
1F
102
{ACAD_XDICTIONARY
360
74
102
}
330
1
100
AcDbSymbolTableRecord
100
AcDbBlockTableRecord
  2
*MODEL_SPACE
  0
BLOCK_RECORD
  5
101
102
{ACAD_XDICTIONARY
360
642E
102
}
330
1
100
AcDbSymbolTableRecord
100
AcDbBlockTableRecord
  2
*PAPER_SPACE
  0
BLOCK_RECORD
  5
59
330
1
100
AcDbSymbolTableRecord
100
AcDbBlockTableRecord
  2
_OPEN30
  0
BLOCK_RECORD
  5
64
330
1
100
AcDbSymbolTableRecord
100
AcDbBlockTableRecord
  2
GENAXEH
  0
BLOCK_RECORD
  5
CC8
330
1
100
AcDbSymbolTableRecord
100
AcDbBlockTableRecord
  2
*D5
  0
BLOCK_RECORD
  5
DF6
330
1
100
AcDbSymbolTableRecord
100
AcDbBlockTableRecord
  2
*D6
  0
BLOCK_RECORD
  5
2217
330
1
100
AcDbSymbolTableRecord
100
AcDbBlockTableRecord
  2
*D7
  0
BLOCK_RECORD
  5
60F7
330
1
100
AcDbSymbolTableRecord
100
AcDbBlockTableRecord
  2
*D8
  0
BLOCK_RECORD
  5
62D5
330
1
100
AcDbSymbolTableRecord
100
AcDbBlockTableRecord
  2
*D9
  0
ENDTAB
  0
ENDSEC
  0
SECTION
  2
BLOCKS
  0
BLOCK
  5
20
330
1F
100
AcDbEntity
  8
0
100
AcDbBlockBegin
  2
*MODEL_SPACE
 70
     0
 10
0.0
 20
0.0
 30
0.0
  3
*MODEL_SPACE
  1

  0
ENDBLK
  5
21
330
1F
100
AcDbEntity
  8
0
100
AcDbBlockEnd
  0
BLOCK
  5
103
330
101
100
AcDbEntity
 67
     1
  8
0
100
AcDbBlockBegin
  2
*PAPER_SPACE
 70
     0
 10
0.0
 20
0.0
 30
0.0
  3
*PAPER_SPACE
  1

  0
ENDBLK
  5
104
330
101
100
AcDbEntity
 67
     1
  8
0
100
AcDbBlockEnd
  0
BLOCK
  5
5D
330
59
100
AcDbEntity
  8
0
100
AcDbBlockBegin
  2
_OPEN30
 70
     0
 10
0.0
 20
0.0
 30
0.0
  3
_OPEN30
  1

  0
LINE
  5
5A
330
59
100
AcDbEntity
  8
0
 62
     0
100
AcDbLine
 10
-1.0
 20
0.26794919
 30
0.0
 11
0.0
 21
0.0
 31
0.0
  0
LINE
  5
5B
330
59
100
AcDbEntity
  8
0
 62
     0
100
AcDbLine
 10
0.0
 20
0.0
 30
0.0
 11
-1.0
 21
-0.26794919
 31
0.0
  0
LINE
  5
5C
330
59
100
AcDbEntity
  8
0
 62
     0
100
AcDbLine
 10
0.0
 20
0.0
 30
0.0
 11
-1.0
 21
0.0
 31
0.0
  0
ENDBLK
  5
5E
330
59
100
AcDbEntity
  8
0
100
AcDbBlockEnd
  0
BLOCK
  5
66
330
64
100
AcDbEntity
  8
0
100
AcDbBlockBegin
  2
GENAXEH
 70
     0
 10
0.0
 20
0.0
 30
0.0
  3
GENAXEH
  1

  0
LINE
  5
65
330
64
100
AcDbEntity
  8
0
100
AcDbLine
 10
-1.0
 20
0.0
 30
0.0
 11
1.0
 21
0.0
 31
0.0
  0
ENDBLK
  5
67
330
64
100
AcDbEntity
  8
0
100
AcDbBlockEnd
  0
BLOCK
  5
CD2
330
CC8
100
AcDbEntity
  8
0
100
AcDbBlockBegin
  2
*D5
 70
     1
 10
0.0
 20
0.0
 30
0.0
  3
*D5
  1

  0
LINE
  5
62A1
330
CC8
100
AcDbEntity
  8
AM_5
 62
     3
100
AcDbLine
 10
-270.9999999999998
 20
-11.25000205448145
 30
0.0
 11
-270.9999999999998
 21
-37.00001416295819
 31
0.0
  0
LINE
  5
62A2
330
CC8
100
AcDbEntity
  8
AM_5
 62
     3
100
AcDbLine
 10
-4.999999999999777
 20
-12.00000110830725
 30
0.0
 11
-4.999999999999778
 21
-37.00001416295819
 31
0.0
  0
LINE
  5
62A3
330
CC8
100
AcDbEntity
  8
AM_5
 62
     3
100
AcDbLine
 10
-268.4999999999998
 20
-36.00001416295819
 30
0.0
 11
-7.499999999999778
 21
-36.00001416295819
 31
0.0
  0
INSERT
  5
62A4
330
CC8
100
AcDbEntity
  8
AM_5
 62
     3
100
AcDbBlockReference
  2
_OPEN30
 10
-270.9999999999998
 20
-36.00001416295819
 30
0.0
 41
2.5
 42
2.5
 43
2.5
 50
180.0
  0
INSERT
  5
62A5
330
CC8
100
AcDbEntity
  8
AM_5
 62
     3
100
AcDbBlockReference
  2
_OPEN30
 10
-4.999999999999778
 20
-36.00001416295819
 30
0.0
 41
2.5
 42
2.5
 43
2.5
  0
MTEXT
  5
62A6
330
CC8
100
AcDbEntity
  8
AM_5
 62
     2
100
AcDbMText
 10
-137.9999999999998
 20
-32.60001416295819
 30
0.0
 40
3.799999999999999
 41
0.0
 71
     5
 72
     1
  1
266
1001
ACAD
1000
MTEXTBEGIN
1070
    73
1070
     1
1070
    44
1040
1.0
1070
    74
1070
     0
1000
MTEXTEND
  0
POINT
  5
62A7
330
CC8
100
AcDbEntity
  8
DEFPOINTS
 62
     0
100
AcDbPoint
 10
-270.9999999999998
 20
-11.25000205448145
 30
0.0
  0
POINT
  5
62A8
330
CC8
100
AcDbEntity
  8
DEFPOINTS
 62
     0
100
AcDbPoint
 10
-4.999999999999777
 20
-12.00000110830725
 30
0.0
  0
POINT
  5
62A9
330
CC8
100
AcDbEntity
  8
DEFPOINTS
 62
     0
100
AcDbPoint
 10
-4.999999999999778
 20
-36.00001416295819
 30
0.0
  0
ENDBLK
  5
CD3
330
CC8
100
AcDbEntity
  8
0
100
AcDbBlockEnd
  0
BLOCK
  5
E00
330
DF6
100
AcDbEntity
  8
0
100
AcDbBlockBegin
  2
*D6
 70
     1
 10
0.0
 20
0.0
 30
0.0
  3
*D6
  1

  0
LINE
  5
6298
330
DF6
100
AcDbEntity
  8
AM_5
 62
     3
100
AcDbLine
 10
-196.9999807595527
 20
-12.00000205448128
 30
0.0
 11
-196.9999807595527
 21
-27.00001416295801
 31
0.0
  0
LINE
  5
6299
330
DF6
100
AcDbEntity
  8
AM_5
 62
     3
100
AcDbLine
 10
-4.999999999999777
 20
-12.00000110830725
 30
0.0
 11
-4.999999999999777
 21
-27.00001416295801
 31
0.0
  0
LINE
  5
629A
330
DF6
100
AcDbEntity
  8
AM_5
 62
     3
100
AcDbLine
 10
-194.4999807595527
 20
-26.00001416295801
 30
0.0
 11
-7.499999999999777
 21
-26.00001416295801
 31
0.0
  0
INSERT
  5
629B
330
DF6
100
AcDbEntity
  8
AM_5
 62
     3
100
AcDbBlockReference
  2
_OPEN30
 10
-196.9999807595527
 20
-26.00001416295801
 30
0.0
 41
2.5
 42
2.5
 43
2.5
 50
180.0
  0
INSERT
  5
629C
330
DF6
100
AcDbEntity
  8
AM_5
 62
     3
100
AcDbBlockReference
  2
_OPEN30
 10
-4.999999999999777
 20
-26.00001416295801
 30
0.0
 41
2.5
 42
2.5
 43
2.5
  0
MTEXT
  5
629D
330
DF6
100
AcDbEntity
  8
AM_5
 62
     2
100
AcDbMText
 10
-100.9999903797762
 20
-22.60001416295801
 30
0.0
 40
3.799999999999999
 41
0.0
 71
     5
 72
     1
  1
192
1001
ACAD
1000
MTEXTBEGIN
1070
    73
1070
     1
1070
    44
1040
1.0
1070
    74
1070
     0
1000
MTEXTEND
  0
POINT
  5
629E
330
DF6
100
AcDbEntity
  8
DEFPOINTS
 62
     0
100
AcDbPoint
 10
-196.9999807595527
 20
-12.00000205448128
 30
0.0
  0
POINT
  5
629F
330
DF6
100
AcDbEntity
  8
DEFPOINTS
 62
     0
100
AcDbPoint
 10
-4.999999999999777
 20
-12.00000110830725
 30
0.0
  0
POINT
  5
62A0
330
DF6
100
AcDbEntity
  8
DEFPOINTS
 62
     0
100
AcDbPoint
 10
-4.999999999999777
 20
-26.00001416295801
 30
0.0
  0
ENDBLK
  5
E01
330
DF6
100
AcDbEntity
  8
0
100
AcDbBlockEnd
  0
BLOCK
  5
2221
330
2217
100
AcDbEntity
  8
0
100
AcDbBlockBegin
  2
*D7
 70
     1
 10
0.0
 20
0.0
 30
0.0
  3
*D7
  1

  0
LINE
  5
62BE
330
2217
100
AcDbEntity
  8
AM_5
 62
     3
100
AcDbLine
 10
-270.2500000000009
 20
11.9999999999977
 30
0.0
 11
-288.0000009999999
 21
11.99999999999765
 31
0.0
  0
LINE
  5
62BF
330
2217
100
AcDbEntity
  8
AM_5
 62
     3
100
AcDbLine
 10
-270.2500000000006
 20
-12.00000205448145
 30
0.0
 11
-288.0000009999998
 21
-12.0000020544815
 31
0.0
  0
LINE
  5
62C0
330
2217
100
AcDbEntity
  8
AM_5
 62
     3
100
AcDbLine
 10
-287.0000009999998
 20
9.499999999997655
 30
0.0
 11
-287.0000009999998
 21
-9.5000020544815
 31
0.0
  0
INSERT
  5
62C1
330
2217
100
AcDbEntity
  8
AM_5
 62
     3
100
AcDbBlockReference
  2
_OPEN30
 10
-287.0000009999999
 20
11.99999999999765
 30
0.0
 41
2.5
 42
2.5
 43
2.5
 50
90.00000000000017
  0
INSERT
  5
62C2
330
2217
100
AcDbEntity
  8
AM_5
 62
     3
100
AcDbBlockReference
  2
_OPEN30
 10
-287.0000009999998
 20
-12.0000020544815
 30
0.0
 41
2.5
 42
2.5
 43
2.5
 50
270.0000000000001
  0
MTEXT
  5
62C3
330
2217
100
AcDbEntity
  8
AM_5
 62
     2
100
AcDbMText
 10
-290.4000009999998
 20
-0.0000010272419218
 30
0.0
 40
3.799999999999999
 41
0.0
 71
     5
 72
     1
  1
%%c24
 11
-0.0000000000000028
 21
1.0
 31
0.0
1001
ACAD
1000
MTEXTBEGIN
1070
    73
1070
     1
1070
    44
1040
1.0
1070
    74
1070
     0
1000
MTEXTEND
  0
POINT
  5
62C4
330
2217
100
AcDbEntity
  8
DEFPOINTS
 62
     0
100
AcDbPoint
 10
-270.2500000000008
 20
11.99999999999854
 30
0.0
  0
POINT
  5
62C5
330
2217
100
AcDbEntity
  8
DEFPOINTS
 62
     0
100
AcDbPoint
 10
-270.2500000000007
 20
-12.00000205448061
 30
0.0
  0
POINT
  5
62C6
330
2217
100
AcDbEntity
  8
DEFPOINTS
 62
     0
100
AcDbPoint
 10
-287.0000009999998
 20
-12.0000020544806
 30
0.0
  0
ENDBLK
  5
2222
330
2217
100
AcDbEntity
  8
0
100
AcDbBlockEnd
  0
BLOCK
  5
6101
330
60F7
100
AcDbEntity
  8
0
100
AcDbBlockBegin
  2
*D8
 70
     1
 10
0.0
 20
0.0
 30
0.0
  3
*D8
  1

  0
LINE
  5
62B5
330
60F7
100
AcDbEntity
  8
AM_5
 62
     3
100
AcDbLine
 10
-4.999999999999795
 20
11.99999889169158
 30
0.0
 11
10.00000000000143
 21
11.99999889169162
 31
0.0
  0
LINE
  5
62B6
330
60F7
100
AcDbEntity
  8
AM_5
 62
     3
100
AcDbLine
 10
-4.99999999999964
 20
-12.00000110830729
 30
0.0
 11
10.0000000000015
 21
-12.00000110830725
 31
0.0
  0
LINE
  5
62B7
330
60F7
100
AcDbEntity
  8
AM_5
 62
     3
100
AcDbLine
 10
9.00000000000144
 20
9.499998891691623
 30
0.0
 11
9.000000000001493
 21
-9.500001108307255
 31
0.0
  0
INSERT
  5
62B8
330
60F7
100
AcDbEntity
  8
AM_5
 62
     3
100
AcDbBlockReference
  2
_OPEN30
 10
9.000000000001433
 20
11.99999889169162
 30
0.0
 41
2.5
 42
2.5
 43
2.5
 50
90.00000000000017
  0
INSERT
  5
62B9
330
60F7
100
AcDbEntity
  8
AM_5
 62
     3
100
AcDbBlockReference
  2
_OPEN30
 10
9.000000000001502
 20
-12.00000110830725
 30
0.0
 41
2.5
 42
2.5
 43
2.5
 50
270.0000000000001
  0
MTEXT
  5
62BA
330
60F7
100
AcDbEntity
  8
AM_5
 62
     2
100
AcDbMText
 10
5.600000000001466
 20
-0.0000011083078267
 30
0.0
 40
3.799999999999999
 41
0.0
 71
     5
 72
     1
  1
%%c24
 11
-0.0000000000000028
 21
1.0
 31
0.0
1001
ACAD
1000
MTEXTBEGIN
1070
    73
1070
     1
1070
    44
1040
1.0
1070
    74
1070
     0
1000
MTEXTEND
  0
POINT
  5
62BB
330
60F7
100
AcDbEntity
  8
DEFPOINTS
 62
     0
100
AcDbPoint
 10
-4.999999999999758
 20
11.99999889169159
 30
0.0
  0
POINT
  5
62BC
330
60F7
100
AcDbEntity
  8
DEFPOINTS
 62
     0
100
AcDbPoint
 10
-4.999999999999677
 20
-12.00000110830728
 30
0.0
  0
POINT
  5
62BD
330
60F7
100
AcDbEntity
  8
DEFPOINTS
 62
     0
100
AcDbPoint
 10
9.000000000001463
 20
-12.00000110830728
 30
0.0
  0
ENDBLK
  5
6102
330
60F7
100
AcDbEntity
  8
0
100
AcDbBlockEnd
  0
BLOCK
  5
62E3
330
62D5
100
AcDbEntity
  8
0
100
AcDbBlockBegin
  2
*D9
 70
     1
 10
0.0
 20
0.0
 30
0.0
  3
*D9
  1

  0
LINE
  5
6430
330
62D5
100
AcDbEntity
  8
AM_5
100
AcDbLine
 10
0.3420210722662984
 20
-0.9396922826786401
 30
0.0
 11
8.657375237013756
 21
-23.78586981372024
 31
0.0
  0
LINE
  5
6431
330
62D5
100
AcDbEntity
  8
AM_5
100
AcDbLine
 10
0.3420210736373486
 20
0.9396922821796394
 30
0.0
 11
8.657375271718331
 21
23.78586980108879
 31
0.0
  0
ARC
  5
6432
330
62D5
100
AcDbEntity
  8
AM_5
100
AcDbCircle
 10
0.0000000000000041
 20
0.0000000000000112
 30
0.0
 40
24.31240306232712
100
AcDbArc
 50
295.8942757483021
 51
64.10572416810087
  0
INSERT
  5
6433
330
62D5
100
AcDbEntity
  8
AM_5
100
AcDbBlockReference
  2
_OPEN30
 10
8.315354164747461
 20
-22.84617753104159
 30
0.0
 41
2.5
 42
2.5
 43
2.5
 50
202.9471661942558
  0
INSERT
  5
6434
330
62D5
100
AcDbEntity
  8
AM_5
100
AcDbBlockReference
  2
_OPEN30
 10
8.315354198080987
 20
22.84617751890916
 30
0.0
 41
2.5
 42
2.5
 43
2.5
 50
157.0528337221473
  0
MTEXT
  5
6435
330
62D5
100
AcDbEntity
  8
AM_5
 62
     2
100
AcDbMText
 10
21.21240306232712
 20
-0.0000000177363925
 30
0.0
 40
3.2
 41
0.0
 71
     5
 72
     1
  1
140°
  7
ASAMI
 11
-0.0000000000000028
 21
1.0
 31
0.0
  0
POINT
  5
6436
330
62D5
100
AcDbEntity
  8
DEFPOINTS
 62
     0
100
AcDbPoint
 10
22.32404327131619
 20
9.629643538857274
 30
0.0
  0
POINT
  5
6437
330
62D5
100
AcDbEntity
  8
DEFPOINTS
 62
     0
100
AcDbPoint
 10
0.0000000000000041
 20
0.0000000000000112
 30
0.0
  0
POINT
  5
6438
330
62D5
100
AcDbEntity
  8
DEFPOINTS
 62
     0
100
AcDbPoint
 10
0.0000000000000041
 20
0.0000000000000112
 30
0.0
  0
POINT
  5
6439
330
62D5
100
AcDbEntity
  8
DEFPOINTS
 62
     0
100
AcDbPoint
 10
-0.9143186722020603
 20
2.51206217933945
 30
0.0
  0
POINT
  5
643A
330
62D5
100
AcDbEntity
  8
DEFPOINTS
 62
     0
100
AcDbPoint
 10
-0.9143186722020008
 20
-2.512062167935158
 30
0.0
  0
ENDBLK
  5
62E4
330
62D5
100
AcDbEntity
  8
0
100
AcDbBlockEnd
  0
ENDSEC
  0
SECTION
  2
ENTITIES
  0
LINE
  5
C9F
330
1F
100
AcDbEntity
  8
AM_7
100
AcDbLine
 10
-272.9999999999999
 20
-0.0000000000006083
 30
0.0
 11
2.542879482998959
 21
0.000000000000017
 31
0.0
1001
GENIUS_GENODEF_13
1002
{
1000
HIER
1070
     0
1002
}
1002
{
1000
MANEDIT
1070
     0
1002
}
1002
{
1000
NOSEL
1070
     0
1002
}
1002
{
1000
BEHIND
1070
     0
1002
}
1002
{
1000
REACTOR
1002
}
1001
GENIUS_GENOBJ-N-CEN_13
1002
{
1000
OWNER
1000
GEN
1002
}
  0
DIMENSION
  5
CC6
330
1F
100
AcDbEntity
  8
AM_5
100
AcDbDimension
  2
*D5
 10
-4.999999999999778
 20
-36.00001416295819
 30
0.0
 11
-137.9999999999998
 21
-32.60001416295819
 31
0.0
 70
    32
  1
<>
  3
AM_JIS$0
100
AcDbAlignedDimension
 13
-270.9999999999998
 23
-11.25000205448145
 33
0.0
 14
-4.999999999999777
 24
-12.00000110830725
 34
0.0
 50
0.0000000000001132
100
AcDbRotatedDimension
1001
GENIUS_GENDTOL_13
1000

1000
h7
1000

1040
0.0
1001
ACAD
1000
DSTYLE
1002
{
1070
   271
1070
     0
1002
}
  0
DIMENSION
  5
DF5
330
1F
100
AcDbEntity
  8
AM_5
100
AcDbDimension
  2
*D6
 10
-4.999999999999777
 20
-26.00001416295801
 30
0.0
 11
-100.9999903797762
 21
-22.60001416295801
 31
0.0
 70
    32
  1
<>
  3
AM_JIS$0
100
AcDbAlignedDimension
 13
-196.9999807595527
 23
-12.00000205448128
 33
0.0
 14
-4.999999999999777
 24
-12.00000110830725
 34
0.0
 50
0.0000000000001527
100
AcDbRotatedDimension
1001
GENIUS_GENDTOL_13
1000

1000
h7
1000

1040
0.0
1001
ACAD
1000
DSTYLE
1002
{
1070
   271
1070
     0
1002
}
  0
TEXT
  5
19BD
330
1F
100
AcDbEntity
  8
AM_6
100
AcDbText
 10
-159.6666666666663
 20
-58.50001416295825
 30
0.0
 40
5.0
  1
MDW240LHK
 50
0.0000000000001527
 72
     4
 11
-137.9999999999997
 21
-56.00001416295819
 31
0.0
100
AcDbText
  0
LINE
  5
21D8
330
1F
100
AcDbEntity
  8
AM_0
 48
0.5
100
AcDbLine
 10
-270.25
 20
11.99999999999939
 30
0.0
 11
-185.9625714938205
 21
11.99647609328255
 31
0.0
1001
GENIUS_GENODEF_13
1002
{
1000
HIER
1070
     0
1002
}
1002
{
1000
MANEDIT
1070
     0
1002
}
1002
{
1000
NOSEL
1070
     0
1002
}
1002
{
1000
BEHIND
1070
     0
1002
}
1002
{
1000
REACTOR
1002
}
1001
GENIUS_GENOBJ-N-CEN_13
1002
{
1000
OWNER
1000
GEN
1002
}
  0
LINE
  5
21D9
330
1F
100
AcDbEntity
  8
AM_0
 48
0.5
100
AcDbLine
 10
-270.2499999999998
 20
-12.00000205448144
 30
0.0
 11
-196.9995914570489
 21
-11.99906357202351
 31
0.0
1001
GENIUS_GENODEF_13
1002
{
1000
HIER
1070
     0
1002
}
1002
{
1000
MANEDIT
1070
     0
1002
}
1002
{
1000
NOSEL
1070
     0
1002
}
1002
{
1000
BEHIND
1070
     0
1002
}
1002
{
1000
REACTOR
1002
}
1001
GENIUS_GENOBJ-N-CEN_13
1002
{
1000
OWNER
1000
GEN
1002
}
  0
LINE
  5
21DC
330
1F
100
AcDbEntity
  8
AM_0
100
AcDbLine
 10
-270.2500000000007
 20
-12.00000205448064
 30
0.0
 11
-270.2500000000008
 21
11.99999999999855
 31
0.0
  0
LINE
  5
21DD
330
1F
100
AcDbEntity
  8
AM_0
 48
0.5
100
AcDbLine
 10
-270.9999999999998
 20
-11.25000205448145
 30
0.0
 11
-271.0
 21
11.24999999999937
 31
0.0
  0
DIMENSION
  5
2216
330
1F
100
AcDbEntity
  8
AM_5
100
AcDbDimension
  2
*D7
 10
-287.0000009999998
 20
-12.0000020544806
 30
0.0
 11
-290.4000009999998
 21
-0.0000010272410769
 31
0.0
 70
    32
  1
%%c<>
 51
359.9999999999998
  3
AM_JIS$0
100
AcDbAlignedDimension
 13
-270.2500000000008
 23
11.99999999999854
 33
0.0
 14
-270.2500000000007
 24
-12.00000205448061
 34
0.0
 50
269.9999999999999
100
AcDbRotatedDimension
1001
ACAD
1000
DSTYLE
1002
{
1070
   271
1070
     0
1002
}
1001
GENIUS_GENDTOL_13
1000

1000
h7
1000

1040
0.0
  0
LINE
  5
4D3D
330
1F
100
AcDbEntity
  8
AM_0
 48
0.5
100
AcDbLine
 10
-2.732114286496244
 20
7.467146048271382
 30
0.0
 11
-4.999999999999758
 21
11.99999889169159
 31
0.0
  0
LINE
  5
4D3F
330
1F
100
AcDbEntity
  8
AM_0
 48
0.5
100
AcDbLine
 10
0.0000000000000041
 20
0.0000000000000112
 30
0.0
 11
-0.9143186722020603
 21
2.51206217933945
 31
0.0
  0
ELLIPSE
  5
4D44
330
1F
100
AcDbEntity
  8
AM_0
 48
0.5
100
AcDbEllipse
 10
12.76859383370168
 20
10.31239574624024
 30
0.0
 11
-9.957518206172982
 21
12.26197586391382
 31
0.0
210
0.0
220
0.0
230
0.9999999999999998
 40
0.9970295268095405
 41
1.07152878000935
 42
1.407348049653516
  0
LINE
  5
4D4B
330
1F
100
AcDbEntity
  8
AM_0
 48
0.5
100
AcDbLine
 10
-2.732114286496244
 20
-7.467146036867061
 30
0.0
 11
-4.999999999999777
 21
-12.00000110830748
 31
0.0
  0
LINE
  5
53F6
330
1F
100
AcDbEntity
  8
AM_0
 48
0.5
100
AcDbLine
 10
-270.25
 20
11.99999999999933
 30
0.0
 11
-271.0
 21
11.24999999999933
 31
0.0
1001
GENIUS_GENFIL_13
1070
     0
1040
0.75
1040
0.75
1040
20.0
1040
0.0
1002
{
1002
}
1001
GENIUS_GENODEF_13
1002
{
1000
HIER
1070
     0
1002
}
1002
{
1000
MANEDIT
1070
     0
1002
}
1002
{
1000
NOSEL
1070
     0
1002
}
1002
{
1000
BEHIND
1070
     0
1002
}
1002
{
1000
REACTOR
1002
}
1001
GENIUS_GENOBJ-N-CHA_13
1002
{
1000
OWNER
1000
GEN
1002
}
  0
LINE
  5
53FC
330
1F
100
AcDbEntity
  8
AM_0
 48
0.5
100
AcDbLine
 10
-270.999999999999
 20
-11.25000205448231
 30
0.0
 11
-270.249999999999
 21
-12.00000205448231
 31
0.0
1001
GENIUS_GENFIL_13
1070
     0
1040
0.75
1040
0.75
1040
20.0
1040
0.0
1002
{
1002
}
1001
GENIUS_GENODEF_13
1002
{
1000
HIER
1070
     0
1002
}
1002
{
1000
MANEDIT
1070
     0
1002
}
1002
{
1000
NOSEL
1070
     0
1002
}
1002
{
1000
BEHIND
1070
     0
1002
}
1002
{
1000
REACTOR
1002
}
1001
GENIUS_GENOBJ-N-CHA_13
1002
{
1000
OWNER
1000
GEN
1002
}
  0
ELLIPSE
  5
59CB
330
1F
100
AcDbEntity
  8
AM_0
 48
0.5
100
AcDbEllipse
 10
12.76859383370183
 20
-10.31239573483574
 30
0.0
 11
-9.957518206172801
 21
-12.26197586391397
 31
0.0
210
0.0
220
0.0
230
-0.9999999999999998
 40
0.9970295268095405
 41
1.07152878000935
 42
1.407348049653516
  0
LINE
  5
59CC
330
1F
100
AcDbEntity
  8
AM_0
 48
0.5
100
AcDbLine
 10
0.0000000000000041
 20
0.0000000000000112
 30
0.0
 11
-0.9143186722020008
 21
-2.512062167935158
 31
0.0
  0
LINE
  5
60A3
330
1F
100
AcDbEntity
  8
AM_0
 48
0.5
100
AcDbLine
 10
-14.6411993054809
 20
11.99999889169251
 30
0.0
 11
-4.999999999999758
 21
11.99999889169159
 31
0.0
  0
LINE
  5
60A4
330
1F
100
AcDbEntity
  8
AM_0
 48
0.5
100
AcDbLine
 10
0.0000000000000041
 20
0.0000000000000112
 30
0.0
 11
-10.35678523134854
 21
4.668541738996403
 31
0.0
  0
SPLINE
  5
60AC
330
1F
100
AcDbEntity
  8
AM_0
 48
0.5
100
AcDbSpline
210
0.0
220
0.0
230
1.0
 70
     8
 71
     3
 72
    10
 73
     6
 74
     0
 42
0.0000000001
 43
0.0000000001
 40
0.0
 40
0.0
 40
0.0
 40
0.0
 40
2.69986029516136
 40
4.147722969032201
 40
6.285750005020438
 40
6.285750005020438
 40
6.285750005020438
 40
6.285750005020438
 10
-16.6294847212529
 20
2.171934926848679
 30
0.0
 10
-15.17373283847511
 20
1.05705200311122
 30
0.0
 10
-13.33885802140988
 20
-0.6557127346995283
 30
0.0
 10
-8.999625562220758
 20
0.1734666799810517
 30
0.0
 10
-9.816829248643552
 20
2.966252665394008
 30
0.0
 10
-10.35678523134854
 20
4.668541738996397
 30
0.0
  0
ELLIPSE
  5
60AD
330
1F
100
AcDbEntity
  8
AM_0
 48
0.5
100
AcDbEllipse
 10
-20.31851162641964
 20
20.14034923348919
 30
0.0
 11
-31.25012877241877
 21
0.8689059081341989
 31
0.0
210
0.0
220
0.0
230
1.0
 40
0.8440456509571088
 41
1.899731466565889
 42
2.042162867863312
  0
ELLIPSE
  5
60AE
330
1F
100
AcDbEntity
  8
AM_0
 48
0.5
100
AcDbEllipse
 10
-6.048968653226624
 20
-3.127373850008139
 30
0.0
 11
-0.261387326762055
 21
1.974224239200845
 31
0.0
210
0.0
220
0.0
230
1.0
 40
0.4184429557859454
 41
1.838451388548319
 42
4.9737932782603
  0
ELLIPSE
  5
60AF
330
1F
100
AcDbEntity
  8
AM_0
 48
0.5
100
AcDbEllipse
 10
-6.048968653226624
 20
-3.127373850008139
 30
0.0
 11
-1.375244740157383
 21
1.098920981209248
 31
0.0
210
0.0
220
0.0
230
1.0
 40
0.5355137531420287
 41
4.607139136690228
 42
7.750579478019732
  0
ELLIPSE
  5
60B0
330
1F
100
AcDbEntity
  8
AM_0
 48
0.5
100
AcDbEllipse
 10
-30.83847114195692
 20
82.37082384276897
 30
0.0
 11
-0.000104274678454
 21
89.96891714248766
 31
0.0
210
0.0
220
0.0
230
1.0
 40
0.8522116015488379
 41
3.480453865617297
 42
3.555520759838042
  0
ELLIPSE
  5
60B1
330
1F
100
AcDbEntity
  8
AM_0
 48
0.5
100
AcDbEllipse
 10
0.9426031609324542
 20
14.40673717294096
 30
0.0
 11
-9.34573449133469
 21
24.92409279634385
 31
0.0
210
0.0
220
0.0
230
1.0
 40
0.7953343112139394
 41
1.770717392365504
 42
2.129196895792636
  0
LINE
  5
60B2
330
1F
100
AcDbEntity
  8
AM_0
 48
0.5
100
AcDbLine
 10
-14.64119921417023
 20
-12.00000110830749
 30
0.0
 11
-4.999999999999758
 21
-12.00000110830771
 31
0.0
  0
ELLIPSE
  5
60BD
330
1F
100
AcDbEntity
  8
AM_0
 48
0.5
100
AcDbEllipse
 10
4.884927114905136
 20
-2.66743580069143
 30
0.0
 11
15.61003581986244
 21
4.234884601692946
 31
0.0
210
0.0
220
0.0
230
1.0
 40
0.5909011248779456
 41
2.953488426901067
 42
3.877971407741243
  0
DIMENSION
  5
60F6
330
1F
100
AcDbEntity
  8
AM_5
100
AcDbDimension
  2
*D8
 10
9.000000000001463
 20
-12.00000110830728
 30
0.0
 11
5.600000000001466
 21
-0.000001108307843
 31
0.0
 70
    32
  1
%%c<>
 51
359.9999999999998
  3
AM_JIS$0
100
AcDbAlignedDimension
 13
-4.999999999999758
 23
11.99999889169159
 33
0.0
 14
-4.999999999999677
 24
-12.00000110830728
 34
0.0
 50
89.99999999999463
100
AcDbRotatedDimension
1001
ACAD
1000
DSTYLE
1002
{
1070
   271
1070
     0
1002
}
1001
GENIUS_GENDTOL_13
1000

1000
h7
1000

1040
0.0
  0
LINE
  5
61B6
330
1F
100
AcDbEntity
  8
AM_0
 48
0.5
100
AcDbLine
 10
-75.33604539107239
 20
-12.00000110830189
 30
0.0
 11
-46.75751783888093
 21
-12.00000110830438
 31
0.0
  0
LINE
  5
61B7
330
1F
100
AcDbEntity
  8
AM_11
 48
0.5
100
AcDbLine
 10
-107.452364015779
 20
-12.00000110829876
 30
0.0
 11
-75.33604539107239
 21
-12.00170592607927
 31
0.0
  0
LINE
  5
61B8
330
1F
100
AcDbEntity
  8
AM_11
 48
0.5
100
AcDbLine
 10
-46.75751783888093
 20
-12.00000110830438
 30
0.0
 11
-14.64119921417023
 21
-12.00000110830749
 31
0.0
  0
SPLINE
  5
61B9
330
1F
100
AcDbEntity
  8
AM_0
100
AcDbSpline
210
0.0
220
0.0
230
1.0
 70
     8
 71
     3
 72
    17
 73
    13
 74
     0
 42
0.0000000001
 43
0.0000000001
 40
1.580019955310467
 40
1.580019955310467
 40
1.580019955310467
 40
1.580019955310467
 40
2.030549285115227
 40
3.082371838836284
 40
4.126290986361125
 40
5.162752068350215
 40
6.192395305374981
 40
7.216039564037012
 40
8.234688489606833
 40
9.249433870634691
 40
10.26152376260694
 40
11.27226744710342
 40
11.27226744710342
 40
11.27226744710342
 40
11.27226744710352
 10
-91.39295185546032
 20
-8.856354467384665
 30
0.0
 10
-91.63416969854651
 20
-8.947567549674845
 30
0.0
 10
-92.43991833453051
 20
-9.246530610129573
 30
0.0
 10
-93.81553107345487
 20
-9.715464867536722
 30
0.0
 10
-95.51943095117499
 20
-10.2406090274482
 30
0.0
 10
-97.22379991093617
 20
-10.70161587559635
 30
0.0
 10
-98.9282469642881
 20
-11.09693724737237
 30
0.0
 10
-100.6328797140916
 20
-11.42369755602671
 30
0.0
 10
-102.3376302320804
 20
-11.68003212455926
 30
0.0
 10
-104.0424869014829
 20
-11.86427981919537
 30
0.0
 10
-105.7474077190457
 20
-11.97525461612759
 30
0.0
 10
-106.8842974634411
 20
-12.00000117696348
 30
0.0
 10
-107.4523640157829
 20
-12.00000110829877
 30
0.0
  0
SPLINE
  5
61BA
330
1F
100
AcDbEntity
  8
AM_0
100
AcDbSpline
210
0.0
220
0.0
230
1.0
 70
     8
 71
     3
 72
    17
 73
    13
 74
     0
 42
0.0000000001
 43
0.0000000001
 40
1.580019955310467
 40
1.580019955310467
 40
1.580019955310467
 40
1.580019955310467
 40
2.030549285115227
 40
3.082371838836284
 40
4.126290986361125
 40
5.162752068350215
 40
6.192395305374981
 40
7.216039564037012
 40
8.234688489606833
 40
9.249433870634691
 40
10.26152376260694
 40
11.27226744710342
 40
11.27226744710342
 40
11.27226744710342
 40
11.27226744710352
 10
-30.69810567855821
 20
-8.856354467390257
 30
0.0
 10
-30.93932352164439
 20
-8.947567549680437
 30
0.0
 10
-31.74507215762846
 20
-9.246530610135177
 30
0.0
 10
-33.12068489655286
 20
-9.715464867542328
 30
0.0
 10
-34.82458477427293
 20
-10.24060902745379
 30
0.0
 10
-36.52895373403405
 20
-10.70161587560195
 30
0.0
 10
-38.23340078738596
 20
-11.09693724737795
 30
0.0
 10
-39.93803353718957
 20
-11.4236975560323
 30
0.0
 10
-41.64278405517841
 20
-11.68003212456487
 30
0.0
 10
-43.34764072458085
 20
-11.86427981920097
 30
0.0
 10
-45.0525615421436
 20
-11.97525461613319
 30
0.0
 10
-46.18945128653901
 20
-12.00000117696906
 30
0.0
 10
-46.75751783888077
 20
-12.00000110830439
 30
0.0
  0
SPLINE
  5
61BB
330
1F
100
AcDbEntity
  8
AM_0
100
AcDbSpline
210
0.0
220
0.0
230
1.0
 70
     8
 71
     3
 72
    11
 73
     7
 74
     0
 42
0.0000000001
 43
0.0000000001
 40
11.27226913003534
 40
11.27226913003534
 40
11.27226913003534
 40
11.2722691300354
 40
12.28301561507924
 40
13.29510212255852
 40
14.30984805882082
 40
15.18258238371378
 40
15.18258238371378
 40
15.18258238371378
 40
15.18258238371378
 10
-107.452364015783
 20
-12.00000110829877
 30
0.0
 10
-108.0182704994273
 20
-11.9412696211215
 30
0.0
 10
-109.149016059477
 20
-11.79908324676401
 30
0.0
 10
-110.8392954402807
 20
-11.5122581599687
 30
0.0
 10
-112.4434003769301
 20
-11.16967704293597
 30
0.0
 10
-113.4808412908841
 20
-10.90632474240482
 30
0.0
 10
-113.9589236051371
 20
-10.77623597999509
 30
0.0
  0
SPLINE
  5
61BC
330
1F
100
AcDbEntity
  8
AM_0
100
AcDbSpline
210
0.0
220
0.0
230
1.0
 70
     8
 71
     3
 72
    11
 73
     7
 74
     0
 42
0.0000000001
 43
0.0000000001
 40
11.27226913003534
 40
11.27226913003534
 40
11.27226913003534
 40
11.2722691300354
 40
12.28301561507924
 40
13.29510212255852
 40
14.30984805882082
 40
15.18258238371378
 40
15.18258238371378
 40
15.18258238371378
 40
15.18258238371378
 10
-46.75751783888084
 20
-12.00000110830439
 30
0.0
 10
-47.32342432252523
 20
-11.94126962112711
 30
0.0
 10
-48.45416988257491
 20
-11.79908324676961
 30
0.0
 10
-50.14444926337865
 20
-11.51225815997431
 30
0.0
 10
-51.748554200028
 20
-11.16967704294157
 30
0.0
 10
-52.78599511398205
 20
-10.90632474241043
 30
0.0
 10
-53.26407742823507
 20
-10.77623598000071
 30
0.0
  0
SPLINE
  5
61BD
330
1F
100
AcDbEntity
  8
AM_0
100
AcDbSpline
210
0.0
220
0.0
230
1.0
 70
     8
 71
     3
 72
    22
 73
    18
 74
     0
 42
0.0000000001
 43
0.0000000001
 40
17.17441611292
 40
17.17441611292
 40
17.17441611292
 40
17.17441611292
 40
17.38177636558528
 40
18.41823744757437
 40
19.46215659509824
 40
20.51397914882054
 40
21.57394542641293
 40
22.64209583141747
 40
23.71826625065247
 40
24.80210429862395
 40
25.8930771157021
 40
26.99048705697709
 40
28.09349309193389
 40
29.20112995599786
 40
30.31233024745139
 40
31.42594771747373
 40
32.5407895042663
 40
32.54078950426994
 40
32.54078950426994
 40
32.54078950426994
 10
-53.26482304888889
 20
-10.77608796009247
 30
0.0
 10
-53.37898697735835
 20
-10.74830913707369
 30
0.0
 10
-54.06333737997996
 20
-10.57910528976615
 30
0.0
 10
-55.31702875459111
 20
-10.2398295535435
 30
0.0
 10
-57.02116584429496
 20
-9.715491766770728
 30
0.0
 10
-58.72512928600656
 20
-9.131277936018914
 30
0.0
 10
-60.42893110961228
 20
-8.490834868877239
 30
0.0
 10
-62.13256906450838
 20
-7.798089428254217
 30
0.0
 10
-63.8360641205026
 20
-7.057352889140812
 30
0.0
 10
-65.5394241652559
 20
-6.27317757997389
 30
0.0
 10
-67.24266495889913
 20
-5.450399466917253
 30
0.0
 10
-68.9458054403901
 20
-4.594094569772116
 30
0.0
 10
-70.64886039196068
 20
-3.709528333246309
 30
0.0
 10
-72.35184695761228
 20
-2.802142758300682
 30
0.0
 10
-74.05478023283837
 20
-1.877517239119737
 30
0.0
 10
-75.75768544511479
 20
-0.9413572149243133
 30
0.0
 10
-76.89273274669909
 20
-0.3134945446415103
 30
0.0
 10
-77.46056820315686
 20
0.0006092432626039
 30
0.0
  0
SPLINE
  5
61C3
330
1F
100
AcDbEntity
  8
AM_0
100
AcDbSpline
210
0.0
220
0.0
230
1.0
 70
     8
 71
     3
 72
    22
 73
    18
 74
     0
 42
0.0000000001
 43
0.0000000001
 40
17.17441611292
 40
17.17441611292
 40
17.17441611292
 40
17.17441611292
 40
17.38177636558528
 40
18.41823744757437
 40
19.46215659509824
 40
20.51397914882054
 40
21.57394542641293
 40
22.64209583141747
 40
23.71826625065247
 40
24.80210429862395
 40
25.8930771157021
 40
26.99048705697709
 40
28.09349309193389
 40
29.20112995599786
 40
30.31233024745139
 40
31.42594771747373
 40
32.5407895042663
 40
32.54078950426994
 40
32.54078950426994
 40
32.54078950426994
 10
-113.959669225791
 20
-10.77608796008685
 30
0.0
 10
-114.0738331542604
 20
-10.74830913706809
 30
0.0
 10
-114.758183556882
 20
-10.57910528976054
 30
0.0
 10
-116.0118749314932
 20
-10.23982955353791
 30
0.0
 10
-117.716012021197
 20
-9.715491766765124
 30
0.0
 10
-119.4199754629087
 20
-9.131277936013312
 30
0.0
 10
-121.1237772865144
 20
-8.490834868871628
 30
0.0
 10
-122.8274152414104
 20
-7.798089428248625
 30
0.0
 10
-124.5309102974048
 20
-7.057352889135216
 30
0.0
 10
-126.2342703421581
 20
-6.273177579968293
 30
0.0
 10
-127.9375111358015
 20
-5.450399466911654
 30
0.0
 10
-129.6406516172924
 20
-4.594094569766521
 30
0.0
 10
-131.3437065688626
 20
-3.709528333240714
 30
0.0
 10
-133.046693134514
 20
-2.802142758295083
 30
0.0
 10
-134.7496264097404
 20
-1.877517239114139
 30
0.0
 10
-136.452531622017
 20
-0.9413572149187137
 30
0.0
 10
-137.5875789236012
 20
-0.313494544635911
 30
0.0
 10
-138.155414380059
 20
0.0006092432682034
 30
0.0
  0
LINE
  5
61C4
330
1F
100
AcDbEntity
  8
AM_0
 48
0.5
100
AcDbLine
 10
-179.5491502872343
 20
-11.99960257760308
 30
0.0
 11
-107.4523592839927
 21
-12.0000011082985
 31
0.0
  0
LINE
  5
61C5
330
1F
100
AcDbEntity
  8
AM_11
 48
0.5
100
AcDbLine
 10
-103.2894203788564
 20
12.00170370947847
 30
0.0
 11
-82.79401712204645
 21
11.99999889169906
 31
0.0
  0
LINE
  5
61C6
330
1F
100
AcDbEntity
  8
AM_0
 48
0.5
100
AcDbLine
 10
-82.79404478364279
 20
11.99999889169906
 30
0.0
 11
-46.75751783887897
 21
11.99999889169559
 31
0.0
  0
LINE
  5
61C7
330
1F
100
AcDbEntity
  8
AM_11
 48
0.5
100
AcDbLine
 10
-46.75751783887897
 20
11.99999889169559
 30
0.0
 11
-14.64119921416832
 21
11.99999889169251
 31
0.0
  0
SPLINE
  5
61C8
330
1F
100
AcDbEntity
  8
AM_0
100
AcDbSpline
210
0.0
220
0.0
230
1.0
 70
     8
 71
     3
 72
    23
 73
    19
 74
     0
 42
0.0000000001
 43
0.0000000001
 40
16.03460024169435
 40
16.03460024169435
 40
16.03460024169435
 40
16.03460024169435
 40
16.35212704903564
 40
17.38177054169784
 40
18.41822485651776
 40
19.46214173629503
 40
20.51396345435107
 40
21.57393551351153
 40
22.64208202342361
 40
23.7182574881101
 40
24.80209208578934
 40
25.89306333925047
 40
26.99048218457928
 40
28.09348763352352
 40
29.20111863782268
 40
30.31232390128032
 40
31.42594612798585
 40
32.5407912310448
 40
32.5407912310486
 40
32.5407912310486
 40
32.5407912310486
 10
-103.2894203788564
 20
12.00170370947848
 30
0.0
 10
-103.1142607137893
 20
11.96119382267383
 30
0.0
 10
-102.3718570853071
 20
11.78478466739695
 30
0.0
 10
-101.0641050985964
 20
11.43913785106311
 30
0.0
 10
-99.37056285231088
 20
10.92516481513145
 30
0.0
 10
-97.67859364772244
 20
10.34805876641186
 30
0.0
 10
-95.9880975050215
 20
9.711159700359557
 30
0.0
 10
-94.29901442550415
 20
9.018018343526062
 30
0.0
 10
-92.61124678421657
 20
8.272596984213848
 30
0.0
 10
-90.92467705143517
 20
7.479233787755792
 30
0.0
 10
-89.23920939021021
 20
6.642421523677412
 30
0.0
 10
-87.5547086704876
 20
5.767029407561738
 30
0.0
 10
-85.87103838232115
 20
4.858145596599368
 30
0.0
 10
-84.18808634756164
 20
3.920995791674819
 30
0.0
 10
-82.50571175565644
 20
2.961029390566277
 30
0.0
 10
-80.82375878308804
 20
1.98385189277007
 30
0.0
 10
-79.14209047140516
 20
0.9951257772755791
 30
0.0
 10
-78.02127939396442
 20
0.3322389798217463
 30
0.0
 10
-77.4605682031493
 20
0.0006092432582924
 30
0.0
  0
SPLINE
  5
61C9
330
1F
100
AcDbEntity
  8
AM_0
 48
0.5
100
AcDbSpline
210
0.0
220
0.0
230
1.0
 70
     8
 71
     3
 72
    17
 73
    13
 74
     0
 42
0.0000000001
 43
0.0000000001
 40
0.0
 40
0.0
 40
0.0
 40
0.0
 40
1.010743614677189
 40
2.022833924044153
 40
3.037578959561199
 40
4.056212747067873
 40
5.079857613375832
 40
6.109500119648989
 40
7.14596120163808
 40
8.18989512056258
 40
9.241717674284874
 40
9.693948937866434
 40
9.693948937866434
 40
9.693948937866434
 40
9.693948937866434
 10
-14.6411992141683
 20
11.9999988916925
 30
0.0
 10
-15.20926587738587
 20
11.99286432763201
 30
0.0
 10
-16.34615608454501
 20
11.97858569355987
 30
0.0
 10
-18.05107550195262
 20
11.86336937389973
 30
0.0
 10
-19.75592472881743
 20
11.6802750119951
 30
0.0
 10
-21.46066792856911
 20
11.42363363306446
 30
0.0
 10
-23.16528479821005
 20
11.09692588329033
 30
0.0
 10
-24.86975451753025
 20
10.70166649672456
 30
0.0
 10
-26.57405420968136
 20
10.24039988875533
 30
0.0
 10
-28.27825000833279
 20
9.716231424982169
 30
0.0
 10
-29.65392129608668
 20
9.244034873236609
 30
0.0
 10
-30.46179613334871
 20
8.948844123560279
 30
0.0
 10
-30.70427681647394
 20
8.858488211177974
 30
0.0
  0
SPLINE
  5
61CB
330
1F
100
AcDbEntity
  8
AM_0
 48
0.5
100
AcDbSpline
210
0.0
220
0.0
230
1.0
 70
     8
 71
     3
 72
    25
 73
    21
 74
     0
 42
0.0000000001
 43
0.0000000001
 40
6.846175049578289
 40
6.846175049578289
 40
6.846175049578289
 40
6.846175049578289
 40
7.604337694224321
 40
8.711974558287883
 40
9.814980593243754
 40
10.91239053451967
 40
12.0033633515982
 40
13.08720139956839
 40
14.16337181880432
 40
15.23152222380919
 40
16.29148850140128
 40
17.34331105512262
 40
18.38723020264746
 40
19.42369128463655
 40
20.45333379090873
 40
21.47697865721768
 40
22.49561244472435
 40
23.5103574802404
 40
24.52244778960836
 40
25.53320666051913
 40
25.53320666051913
 40
25.53320666051913
 40
25.53320666051913
 10
-16.62956604847819
 20
2.172077453902768
 30
0.0
 10
-17.01686570510855
 20
2.382776111981375
 30
0.0
 10
-17.97080544993163
 20
2.899186329892541
 30
0.0
 10
-19.49280293885317
 20
3.710136270781154
 30
0.0
 10
-21.19585779735016
 20
4.594702757260657
 30
0.0
 10
-22.89899830358212
 20
5.45100758784722
 30
0.0
 10
-24.60223909069998
 20
6.273785718886951
 30
0.0
 10
-26.30559913700948
 20
7.057961022172242
 30
0.0
 10
-28.00909419324064
 20
7.798697566936385
 30
0.0
 10
-29.71273214567842
 20
8.491442990959296
 30
0.0
 10
-31.41653397877191
 20
9.131886118229713
 30
0.0
 10
-33.12049738537005
 20
9.716099727428849
 30
0.0
 10
-34.82463460468451
 20
10.24043833175214
 30
0.0
 10
-36.52893962273658
 20
10.70165688132804
 30
0.0
 10
-38.23340578164949
 20
11.09692843643406
 30
0.0
 10
-39.9380235968703
 20
11.42363295386128
 30
0.0
 10
-41.64276654523013
 20
11.68027519437619
 30
0.0
 10
-43.34761583873169
 20
11.86336931961052
 30
0.0
 10
-45.05254380253361
 20
11.97858630773408
 30
0.0
 10
-46.1894425955288
 20
11.99286449634099
 30
0.0
 10
-46.75751783887896
 20
11.9999988916956
 30
0.0
  0
SPLINE
  5
61CC
330
1F
100
AcDbEntity
  8
AM_0
100
AcDbSpline
210
0.0
220
0.0
230
1.0
 70
     8
 71
     3
 72
    46
 73
    42
 74
     0
 42
0.0000000001
 43
0.0000000001
 40
0.0
 40
0.0
 40
0.0
 40
0.0
 40
1.348332046947657
 40
2.024828967632895
 40
2.703918159304097
 40
3.386347665078124
 40
4.072776489761952
 40
4.763750544421347
 40
5.459696642770596
 40
6.160921452191754
 40
6.867565637253344
 40
7.579665907256596
 40
8.297112853413899
 40
9.019671552060676
 40
9.746986763446127
 40
10.47859339096366
 40
11.21393074760089
 40
11.95235532364328
 40
12.69315551794651
 40
13.43556823304427
 40
14.1787950170388
 40
14.92202180103393
 40
15.66443451613169
 40
16.40523471043432
 40
17.14365928647669
 40
17.87899664311455
 40
18.61060327063121
 40
19.3379184820169
 40
20.06048192311554
 40
20.77792886927283
 40
21.49002913927608
 40
22.19667332433747
 40
22.89788836015233
 40
23.59383445850158
 40
24.28480851316097
 40
24.97123685067576
 40
25.65366676154838
 40
26.33276604526152
 40
27.00926273560555
 40
27.68398960851751
 40
28.357818684969
 40
28.357818684969
 40
28.357818684969
 40
28.357818684969
 10
-9.868579306943743
 20
-12.00000110830793
 30
0.0
 10
-11.00552457994168
 20
-11.97266418069685
 30
0.0
 10
-12.71290795675233
 20
-11.93161153121167
 30
0.0
 10
-14.98329008887631
 20
-11.678857910105
 30
0.0
 10
-16.68805096829028
 20
-11.42401502458587
 30
0.0
 10
-18.39266613123163
 20
-11.09684004869121
 30
0.0
 10
-20.09713108716035
 20
-10.7016835465812
 30
0.0
 10
-21.80143707990569
 20
-10.24043470297789
 30
0.0
 10
-23.50558125501119
 20
-9.716098261298359
 30
0.0
 10
-25.20955602843334
 20
-9.131893724912938
 30
0.0
 10
-26.91336480600903
 20
-8.491444547004734
 30
0.0
 10
-28.61700300501075
 20
-7.798699962085151
 30
0.0
 10
-30.32049799529763
 20
-7.05796319222247
 30
0.0
 10
-32.02385805619584
 20
-6.273787941324656
 30
0.0
 10
-33.72709885168982
 20
-5.45100982842081
 30
0.0
 10
-35.43023930926584
 20
-4.594704871297775
 30
0.0
 10
-37.13329435533319
 20
-3.71013887632727
 30
0.0
 10
-38.83628056491437
 20
-2.802752390014252
 30
0.0
 10
-40.53921599451796
 20
-1.878129844490243
 30
0.0
 10
-42.24211620057023
 20
-0.9419570184575775
 30
0.0
 10
-43.94500209174283
 20
-0.0000011084952525
 30
0.0
 10
-45.64788798254133
 20
0.9419548026117411
 30
0.0
 10
-47.3507881897157
 20
1.878127625212087
 30
0.0
 10
-49.05372361521774
 20
2.802750183279705
 30
0.0
 10
-50.75670984000762
 20
3.710136623073007
 30
0.0
 10
-52.45976482968275
 20
4.594702790533952
 30
0.0
 10
-54.16290549609844
 20
5.451007108864151
 30
0.0
 10
-55.86614922187045
 20
6.27378937335323
 30
0.0
 10
-57.56951590120413
 20
7.057957499621372
 30
0.0
 10
-59.273013930265
 20
7.798698067728544
 30
0.0
 10
-60.97665208960113
 20
8.491442858776471
 30
0.0
 10
-62.68045386812399
 20
9.131886151504055
 30
0.0
 10
-64.38441728831259
 20
9.716099725038798
 30
0.0
 10
-66.08855450721589
 20
10.24043830869008
 30
0.0
 10
-67.79285951359838
 20
10.70165697497251
 30
0.0
 10
-69.49732571913654
 20
11.09692808803972
 30
0.0
 10
-71.20195176106341
 20
11.42363585387353
 30
0.0
 10
-72.90670385627675
 20
11.68027278583163
 30
0.0
 10
-74.61156142367264
 20
11.8633697232787
 30
0.0
 10
-76.31648087613001
 20
11.978585606453
 30
0.0
 10
-77.45337107862528
 20
11.99286429861338
 30
0.0
 10
-78.02143773951221
 20
11.99999889169862
 30
0.0
  0
SPLINE
  5
61CD
330
1F
100
AcDbEntity
  8
AM_0
100
AcDbSpline
210
0.0
220
0.0
230
1.0
 70
     8
 71
     3
 72
    55
 73
    51
 74
     0
 42
0.0000000001
 43
0.0000000001
 40
0.0
 40
0.0
 40
0.0
 40
0.0
 40
1.010743684496582
 40
2.022833576467832
 40
3.037578957496688
 40
4.056212745003489
 40
5.079857003664532
 40
6.109500240690281
 40
7.145961322679372
 40
8.189895241603872
 40
9.241717795325891
 40
10.30168407291828
 40
11.36983447792315
 40
12.44600489715814
 40
13.52984294512926
 40
14.62081576220742
 40
15.7182257034828
 40
16.82123173843959
 40
17.92886860250316
 40
19.0400688939571
 40
20.15368796660465
 40
21.26852814259644
 40
22.38336992938901
 40
23.49698739941135
 40
24.6081876908653
 40
25.71582455492886
 40
26.81883757994213
 40
27.91624752121713
 40
29.00722033829659
 40
30.09105838626677
 40
31.16722880550176
 40
32.23537921050758
 40
33.29534548809967
 40
34.347168041821
 40
35.39108718934584
 40
36.42754827133493
 40
37.45720575381954
 40
38.48085062012849
 40
39.49948440763516
 40
40.51422944315121
 40
41.52631975251916
 40
42.53706336719636
 40
43.54780698187354
 40
44.55989729124051
 40
45.57464232675757
 40
46.59327611426424
 40
47.6169209805722
 40
48.64656348684535
 40
49.68302456883444
 40
50.58557219878025
 40
50.58557219878025
 40
50.58557219878025
 40
50.58557219878025
 10
-14.64119921417024
 20
-12.00000110830748
 30
0.0
 10
-15.20926577400647
 20
-11.99286139902519
 30
0.0
 10
-16.3461555003842
 20
-11.97857247109628
 30
0.0
 10
-18.05107635410927
 20
-11.86338767065477
 30
0.0
 10
-19.75592443119143
 20
-11.6802739275797
 30
0.0
 10
-21.4606669949153
 20
-11.42363305232003
 30
0.0
 10
-23.16528703463366
 20
-11.09694302078253
 30
0.0
 10
-24.8697509220044
 20
-10.70165657147583
 30
0.0
 10
-26.57406435838367
 20
-10.24043649481451
 30
0.0
 10
-28.27821222995559
 20
-9.71610708187117
 30
0.0
 10
-29.98218292836735
 20
-9.131887683433342
 30
0.0
 10
-31.68598494697089
 20
-8.49144538427353
 30
0.0
 10
-33.3896228488878
 20
-7.798699735168423
 30
0.0
 10
-35.09311791970905
 20
-7.05796325375307
 30
0.0
 10
-36.79647795866956
 20
-6.273787924413271
 30
0.0
 10
-38.49971876058057
 20
-5.451009833961502
 30
0.0
 10
-40.20285921461302
 20
-4.59470486615743
 30
0.0
 10
-41.90591426843686
 20
-3.710138891405406
 30
0.0
 10
-43.60890045039544
 20
-2.8027523345548
 30
0.0
 10
-45.31183598316464
 20
-1.878130052060125
 30
0.0
 10
-47.01473580310986
 20
-0.9419562417276972
 30
0.0
 10
-48.7176239578147
 20
-0.000003556740107
 30
0.0
 10
-50.42050446797659
 20
0.9419660839828463
 30
0.0
 10
-52.12340999567089
 20
1.878125315612809
 30
0.0
 10
-53.82634342614323
 20
2.802750396886491
 30
0.0
 10
-55.52933264450739
 20
3.710140410475438
 30
0.0
 10
-57.23239476342059
 20
4.594698836186111
 30
0.0
 10
-58.93553790545863
 20
5.451008146647818
 30
0.0
 10
-60.63877895326091
 20
6.273785569911391
 30
0.0
 10
-62.34213893024164
 20
7.057961064160306
 30
0.0
 10
-64.04563400542484
 20
7.798697546659202
 30
0.0
 10
-65.74927195073474
 20
8.491443030118377
 30
0.0
 10
-67.45307379348734
 20
9.131885983228695
 30
0.0
 10
-69.15703716885897
 20
9.716100223016718
 30
0.0
 10
-70.86117450224463
 20
10.2404365033672
 30
0.0
 10
-72.56548730641203
 20
10.70166585458403
 30
0.0
 10
-74.26996336422622
 20
11.09690715669107
 30
0.0
 10
-75.97458903552754
 20
11.42369830569944
 30
0.0
 10
-77.67933210461333
 20
11.6800349663268
 30
0.0
 10
-79.38418136627575
 20
11.8642606924583
 30
0.0
 10
-81.08910077443111
 20
11.97527031057876
 30
0.0
 10
-82.79405764715651
 20
12.01235495078998
 30
0.0
 10
-84.4990145173733
 20
11.97527031052094
 30
0.0
 10
-86.2039339330691
 20
11.86426069269218
 30
0.0
 10
-87.90878316696979
 20
11.68003496544863
 30
0.0
 10
-89.61352634014103
 20
11.42369830900403
 30
0.0
 10
-91.31814330977102
 20
11.09690873743059
 30
0.0
 10
-93.02261265259833
 20
10.7016698957146
 30
0.0
 10
-94.6494340522128
 20
10.26137339585375
 30
0.0
 10
-95.70493430305138
 20
9.939380403086151
 30
0.0
 10
-96.19462490043643
 20
9.782457509946347
 30
0.0
  0
LINE
  5
61CE
330
1F
100
AcDbEntity
  8
AM_11
 48
0.5
100
AcDbLine
 10
-185.9625714938205
 20
11.99647609328255
 30
0.0
 11
-143.5303350818255
 21
11.99647609327941
 31
0.0
  0
SPLINE
  5
61D1
330
1F
100
AcDbEntity
  8
AM_0
100
AcDbSpline
210
0.0
220
0.0
230
1.0
 70
     8
 71
     3
 72
    55
 73
    51
 74
     0
 42
0.0000000001
 43
0.0000000001
 40
0.0
 40
0.0
 40
0.0
 40
0.0
 40
1.010743684496582
 40
2.022833576467832
 40
3.037578957496688
 40
4.056212745003489
 40
5.079857003664532
 40
6.109500240690281
 40
7.145961322679372
 40
8.189895241603872
 40
9.241717795325891
 40
10.30168407291828
 40
11.36983447792315
 40
12.44600489715814
 40
13.52984294512926
 40
14.62081576220742
 40
15.7182257034828
 40
16.82123173843959
 40
17.92886860250316
 40
19.0400688939571
 40
20.15368796660465
 40
21.26852814259644
 40
22.38336992938901
 40
23.49698739941135
 40
24.6081876908653
 40
25.71582455492886
 40
26.81883757994213
 40
27.91624752121713
 40
29.00722033829659
 40
30.09105838626677
 40
31.16722880550176
 40
32.23537921050758
 40
33.29534548809967
 40
34.347168041821
 40
35.39108718934584
 40
36.42754827133493
 40
37.45720575381954
 40
38.48085062012849
 40
39.49948440763516
 40
40.51422944315121
 40
41.52631975251916
 40
42.53706336719636
 40
43.54780698187354
 40
44.55989729124051
 40
45.57464232675757
 40
46.59327611426424
 40
47.6169209805722
 40
48.64656348684535
 40
49.68302456883444
 40
50.58557219878025
 40
50.58557219878025
 40
50.58557219878025
 40
50.58557219878025
 10
-75.33604539107236
 20
-12.00000110830189
 30
0.0
 10
-75.9041119509086
 20
-11.99286139901959
 30
0.0
 10
-77.04100167728632
 20
-11.97857247109068
 30
0.0
 10
-78.74592253101141
 20
-11.86338767064915
 30
0.0
 10
-80.45077060809356
 20
-11.68027392757409
 30
0.0
 10
-82.15551317181743
 20
-11.42363305231441
 30
0.0
 10
-83.86013321153587
 20
-11.09694302077692
 30
0.0
 10
-85.56459709890663
 20
-10.70165657147023
 30
0.0
 10
-87.26891053528575
 20
-10.24043649480891
 30
0.0
 10
-88.97305840685763
 20
-9.716107081865569
 30
0.0
 10
-90.67702910526945
 20
-9.131887683427748
 30
0.0
 10
-92.38083112387304
 20
-8.491445384267935
 30
0.0
 10
-94.08446902578992
 20
-7.79869973516282
 30
0.0
 10
-95.78796409661112
 20
-7.05796325374747
 30
0.0
 10
-97.49132413557175
 20
-6.273787924407667
 30
0.0
 10
-99.19456493748285
 20
-5.451009833955898
 30
0.0
 10
-100.8977053915153
 20
-4.59470486615183
 30
0.0
 10
-102.600760445339
 20
-3.710138891399807
 30
0.0
 10
-104.3037466272974
 20
-2.802752334549204
 30
0.0
 10
-106.0066821600665
 20
-1.878130052054525
 30
0.0
 10
-107.709581980012
 20
-0.9419562417220987
 30
0.0
 10
-109.4124701347169
 20
-0.0000035567345075
 30
0.0
 10
-111.1153506448787
 20
0.9419660839884473
 30
0.0
 10
-112.8182561725732
 20
1.87812531561841
 30
0.0
 10
-114.5211896030456
 20
2.802750396892091
 30
0.0
 10
-116.2241788214096
 20
3.710140410481038
 30
0.0
 10
-117.9272409403226
 20
4.594698836191714
 30
0.0
 10
-119.6303840823605
 20
5.451008146653416
 30
0.0
 10
-121.3336251301629
 20
6.273785569916988
 30
0.0
 10
-123.0369851071437
 20
7.057961064165907
 30
0.0
 10
-124.7404801823269
 20
7.798697546664809
 30
0.0
 10
-126.4441181276369
 20
8.491443030123976
 30
0.0
 10
-128.1479199703895
 20
9.131885983234301
 30
0.0
 10
-129.8518833457612
 20
9.716100223022321
 30
0.0
 10
-131.5560206791469
 20
10.2404365033728
 30
0.0
 10
-133.2603334833142
 20
10.70166585458964
 30
0.0
 10
-134.9648095411284
 20
11.09690715669665
 30
0.0
 10
-136.6694352124297
 20
11.42369830570503
 30
0.0
 10
-138.3741782815155
 20
11.6800349663324
 30
0.0
 10
-140.0790275431779
 20
11.8642606924639
 30
0.0
 10
-141.7839469513332
 20
11.97527031058437
 30
0.0
 10
-143.4889038240586
 20
12.01235495079558
 30
0.0
 10
-145.1938606942754
 20
11.97527031052654
 30
0.0
 10
-146.8987801099713
 20
11.86426069269778
 30
0.0
 10
-148.603629343872
 20
11.68003496545424
 30
0.0
 10
-150.3083725170433
 20
11.42369830900963
 30
0.0
 10
-152.0129894866732
 20
11.09690873743618
 30
0.0
 10
-153.7174588295005
 20
10.70166989572019
 30
0.0
 10
-155.3442802291149
 20
10.26137339585935
 30
0.0
 10
-156.3997804799535
 20
9.939380403091741
 30
0.0
 10
-159.6064949117137
 20
8.481018236931012
 30
0.0
  0
LINE
  5
61D2
330
1F
100
AcDbEntity
  8
AM_0
100
AcDbLine
 10
-143.4891250665359
 20
11.99999889170467
 30
0.0
 11
-103.2894203788564
 21
12.00170370947847
 31
0.0
  0
SPLINE
  5
61D3
330
1F
100
AcDbEntity
  8
AM_0
100
AcDbSpline
210
0.0
220
0.0
230
1.0
 70
     8
 71
     3
 72
    46
 73
    42
 74
     0
 42
0.0000000001
 43
0.0000000001
 40
0.0
 40
0.0
 40
0.0
 40
0.0
 40
1.348332046947654
 40
2.024828967632893
 40
2.703918159304094
 40
3.386347665078122
 40
4.072776489761951
 40
4.763750544421345
 40
5.459696642770595
 40
6.160921452191748
 40
6.867565637253344
 40
7.579665907256597
 40
8.297112853413899
 40
9.019671552060666
 40
9.746986763446125
 40
10.47859339096365
 40
11.21393074760088
 40
11.95235532364327
 40
12.69315551794651
 40
13.43556823304427
 40
14.1787950170388
 40
14.92202180103393
 40
15.66443451613169
 40
16.40523471043432
 40
17.14365928647669
 40
17.87899664311455
 40
18.61060327063121
 40
19.33791848201689
 40
20.06048192311554
 40
20.77792886927282
 40
21.49002913927608
 40
22.19667332433747
 40
22.89788836015233
 40
23.59383445850157
 40
24.28480851316097
 40
24.97123685067575
 40
25.65366676154837
 40
26.33276604526151
 40
27.00926273560554
 40
27.68398960851752
 40
28.35781868496899
 40
28.35781868496899
 40
28.35781868496899
 40
28.35781868496899
 10
-70.56342548384586
 20
-12.00000110830233
 30
0.0
 10
-71.7003707568438
 20
-11.97266418069126
 30
0.0
 10
-73.40775413365446
 20
-11.93161153120606
 30
0.0
 10
-75.67813626577844
 20
-11.6788579100994
 30
0.0
 10
-77.38289714519243
 20
-11.42401502458027
 30
0.0
 10
-79.08751230813376
 20
-11.09684004868561
 30
0.0
 10
-80.79197726406258
 20
-10.7016835465756
 30
0.0
 10
-82.49628325680792
 20
-10.2404347029723
 30
0.0
 10
-84.20042743191322
 20
-9.716098261292763
 30
0.0
 10
-85.90440220533542
 20
-9.131893724907317
 30
0.0
 10
-87.60821098291115
 20
-8.491444546999138
 30
0.0
 10
-89.31184918191286
 20
-7.79869996207956
 30
0.0
 10
-91.01534417219978
 20
-7.057963192216882
 30
0.0
 10
-92.71870423309797
 20
-6.273787941319043
 30
0.0
 10
-94.42194502859207
 20
-5.451009828415236
 30
0.0
 10
-96.12508548616823
 20
-4.594704871292149
 30
0.0
 10
-97.82814053223532
 20
-3.710138876321688
 30
0.0
 10
-99.53112674181639
 20
-2.802752390008642
 30
0.0
 10
-101.2340621714199
 20
-1.878129844484652
 30
0.0
 10
-102.9369623774723
 20
-0.9419570184519768
 30
0.0
 10
-104.639848268645
 20
-0.0000011084896502
 30
0.0
 10
-106.3427341594435
 20
0.9419548026173384
 30
0.0
 10
-108.045634366618
 20
1.878127625217686
 30
0.0
 10
-109.7485697921201
 20
2.802750183285301
 30
0.0
 10
-111.4515560169098
 20
3.710136623078598
 30
0.0
 10
-113.1546110065848
 20
4.594702790539558
 30
0.0
 10
-114.8577516730004
 20
5.451007108869744
 30
0.0
 10
-116.5609953987724
 20
6.27378937335884
 30
0.0
 10
-118.2643620781062
 20
7.057957499626979
 30
0.0
 10
-119.9678601071671
 20
7.798698067734139
 30
0.0
 10
-121.6714982665033
 20
8.491442858782086
 30
0.0
 10
-123.3753000450261
 20
9.131886151509661
 30
0.0
 10
-125.0792634652149
 20
9.716099725044395
 30
0.0
 10
-126.7834006841181
 20
10.24043830869567
 30
0.0
 10
-128.4877056905006
 20
10.70165697497811
 30
0.0
 10
-130.1921718960387
 20
11.09692808804533
 30
0.0
 10
-131.8967979379655
 20
11.42363585387914
 30
0.0
 10
-133.6015500331789
 20
11.68027278583725
 30
0.0
 10
-135.3064076005748
 20
11.86336972328433
 30
0.0
 10
-137.0113270530322
 20
11.9785856064586
 30
0.0
 10
-138.1482172555274
 20
11.99286429861899
 30
0.0
 10
-138.7162839164143
 20
11.99999889170422
 30
0.0
  0
SPLINE
  5
623C
330
1F
100
AcDbEntity
  8
AM_0
100
AcDbSpline
210
0.0
220
0.0
230
1.0
 70
     8
 71
     3
 72
    22
 73
    18
 74
     0
 42
0.0000000001
 43
0.0000000001
 40
30.51371389116273
 40
30.51371389116273
 40
30.51371389116273
 40
30.51371389116273
 40
31.16722880550176
 40
32.23537921050758
 40
33.29534548809967
 40
34.347168041821
 40
35.39108718934584
 40
36.42754827133493
 40
37.45720575381954
 40
38.48085062012849
 40
39.49948440763516
 40
40.51422944315121
 40
41.52631975251916
 40
42.53706336719636
 40
43.54780698187354
 40
44.55989729124051
 40
45.14939243453665
 40
45.14939243453665
 40
45.14939243453665
 40
45.14939243453665
 10
-136.9418803115398
 20
0.0000145417075884
 30
0.0
 10
-152.1081131904849
 20
6.283213371364385
 30
0.0
 10
-153.1851129648091
 20
6.644072672520823
 30
0.0
 10
-154.9356927620041
 20
7.199721249716918
 30
0.0
 10
-156.9524587191204
 20
7.791471929878855
 30
0.0
 10
-158.9694158800957
 20
8.33126891269504
 30
0.0
 10
-160.9865789526928
 20
8.815740400786371
 30
0.0
 10
-163.0039497275531
 20
9.241902919973643
 30
0.0
 10
-165.0215137434283
 20
9.607094399111662
 30
0.0
 10
-167.0392548546558
 20
9.909039925653051
 30
0.0
 10
-169.0571349279677
 20
10.14588755203411
 30
0.0
 10
-171.0751406999186
 20
10.31610677017397
 30
0.0
 10
-173.0932295032736
 20
10.41867643185615
 30
0.0
 10
-175.1113626529063
 20
10.45294156189148
 30
0.0
 10
-177.1294957995694
 20
10.41867643180264
 30
0.0
 10
-178.8650595939527
 20
10.33046614607741
 30
0.0
 10
-179.6264037879724
 20
10.4323304204871
 30
0.0
 10
-180.9263552115525
 20
10.40992661890802
 30
0.0
  0
ELLIPSE
  5
623D
330
1F
100
AcDbEntity
  8
AM_0
100
AcDbEllipse
 10
-181.1611905611043
 20
39.70110206997368
 30
0.0
 11
-24.05268556549923
 21
23.57922792161121
 31
0.0
210
0.0
220
0.0
230
1.0
 40
0.7803944674947325
 41
2.064335344926601
 42
2.231603825065
  0
POLYLINE
  5
623E
330
1F
100
AcDbEntity
  8
AM_0
100
AcDb2dPolyline
 66
     1
 10
0.0
 20
0.0
 30
0.0
 70
     2
  0
VERTEX
  5
623F
330
623E
100
AcDbEntity
  8
AM_0
100
AcDbVertex
100
AcDb2dVertex
 10
-180.9263552115645
 20
10.40992661890939
 30
0.0
 42
0.0862297278188617
  0
VERTEX
  5
6240
330
623E
100
AcDbEntity
  8
AM_0
100
AcDbVertex
100
AcDb2dVertex
 10
-185.2868140143975
 20
10.02431401807658
 30
0.0
 42
0.0414024687830266
 70
     1
  0
VERTEX
  5
6241
330
623E
100
AcDbEntity
  8
AM_0
100
AcDbVertex
100
AcDb2dVertex
 10
-185.8139262551107
 20
9.81701454611289
 30
0.0
 42
0.0280074108471844
  0
VERTEX
  5
6242
330
623E
100
AcDbEntity
  8
AM_0
100
AcDbVertex
100
AcDb2dVertex
 10
-187.0157615949346
 20
9.12852682320339
 30
0.0
 42
0.0512701366748525
 70
     1
  0
VERTEX
  5
6243
330
623E
100
AcDbEntity
  8
AM_0
100
AcDbVertex
100
AcDb2dVertex
 10
-187.6100420623654
 20
8.644708112344122
 30
0.0
 42
0.0658714570033076
  0
VERTEX
  5
6244
330
623E
100
AcDbEntity
  8
AM_0
100
AcDbVertex
100
AcDb2dVertex
 10
-187.9830192661423
 20
8.157522241886201
 30
0.0
 42
0.1411961588081283
 70
     1
  0
VERTEX
  5
6245
330
623E
100
AcDbEntity
  8
AM_0
100
AcDbVertex
100
AcDb2dVertex
 10
-188.059071014179
 20
7.869826861464363
 30
0.0
 42
0.1226739033459629
  0
VERTEX
  5
6246
330
623E
100
AcDbEntity
  8
AM_0
100
AcDbVertex
100
AcDb2dVertex
 10
-187.9848776251122
 20
7.553508835619129
 30
0.0
 42
0.0555312784770531
 70
     1
  0
VERTEX
  5
6247
330
623E
100
AcDbEntity
  8
AM_0
100
AcDbVertex
100
AcDb2dVertex
 10
-187.6100420623655
 20
6.96667479065974
 30
0.0
 42
0.0351528005485752
  0
VERTEX
  5
6248
330
623E
100
AcDbEntity
  8
AM_0
100
AcDbVertex
100
AcDb2dVertex
 10
-187.0042549538568
 20
6.312166722240124
 30
0.0
 42
0.0198940146009696
 70
     1
  0
VERTEX
  5
6249
330
623E
100
AcDbEntity
  8
AM_0
100
AcDbVertex
100
AcDb2dVertex
 10
-185.7656247741058
 20
5.369987505061753
 30
0.0
 42
0.0358460074876439
  0
VERTEX
  5
624A
330
623E
100
AcDbEntity
  8
AM_0
100
AcDbVertex
100
AcDb2dVertex
 10
-185.277411828876
 20
5.035816329049043
 30
0.0
 42
0.021710998496176
 70
     1
  0
VERTEX
  5
624B
330
623E
100
AcDbEntity
  8
AM_0
100
AcDbVertex
100
AcDb2dVertex
 10
-184.4185379186649
 20
4.587749862398285
 30
0.0
  0
SEQEND
  5
624C
330
623E
100
AcDbEntity
  8
AM_0
  0
SPLINE
  5
624D
330
1F
100
AcDbEntity
  8
AM_0
100
AcDbSpline
210
0.0
220
0.0
230
1.0
 70
     8
 71
     3
 72
    13
 73
     9
 74
     0
 42
0.0000000001
 43
0.0000000001
 40
26.13201924531566
 40
26.13201924531566
 40
26.13201924531566
 40
26.13201924531566
 40
26.99048218457928
 40
28.09348763352352
 40
29.20111863782268
 40
30.31232390128032
 40
31.42594612798585
 40
32.5407912310448
 40
32.5407912310486
 40
32.5407912310486
 40
32.5407912310486
 10
-184.4185379186649
 20
4.587749862398271
 30
0.0
 10
-183.673742949079
 20
4.279917438296197
 30
0.0
 10
-182.4856153192471
 20
3.780112145470641
 30
0.0
 10
-180.6374264549274
 20
2.97676079889216
 30
0.0
 10
-178.6460236292382
 20
2.089779736754141
 30
0.0
 10
-176.6551198683485
 20
1.186896121357011
 30
0.0
 10
-174.6645530564917
 20
0.273341918759715
 30
0.0
 10
-173.3378649589548
 20
-0.33914622145424
 30
0.0
 10
-172.6741591141582
 20
-0.6455624623080327
 30
0.0
  0
SPLINE
  5
624E
330
1F
100
AcDbEntity
  8
AM_0
100
AcDbSpline
210
0.0
220
0.0
230
1.0
 70
     8
 71
     3
 72
    21
 73
    17
 74
     0
 42
0.0000000001
 43
0.0000000001
 40
17.52103074144743
 40
17.52103074144743
 40
17.52103074144743
 40
17.52103074144743
 40
18.41823744757437
 40
19.46215659509824
 40
20.51397914882054
 40
21.57394542641293
 40
22.64209583141747
 40
23.71826625065247
 40
24.80210429862395
 40
25.8930771157021
 40
26.99048705697709
 40
28.09349309193389
 40
29.20112995599786
 40
30.31233024745139
 40
31.42594771747373
 40
32.5407895042663
 40
32.54078950426994
 40
32.54078950426994
 40
32.54078950426994
 10
-139.8330838769064
 20
-12.00059580985399
 30
0.0
 10
-143.9566518685225
 20
-10.9215545231616
 30
0.0
 10
-146.5528479725714
 20
-10.08589122298133
 30
0.0
 10
-148.4803298631312
 20
-9.622957487554668
 30
0.0
 10
-150.4972871026321
 20
-9.08316088267605
 30
0.0
 10
-152.5140530370847
 20
-8.491410097152449
 30
0.0
 10
-154.5306250024812
 20
-7.851333438213655
 30
0.0
 10
-156.5470278204843
 20
-7.166914398684181
 30
0.0
 10
-158.5632708276058
 20
-6.442359197768777
 30
0.0
 10
-160.579372678888
 20
-5.682136127690339
 30
0.0
 10
-162.5953557921052
 20
-4.890935283257957
 30
0.0
 10
-164.6112376647746
 20
-4.073621782390572
 30
0.0
 10
-166.6270385900066
 20
-3.235223875854882
 30
0.0
 10
-168.6427764361217
 20
-2.380896761764273
 30
0.0
 10
-170.6584810645231
 20
-1.515912100183282
 30
0.0
 10
-172.002020377671
 20
-0.9357852358251477
 30
0.0
 10
-172.6741591141673
 20
-0.6455624623040678
 30
0.0
  0
SPLINE
  5
624F
330
1F
100
AcDbEntity
  8
AM_0
100
AcDbSpline
210
0.0
220
0.0
230
1.0
 70
     8
 71
     3
 72
    13
 73
     9
 74
     0
 42
0.0000000001
 43
0.0000000001
 40
5.148341597734571
 40
5.148341597734571
 40
5.148341597734571
 40
5.148341597734571
 40
6.109500240690281
 40
7.145961322679372
 40
8.189895241603872
 40
9.241717795325891
 40
10.30168407291828
 40
10.55450228288433
 40
10.55450228288433
 40
10.55450228288433
 40
10.55450228288433
 10
-179.5491502872343
 20
-11.99960257760308
 30
0.0
 10
-181.6905956620742
 20
-11.80490672204538
 30
0.0
 10
-186.3157469151131
 20
-11.00912176338878
 30
0.0
 10
-188.2886949105995
 20
-10.59235193626819
 30
0.0
 10
-190.3058704570973
 20
-10.10788679346152
 30
0.0
 10
-192.3228362862507
 20
-9.568085044202799
 30
0.0
 10
-193.8225062864015
 20
-9.128058901488341
 30
0.0
 10
-194.6511425854039
 20
-8.872696200222588
 30
0.0
 10
-195.0152328487859
 20
-8.779470404093569
 30
0.0
  0
SPLINE
  5
6250
330
1F
100
AcDbEntity
  8
AM_0
100
AcDbSpline
210
0.0
220
0.0
230
1.0
 70
     8
 71
     3
 72
     9
 73
     5
 74
     0
 42
0.0000000001
 43
0.0000000001
 40
1.580019955310467
 40
1.580019955310467
 40
1.580019955310467
 40
1.580019955310467
 40
2.030549285115227
 40
2.43907978603305
 40
2.43907978603305
 40
2.43907978603305
 40
2.43907978603305
 10
-193.1711520231555
 20
-9.315075560478572
 30
0.0
 10
-193.4566781459581
 20
-9.399353798255713
 30
0.0
 10
-194.0020437497384
 20
-9.557306693682132
 30
0.0
 10
-194.5496893067522
 20
-9.708527941592517
 30
0.0
 10
-194.8105776614617
 20
-9.779039217847415
 30
0.0
  0
ELLIPSE
  5
6251
330
1F
100
AcDbEntity
  8
AM_0
100
AcDbEllipse
 10
-195.783339999998
 20
-11.85107752815703
 30
0.0
 11
0.0000000000065875
 21
3.185260669919667
 31
0.0
210
0.0
220
0.0
230
1.0
 40
0.9108604062357446
 41
-0.2679377313980373
 42
-0.127532319504065
  0
ELLIPSE
  5
6252
330
1F
100
AcDbEntity
  8
AM_0
100
AcDbEllipse
 10
-196.2638267125788
 20
-9.912628960358819
 30
0.0
 11
0.0000000000021497
 21
1.124726482520375
 31
0.0
210
0.0
220
0.0
230
1.0
 40
0.9108604062371316
 41
0.1926332863351101
 42
0.5061117441996044
  0
ELLIPSE
  5
6253
330
1F
100
AcDbEntity
  8
AM_0
100
AcDbEllipse
 10
-196.4291479089409
 20
-9.590223790694206
 30
0.0
 11
-0.0000000000060539
 21
0.7547556657484505
 31
0.0
210
0.0
220
0.0
230
1.0
 40
0.9108604062363195
 41
0.5028645116579687
 42
0.8675868530608838
  0
ELLIPSE
  5
6254
330
1F
100
AcDbEntity
  8
AM_0
100
AcDbEllipse
 10
-196.8025020486881
 20
-9.241802069234918
 30
0.0
 11
0.0000000000015786
 21
0.2167898623390692
 31
0.0
210
0.0
220
0.0
230
1.0
 40
0.9108604062354487
 41
0.87082294486007
 42
1.557899568963406
  0
ELLIPSE
  5
6255
330
1F
100
AcDbEntity
  8
AM_0
100
AcDbEllipse
 10
-196.7970643572856
 20
-9.239127824651955
 30
0.0
 11
-0.0000000000003534
 21
0.222741707392066
 31
0.0
210
0.0
220
0.0
230
1.0
 40
0.9108604062361761
 41
1.570250563377344
 42
2.246594350018968
  0
ELLIPSE
  5
6256
330
1F
100
AcDbEntity
  8
AM_0
100
AcDbEllipse
 10
-196.3792558005252
 20
-8.867610399290494
 30
0.0
 11
0.0000000000033865
 21
0.8130173974761076
 31
0.0
210
0.0
220
0.0
230
1.0
 40
0.9108604062365001
 41
2.250206732580274
 42
2.600849383086476
  0
ELLIPSE
  5
6257
330
1F
100
AcDbEntity
  8
AM_0
100
AcDbEllipse
 10
-196.1733183883455
 20
-8.497540506600909
 30
0.0
 11
0.0000000000006207
 21
1.246678166412183
 31
0.0
210
0.0
220
0.0
230
1.0
 40
0.9108604062366762
 41
2.598176912238487
 42
2.892513815369474
  0
ELLIPSE
  5
6258
330
1F
100
AcDbEntity
  8
AM_0
100
AcDbEllipse
 10
-195.2186727126882
 20
-14.59370474514456
 30
0.0
 11
-0.0000000000002067
 21
5.943356524529772
 31
0.0
210
0.0
220
0.0
230
1.0
 40
0.9108604062365895
 41
0.0952766170359809
 42
0.2313492321876267
  0
ELLIPSE
  5
6259
330
1F
100
AcDbEntity
  8
AM_0
100
AcDbEllipse
 10
-194.741340970407
 20
-3.924370139694485
 30
0.0
 11
-0.000000000007615
 21
6.079179172435685
 31
0.0
210
0.0
220
0.0
230
1.0
 40
0.9108604062370616
 41
2.827283645644355
 42
2.960363693369872
  0
ELLIPSE
  5
625A
330
1F
100
AcDbEntity
  8
AM_0
100
AcDbEllipse
 10
-195.6469794744317
 20
-10.63764715043815
 30
0.0
 11
-0.0000000000000101
 21
1.962652999851796
 31
0.0
210
0.0
220
0.0
230
1.0
 40
0.9108604062368495
 41
-0.130509439196967
 42
0.0485168534968574
  0
SPLINE
  5
625B
330
1F
100
AcDbEntity
  8
AM_0
100
AcDbSpline
210
0.0
220
0.0
230
1.0
 70
     8
 71
     3
 72
    16
 73
    12
 74
     0
 42
0.0000000001
 43
0.0000000001
 40
4.370862447889189
 40
4.370862447889189
 40
4.370862447889189
 40
4.370862447889189
 40
5.09097061220244
 40
5.954688180526682
 40
6.824620803463244
 40
7.701151815239697
 40
8.58445704656667
 40
9.47458238407075
 40
10.37139106676736
 40
11.27458944007584
 40
12.17321262433756
 40
12.17321262433756
 40
12.17321262433756
 40
12.17321262433756
 10
-173.61083653065
 20
-11.99976554646478
 30
0.0
 10
-174.1762241267684
 20
-11.90237934677416
 30
0.0
 10
-175.4166188245249
 20
-11.67233089948954
 30
0.0
 10
-177.3266187964476
 20
-11.26424620104964
 30
0.0
 10
-179.3437899674909
 20
-10.77426920438182
 30
0.0
 10
-186.6735458487323
 20
-9.335044943206408
 30
0.0
 10
-188.6903200145
 20
-8.736564006606439
 30
0.0
 10
-190.7068922688409
 20
-8.089214548900411
 30
0.0
 10
-192.723295009067
 20
-7.397017804656951
 30
0.0
 10
-194.7317080732528
 20
-6.66707481859606
 30
0.0
 10
-196.0639390892598
 20
-6.159153778893608
 30
0.0
 10
-196.9999509292188
 20
-5.901498241740608
 30
0.0
  0
SPLINE
  5
625C
330
1F
100
AcDbEntity
  8
AM_0
100
AcDbSpline
210
0.0
220
0.0
230
1.0
 70
     8
 71
     3
 72
    15
 73
    11
 74
     0
 42
0.0000000001
 43
0.0000000001
 40
5.309921363766678
 40
5.309921363766678
 40
5.309921363766678
 40
5.309921363766678
 40
5.954688180526682
 40
6.824620803463244
 40
7.701151815239697
 40
8.58445704656667
 40
9.47458238407075
 40
10.37139106676736
 40
11.27458944007584
 40
12.17321262433756
 40
12.17321262433756
 40
12.17321262433756
 40
12.17321262433756
 10
-175.130087956986
 20
0.4865654311574048
 30
0.0
 10
-181.6306416219844
 20
-1.217148498574044
 30
0.0
 10
-182.8086111066498
 20
-1.473153485183797
 30
0.0
 10
-184.6565751960467
 20
-1.922029568418818
 30
0.0
 10
-186.6735458487319
 20
-2.467951540313191
 30
0.0
 10
-188.6903200144995
 20
-3.066432476912962
 30
0.0
 10
-190.7068922688404
 20
-3.71378193461889
 30
0.0
 10
-192.7232950090667
 20
-4.405978678862124
 30
0.0
 10
-194.7317080732528
 20
-5.135921664922858
 30
0.0
 10
-196.0639390892598
 20
-5.643842704625197
 30
0.0
 10
-196.9999509292188
 20
-5.901498241778139
 30
0.0
  0
ELLIPSE
  5
625D
330
1F
100
AcDbEntity
  8
AM_0
100
AcDbEllipse
 10
-194.0823467626601
 20
-12.53401261576184
 30
0.0
 11
2.614500565396316
 21
2.28877684923775
 31
0.0
210
0.0
220
0.0
230
0.9999999999999998
 40
0.7888861722350243
 41
1.197652031780011
 42
2.130046025310217
  0
ELLIPSE
  5
625E
330
1F
100
AcDbEntity
  8
AM_0
100
AcDbEllipse
 10
-195.2742339153782
 20
-7.111381921647191
 30
0.0
 11
0.0000000000005381
 21
2.814357110840452
 31
0.0
210
0.0
220
0.0
230
0.9999999999999998
 40
0.9625404292853442
 41
3.088060236649601
 42
3.196956952929496
  0
ELLIPSE
  5
625F
330
1F
100
AcDbEntity
  8
AM_0
100
AcDbEllipse
 10
-195.5516572902687
 20
-7.994569133141209
 30
0.0
 11
-3.409741798055302
 21
0.2530707100847386
 31
0.0
210
0.0
220
0.0
230
1.0
 40
0.5610361810677641
 41
1.557379494080601
 42
1.65124093317392
  0
LINE
  5
6261
330
1F
100
AcDbEntity
  8
AM_11
100
AcDbLine
 10
-196.9999807595527
 20
-12.0000020544813
 30
0.0
 11
-179.5491502872343
 21
-11.99960257760308
 31
0.0
  0
DIMENSION
  5
62D4
330
1F
100
AcDbEntity
  8
AM_5
100
AcDbDimension
  2
*D9
 10
-0.9143186722020008
 20
-2.512062167935158
 30
0.0
 11
21.21240306232712
 21
-0.0000000177364576
 31
0.0
 70
    34
  1
<>
 51
359.9999999999998
  3
AM_JIS$2
100
AcDb2LineAngularDimension
 13
0.0000000000000041
 23
0.0000000000000112
 33
0.0
 14
-0.9143186722020603
 24
2.51206217933945
 34
0.0
 15
0.0000000000000041
 25
0.0000000000000112
 35
0.0
 16
22.32404327131619
 26
9.629643538857274
 36
0.0
1001
GENIUS_GENDTOL_13
1000

1000
h7
1000

1040
0.0
1001
ACAD
1000
DSTYLE
1002
{
1070
   271
1070
     0
1002
}
  0
ELLIPSE
  5
63D3
330
1F
100
AcDbEntity
  8
AM_11
 48
0.5
100
AcDbEllipse
 10
10.67190534883303
 20
47.70324724994259
 30
0.0
 11
-53.27598571777269
 21
0.0000000000007367
 31
0.0
210
0.0
220
0.0
230
1.0
 40
0.9899999999999995
 41
1.130070686340335
 42
1.247868474200389
  0
ELLIPSE
  5
63D4
330
1F
100
AcDbEntity
  8
AM_11
 48
0.5
100
AcDbEllipse
 10
-34.78258641070727
 20
-47.70323198991424
 30
0.0
 11
-53.27598571777263
 21
0.0000000000019906
 31
0.0
210
0.0
220
0.0
230
1.0
 40
0.9900000000000009
 41
4.271664206181739
 42
5.153113667165048
  0
ELLIPSE
  5
63D5
330
1F
100
AcDbEntity
  8
AM_11
 48
0.5
100
AcDbEllipse
 10
-34.78258641070872
 20
47.70323621076892
 30
0.0
 11
-53.27598571777269
 21
0.0000000000007367
 31
0.0
210
0.0
220
0.0
230
1.0
 40
0.9899999999999995
 41
1.130070686340335
 42
2.011520147323624
  0
ELLIPSE
  5
63D6
330
1F
100
AcDbEntity
  8
AM_11
 48
0.5
100
AcDbEllipse
 10
-80.23713186525425
 20
47.70323621076816
 30
0.0
 11
-53.27598571777269
 21
-0.0000000000007657
 31
0.0
210
0.0
220
0.0
230
1.0
 40
0.99
 41
1.130070686340306
 42
2.011520147323597
  0
ELLIPSE
  5
63D7
330
1F
100
AcDbEntity
  8
AM_11
 48
0.5
100
AcDbEllipse
 10
-80.2371318652527
 20
-47.70323198991501
 30
0.0
 11
-53.27598571777254
 21
0.0000000000014938
 31
0.0
210
0.0
220
0.0
230
1.0
 40
0.9900000000000032
 41
4.271664206181728
 42
5.153113667165039
  0
ELLIPSE
  5
63D8
330
1F
100
AcDbEntity
  8
AM_11
 48
0.5
100
AcDbEllipse
 10
-125.6915671350332
 20
47.70323621076825
 30
0.0
 11
-53.27598571777269
 21
0.0000000000007367
 31
0.0
210
0.0
220
0.0
230
1.0
 40
0.9899999999999995
 41
1.130070686340335
 42
2.011520147323624
  0
ELLIPSE
  5
63D9
330
1F
100
AcDbEntity
  8
AM_11
 48
0.5
100
AcDbEllipse
 10
-125.6915671350318
 20
-47.70323198991491
 30
0.0
 11
-53.27598571777263
 21
0.0000000000019906
 31
0.0
210
0.0
220
0.0
230
1.0
 40
0.9900000000000009
 41
4.271664206181739
 42
5.153113667165048
  0
ELLIPSE
  5
63DA
330
1F
100
AcDbEntity
  8
AM_11
 48
0.5
100
AcDbEllipse
 10
-171.1461125895772
 20
-47.70323198991569
 30
0.0
 11
-53.27598571777254
 21
0.0000000000014938
 31
0.0
210
0.0
220
0.0
230
1.0
 40
0.9900000000000032
 41
4.271664206181728
 42
5.153113667165039
  0
ELLIPSE
  5
63DB
330
1F
100
AcDbEntity
  8
AM_11
 48
0.5
100
AcDbEllipse
 10
-171.1461125895788
 20
47.70323621076749
 30
0.0
 11
-53.27598571777269
 21
-0.0000000000007657
 31
0.0
210
0.0
220
0.0
230
1.0
 40
0.99
 41
1.130070686340306
 42
2.011520147323597
  0
ELLIPSE
  5
63DC
330
1F
100
AcDbEntity
  8
AM_11
 48
0.5
100
AcDbEllipse
 10
-216.60058792484
 20
47.7032549192472
 30
0.0
 11
-53.27598571777269
 21
0.0000000000007367
 31
0.0
210
0.0
220
0.0
230
1.0
 40
0.9899999999999995
 41
1.130070686340335
 42
2.011520147323624
  0
ELLIPSE
  5
63DD
330
1F
100
AcDbEntity
  8
AM_11
 48
0.5
100
AcDbEllipse
 10
-262.055133379384
 20
-47.70321328143674
 30
0.0
 11
-53.27598571777254
 21
0.0000000000014938
 31
0.0
210
0.0
220
0.0
230
1.0
 40
0.9900000000000032
 41
4.271664206181728
 42
4.881084757302761
  0
ELLIPSE
  5
63DE
330
1F
100
AcDbEntity
  8
AM_11
 48
0.5
100
AcDbEllipse
 10
-262.0551333793856
 20
47.70325491924644
 30
0.0
 11
-53.27598571777269
 21
-0.0000000000007657
 31
0.0
210
0.0
220
0.0
230
1.0
 40
0.99
 41
1.402100549876871
 42
2.011520147323597
  0
ELLIPSE
  5
63DF
330
1F
100
AcDbEntity
  8
AM_11
 48
0.5
100
AcDbEllipse
 10
-216.6005879248386
 20
-47.70321328143597
 30
0.0
 11
-53.27598571777263
 21
0.0000000000019906
 31
0.0
210
0.0
220
0.0
230
1.0
 40
0.9900000000000009
 41
4.271664206181739
 42
5.153113667165048
  0
VIEWPORT
  5
110
330
101
100
AcDbEntity
 67
     1
  8
0
100
AcDbViewport
 10
420.5
 20
297.0
 30
0.0
 40
948.9782706766916
 41
628.452
 68
     1
 69
     1
1001
ACAD
1000
MVIEW
1002
{
1070
    16
1010
0.0
1020
0.0
1030
0.0
1010
0.0
1020
0.0
1030
1.0
1040
0.0
1040
628.452
1040
420.5
1040
297.0
1040
50.0
1040
0.0
1040
0.0
1070
     0
1070
   100
1070
     1
1070
     1
1070
     0
1070
     0
1070
     0
1070
     0
1040
0.0
1040
0.0
1040
0.0
1040
10.0
1040
10.0
1040
10.0
1040
10.0
1070
     0
1002
{
1002
}
1002
}
  0
ENDSEC
  0
SECTION
  2
OBJECTS
  0
DICTIONARY
  5
C
330
0
100
AcDbDictionary
  3
ACAD_GROUP
350
D
  3
ACAD_LAYOUT
350
1A
  3
ACAD_MLINESTYLE
350
17
  3
ACAD_PLOTSETTINGS
350
19
  3
ACAD_PLOTSTYLENAME
350
E
  3
ACDBVARIABLEDICTIONARY
350
34
  3
ACMDICTIONARY
350
43
  3
AMG
350
2B
  3
AMGSNAPSETTINGS
350
6E
  3
DWGPROPS
350
63F9
  3
ACDBHEADERROUNDTRIPXREC
350
6406
  0
DICTIONARY
  5
74
330
1F
100
AcDbDictionary
280
     1
  3
ACAD_INDEX
360
63FB
  3
ACAD_LAYOUTSELFREF
360
6429
  0
DICTIONARY
  5
642E
330
101
100
AcDbDictionary
280
     1
  3
ACAD_LAYOUTSELFREF
360
642F
  0
DICTIONARY
  5
D
102
{ACAD_REACTORS
330
C
102
}
330
C
100
AcDbDictionary
  0
DICTIONARY
  5
1A
102
{ACAD_REACTORS
330
C
102
}
330
C
100
AcDbDictionary
  0
DICTIONARY
  5
17
102
{ACAD_REACTORS
330
C
102
}
330
C
100
AcDbDictionary
  3
STANDARD
350
18
  0
DICTIONARY
  5
19
102
{ACAD_REACTORS
330
C
102
}
330
C
100
AcDbDictionary
  0
ACDBDICTIONARYWDFLT
  5
E
102
{ACAD_REACTORS
330
C
102
}
330
C
100
AcDbDictionary
281
     1
  3
Normal
350
F
100
AcDbDictionaryWithDefault
340
F
  0
DICTIONARY
  5
34
102
{ACAD_REACTORS
330
C
102
}
330
C
100
AcDbDictionary
  3
INDEXCTL
350
35
  3
SORTENTS
350
B5E
  0
DICTIONARY
  5
43
102
{ACAD_REACTORS
330
C
102
}
330
C
100
AcDbDictionary
  3
ACMSTDDICTIONARY
350
260
  0
DICTIONARY
  5
2B
102
{ACAD_REACTORS
330
C
102
}
330
C
100
AcDbDictionary
  3
ACMGSETTINGS
350
2C
  0
DICTIONARY
  5
6E
102
{ACAD_REACTORS
330
C
102
}
330
C
100
AcDbDictionary
  0
XRECORD
  5
63F9
102
{ACAD_REACTORS
330
C
102
}
330
C
100
AcDbXrecord
  1
DWGPROPS COOKIE
  2

  3

  4

  6

  7

  8

  9

300
AmdtFileType=82
301
=
302
=
303
=
304
=
305
=
306
=
307
=
308
=
309
=
 40
0.1612857986111111
 41
2452800.443498622
 42
2452948.683390833
  1

 90
        1
  0
DICTIONARY
  5
6406
102
{ACAD_REACTORS
330
C
102
}
330
C
100
AcDbDictionary
  3
TSTACKALIGN
350
6407
  3
TSTACKSIZE
350
6408
  3
HYPERLINKBASE
350
6409
  3
STYLESHEET
350
640A
  3
LAYOUTDICT
350
640B
  3
PLOTSETDICT
350
640C
  3
PLOTSTYLNAMDICT
350
640D
  3
LWETCUNION
350
640E
  3
INSUNITS
350
640F
  3
CEPSNTYPE
350
6410
  3
FINGERPRINTGUID
350
6411
  3
VERSIONGUID
350
6412
  3
PSVPSCALE
350
6413
  3
DIMSTYLEDATA
350
6414
  3
PUCSORTHOREF
350
6415
  3
PUCSORTHOVIEW
350
6416
  3
PUCSBASE
350
6417
  3
PUCSORGTOP
350
6418
  3
PUCSORGBOTTOM
350
6419
  3
PUCSORGLEFT
350
641A
  3
PUCSORGRIGHT
350
641B
  3
PUCSORGFRONT
350
641C
  3
PUCSORGBACK
350
641D
  3
UCSORTHOREF
350
641E
  3
UCSORTHOVIEW
350
641F
  3
UCSBASE
350
6420
  3
UCSORGTOP
350
6421
  3
UCSORGBOTTOM
350
6422
  3
UCSORGLEFT
350
6423
  3
UCSORGRIGHT
350
6424
  3
UCSORGFRONT
350
6425
  3
UCSORGBACK
350
6426
  0
DICTIONARY
  5
63FB
102
{ACAD_REACTORS
330
74
102
}
330
74
100
AcDbDictionary
  3
*A1
350
63FC
  0
XRECORD
  5
6429
102
{ACAD_REACTORS
330
74
102
}
330
74
100
AcDbXrecord
340
1F
  0
XRECORD
  5
642F
102
{ACAD_REACTORS
330
642E
102
}
330
642E
100
AcDbXrecord
340
101
  0
MLINESTYLE
  5
18
102
{ACAD_REACTORS
330
17
102
}
330
17
100
AcDbMlineStyle
  2
STANDARD
 70
     0
  3

 62
   256
 51
90.0
 52
90.0
 71
     2
 49
0.5
 62
   256
  6
BYLAYER
 49
-0.5
 62
   256
  6
BYLAYER
  0
ACDBPLACEHOLDER
  5
F
102
{ACAD_REACTORS
330
E
102
}
330
E
100
AcDbPlaceHolder
280
     0
  0
DICTIONARYVAR
  5
35
102
{ACAD_REACTORS
330
34
102
}
330
34
100
DictionaryVariables
280
     0
  1
1
  0
DICTIONARYVAR
  5
B5E
102
{ACAD_REACTORS
330
34
102
}
330
34
100
DictionaryVariables
280
     0
  1
96
  0
DICTIONARY
  5
260
102
{ACAD_REACTORS
330
43
102
}
330
43
100
AcDbDictionary
  0
DICTIONARY
  5
2C
102
{ACAD_REACTORS
330
2B
102
}
330
2B
100
AcDbDictionary
  3
DWGSETTINGS
350
2D
  0
XRECORD
  5
6407
102
{ACAD_REACTORS
330
6406
102
}
330
6406
100
AcDbXrecord
 90
        1
  0
XRECORD
  5
6408
102
{ACAD_REACTORS
330
6406
102
}
330
6406
100
AcDbXrecord
 90
       70
  0
XRECORD
  5
6409
102
{ACAD_REACTORS
330
6406
102
}
330
6406
100
AcDbXrecord
  1

  0
XRECORD
  5
640A
102
{ACAD_REACTORS
330
6406
102
}
330
6406
100
AcDbXrecord
  1
ASAMI.ctb
  0
XRECORD
  5
640B
102
{ACAD_REACTORS
330
6406
102
}
330
6406
100
AcDbXrecord
340
1A
  0
XRECORD
  5
640C
102
{ACAD_REACTORS
330
6406
102
}
330
6406
100
AcDbXrecord
340
19
  0
XRECORD
  5
640D
102
{ACAD_REACTORS
330
6406
102
}
330
6406
100
AcDbXrecord
340
E
  0
XRECORD
  5
640E
102
{ACAD_REACTORS
330
6406
102
}
330
6406
100
AcDbXrecord
 90
    10781
  0
XRECORD
  5
640F
102
{ACAD_REACTORS
330
6406
102
}
330
6406
100
AcDbXrecord
 90
        4
  0
XRECORD
  5
6410
102
{ACAD_REACTORS
330
6406
102
}
330
6406
100
AcDbXrecord
 90
        0
  0
XRECORD
  5
6411
102
{ACAD_REACTORS
330
6406
102
}
330
6406
100
AcDbXrecord
  1
{AFB28963-8C59-40AE-9337-C84526B81ACE}
  0
XRECORD
  5
6412
102
{ACAD_REACTORS
330
6406
102
}
330
6406
100
AcDbXrecord
  1
{B4FDABF8-6873-46FB-A450-19378E926944}
  0
XRECORD
  5
6413
102
{ACAD_REACTORS
330
6406
102
}
330
6406
100
AcDbXrecord
 40
0.0
  0
XRECORD
  5
6414
102
{ACAD_REACTORS
330
6406
102
}
330
6406
100
AcDbXrecord
1000
DSTYLE
1002
{
1070
    79
 70
     2
1070
   341
340
59
1070
   342
340
59
1070
   371
 70
    -1
1070
   372
 70
    -1
1002
}
  0
XRECORD
  5
6415
102
{ACAD_REACTORS
330
6406
102
}
330
6406
100
AcDbXrecord
340
0
  0
XRECORD
  5
6416
102
{ACAD_REACTORS
330
6406
102
}
330
6406
100
AcDbXrecord
 70
     0
  0
XRECORD
  5
6417
102
{ACAD_REACTORS
330
6406
102
}
330
6406
100
AcDbXrecord
340
0
  0
XRECORD
  5
6418
102
{ACAD_REACTORS
330
6406
102
}
330
6406
100
AcDbXrecord
 10
0.0
 20
0.0
 30
0.0
  0
XRECORD
  5
6419
102
{ACAD_REACTORS
330
6406
102
}
330
6406
100
AcDbXrecord
 10
0.0
 20
0.0
 30
0.0
  0
XRECORD
  5
641A
102
{ACAD_REACTORS
330
6406
102
}
330
6406
100
AcDbXrecord
 10
0.0
 20
0.0
 30
0.0
  0
XRECORD
  5
641B
102
{ACAD_REACTORS
330
6406
102
}
330
6406
100
AcDbXrecord
 10
0.0
 20
0.0
 30
0.0
  0
XRECORD
  5
641C
102
{ACAD_REACTORS
330
6406
102
}
330
6406
100
AcDbXrecord
 10
0.0
 20
0.0
 30
0.0
  0
XRECORD
  5
641D
102
{ACAD_REACTORS
330
6406
102
}
330
6406
100
AcDbXrecord
 10
0.0
 20
0.0
 30
0.0
  0
XRECORD
  5
641E
102
{ACAD_REACTORS
330
6406
102
}
330
6406
100
AcDbXrecord
340
0
  0
XRECORD
  5
641F
102
{ACAD_REACTORS
330
6406
102
}
330
6406
100
AcDbXrecord
 70
     0
  0
XRECORD
  5
6420
102
{ACAD_REACTORS
330
6406
102
}
330
6406
100
AcDbXrecord
340
0
  0
XRECORD
  5
6421
102
{ACAD_REACTORS
330
6406
102
}
330
6406
100
AcDbXrecord
 10
0.0
 20
0.0
 30
0.0
  0
XRECORD
  5
6422
102
{ACAD_REACTORS
330
6406
102
}
330
6406
100
AcDbXrecord
 10
0.0
 20
0.0
 30
0.0
  0
XRECORD
  5
6423
102
{ACAD_REACTORS
330
6406
102
}
330
6406
100
AcDbXrecord
 10
0.0
 20
0.0
 30
0.0
  0
XRECORD
  5
6424
102
{ACAD_REACTORS
330
6406
102
}
330
6406
100
AcDbXrecord
 10
0.0
 20
0.0
 30
0.0
  0
XRECORD
  5
6425
102
{ACAD_REACTORS
330
6406
102
}
330
6406
100
AcDbXrecord
 10
0.0
 20
0.0
 30
0.0
  0
XRECORD
  5
6426
102
{ACAD_REACTORS
330
6406
102
}
330
6406
100
AcDbXrecord
 10
0.0
 20
0.0
 30
0.0
  0
LAYER_INDEX
  5
63FC
102
{ACAD_REACTORS
330
63FB
102
}
330
63FB
100
AcDbIndex
 40
2453151.675509606
100
AcDbLayerIndex
  8
0
360
63FD
 90
        0
  8
AM_0
360
63FE
 90
       61
  8
AM_7
360
63FF
 90
        1
  8
AM_11
360
6400
 90
       19
  8
AM_5
360
6401
 90
        5
  8
Defpoints
360
6402
 90
        0
  8
AM_6
360
6403
 90
        1
  8
AM_CL
360
6404
 90
        0
  0
XRECORD
  5
2D
102
{ACAD_REACTORS
330
2C
102
}
330
2C
100
AcDbXrecord
  1
VERSION
140
15.0
  1
PRODUCT
  2
AutoCAD Mechanical 2000
  0
IDBUFFER
  5
63FD
330
0
100
AcDbIdBuffer
  0
IDBUFFER
  5
63FE
330
0
100
AcDbIdBuffer
330
6253
330
6254
330
6255
330
6256
330
6257
330
6258
330
6259
330
625A
330
625B
330
625C
330
625D
330
625E
330
625F
330
21D8
330
21D9
330
21DC
330
21DD
330
4D3D
330
4D3F
330
4D44
330
4D4B
330
53F6
330
53FC
330
59CB
330
59CC
330
60A3
330
60A4
330
60AC
330
60AD
330
60AE
330
60AF
330
60B0
330
60B1
330
60B2
330
60BD
330
61B6
330
61B9
330
61BA
330
61BB
330
61BC
330
61BD
330
61C3
330
61C4
330
61C6
330
61C8
330
61C9
330
61CB
330
61CC
330
61CD
330
61D1
330
61D2
330
61D3
330
623C
330
623D
330
623E
330
624D
330
624E
330
624F
330
6250
330
6251
330
6252
  0
IDBUFFER
  5
63FF
330
0
100
AcDbIdBuffer
330
C9F
  0
IDBUFFER
  5
6400
330
0
100
AcDbIdBuffer
330
63DD
330
63DE
330
63DF
330
61B7
330
61B8
330
61C5
330
61C7
330
61CE
330
6261
330
63D3
330
63D4
330
63D5
330
63D6
330
63D7
330
63D8
330
63D9
330
63DA
330
63DB
330
63DC
  0
IDBUFFER
  5
6401
330
0
100
AcDbIdBuffer
330
CC6
330
DF5
330
2216
330
60F6
330
62D4
  0
IDBUFFER
  5
6402
330
0
100
AcDbIdBuffer
  0
IDBUFFER
  5
6403
330
0
100
AcDbIdBuffer
330
19BD
  0
IDBUFFER
  5
6404
330
0
100
AcDbIdBuffer
  0
ENDSEC
  0
EOF
