  0
SECTION
  2
HEADER
  9
$ACADVER
  1
AC1014
  9
$ACADMAINTVER
 70
     9
  9
$DWGCODEPAGE
  3
ANSI_932
  9
$INSBASE
 10
0.0
 20
0.0
 30
0.0
  9
$EXTMIN
 10
-235.3391712182718
 20
-59.0000009999994
 30
-0.00000001
  9
$EXTMAX
 10
28.77678950469129
 20
28.08442440585795
 30
0.00000001
  9
$LIMMIN
 10
-246.4750061107129
 20
-91.79930317716587
  9
$LIMMAX
 10
55.49561552499631
 20
57.19272414005956
  9
$ORTHOMODE
 70
     0
  9
$REGENMODE
 70
     1
  9
$FILLMODE
 70
     1
  9
$QTEXTMODE
 70
     0
  9
$MIRRTEXT
 70
     0
  9
$DRAGMODE
 70
     2
  9
$LTSCALE
 40
1.0
  9
$OSMODE
 70
    55
  9
$ATTMODE
 70
     1
  9
$TEXTSIZE
 40
2.5
  9
$TRACEWID
 40
1.0
  9
$TEXTSTYLE
  7
STANDARD
  9
$CLAYER
  8
AM_0
  9
$CELTYPE
  6
BYLAYER
  9
$CECOLOR
 62
   256
  9
$CELTSCALE
 40
1.0
  9
$DELOBJ
 70
     1
  9
$DISPSILH
 70
     0
  9
$DIMSCALE
 40
1.0
  9
$DIMASZ
 40
2.5
  9
$DIMEXO
 40
1.0
  9
$DIMDLI
 40
12.0
  9
$DIMRND
 40
0.0
  9
$DIMDLE
 40
0.0
  9
$DIMEXE
 40
1.0
  9
$DIMTP
 40
0.1
  9
$DIMTM
 40
0.1
  9
$DIMTXT
 40
3.2
  9
$DIMCEN
 40
0.0
  9
$DIMTSZ
 40
0.0
  9
$DIMTOL
 70
     0
  9
$DIMLIM
 70
     0
  9
$DIMTIH
 70
     0
  9
$DIMTOH
 70
     0
  9
$DIMSE1
 70
     0
  9
$DIMSE2
 70
     0
  9
$DIMTAD
 70
     3
  9
$DIMZIN
 70
     8
  9
$DIMBLK
  1
OPEN30
  9
$DIMASO
 70
     1
  9
$DIMSHO
 70
     1
  9
$DIMPOST
  1

  9
$DIMAPOST
  1
"
  9
$DIMALT
 70
     0
  9
$DIMALTD
 70
     2
  9
$DIMALTF
 40
0.0393701
  9
$DIMLFAC
 40
1.0
  9
$DIMTOFL
 70
     1
  9
$DIMTVP
 40
0.0
  9
$DIMTIX
 70
     0
  9
$DIMSOXD
 70
     0
  9
$DIMSAH
 70
     0
  9
$DIMBLK1
  1

  9
$DIMBLK2
  1

  9
$DIMSTYLE
  2
AM_JIS
  9
$DIMCLRD
 70
   256
  9
$DIMCLRE
 70
   256
  9
$DIMCLRT
 70
     2
  9
$DIMTFAC
 40
0.71
  9
$DIMGAP
 40
1.5
  9
$DIMJUST
 70
     0
  9
$DIMSD1
 70
     0
  9
$DIMSD2
 70
     0
  9
$DIMTOLJ
 70
     0
  9
$DIMTZIN
 70
     0
  9
$DIMALTZ
 70
     0
  9
$DIMALTTZ
 70
     0
  9
$DIMFIT
 70
     3
  9
$DIMUPT
 70
     0
  9
$DIMUNIT
 70
     2
  9
$DIMDEC
 70
     3
  9
$DIMTDEC
 70
     3
  9
$DIMALTU
 70
     2
  9
$DIMALTTD
 70
     2
  9
$DIMTXSTY
  7
ASAMI
  9
$DIMAUNIT
 70
     0
  9
$LUNITS
 70
     2
  9
$LUPREC
 70
     2
  9
$SKETCHINC
 40
1.0
  9
$FILLETRAD
 40
2.5
  9
$AUNITS
 70
     0
  9
$AUPREC
 70
     0
  9
$MENU
  1
.
  9
$ELEVATION
 40
0.0
  9
$PELEVATION
 40
0.0
  9
$THICKNESS
 40
0.0
  9
$LIMCHECK
 70
     0
  9
$BLIPMODE
 70
     0
  9
$CHAMFERA
 40
1.25
  9
$CHAMFERB
 40
1.25
  9
$CHAMFERC
 40
20.0
  9
$CHAMFERD
 40
0.0
  9
$SKPOLY
 70
     0
  9
$TDCREATE
 40
2452800.443498622
  9
$TDUPDATE
 40
2453151.568780000
  9
$TDINDWG
 40
0.1309484838
  9
$TDUSRTIMER
 40
0.1309484838
  9
$USRTIMER
 70
     1
  9
$ANGBASE
 50
0.0
  9
$ANGDIR
 70
     0
  9
$PDMODE
 70
     0
  9
$PDSIZE
 40
0.0
  9
$PLINEWID
 40
0.0
  9
$COORDS
 70
     1
  9
$SPLFRAME
 70
     0
  9
$SPLINETYPE
 70
     6
  9
$SPLINESEGS
 70
     8
  9
$ATTDIA
 70
     1
  9
$ATTREQ
 70
     1
  9
$HANDLING
 70
 12289
  9
$HANDSEED
  5
5D1C
  9
$SURFTAB1
 70
     6
  9
$SURFTAB2
 70
     6
  9
$SURFTYPE
 70
     6
  9
$SURFU
 70
     6
  9
$SURFV
 70
     6
  9
$UCSNAME
  2

  9
$UCSORG
 10
0.0
 20
0.0
 30
0.0
  9
$UCSXDIR
 10
1.0
 20
0.0000000000000027
 30
0.0
  9
$UCSYDIR
 10
-0.0000000000000027
 20
1.0
 30
0.0
  9
$PUCSNAME
  2

  9
$PUCSORG
 10
0.0
 20
0.0
 30
0.0
  9
$PUCSXDIR
 10
1.0
 20
0.0
 30
0.0
  9
$PUCSYDIR
 10
0.0
 20
1.0
 30
0.0
  9
$USERI1
 70
     0
  9
$USERI2
 70
     0
  9
$USERI3
 70
     0
  9
$USERI4
 70
     0
  9
$USERI5
 70
     0
  9
$USERR1
 40
0.0
  9
$USERR2
 40
0.0
  9
$USERR3
 40
0.0
  9
$USERR4
 40
0.0
  9
$USERR5
 40
0.0
  9
$WORLDVIEW
 70
     1
  9
$SHADEDGE
 70
     3
  9
$SHADEDIF
 70
    70
  9
$TILEMODE
 70
     1
  9
$MAXACTVP
 70
    64
  9
$PINSBASE
 10
0.0
 20
0.0
 30
0.0
  9
$PLIMCHECK
 70
     0
  9
$PEXTMIN
 10
1.000000000000000E+20
 20
1.000000000000000E+20
 30
1.000000000000000E+20
  9
$PEXTMAX
 10
-1.000000000000000E+20
 20
-1.000000000000000E+20
 30
-1.000000000000000E+20
  9
$PLIMMIN
 10
0.0
 20
0.0
  9
$PLIMMAX
 10
841.0
 20
594.0
  9
$UNITMODE
 70
     0
  9
$VISRETAIN
 70
     1
  9
$PLINEGEN
 70
     0
  9
$PSLTSCALE
 70
     0
  9
$TREEDEPTH
 70
  3020
  9
$PICKSTYLE
 70
     0
  9
$CMLSTYLE
  2
STANDARD
  9
$CMLJUST
 70
     0
  9
$CMLSCALE
 40
20.0
  9
$PROXYGRAPHICS
 70
     1
  9
$MEASUREMENT
 70
     1
  0
ENDSEC
  0
SECTION
  2
CLASSES
  0
CLASS
  1
ACDBDICTIONARYWDFLT
  2
AcDbDictionaryWithDefault
  3
AutoCAD 2000
 90
        0
280
     0
281
     0
  0
CLASS
  1
ACDBPLACEHOLDER
  2
AcDbPlaceHolder
  3
AutoCAD 2000
 90
        0
280
     0
281
     0
  0
CLASS
  1
LAYOUT
  2
AcDbLayout
  3
AutoCAD 2000
 90
        0
280
     0
281
     0
  0
CLASS
  1
AMGSETTINGSOBJ
  2
AmgSettingsObj
  3
"AcadM|Product Description: AutoCAD Mechanical 2000|Company: Autodesk"
 90
        0
280
     0
281
     0
  0
CLASS
  1
ACME_DOCUMENT
  2
AcMeDbDoc
  3
AcMeServices
 90
        0
280
     0
281
     0
  0
CLASS
  1
ACMESCOPE
  2
AcMeScope
  3
AcMeServices
 90
        0
280
     0
281
     0
  0
CLASS
  1
ACMECOMMANDHISTORY
  2
AcMeCommandHistory
  3
AcMeServices
 90
        0
280
     0
281
     0
  0
CLASS
  1
DICTIONARYVAR
  2
AcDbDictionaryVar
  3
AutoCAD 2000
 90
        0
280
     0
281
     0
  0
CLASS
  1
ACIMSYSVARMAN
  2
AcImSysVarManager
  3
AcMeServices
 90
        0
280
     0
281
     0
  0
CLASS
  1
ACIMREALSYSVAR
  2
AcImRealSysVar
  3
AcMeServices
 90
        0
280
     0
281
     0
  0
CLASS
  1
ACIMINTSYSVAR
  2
AcImIntSysVar
  3
AcMeServices
 90
        0
280
     0
281
     0
  0
CLASS
  1
ACMEDRAWINGMAN
  2
AcMeDrawingMan
  3
AcMeServices
 90
        0
280
     0
281
     0
  0
CLASS
  1
ACMEVIEW
  2
AcMeView
  3
AcMeServices
 90
        0
280
     0
281
     0
  0
CLASS
  1
ACDBENTITYCACHE
  2
AcMeEntityCache
  3
AcMeServices
 90
        0
280
     0
281
     0
  0
CLASS
  1
GSMANAGER
  2
AcMeGSManager
  3
AcMeServices
 90
        0
280
     0
281
     0
  0
CLASS
  1
AmdtInternalReactor
  2
AmdtInternalReactor
  3
AcMeServices
 90
        0
280
     0
281
     0
  0
CLASS
  1
ACMESTATEMGR
  2
AcMeStateMgr
  3
AcMeServices
 90
        0
280
     0
281
     0
  0
CLASS
  1
ACME_DATABASE
  2
AcMeDbDatabase
  3
AcMeServices
 90
        0
280
     0
281
     0
  0
CLASS
  1
ACRFINSADJUSTERMGR
  2
AcRfInsAdjusterMgr
  3
AcMeServices
 90
        0
280
     0
281
     0
  0
CLASS
  1
ACMDATADICTIONARY
  2
AcmDataDictionary
  3
"AcmSymBB|Product Description: AutoCAD Mechanical 2000|Company: Autodesk"
 90
        0
280
     0
281
     0
  0
CLASS
  1
ACMDATAENTRYBLOCK
  2
AcmDataEntryBlock
  3
"AcmSymBB|Product Description: AutoCAD Mechanical 2000|Company: Autodesk"
 90
        0
280
     0
281
     0
  0
CLASS
  1
AMGOBJPROPCFG
  2
AmgObjPropCfg
  3
"AmgLay|Product Description: AutoCAD Mechanical 2000|Company: Autodesk"
 90
        1
280
     0
281
     0
  0
CLASS
  1
ACAMGFILTERDAT
  2
AcAmgFilterDat
  3
"AcadM|Product Description: AutoCAD Mechanical 2000|Company: Autodesk"
 90
        0
280
     0
281
     0
  0
CLASS
  1
LAYER_INDEX
  2
AcDbLayerIndex
  3
AutoCAD 2000
 90
        0
280
     0
281
     0
  0
CLASS
  1
IDBUFFER
  2
AcDbIdBuffer
  3
AutoCAD 2000
 90
        0
280
     0
281
     0
  0
CLASS
  1
ACIMSTRSYSVAR
  2
AcImStrSysVar
  3
AcMeServices
 90
        0
280
     0
281
     0
  0
CLASS
  1
ACMSTANDARDJIS
  2
AcmStandardJIS
  3
"AcmSymBB|Product Description: AutoCAD Mechanical 2000|Company: Autodesk"
 90
        0
280
     0
281
     0
  0
CLASS
  1
ACMSURFSTANDARDJIS
  2
AcmSurfTextStdJIS
  3
"AcmSymBB|Product Description: AutoCAD Mechanical 2000|Company: Autodesk"
 90
        0
280
     0
281
     0
  0
CLASS
  1
ACMFCFSTANDARDJIS
  2
AcmFCFStdJIS
  3
"AcmSymBB|Product Description: AutoCAD Mechanical 2000|Company: Autodesk"
 90
        0
280
     0
281
     0
  0
CLASS
  1
ACMWELDSTANDARDJIS
  2
AcmWeldingStdJIS
  3
"AcmSymBB|Product Description: AutoCAD Mechanical 2000|Company: Autodesk"
 90
        0
280
     0
281
     0
  0
CLASS
  1
ACMIDSTANDARDJIS
  2
AcmIdStdJIS
  3
"AcmSymBB|Product Description: AutoCAD Mechanical 2000|Company: Autodesk"
 90
        0
280
     0
281
     0
  0
CLASS
  1
ACMDATUMSTANDARDJIS
  2
AcmDatumStdJIS
  3
"AcmSymBB|Product Description: AutoCAD Mechanical 2000|Company: Autodesk"
 90
        0
280
     0
281
     0
  0
CLASS
  1
ACMBOMSTANDARDJIS
  2
AcmBOMStdJIS
  3
"AcmSymBB|Product Description: AutoCAD Mechanical 2000|Company: Autodesk"
 90
        0
280
     0
281
     0
  0
CLASS
  1
ACMSTANDARDANSI
  2
AcmStandardANSI
  3
"AcmSymBB|Product Description: AutoCAD Mechanical 2000|Company: Autodesk"
 90
        0
280
     0
281
     0
  0
CLASS
  1
ACMSURFSTANDARDANSI
  2
AcmSurfTextStdANSI
  3
"AcmSymBB|Product Description: AutoCAD Mechanical 2000|Company: Autodesk"
 90
        0
280
     0
281
     0
  0
CLASS
  1
ACMFCFSTANDARDANSI
  2
AcmFCFStdANSI
  3
"AcmSymBB|Product Description: AutoCAD Mechanical 2000|Company: Autodesk"
 90
        0
280
     0
281
     0
  0
CLASS
  1
ACMWELDSTANDARDANSI
  2
AcmWeldingStdANSI
  3
"AcmSymBB|Product Description: AutoCAD Mechanical 2000|Company: Autodesk"
 90
        0
280
     0
281
     0
  0
CLASS
  1
ACMIDSTANDARDANSI
  2
AcmIdStdANSI
  3
"AcmSymBB|Product Description: AutoCAD Mechanical 2000|Company: Autodesk"
 90
        0
280
     0
281
     0
  0
CLASS
  1
ACMDATUMSTANDARDANSI
  2
AcmDatumStdANSI
  3
"AcmSymBB|Product Description: AutoCAD Mechanical 2000|Company: Autodesk"
 90
        0
280
     0
281
     0
  0
CLASS
  1
ACMBOMSTANDARDANSI
  2
AcmBOMStdANSI
  3
"AcmSymBB|Product Description: AutoCAD Mechanical 2000|Company: Autodesk"
 90
        0
280
     0
281
     0
  0
CLASS
  1
ACMSTANDARDBSI
  2
AcmStandardBSI
  3
"AcmSymBB|Product Description: AutoCAD Mechanical 2000|Company: Autodesk"
 90
        0
280
     0
281
     0
  0
CLASS
  1
ACMSURFSTANDARDBSI
  2
AcmSurfTextStdBSI
  3
"AcmSymBB|Product Description: AutoCAD Mechanical 2000|Company: Autodesk"
 90
        0
280
     0
281
     0
  0
CLASS
  1
ACMFCFSTANDARDBSI
  2
AcmFCFStdBSI
  3
"AcmSymBB|Product Description: AutoCAD Mechanical 2000|Company: Autodesk"
 90
        0
280
     0
281
     0
  0
CLASS
  1
ACMWELDSTANDARDBSI
  2
AcmWeldingStdBSI
  3
"AcmSymBB|Product Description: AutoCAD Mechanical 2000|Company: Autodesk"
 90
        0
280
     0
281
     0
  0
CLASS
  1
ACMIDSTANDARDBSI
  2
AcmIdStdBSI
  3
"AcmSymBB|Product Description: AutoCAD Mechanical 2000|Company: Autodesk"
 90
        0
280
     0
281
     0
  0
CLASS
  1
ACMDATUMSTANDARDBSI
  2
AcmDatumStdBSI
  3
"AcmSymBB|Product Description: AutoCAD Mechanical 2000|Company: Autodesk"
 90
        0
280
     0
281
     0
  0
CLASS
  1
ACMBOMSTANDARDBSI
  2
AcmBOMStdBSI
  3
"AcmSymBB|Product Description: AutoCAD Mechanical 2000|Company: Autodesk"
 90
        0
280
     0
281
     0
  0
CLASS
  1
LONG_TRANSACTION
  2
AcDbLongTransaction
  3
AutoCAD 2000
 90
        0
280
     0
281
     0
  0
CLASS
  1
LWPOLYLINE
  2
AcDbPolyline
  3
AutoCAD 2000
 90
        0
280
     0
281
     1
  0
CLASS
  1
HATCH
  2
AcDbHatch
  3
AutoCAD 2000
 90
        0
280
     0
281
     1
  0
CLASS
  1
XRECORD
  2
AcDbXrecord
  3
AutoCAD 2000
 90
        0
280
     0
281
     0
  0
ENDSEC
  0
SECTION
  2
TABLES
  0
TABLE
  2
VPORT
  5
8
330
0
100
AcDbSymbolTable
 70
     3
  0
VPORT
  5
5CE6
330
8
100
AcDbSymbolTableRecord
100
AcDbViewportTableRecord
  2
*ACTIVE
 70
     0
 10
0.0
 20
0.0
 11
1.0
 21
1.0
 12
-87.69636178676439
 22
-6.36805933671016
 13
0.0
 23
0.0
 14
2.5
 24
2.5
 15
10.0
 25
10.0
 16
0.0
 26
0.0
 36
1.0
 17
0.0
 27
0.0
 37
0.0
 40
209.8094179102631
 41
1.56570841889117
 42
50.0
 43
0.0
 44
0.0
 50
0.0
 51
0.0
 71
     0
 72
   100
 73
     1
 74
     1
 75
     0
 76
     0
 77
     0
 78
     0
  0
ENDTAB
  0
TABLE
  2
LTYPE
  5
5
330
0
100
AcDbSymbolTable
 70
    10
  0
LTYPE
  5
14
330
5
100
AcDbSymbolTableRecord
100
AcDbLinetypeTableRecord
  2
BYBLOCK
 70
     0
  3

 72
    65
 73
     0
 40
0.0
  0
LTYPE
  5
15
330
5
100
AcDbSymbolTableRecord
100
AcDbLinetypeTableRecord
  2
BYLAYER
 70
     0
  3

 72
    65
 73
     0
 40
0.0
  0
LTYPE
  5
16
330
5
100
AcDbSymbolTableRecord
100
AcDbLinetypeTableRecord
  2
CONTINUOUS
 70
     0
  3
Solid line
 72
    65
 73
     0
 40
0.0
  0
LTYPE
  5
4B
330
5
100
AcDbSymbolTableRecord
100
AcDbLinetypeTableRecord
  2
AM_ISO02W050
 70
     0
  3
__ __ __ __ __ __ __ __ __ __ __ __ __ __ __
 72
    65
 73
     2
 40
7.5
 49
6.0
 74
     0
 49
-1.5
 74
     0
  0
LTYPE
  5
4C
330
5
100
AcDbSymbolTableRecord
100
AcDbLinetypeTableRecord
  2
AM_ISO08W050
 70
     0
  3
____ . ____ . ____ . ____ . ____ . ____ . ____
 72
    65
 73
     4
 40
18.0
 49
12.0
 74
     0
 49
-1.5
 74
     0
 49
3.0
 74
     0
 49
-1.5
 74
     0
  0
LTYPE
  5
4D
330
5
100
AcDbSymbolTableRecord
100
AcDbLinetypeTableRecord
  2
AM_ISO09W050
 70
     0
  3
_____ . . _____ . . _____ . . ____ .. ____
 72
    65
 73
     6
 40
22.5
 49
12.0
 74
     0
 49
-1.5
 74
     0
 49
3.0
 74
     0
 49
-1.5
 74
     0
 49
3.0
 74
     0
 49
-1.5
 74
     0
  0
LTYPE
  5
4E
330
5
100
AcDbSymbolTableRecord
100
AcDbLinetypeTableRecord
  2
AMCONSTR
 70
     0
  3
_______________________
 72
    65
 73
     2
 40
9999.0
 49
9999.0
 74
     0
 49
0.0
 74
     0
  0
LTYPE
  5
4F
330
5
100
AcDbSymbolTableRecord
100
AcDbLinetypeTableRecord
  2
AM_ISO02W050X2
 70
     0
  3
 _ _ _ _ _ _ _ _ _ _ _ _
 72
    65
 73
     2
 40
3.75
 49
3.0
 74
     0
 49
-0.75
 74
     0
  0
LTYPE
  5
50
330
5
100
AcDbSymbolTableRecord
100
AcDbLinetypeTableRecord
  2
AM_ISO08W050X2
 70
     0
  3
__ . __ . __ . __ . __ . __
 72
    65
 73
     4
 40
9.0
 49
6.0
 74
     0
 49
-0.75
 74
     0
 49
1.5
 74
     0
 49
-0.75
 74
     0
  0
LTYPE
  5
53
330
5
100
AcDbSymbolTableRecord
100
AcDbLinetypeTableRecord
  2
AMZIGZAG
 70
     0
  3
/\/-/\/-/\/-/\/-/\/-/\/
 72
    65
 73
     2
 40
11.00009999999999
 49
0.0001
 74
     4
 75
   135
340
52
 46
0.04
 50
0.0
 44
0.0
 45
0.0
 49
-11.0
 74
     0
  0
LTYPE
  5
166
330
5
100
AcDbSymbolTableRecord
100
AcDbLinetypeTableRecord
  2
ACJISTGL
 70
     0
  3
_ _ _ _ _
 72
    65
 73
     2
 40
3.0
 49
2.0
 74
     0
 49
-1.0
 74
     0
  0
LTYPE
  5
26A
330
5
100
AcDbSymbolTableRecord
100
AcDbLinetypeTableRecord
  2
ACJISTGB
 70
     0
  3
__ . . __ . .
 72
    65
 73
     6
 40
9.0
 49
4.0
 74
     0
 49
-1.0
 74
     0
 49
1.0
 74
     0
 49
-1.0
 74
     0
 49
1.0
 74
     0
 49
-1.0
 74
     0
  0
ENDTAB
  0
TABLE
  2
LAYER
  5
2
330
0
100
AcDbSymbolTable
 70
     8
  0
LAYER
  5
10
330
2
100
AcDbSymbolTableRecord
100
AcDbLayerTableRecord
  2
0
 70
     0
 62
     7
  6
CONTINUOUS
  0
LAYER
  5
3F9
330
2
100
AcDbSymbolTableRecord
100
AcDbLayerTableRecord
  2
AM_0
 70
     0
 62
     7
  6
CONTINUOUS
  0
LAYER
  5
C7C
330
2
100
AcDbSymbolTableRecord
100
AcDbLayerTableRecord
  2
AM_7
 70
     0
 62
     4
  6
AM_ISO08W050
  0
LAYER
  5
C97
330
2
100
AcDbSymbolTableRecord
100
AcDbLayerTableRecord
  2
AM_11
 70
     0
 62
     3
  6
AM_ISO09W050
  0
LAYER
  5
CC5
330
2
100
AcDbSymbolTableRecord
100
AcDbLayerTableRecord
  2
AM_5
 70
     0
 62
     3
  6
CONTINUOUS
  0
LAYER
  5
CC7
330
2
100
AcDbSymbolTableRecord
100
AcDbLayerTableRecord
  2
DEFPOINTS
 70
     0
 62
     7
  6
CONTINUOUS
  0
LAYER
  5
19BC
330
2
100
AcDbSymbolTableRecord
100
AcDbLayerTableRecord
  2
AM_6
 70
     0
 62
     2
  6
CONTINUOUS
  0
LAYER
  5
5A85
330
2
100
AcDbSymbolTableRecord
100
AcDbLayerTableRecord
  2
AM_CL
 70
     0
 62
     1
  6
AMCONSTR
  0
ENDTAB
  0
TABLE
  2
STYLE
  5
3
330
0
100
AcDbSymbolTable
 70
     5
  0
STYLE
  5
11
330
3
100
AcDbSymbolTableRecord
100
AcDbTextStyleTableRecord
  2
STANDARD
 70
     0
 40
0.0
 41
1.0
 50
0.0
 71
     0
 42
2.5
  3
simplex.shx
  4
EXTFONT.SHX
  0
STYLE
  5
52
330
3
100
AcDbSymbolTableRecord
100
AcDbTextStyleTableRecord
  2

 70
     1
 40
0.0
 41
1.0
 50
0.0
 71
     0
 42
2.5
  3
ltypeshp.shx
  4

  0
STYLE
  5
6B
330
3
100
AcDbSymbolTableRecord
100
AcDbTextStyleTableRecord
  2
ASAMI
 70
     0
 40
0.0
 41
1.0
 50
0.0
 71
     0
 42
2.5
  3
simplex.shx
  4
EXTFONT.SHX
  0
STYLE
  5
262
330
3
100
AcDbSymbolTableRecord
100
AcDbTextStyleTableRecord
  2
ACJISTS
 70
     0
 40
1.0
 41
1.0
 50
0.0
 71
     0
 42
2.5
  3
simplex.shx
  4
bigfont.shx
  0
STYLE
  5
269
330
3
100
AcDbSymbolTableRecord
100
AcDbTextStyleTableRecord
  2
ACJISGDT
 70
     0
 40
0.0
 41
1.0
 50
0.0
 71
     0
 42
2.5
  3
amgdtans.shx
  4

  0
ENDTAB
  0
TABLE
  2
VIEW
  5
6
330
0
100
AcDbSymbolTable
 70
     0
  0
ENDTAB
  0
TABLE
  2
UCS
  5
7
330
0
100
AcDbSymbolTable
 70
     0
  0
ENDTAB
  0
TABLE
  2
APPID
  5
9
330
0
100
AcDbSymbolTable
 70
    16
  0
APPID
  5
12
330
9
100
AcDbSymbolTableRecord
100
AcDbRegAppTableRecord
  2
ACAD
 70
     0
  0
APPID
  5
30
330
9
100
AcDbSymbolTableRecord
100
AcDbRegAppTableRecord
  2
MCAD_NO_VIS
 70
     0
  0
APPID
  5
31
330
9
100
AcDbSymbolTableRecord
100
AcDbRegAppTableRecord
  2
ACAD_TEMP_GRAPHIC
 70
     0
  0
APPID
  5
2C2
330
9
100
AcDbSymbolTableRecord
100
AcDbRegAppTableRecord
  2
GENIUS_GENDTOL_13
 70
     0
  0
APPID
  5
339
330
9
100
AcDbSymbolTableRecord
100
AcDbRegAppTableRecord
  2
GENIUS_GENODEF_13
 70
     0
  0
APPID
  5
33A
330
9
100
AcDbSymbolTableRecord
100
AcDbRegAppTableRecord
  2
GENIUS_GENOBJ-N-RSBK_13
 70
     0
  0
APPID
  5
33B
330
9
100
AcDbSymbolTableRecord
100
AcDbRegAppTableRecord
  2
GENIUS_GENOBJ-N-LIB_13
 70
     0
  0
APPID
  5
33C
330
9
100
AcDbSymbolTableRecord
100
AcDbRegAppTableRecord
  2
GENIUS_GENSCALE_13
 70
     0
  0
APPID
  5
378
330
9
100
AcDbSymbolTableRecord
100
AcDbRegAppTableRecord
  2
GENIUS_GENDIMSH_14
 70
     0
  0
APPID
  5
C82
330
9
100
AcDbSymbolTableRecord
100
AcDbRegAppTableRecord
  2
GENIUS_GENOBJ-N-CRS_13
 70
     0
  0
APPID
  5
C83
330
9
100
AcDbSymbolTableRecord
100
AcDbRegAppTableRecord
  2
GENIUS_GENOENT_13
 70
     0
  0
APPID
  5
C84
330
9
100
AcDbSymbolTableRecord
100
AcDbRegAppTableRecord
  2
GENIUS_GENOREF_13
 70
     0
  0
APPID
  5
C85
330
9
100
AcDbSymbolTableRecord
100
AcDbRegAppTableRecord
  2
GENIUS_GENOLIS_13
 70
     0
  0
APPID
  5
CA0
330
9
100
AcDbSymbolTableRecord
100
AcDbRegAppTableRecord
  2
GENIUS_GENOBJ-N-CEN_13
 70
     0
  0
APPID
  5
2796
330
9
100
AcDbSymbolTableRecord
100
AcDbRegAppTableRecord
  2
GENIUS_GENFIL_13
 70
     0
  0
APPID
  5
2797
330
9
100
AcDbSymbolTableRecord
100
AcDbRegAppTableRecord
  2
GENIUS_GENOBJ-N-CHA_13
 70
     0
  0
ENDTAB
  0
TABLE
  2
DIMSTYLE
  5
A
330
0
100
AcDbSymbolTable
 70
     9
  0
DIMSTYLE
105
58
330
A
100
AcDbSymbolTableRecord
100
AcDbDimStyleTableRecord
  2
AM_JIS
 70
     0
  3

  4
"
  5
OPEN30
  6

  7

 40
1.0
 41
2.5
 42
1.0
 43
12.0
 44
1.0
 45
0.0
 46
0.0
 47
0.1
 48
0.1
140
3.2
141
0.0
142
0.0
143
0.0393701
144
1.0
145
0.0
146
0.71
147
1.5
 71
     0
 72
     0
 73
     0
 74
     0
 75
     0
 76
     0
 77
     3
 78
     8
170
     0
171
     2
172
     1
173
     0
174
     0
175
     0
176
   256
177
   256
178
     2
270
     2
271
     3
272
     3
273
     2
274
     2
340
6B
275
     0
280
     0
281
     0
282
     0
283
     0
284
     0
285
     0
286
     0
287
     3
288
     0
  0
DIMSTYLE
105
5F
330
A
100
AcDbSymbolTableRecord
100
AcDbDimStyleTableRecord
  2
AM_JIS$3
 70
     0
  3

  4
"
  5
OPEN30
  6

  7

 40
1.0
 41
2.5
 42
1.0
 43
10.0
 44
1.0
 45
0.0
 46
0.0
 47
0.1
 48
0.1
140
3.2
141
0.0
142
0.0
143
0.0393701
144
1.0
145
0.0
146
0.71
147
1.5
 71
     0
 72
     0
 73
     0
 74
     1
 75
     0
 76
     0
 77
     3
 78
     8
170
     0
171
     2
172
     0
173
     0
174
     0
175
     0
176
   256
177
   256
178
     2
270
     2
271
     2
272
     3
273
     2
274
     2
340
6B
275
     0
280
     0
281
     0
282
     0
283
     0
284
     0
285
     0
286
     0
287
     0
288
     1
  0
DIMSTYLE
105
60
330
A
100
AcDbSymbolTableRecord
100
AcDbDimStyleTableRecord
  2
AM_JIS$4
 70
     0
  3

  4
"
  5
OPEN30
  6

  7

 40
1.0
 41
2.5
 42
1.0
 43
10.0
 44
1.0
 45
0.0
 46
0.0
 47
0.1
 48
0.1
140
3.2
141
0.0
142
0.0
143
0.0393701
144
1.0
145
0.0
146
0.71
147
1.5
 71
     0
 72
     0
 73
     0
 74
     1
 75
     0
 76
     0
 77
     3
 78
     8
170
     0
171
     2
172
     0
173
     0
174
     0
175
     0
176
   256
177
   256
178
     2
270
     2
271
     2
272
     3
273
     2
274
     2
340
6B
275
     0
280
     0
281
     0
282
     0
283
     0
284
     0
285
     0
286
     0
287
     0
288
     1
  0
DIMSTYLE
105
61
330
A
100
AcDbSymbolTableRecord
100
AcDbDimStyleTableRecord
  2
AM_JIS$6
 70
     0
  3

  4
"
  5
OPEN30
  6

  7

 40
1.0
 41
2.5
 42
1.0
 43
10.0
 44
1.0
 45
0.0
 46
0.0
 47
0.1
 48
0.1
140
3.2
141
0.0
142
0.0
143
0.0393701
144
1.0
145
0.0
146
0.71
147
1.5
 71
     0
 72
     0
 73
     0
 74
     0
 75
     0
 76
     0
 77
     0
 78
     8
170
     0
171
     2
172
     1
173
     0
174
     0
175
     0
176
   256
177
   256
178
     2
270
     2
271
     2
272
     2
273
     2
274
     2
340
6B
275
     0
280
     0
281
     0
282
     0
283
     0
284
     0
285
     0
286
     0
287
     3
288
     0
  0
DIMSTYLE
105
62
330
A
100
AcDbSymbolTableRecord
100
AcDbDimStyleTableRecord
  2
AM_JIS$7
 70
     0
  3

  4
"
  5
OPEN30
  6

  7

 40
1.0
 41
2.5
 42
1.0
 43
10.0
 44
1.0
 45
0.0
 46
0.0
 47
0.1
 48
0.1
140
3.2
141
0.0
142
0.0
143
0.0393701
144
1.0
145
0.0
146
0.71
147
1.5
 71
     0
 72
     0
 73
     0
 74
     0
 75
     0
 76
     0
 77
     3
 78
     8
170
     0
171
     2
172
     1
173
     0
174
     0
175
     0
176
   256
177
   256
178
     2
270
     2
271
     2
272
     3
273
     2
274
     2
340
6B
275
     0
280
     0
281
     0
282
     0
283
     0
284
     0
285
     0
286
     0
287
     3
288
     0
  0
DIMSTYLE
105
63
330
A
100
AcDbSymbolTableRecord
100
AcDbDimStyleTableRecord
  2
AM_JIS$SF
 70
     0
  3

  4
"
  5
OPEN30
  6

  7

 40
1.0
 41
2.5
 42
1.0
 43
10.0
 44
1.0
 45
0.0
 46
0.0
 47
0.1
 48
0.1
140
3.2
141
0.0
142
0.0
143
0.0393701
144
1.0
145
0.0
146
0.71
147
1.5
 71
     0
 72
     0
 73
     0
 74
     0
 75
     1
 76
     1
 77
     3
 78
     8
170
     0
171
     2
172
     1
173
     0
174
     0
175
     0
176
   256
177
   256
178
     2
270
     2
271
     2
272
     2
273
     2
274
     2
340
6B
275
     0
280
     0
281
     0
282
     0
283
     0
284
     0
285
     0
286
     0
287
     3
288
     0
  0
DIMSTYLE
105
68
330
A
100
AcDbSymbolTableRecord
100
AcDbDimStyleTableRecord
  2
AM_JIS$SH
 70
     0
  3

  4
"
  5

  6
GENAXEH
  7
OPEN30
 40
1.0
 41
2.5
 42
1.0
 43
10.0
 44
1.0
 45
0.0
 46
0.0
 47
0.1
 48
0.1
140
3.2
141
0.0
142
0.0
143
0.0393701
144
2.0
145
0.0
146
0.71
147
1.5
 71
     0
 72
     0
 73
     0
 74
     0
 75
     1
 76
     1
 77
     3
 78
     8
170
     0
171
     2
172
     1
173
     1
174
     0
175
     0
176
   256
177
   256
178
     2
270
     2
271
     2
272
     2
273
     2
274
     2
340
6B
275
     0
280
     0
281
     0
282
     0
283
     0
284
     0
285
     0
286
     0
287
     3
288
     0
  0
DIMSTYLE
105
B34
102
{ACAD_REACTORS
330
587E
102
}
330
A
100
AcDbSymbolTableRecord
100
AcDbDimStyleTableRecord
  2
AM_JIS$2
 70
     0
  3

  4
"
  5
OPEN30
  6

  7

 40
1.0
 41
2.5
 42
1.0
 43
12.0
 44
1.0
 45
0.0
 46
0.0
 47
0.1
 48
0.1
140
3.2
141
0.0
142
0.0
143
0.0393701
144
1.0
145
0.0
146
0.71
147
1.5
 71
     0
 72
     0
 73
     0
 74
     0
 75
     0
 76
     0
 77
     3
 78
     8
170
     0
171
     2
172
     1
173
     0
174
     0
175
     0
176
   256
177
   256
178
     2
270
     2
271
     3
272
     3
273
     2
274
     2
340
6B
275
     0
280
     0
281
     0
282
     0
283
     0
284
     0
285
     0
286
     0
287
     3
288
     0
  0
DIMSTYLE
105
BA5
102
{ACAD_REACTORS
330
CC6
330
2069
330
4819
330
466D
102
}
330
A
100
AcDbSymbolTableRecord
100
AcDbDimStyleTableRecord
  2
AM_JIS$0
 70
     0
  3

  4
"
  5
OPEN30
  6

  7

 40
1.0
 41
2.5
 42
0.0
 43
10.0
 44
1.0
 45
0.0
 46
0.0
 47
0.1
 48
0.1000000001
140
3.799999999999999
141
0.0
142
0.0
143
0.0393701
144
1.0
145
0.0
146
0.71
147
1.5
 71
     0
 72
     0
 73
     0
 74
     0
 75
     0
 76
     0
 77
     3
 78
     1
170
     0
171
     2
172
     1
173
     0
174
     0
175
     0
176
     3
177
     3
178
     2
270
     2
271
     2
272
     2
273
     2
274
     2
340
11
275
     1
280
     0
281
     0
282
     0
283
     0
284
     8
285
     0
286
     0
287
     0
288
     0
  0
ENDTAB
  0
TABLE
  2
BLOCK_RECORD
  5
1
330
0
100
AcDbSymbolTable
 70
    10
  0
BLOCK_RECORD
  5
1F
102
{ACAD_XDICTIONARY
360
74
102
}
330
1
100
AcDbSymbolTableRecord
100
AcDbBlockTableRecord
  2
*MODEL_SPACE
  0
BLOCK_RECORD
  5
101
102
{ACAD_XDICTIONARY
360
5D0F
102
}
330
1
100
AcDbSymbolTableRecord
100
AcDbBlockTableRecord
  2
*PAPER_SPACE
  0
BLOCK_RECORD
  5
59
330
1
100
AcDbSymbolTableRecord
100
AcDbBlockTableRecord
  2
_OPEN30
  0
BLOCK_RECORD
  5
64
330
1
100
AcDbSymbolTableRecord
100
AcDbBlockTableRecord
  2
GENAXEH
  0
BLOCK_RECORD
  5
CC8
330
1
100
AcDbSymbolTableRecord
100
AcDbBlockTableRecord
  2
*D5
  0
BLOCK_RECORD
  5
206A
330
1
100
AcDbSymbolTableRecord
100
AcDbBlockTableRecord
  2
*D6
  0
BLOCK_RECORD
  5
466E
330
1
100
AcDbSymbolTableRecord
100
AcDbBlockTableRecord
  2
*D7
  0
BLOCK_RECORD
  5
481A
330
1
100
AcDbSymbolTableRecord
100
AcDbBlockTableRecord
  2
*D8
  0
BLOCK_RECORD
  5
587F
330
1
100
AcDbSymbolTableRecord
100
AcDbBlockTableRecord
  2
*D9
  0
ENDTAB
  0
ENDSEC
  0
SECTION
  2
BLOCKS
  0
BLOCK
  5
20
330
1F
100
AcDbEntity
  8
0
100
AcDbBlockBegin
  2
*MODEL_SPACE
 70
     0
 10
0.0
 20
0.0
 30
0.0
  3
*MODEL_SPACE
  1

  0
ENDBLK
  5
21
330
1F
100
AcDbEntity
  8
0
100
AcDbBlockEnd
  0
BLOCK
  5
103
330
101
100
AcDbEntity
 67
     1
  8
0
100
AcDbBlockBegin
  2
*PAPER_SPACE
 70
     0
 10
0.0
 20
0.0
 30
0.0
  3
*PAPER_SPACE
  1

  0
ENDBLK
  5
104
330
101
100
AcDbEntity
 67
     1
  8
0
100
AcDbBlockEnd
  0
BLOCK
  5
5D
330
59
100
AcDbEntity
  8
0
100
AcDbBlockBegin
  2
_OPEN30
 70
     0
 10
0.0
 20
0.0
 30
0.0
  3
_OPEN30
  1

  0
LINE
  5
5A
330
59
100
AcDbEntity
  8
0
 62
     0
100
AcDbLine
 10
-1.0
 20
0.26794919
 30
0.0
 11
0.0
 21
0.0
 31
0.0
  0
LINE
  5
5B
330
59
100
AcDbEntity
  8
0
 62
     0
100
AcDbLine
 10
0.0
 20
0.0
 30
0.0
 11
-1.0
 21
-0.26794919
 31
0.0
  0
LINE
  5
5C
330
59
100
AcDbEntity
  8
0
 62
     0
100
AcDbLine
 10
0.0
 20
0.0
 30
0.0
 11
-1.0
 21
0.0
 31
0.0
  0
ENDBLK
  5
5E
330
59
100
AcDbEntity
  8
0
100
AcDbBlockEnd
  0
BLOCK
  5
66
330
64
100
AcDbEntity
  8
0
100
AcDbBlockBegin
  2
GENAXEH
 70
     0
 10
0.0
 20
0.0
 30
0.0
  3
GENAXEH
  1

  0
LINE
  5
65
330
64
100
AcDbEntity
  8
0
100
AcDbLine
 10
-1.0
 20
0.0
 30
0.0
 11
1.0
 21
0.0
 31
0.0
  0
ENDBLK
  5
67
330
64
100
AcDbEntity
  8
0
100
AcDbBlockEnd
  0
BLOCK
  5
CD2
330
CC8
100
AcDbEntity
  8
0
100
AcDbBlockBegin
  2
*D5
 70
     1
 10
0.0
 20
0.0
 30
0.0
  3
*D5
  1

  0
LINE
  5
5C9A
330
CC8
100
AcDbEntity
  8
AM_5
 62
     3
100
AcDbLine
 10
-205.000000000001
 20
-11.24999999999951
 30
0.0
 11
-205.000000000001
 21
-37.50000099999934
 31
0.0
  0
LINE
  5
5C9B
330
CC8
100
AcDbEntity
  8
AM_5
 62
     3
100
AcDbLine
 10
-5.000000041667076
 20
-12.4999999751673
 30
0.0
 11
-5.000000041667078
 21
-37.50000099999934
 31
0.0
  0
LINE
  5
5C9C
330
CC8
100
AcDbEntity
  8
AM_5
 62
     3
100
AcDbLine
 10
-202.500000000001
 20
-36.50000099999934
 30
0.0
 11
-7.500000041667078
 21
-36.50000099999934
 31
0.0
  0
INSERT
  5
5C9D
330
CC8
100
AcDbEntity
  8
AM_5
 62
     3
100
AcDbBlockReference
  2
_OPEN30
 10
-205.000000000001
 20
-36.50000099999934
 30
0.0
 41
2.5
 42
2.5
 43
2.5
 50
180.0
  0
INSERT
  5
5C9E
330
CC8
100
AcDbEntity
  8
AM_5
 62
     3
100
AcDbBlockReference
  2
_OPEN30
 10
-5.000000041667078
 20
-36.50000099999934
 30
0.0
 41
2.5
 42
2.5
 43
2.5
  0
MTEXT
  5
5C9F
330
CC8
100
AcDbEntity
  8
AM_5
 62
     2
100
AcDbMText
 10
-105.000000020834
 20
-33.10000099999934
 30
0.0
 40
3.799999999999999
 41
0.0
 71
     5
 72
     1
  1
200
1001
ACAD
1000
MTEXTBEGIN
1070
    73
1070
     1
1070
    44
1040
1.0
1070
    74
1070
     0
1000
MTEXTEND
  0
POINT
  5
5CA0
330
CC8
100
AcDbEntity
  8
DEFPOINTS
 62
     0
100
AcDbPoint
 10
-205.000000000001
 20
-11.24999999999951
 30
0.0
  0
POINT
  5
5CA1
330
CC8
100
AcDbEntity
  8
DEFPOINTS
 62
     0
100
AcDbPoint
 10
-5.000000041667076
 20
-12.4999999751673
 30
0.0
  0
POINT
  5
5CA2
330
CC8
100
AcDbEntity
  8
DEFPOINTS
 62
     0
100
AcDbPoint
 10
-5.000000041667078
 20
-36.50000099999934
 30
0.0
  0
ENDBLK
  5
CD3
330
CC8
100
AcDbEntity
  8
0
100
AcDbBlockEnd
  0
BLOCK
  5
2074
330
206A
100
AcDbEntity
  8
0
100
AcDbBlockBegin
  2
*D6
 70
     1
 10
0.0
 20
0.0
 30
0.0
  3
*D6
  1

  0
LINE
  5
5CB7
330
206A
100
AcDbEntity
  8
AM_5
 62
     3
100
AcDbLine
 10
-130.0000000000007
 20
-8.380829700764493
 30
0.0
 11
-130.0000000000006
 21
-27.50000099999958
 31
0.0
  0
LINE
  5
5CB8
330
206A
100
AcDbEntity
  8
AM_5
 62
     3
100
AcDbLine
 10
-5.00000004166704
 20
-12.49999997516731
 30
0.0
 11
-5.000000041666997
 21
-27.50000099999922
 31
0.0
  0
LINE
  5
5CB9
330
206A
100
AcDbEntity
  8
AM_5
 62
     3
100
AcDbLine
 10
-127.5000000000007
 20
-26.50000099999958
 30
0.0
 11
-7.500000041667
 21
-26.50000099999923
 31
0.0
  0
INSERT
  5
5CBA
330
206A
100
AcDbEntity
  8
AM_5
 62
     3
100
AcDbBlockReference
  2
_OPEN30
 10
-130.0000000000006
 20
-26.50000099999958
 30
0.0
 41
2.5
 42
2.5
 43
2.5
 50
180.0000000000001
  0
INSERT
  5
5CBB
330
206A
100
AcDbEntity
  8
AM_5
 62
     3
100
AcDbBlockReference
  2
_OPEN30
 10
-5.000000041667
 20
-26.50000099999922
 30
0.0
 41
2.5
 42
2.5
 43
2.5
 50
0.0000000000001527
  0
MTEXT
  5
5CBC
330
206A
100
AcDbEntity
  8
AM_5
 62
     2
100
AcDbMText
 10
-67.50000002083385
 20
-23.1000009999994
 30
0.0
 40
3.799999999999999
 41
0.0
 71
     5
 72
     1
  1
125
1001
ACAD
1000
MTEXTBEGIN
1070
    73
1070
     1
1070
    44
1040
1.0
1070
    74
1070
     0
1000
MTEXTEND
  0
POINT
  5
5CBD
330
206A
100
AcDbEntity
  8
DEFPOINTS
 62
     0
100
AcDbPoint
 10
-130.0000000000007
 20
-8.380829700764115
 30
0.0
  0
POINT
  5
5CBE
330
206A
100
AcDbEntity
  8
DEFPOINTS
 62
     0
100
AcDbPoint
 10
-5.000000041667076
 20
-12.4999999751673
 30
0.0
  0
POINT
  5
5CBF
330
206A
100
AcDbEntity
  8
DEFPOINTS
 62
     0
100
AcDbPoint
 10
-5.000000041667077
 20
-26.50000099999921
 30
0.0
  0
ENDBLK
  5
2075
330
206A
100
AcDbEntity
  8
0
100
AcDbBlockEnd
  0
BLOCK
  5
4678
330
466E
100
AcDbEntity
  8
0
100
AcDbBlockBegin
  2
*D7
 70
     1
 10
0.0
 20
0.0
 30
0.0
  3
*D7
  1

  0
LINE
  5
5C51
330
466E
100
AcDbEntity
  8
AM_5
 62
     3
100
AcDbLine
 10
-203.7500000000007
 20
12.49999999999982
 30
0.0
 11
-222.5000010000008
 21
12.49999999999976
 31
0.0
  0
LINE
  5
5C52
330
466E
100
AcDbEntity
  8
AM_5
 62
     3
100
AcDbLine
 10
-203.7500000000009
 20
-12.50000000000018
 30
0.0
 11
-222.5000010000008
 21
-12.50000000000023
 31
0.0
  0
LINE
  5
5C53
330
466E
100
AcDbEntity
  8
AM_5
 62
     3
100
AcDbLine
 10
-221.5000010000009
 20
9.999999999999769
 30
0.0
 11
-221.5000010000008
 21
-10.00000000000023
 31
0.0
  0
INSERT
  5
5C54
330
466E
100
AcDbEntity
  8
AM_5
 62
     3
100
AcDbBlockReference
  2
_OPEN30
 10
-221.5000010000009
 20
12.49999999999976
 30
0.0
 41
2.5
 42
2.5
 43
2.5
 50
90.00000000000017
  0
INSERT
  5
5C55
330
466E
100
AcDbEntity
  8
AM_5
 62
     3
100
AcDbBlockReference
  2
_OPEN30
 10
-221.5000010000008
 20
-12.50000000000023
 30
0.0
 41
2.5
 42
2.5
 43
2.5
 50
270.0000000000001
  0
MTEXT
  5
5C56
330
466E
100
AcDbEntity
  8
AM_5
 62
     2
100
AcDbMText
 10
-224.9000010000008
 20
-0.0000000000002318
 30
0.0
 40
3.799999999999999
 41
0.0
 71
     5
 72
     1
  1
%%c25
 11
-0.0000000000000028
 21
1.0
 31
0.0
1001
ACAD
1000
MTEXTBEGIN
1070
    73
1070
     1
1070
    44
1040
1.0
1070
    74
1070
     0
1000
MTEXTEND
  0
POINT
  5
5C57
330
466E
100
AcDbEntity
  8
DEFPOINTS
 62
     0
100
AcDbPoint
 10
-203.7500000000007
 20
12.50000000000045
 30
0.0
  0
POINT
  5
5C58
330
466E
100
AcDbEntity
  8
DEFPOINTS
 62
     0
100
AcDbPoint
 10
-203.750000000001
 20
-12.49999999999954
 30
0.0
  0
POINT
  5
5C59
330
466E
100
AcDbEntity
  8
DEFPOINTS
 62
     0
100
AcDbPoint
 10
-221.5000010000008
 20
-12.49999999999954
 30
0.0
  0
ENDBLK
  5
4679
330
466E
100
AcDbEntity
  8
0
100
AcDbBlockEnd
  0
BLOCK
  5
4824
330
481A
100
AcDbEntity
  8
0
100
AcDbBlockBegin
  2
*D8
 70
     1
 10
0.0
 20
0.0
 30
0.0
  3
*D8
  1

  0
LINE
  5
5CC1
330
481A
100
AcDbEntity
  8
AM_5
 62
     3
100
AcDbLine
 10
-5.000000000000945
 20
12.5
 30
0.0
 11
18.05788916828685
 21
12.50000000000007
 31
0.0
  0
LINE
  5
5CC2
330
481A
100
AcDbEntity
  8
AM_5
 62
     3
100
AcDbLine
 10
-5.000000041667037
 20
-12.49999997516732
 30
0.0
 11
18.05788916828693
 21
-12.49999997516725
 31
0.0
  0
LINE
  5
5CC3
330
481A
100
AcDbEntity
  8
AM_5
 62
     3
100
AcDbLine
 10
17.05788916828686
 20
10.00000000000006
 30
0.0
 11
17.05788916828692
 21
-9.999999975167257
 31
0.0
  0
INSERT
  5
5CC4
330
481A
100
AcDbEntity
  8
AM_5
 62
     3
100
AcDbBlockReference
  2
_OPEN30
 10
17.05788916828685
 20
12.50000000000007
 30
0.0
 41
2.5
 42
2.5
 43
2.5
 50
90.00000000000017
  0
INSERT
  5
5CC5
330
481A
100
AcDbEntity
  8
AM_5
 62
     3
100
AcDbBlockReference
  2
_OPEN30
 10
17.05788916828693
 20
-12.49999997516725
 30
0.0
 41
2.5
 42
2.5
 43
2.5
 50
270.0000000000001
  0
MTEXT
  5
5CC6
330
481A
100
AcDbEntity
  8
AM_5
 62
     2
100
AcDbMText
 10
13.65788916828689
 20
0.0000000124163951
 30
0.0
 40
3.799999999999999
 41
0.0
 71
     5
 72
     1
  1
%%c25
 11
-0.0000000000000028
 21
1.0
 31
0.0
1001
ACAD
1000
MTEXTBEGIN
1070
    73
1070
     1
1070
    44
1040
1.0
1070
    74
1070
     0
1000
MTEXTEND
  0
POINT
  5
5CC7
330
481A
100
AcDbEntity
  8
DEFPOINTS
 62
     0
100
AcDbPoint
 10
-5.000000000000906
 20
12.50000000000002
 30
0.0
  0
POINT
  5
5CC8
330
481A
100
AcDbEntity
  8
DEFPOINTS
 62
     0
100
AcDbPoint
 10
-5.000000041667076
 20
-12.4999999751673
 30
0.0
  0
POINT
  5
5CC9
330
481A
100
AcDbEntity
  8
DEFPOINTS
 62
     0
100
AcDbPoint
 10
17.05788916828689
 20
-12.49999997516731
 30
0.0
  0
ENDBLK
  5
4825
330
481A
100
AcDbEntity
  8
0
100
AcDbBlockEnd
  0
BLOCK
  5
588D
330
587F
100
AcDbEntity
  8
0
100
AcDbBlockBegin
  2
*D9
 70
     1
 10
0.0
 20
0.0
 30
0.0
  3
*D9
  1

  0
LINE
  5
5D11
330
587F
100
AcDbEntity
  8
AM_5
100
AcDbLine
 10
0.3420201408158153
 20
-0.9396926216992135
 30
0.0
 11
10.22190268667647
 21
-28.08444704887165
 31
0.0
  0
LINE
  5
5D12
330
587F
100
AcDbEntity
  8
AM_5
100
AcDbLine
 10
0.3420222223656428
 20
0.9396918640746367
 30
0.0
 11
10.221964897632
 21
28.08442440585795
 31
0.0
  0
ARC
  5
5D13
330
587F
100
AcDbEntity
  8
AM_5
100
AcDbCircle
 10
-0.0000000000003269
 20
0.0000000000001032
 30
0.0
 40
28.88684427263561
100
AcDbArc
 50
294.9601882143396
 51
65.03968486749018
  0
INSERT
  5
5D14
330
587F
100
AcDbEntity
  8
AM_5
100
AcDbBlockReference
  2
_OPEN30
 10
9.879882545860331
 20
-27.14475442717235
 30
0.0
 41
2.5
 42
2.5
 43
2.5
 50
202.480094030663
  0
INSERT
  5
5D15
330
587F
100
AcDbEntity
  8
AM_5
100
AcDbBlockReference
  2
_OPEN30
 10
9.879942675266045
 20
27.14473254178344
 30
0.0
 41
2.5
 42
2.5
 43
2.5
 50
157.5197790511667
  0
MTEXT
  5
5D16
330
587F
100
AcDbEntity
  8
AM_5
 62
     2
100
AcDbMText
 10
25.78684427261946
 20
-0.0000285607343825
 30
0.0
 40
3.2
 41
0.0
 71
     5
 72
     1
  1
140°
  7
ASAMI
 11
0.0000011075699751
 21
0.9999999999993868
 31
0.0
  0
POINT
  5
5D17
330
587F
100
AcDbEntity
  8
DEFPOINTS
 62
     0
100
AcDbPoint
 10
26.52435722971289
 20
-11.4415141297845
 30
0.0
  0
POINT
  5
5D18
330
587F
100
AcDbEntity
  8
DEFPOINTS
 62
     0
100
AcDbPoint
 10
-0.000000000000322
 20
0.0000000000001166
 30
0.0
  0
POINT
  5
5D19
330
587F
100
AcDbEntity
  8
DEFPOINTS
 62
     0
100
AcDbPoint
 10
-0.000000000000322
 20
0.0000000000000897
 30
0.0
  0
POINT
  5
5D1A
330
587F
100
AcDbEntity
  8
DEFPOINTS
 62
     0
100
AcDbPoint
 10
-1.425437746792967
 20
3.916358054693761
 30
0.0
  0
POINT
  5
5D1B
330
587F
100
AcDbEntity
  8
DEFPOINTS
 62
     0
100
AcDbPoint
 10
-1.425466239848057
 20
-3.916409345660866
 30
0.0
  0
ENDBLK
  5
588E
330
587F
100
AcDbEntity
  8
0
100
AcDbBlockEnd
  0
ENDSEC
  0
SECTION
  2
ENTITIES
  0
LINE
  5
C1D
330
1F
100
AcDbEntity
  8
AM_0
 48
0.5
100
AcDbLine
 10
-0.0000000000002842
 20
0.0000000000000908
 30
0.0
 11
-1.486094672188361
 21
4.083011588936044
 31
0.0
  0
LINE
  5
C20
330
1F
100
AcDbEntity
  8
AM_0
 48
0.5
100
AcDbLine
 10
-0.0000000000002842
 20
0.0000000000001188
 30
0.0
 11
-1.48612437771388
 21
-4.083065062497501
 31
0.0
  0
DIMENSION
  5
CC6
330
1F
100
AcDbEntity
  8
AM_5
100
AcDbDimension
  2
*D5
 10
-5.000000041667078
 20
-36.50000099999934
 30
0.0
 11
-105.000000020834
 21
-33.10000099999934
 31
0.0
 70
    32
  1
<>
  3
AM_JIS$0
100
AcDbAlignedDimension
 13
-205.000000000001
 23
-11.24999999999951
 33
0.0
 14
-5.000000041667076
 24
-12.4999999751673
 34
0.0
 50
0.0000000000001132
100
AcDbRotatedDimension
1001
GENIUS_GENDTOL_13
1000

1000
h7
1000

1040
0.0
1001
ACAD
1000
DSTYLE
1002
{
1070
   271
1070
     0
1002
}
  0
TEXT
  5
19BD
330
1F
100
AcDbEntity
  8
AM_6
100
AcDbText
 10
-127.5000000000008
 20
-59.0000009999994
 30
0.0
 40
5.0
  1
MDW250MHK
 50
0.0000000000001527
 72
     4
 11
-105.0000000000008
 21
-56.50000099999934
 31
0.0
100
AcDbText
  0
DIMENSION
  5
2069
330
1F
100
AcDbEntity
  8
AM_5
100
AcDbDimension
  2
*D6
 10
-5.000000041667077
 20
-26.50000099999921
 30
0.0
 11
-67.50000002083393
 21
-23.10000099999921
 31
0.0
 70
    32
  1
<>
 51
359.9999999999998
  3
AM_JIS$0
100
AcDbAlignedDimension
 13
-130.0000000000007
 23
-8.380829700764115
 33
0.0
 14
-5.000000041667076
 24
-12.4999999751673
 34
0.0
 50
0.0000000000001527
100
AcDbRotatedDimension
1001
ACAD
1000
DSTYLE
1002
{
1070
   271
1070
     0
1070
   174
1070
     1
1002
}
1001
GENIUS_GENDTOL_13
1000

1000
h7
1000

1040
0.0
  0
LINE
  5
23EF
330
1F
100
AcDbEntity
  8
AM_7
100
AcDbLine
 10
-209.493263302178
 20
0.0000000000016324
 30
0.0
 11
3.90888731120475
 21
-0.0000000000000305
 31
0.0
1001
GENIUS_GENODEF_13
1002
{
1000
HIER
1070
     0
1002
}
1002
{
1000
MANEDIT
1070
     0
1002
}
1002
{
1000
NOSEL
1070
     0
1002
}
1002
{
1000
BEHIND
1070
     0
1002
}
1002
{
1000
REACTOR
1002
}
1001
GENIUS_GENOBJ-N-CEN_13
1002
{
1000
OWNER
1000
GEN
1002
}
  0
LINE
  5
24A7
330
1F
100
AcDbEntity
  8
AM_0
 48
0.5
100
AcDbLine
 10
-3.900240428757622
 20
9.663246287624113
 30
0.0
 11
-5.000000000000906
 21
12.50000000000002
 31
0.0
  0
ELLIPSE
  5
24B7
330
1F
100
AcDbEntity
  8
AM_11
 48
0.5
100
AcDbEllipse
 10
-32.92435578937978
 20
45.67546168677966
 30
0.0
 11
-52.72102753321259
 21
0.0000000000004012
 31
0.0
210
0.0
220
0.0
230
1.0
 40
0.9578947368421056
 41
1.130070686340284
 42
2.011520147323574
  0
ELLIPSE
  5
24B8
330
1F
100
AcDbEntity
  8
AM_11
 48
0.5
100
AcDbEllipse
 10
-32.92435578938228
 20
-45.67542853062534
 30
0.0
 11
-52.72102753321251
 21
0.0000000000002374
 31
0.0
210
0.0
220
0.0
230
1.0
 40
0.9578947368421054
 41
4.271664206181664
 42
5.153113667164971
  0
ELLIPSE
  5
24B9
330
1F
100
AcDbEntity
  8
AM_11
 48
0.5
100
AcDbEllipse
 10
12.51566443769604
 20
46.60761396610049
 30
0.0
 11
-53.79696687062494
 21
0.000000000004208
 31
0.0
210
0.0
220
0.0
230
0.9999999999999998
 40
0.9578947368421141
 41
1.130070686340349
 42
1.291800737381041
  0
ELLIPSE
  5
24BE
330
1F
100
AcDbEntity
  8
AM_0
 48
0.5
100
AcDbEllipse
 10
11.71148386499829
 20
12.42972149326188
 30
0.0
 11
-9.133611645707773
 21
18.17618019105943
 31
0.0
210
0.0
220
0.0
230
1.0
 40
0.7661203636765101
 41
1.345828882220657
 42
1.646194032212534
  0
ELLIPSE
  5
24C7
330
1F
100
AcDbEntity
  8
AM_11
 48
0.5
100
AcDbEllipse
 10
-167.8675376075489
 20
45.67546168678311
 30
0.0
 11
-52.72102753321259
 21
0.0000000000011739
 31
0.0
210
0.0
220
0.0
230
1.0
 40
0.9578947368421056
 41
1.130070686340301
 42
2.011520147323591
  0
ELLIPSE
  5
24C8
330
1F
100
AcDbEntity
  8
AM_11
 48
0.5
100
AcDbEllipse
 10
-167.8675376075515
 20
-45.67542853062191
 30
0.0
 11
52.72102753321251
 21
0.0000000000008812
 31
0.0
210
0.0
220
0.0
230
1.0
 40
0.957894736842107
 41
1.13007155259185
 42
2.011521013575156
  0
ELLIPSE
  5
24D4
330
1F
100
AcDbEntity
  8
AM_11
 48
0.5
100
AcDbEllipse
 10
-122.8864770014883
 20
45.67546168678201
 30
0.0
 11
-52.72102753321266
 21
0.0000000000003076
 31
0.0
210
0.0
220
0.0
230
1.0
 40
0.9578947368421049
 41
1.130070686340283
 42
2.011520147323574
  0
ELLIPSE
  5
24D5
330
1F
100
AcDbEntity
  8
AM_11
 48
0.5
100
AcDbEllipse
 10
-122.8864770014908
 20
-45.67542853062301
 30
0.0
 11
-52.72102753321243
 21
0.0000000000009514
 31
0.0
210
0.0
220
0.0
230
1.0
 40
0.9578947368421081
 41
4.271664206181676
 42
5.153113667164986
  0
ELLIPSE
  5
24E6
330
1F
100
AcDbEntity
  8
AM_11
 48
0.5
100
AcDbEllipse
 10
-77.9054163954429
 20
-45.67542853062421
 30
0.0
 11
-52.72102753321249
 21
0.0000000000014314
 31
0.0
210
0.0
220
0.0
230
1.0
 40
0.9578947368421058
 41
4.271664206181685
 42
5.153113667164993
  0
ELLIPSE
  5
24E7
330
1F
100
AcDbEntity
  8
AM_11
 48
0.5
100
AcDbEllipse
 10
-77.90541639544037
 20
45.67546168678081
 30
0.0
 11
52.72102753321259
 21
0.0000000000000852
 31
0.0
210
0.0
220
0.0
230
1.0
 40
0.9578947368421049
 41
4.271663339930067
 42
5.153112800913361
  0
ELLIPSE
  5
2BF3
330
1F
100
AcDbEntity
  8
AM_11
 48
0.5
100
AcDbEllipse
 10
-212.8485982135907
 20
45.67546168678158
 30
0.0
 11
-52.72102753321266
 21
0.0000000000003076
 31
0.0
210
0.0
220
0.0
230
1.0
 40
0.9578947368421049
 41
1.130070686340283
 42
1.130071893450395
  0
ELLIPSE
  5
2BF5
330
1F
100
AcDbEntity
  8
AM_11
 48
0.5
100
AcDbEllipse
 10
-212.8485982135935
 20
-45.67542853062331
 30
0.0
 11
-52.72102753321243
 21
0.0000000000009514
 31
0.0
210
0.0
220
0.0
230
1.0
 40
0.9578947368421081
 41
4.271664206181676
 42
4.562963178437293
  0
LINE
  5
4434
330
1F
100
AcDbEntity
  8
AM_0
 48
0.5
100
AcDbLine
 10
-16.60873740377017
 20
12.50000000000047
 30
0.0
 11
-5.000000000000906
 21
12.50000000000002
 31
0.0
  0
LINE
  5
4435
330
1F
100
AcDbEntity
  8
AM_0
 48
0.5
100
AcDbLine
 10
-16.6087374009281
 20
-12.49999870750383
 30
0.0
 11
-5.000000000000841
 21
-12.49999999999994
 31
0.0
  0
LINE
  5
4436
330
1F
100
AcDbEntity
  8
AM_0
 48
0.5
100
AcDbLine
 10
-0.0000000000002737
 20
0.0000000000001212
 30
0.0
 11
-10.88679216506645
 21
5.20557119687981
 31
0.0
  0
LINE
  5
4437
330
1F
100
AcDbEntity
  8
AM_0
 48
0.5
100
AcDbLine
 10
-102.2562611125755
 20
12.50000129249939
 30
0.0
 11
-56.96924088614845
 21
12.50000000000199
 31
0.0
  0
LINE
  5
4438
330
1F
100
AcDbEntity
  8
AM_0
 48
0.5
100
AcDbLine
 10
-95.48296320076849
 20
-12.49999999999909
 30
0.0
 11
-56.96924944087335
 21
-12.49999999999943
 31
0.0
  0
LINE
  5
4439
330
1F
100
AcDbEntity
  8
AM_11
 48
0.5
100
AcDbLine
 10
-56.96924944087335
 20
-12.49999999999943
 30
0.0
 11
-16.6087374009281
 21
-12.49999870750383
 31
0.0
  0
LINE
  5
443A
330
1F
100
AcDbEntity
  8
AM_11
 48
0.5
100
AcDbLine
 10
-56.96924088614845
 20
12.50000000000199
 30
0.0
 11
-16.60873740377017
 21
12.50000000000047
 31
0.0
  0
SPLINE
  5
443B
330
1F
100
AcDbEntity
  8
AM_0
100
AcDbSpline
210
0.0
220
0.0
230
1.0
 70
     8
 71
     3
 72
    22
 73
    18
 74
     0
 42
0.0000000001
 43
0.0000000001
 40
17.17441611292
 40
17.17441611292
 40
17.17441611292
 40
17.17441611292
 40
17.38177636558528
 40
18.41823744757437
 40
19.46215659509824
 40
20.51397914882054
 40
21.57394542641293
 40
22.64209583141747
 40
23.71826625065247
 40
24.80210429862395
 40
25.8930771157021
 40
26.99048705697709
 40
28.09349309193389
 40
29.20112995599786
 40
30.31233024745139
 40
31.42594771747373
 40
32.5407895042663
 40
32.54078950426994
 40
32.54078950426994
 40
32.54078950426994
 10
-65.1469563200735
 20
-11.22508917811525
 30
0.0
 10
-65.29042586545935
 20
-11.19615290413737
 30
0.0
 10
-66.15044743676499
 20
-11.01989889652538
 30
0.0
 10
-67.72595849337441
 20
-10.66648667129352
 30
0.0
 10
-69.86754364038822
 20
-10.12030147673864
 30
0.0
 10
-72.00891056437099
 20
-9.51174540303892
 30
0.0
 10
-74.15007438325315
 20
-8.84461720809976
 30
0.0
 10
-76.2910322687062
 20
-8.12300737411755
 30
0.0
 10
-78.43181057343916
 20
-7.35140681254118
 30
0.0
 10
-80.57241920985724
 20
-6.534557532159058
 30
0.0
 10
-82.7128779836806
 20
-5.677496997725153
 30
0.0
 10
-84.85321069545372
 20
-4.785512729865721
 30
0.0
 10
-86.99343592197333
 20
-3.864089566818097
 30
0.0
 10
-89.13357520806632
 20
-2.918896259583156
 30
0.0
 10
-91.27364752420477
 20
-1.9557446771031
 30
0.0
 10
-93.41368457369915
 20
-0.980577985232955
 30
0.0
 10
-94.84009589759885
 20
-0.3265543703550943
 30
0.0
 10
-95.55369340500886
 20
0.0006370753783281
 30
0.0
  0
SPLINE
  5
443C
330
1F
100
AcDbEntity
  8
AM_0
100
AcDbSpline
210
0.0
220
0.0
230
1.0
 70
     8
 71
     3
 72
    17
 73
    13
 74
     0
 42
0.0000000001
 43
0.0000000001
 40
1.580019955310467
 40
1.580019955310467
 40
1.580019955310467
 40
1.580019955310467
 40
2.030549285115227
 40
3.082371838836284
 40
4.126290986361125
 40
5.162752068350215
 40
6.192395305374981
 40
7.216039564037012
 40
8.234688489606833
 40
9.249433870634691
 40
10.26152376260694
 40
11.27226744710342
 40
11.27226744710342
 40
11.27226744710342
 40
11.27226744710352
 10
-36.78741469096875
 20
-9.225366789882574
 30
0.0
 10
-37.09055259757803
 20
-9.3203804172682
 30
0.0
 10
-38.10313504852974
 20
-9.631800271908597
 30
0.0
 10
-39.83186440224351
 20
-10.12027345670778
 30
0.0
 10
-41.97315144550479
 20
-10.66729862328233
 30
0.0
 10
-44.11502798308433
 20
-11.1475140901034
 30
0.0
 10
-46.25700266069907
 20
-11.55930718570348
 30
0.0
 10
-48.39921070261607
 20
-11.89968250721853
 30
0.0
 10
-50.54156674353961
 20
-12.16669768277338
 30
0.0
 10
-52.68405618469962
 20
-12.35862236468609
 30
0.0
 10
-54.82662624070465
 20
-12.47422111149057
 30
0.0
 10
-56.25535295823221
 20
-12.49999877902802
 30
0.0
 10
-56.96924944087338
 20
-12.49999999999944
 30
0.0
  0
SPLINE
  5
443D
330
1F
100
AcDbEntity
  8
AM_0
100
AcDbSpline
210
0.0
220
0.0
230
1.0
 70
     8
 71
     3
 72
    11
 73
     7
 74
     0
 42
0.0000000001
 43
0.0000000001
 40
11.27226913003534
 40
11.27226913003534
 40
11.27226913003534
 40
11.2722691300354
 40
12.28301561507924
 40
13.29510212255852
 40
14.30984805882082
 40
15.18258238371378
 40
15.18258238371378
 40
15.18258238371378
 40
15.18258238371378
 10
-56.96924944087347
 20
-12.49999999999944
 30
0.0
 10
-57.68041425503446
 20
-12.43882007502601
 30
0.0
 10
-59.10141959027718
 20
-12.29070926840369
 30
0.0
 10
-61.2255897865036
 20
-11.99193313632534
 30
0.0
 10
-63.2414647576755
 20
-11.63507780608299
 30
0.0
 10
-64.54521435954261
 20
-11.36075249302977
 30
0.0
 10
-65.146019300319
 20
-11.22524336551967
 30
0.0
  0
SPLINE
  5
443E
330
1F
100
AcDbEntity
  8
AM_0
 48
0.5
100
AcDbSpline
210
0.0
220
0.0
230
1.0
 70
     8
 71
     3
 72
    25
 73
    21
 74
     0
 42
0.0000000001
 43
0.0000000001
 40
6.846175049578289
 40
6.846175049578289
 40
6.846175049578289
 40
6.846175049578289
 40
7.604337694224321
 40
8.711974558287883
 40
9.814980593243754
 40
10.91239053451967
 40
12.0033633515982
 40
13.08720139956839
 40
14.16337181880432
 40
15.23152222380919
 40
16.29148850140128
 40
17.34331105512262
 40
18.38723020264746
 40
19.42369128463655
 40
20.45333379090873
 40
21.47697865721768
 40
22.49561244472435
 40
23.5103574802404
 40
24.52244778960836
 40
25.53320666051913
 40
25.53320666051913
 40
25.53320666051913
 40
25.53320666051913
 10
-19.10751341190629
 20
2.262583128131741
 30
0.0
 10
-19.5942319963996
 20
2.482060896963604
 30
0.0
 10
-20.7930458717635
 20
3.019988207287683
 30
0.0
 10
-22.70573660290248
 20
3.864727729046574
 30
0.0
 10
-24.84596171245676
 20
4.786151152462637
 30
0.0
 10
-26.98629445532182
 20
5.678135350990221
 30
0.0
 10
-29.12675322094476
 20
6.53519590415652
 30
0.0
 10
-31.26736185931854
 20
7.352045178411929
 30
0.0
 10
-33.4081401643492
 20
8.123645745874492
 30
0.0
 10
-35.54909804671293
 20
8.845255562564934
 30
0.0
 10
-37.69026187751838
 20
9.512383820138198
 30
0.0
 10
-39.83162875737415
 20
10.12093966305386
 30
0.0
 10
-41.97321406726928
 20
10.66712570922387
 30
0.0
 10
-44.11501024945065
 20
11.14756169836534
 30
0.0
 10
-46.25700893697996
 20
11.55930290160071
 30
0.0
 10
-48.39919821064126
 20
11.89962010725397
 30
0.0
 10
-50.54154473882954
 20
12.16695577445691
 30
0.0
 10
-52.68402491071192
 20
12.35767882157589
 30
0.0
 10
-54.82660394737916
 20
12.47769651753785
 30
0.0
 10
-56.25534203626115
 20
12.49256963066997
 30
0.0
 10
-56.96924088614846
 20
12.50000000000198
 30
0.0
  0
SPLINE
  5
443F
330
1F
100
AcDbEntity
  8
AM_0
 48
0.5
100
AcDbSpline
210
0.0
220
0.0
230
1.0
 70
     8
 71
     3
 72
    17
 73
    13
 74
     0
 42
0.0000000001
 43
0.0000000001
 40
0.0
 40
0.0
 40
0.0
 40
0.0
 40
1.010743614677189
 40
2.022833924044153
 40
3.037578959561199
 40
4.056212747067873
 40
5.079857613375832
 40
6.109500119648989
 40
7.14596120163808
 40
8.18989512056258
 40
9.241717674284874
 40
9.693948937866434
 40
9.693948937866434
 40
9.693948937866434
 40
9.693948937866434
 10
-16.60873740377017
 20
12.50000000000047
 30
0.0
 10
-17.3226254681816
 20
12.49256816243743
 30
0.0
 10
-18.75135276726325
 20
12.47769458527889
 30
0.0
 10
-20.8939210636965
 20
12.35767758563282
 30
0.0
 10
-23.03640115183664
 20
12.16695429198205
 30
0.0
 10
-25.17874799594844
 20
11.89961952226255
 30
0.0
 10
-27.32093608130166
 20
11.55929894958108
 30
0.0
 10
-29.46293924318647
 20
11.14757042190829
 30
0.0
 10
-31.6047287323204
 20
10.66708437194026
 30
0.0
 10
-33.74638765873302
 20
10.1210755555098
 30
0.0
 10
-35.47519059062565
 20
9.629204147441452
 30
0.0
 10
-36.49044503381554
 20
9.321713783195217
 30
0.0
 10
-36.7951699485869
 20
9.227593041130305
 30
0.0
  0
SPLINE
  5
4440
330
1F
100
AcDbEntity
  8
AM_0
 48
0.5
100
AcDbSpline
210
0.0
220
0.0
230
1.0
 70
     8
 71
     3
 72
    10
 73
     6
 74
     0
 42
0.0000000001
 43
0.0000000001
 40
0.0
 40
0.0
 40
0.0
 40
0.0
 40
2.69986029516136
 40
4.147722969032201
 40
6.285750005020438
 40
6.285750005020438
 40
6.285750005020438
 40
6.285750005020438
 10
-19.10717086211749
 20
2.262434662450452
 30
0.0
 10
-17.58226046352208
 20
1.101098283557317
 30
0.0
 10
-15.23958151183503
 20
-0.683031651662118
 30
0.0
 10
-9.69946048882263
 20
0.1806969052970435
 30
0.0
 10
-10.74282642181092
 20
3.495798567354728
 30
0.0
 10
-10.88679216506645
 20
5.205571196879811
 30
0.0
  0
ELLIPSE
  5
4441
330
1F
100
AcDbEntity
  8
AM_0
 48
0.5
100
AcDbEllipse
 10
-25.30854937518182
 20
45.72047074398077
 30
0.0
 11
-36.95188842621681
 21
36.95188842621682
 31
0.0
210
0.0
220
0.0
230
1.0
 40
0.9999999999999912
 41
2.755964978443536
 42
2.861758854623459
  0
ELLIPSE
  5
4442
330
1F
100
AcDbEntity
  8
AM_0
 48
0.5
100
AcDbEllipse
 10
-89.30195967779111
 20
205.206073184205
 30
0.0
 11
-134.9848100704819
 21
182.0511583536798
 31
0.0
210
0.0
220
0.0
230
1.0
 40
0.8868454644545558
 41
2.820613923527278
 42
2.847924151504171
  0
ELLIPSE
  5
4443
330
1F
100
AcDbEntity
  8
AM_0
 48
0.5
100
AcDbEllipse
 10
-5.901890415088423
 20
-3.053978008912895
 30
0.0
 11
-0.3686747530669195
 21
2.050830930919728
 31
0.0
210
0.0
220
0.0
230
0.9999999999999998
 40
0.5071669508808173
 41
1.800658447399878
 42
4.936000337111854
  0
ELLIPSE
  5
4444
330
1F
100
AcDbEntity
  8
AM_0
 48
0.5
100
AcDbEllipse
 10
-5.902073088556858
 20
-3.058411434939627
 30
0.0
 11
-1.839926545788255
 21
1.03295491432411
 31
0.0
210
0.0
220
0.0
230
0.9999999999999998
 40
0.4957125835687846
 41
4.474232573723973
 42
7.617672915053487
  0
ELLIPSE
  5
4445
330
1F
100
AcDbEntity
  8
AM_0
 48
0.5
100
AcDbEllipse
 10
2.994293736787236
 20
15.00702033546412
 30
0.0
 11
-25.62172546829541
 21
0.0000000000036028
 31
0.0
210
0.0
220
0.0
230
0.9999999999999998
 40
0.9832694318577907
 41
0.5303675532341967
 42
0.9384884834290904
  0
ELLIPSE
  5
4446
330
1F
100
AcDbEntity
  8
AM_0
 48
0.5
100
AcDbEllipse
 10
8.087265626875401
 20
-3.338309067492879
 30
0.0
 11
-21.14175219063433
 21
3.624593662600976
 31
0.0
210
0.0
220
0.0
230
1.0
 40
0.6176336436213841
 41
0.4171772256405986
 42
1.013166070722754
  0
SPLINE
  5
4447
330
1F
100
AcDbEntity
  8
AM_0
100
AcDbSpline
210
0.0
220
0.0
230
1.0
 70
     8
 71
     3
 72
    46
 73
    42
 74
     0
 42
0.0000000001
 43
0.0000000001
 40
0.0
 40
0.0
 40
0.0
 40
0.0
 40
1.685415058684571
 40
2.531036209541119
 40
3.379897699130121
 40
4.232934581347655
 40
5.090970612202441
 40
5.954688180526682
 40
6.824620803463246
 40
7.701151815239689
 40
8.584457046566678
 40
9.474582384070741
 40
10.37139106676737
 40
11.27458944007583
 40
12.18373345430765
 40
13.09824173870457
 40
14.01741343450111
 40
14.9404441545541
 40
15.86644439743314
 40
16.79446029130534
 40
17.7234937712985
 40
18.65252725129241
 40
19.58054314516461
 40
20.50654338804289
 40
21.42957410809586
 40
22.34874580389317
 40
23.26325408828901
 40
24.17239810252111
 40
25.07560240389441
 40
25.97241108659103
 40
26.8625364240951
 40
27.74584165542183
 40
28.62236045019041
 40
29.49229307312697
 40
30.35601064145121
 40
31.21404606334468
 40
32.06708345193547
 40
32.91595755657689
 40
33.76157841950693
 40
34.60498701064689
 40
35.44727335621125
 40
35.44727335621125
 40
35.44727335621125
 40
35.44727335621125
 10
-10.6109969800358
 20
-12.49999870750406
 30
0.0
 10
-12.03979348022995
 20
-12.47152274124257
 30
0.0
 10
-14.18545822875753
 20
-12.42875956469558
 30
0.0
 10
-17.03864221353142
 20
-12.16547454270962
 30
0.0
 10
-19.18101127563404
 20
-11.90001320362727
 30
0.0
 10
-21.32319721618188
 20
-11.55920593707042
 30
0.0
 10
-23.46519439192366
 20
-11.14758458070591
 30
0.0
 10
-25.60699179899982
 20
-10.66711703528591
 30
0.0
 10
-27.74858585022152
 20
-10.12093324186981
 30
0.0
 10
-29.88996701473879
 20
-9.512386849801742
 30
0.0
 10
-32.03113957265899
 20
-8.845252289480784
 30
0.0
 10
-34.17209776487904
 20
-8.12364334685632
 30
0.0
 10
-36.31287598703766
 20
-7.352042544916115
 30
0.0
 10
-38.45348464374508
 20
-6.53519332523098
 30
0.0
 10
-40.5939434198942
 20
-5.678132790956235
 30
0.0
 10
-42.73427610161354
 20
-4.786148460619821
 30
0.0
 10
-44.874501446887
 20
-3.864725549192316
 30
0.0
 10
-47.01464028550724
 20
-2.919531292616334
 30
0.0
 10
-49.15471530904684
 20
-1.956382807695592
 30
0.0
 10
-51.29474606723084
 20
-0.9812027805783205
 30
0.0
 10
-53.43475883593855
 20
0.0000012922990138
 30
0.0
 10
-55.57477160417608
 20
0.9812053663687095
 30
0.0
 10
-57.71480236377025
 20
1.95638538991064
 30
0.0
 10
-59.8548773821555
 20
2.919533887897658
 30
0.0
 10
-61.99501623988839
 20
3.864728096015583
 30
0.0
 10
-64.13524151429392
 20
4.786151187120658
 30
0.0
 10
-66.2755744584615
 20
5.678134852047845
 30
0.0
 10
-68.41603691708432
 20
6.535199710890551
 30
0.0
 10
-70.55665389116426
 20
7.352041509086448
 30
0.0
 10
-72.69743593214316
 20
8.123646267531324
 30
0.0
 10
-74.83839407451561
 20
8.845255424872844
 30
0.0
 10
-76.97955783674219
 20
9.51238385479731
 30
0.0
 10
-79.1209247336771
 20
10.12093966056256
 30
0.0
 10
-81.26251004305553
 20
10.66712568519922
 30
0.0
 10
-83.40430621057183
 20
11.14756179591
 30
0.0
 10
-85.54630495669485
 20
11.55930253868825
 30
0.0
 10
-87.68850456883866
 20
11.89962312809839
 30
0.0
 10
-89.83086259185663
 20
12.16695326555467
 30
0.0
 10
-91.97335316152285
 20
12.35767924206193
 30
0.0
 10
-94.11592150200313
 20
12.47769578703507
 30
0.0
 10
-95.54464879522367
 20
12.49256942470207
 30
0.0
 10
-96.25853685670623
 20
12.50000129249916
 30
0.0
  0
SPLINE
  5
4448
330
1F
100
AcDbEntity
  8
AM_0
100
AcDbSpline
210
0.0
220
0.0
230
1.0
 70
     8
 71
     3
 72
    13
 73
     9
 74
     0
 42
0.0000000001
 43
0.0000000001
 40
16.03460056234195
 40
16.03460056234195
 40
16.03460056234195
 40
16.03460056234195
 40
16.35212717791071
 40
17.38177067057215
 40
18.41822498539278
 40
19.46214186516937
 40
20.5139635832251
 40
21.34083983469381
 40
21.34083983469381
 40
21.34083983469381
 40
21.34083983469381
 10
-125.7113291010212
 20
-12.49999999999884
 30
0.0
 10
-125.258966343187
 20
-12.45957604679233
 30
0.0
 10
-124.3259886449258
 20
-12.27582155181488
 30
0.0
 10
-122.682540637747
 20
-11.91576858114674
 30
0.0
 10
-120.5542697381679
 20
-11.38038148655579
 30
0.0
 10
-118.4279760168264
 20
-10.7792289504442
 30
0.0
 10
-116.460454839272
 20
-10.16479710350346
 30
0.0
 10
-115.2052109758524
 20
-9.741717050039699
 30
0.0
 10
-114.6545430161745
 20
-9.550481010767928
 30
0.0
  0
ELLIPSE
  5
4449
330
1F
100
AcDbEntity
  8
AM_0
 48
0.5
100
AcDbEllipse
 10
-125.8647453064534
 20
-8.333969116207308
 30
0.0
 11
-2.436171034163588
 21
3.417156789238313
 31
0.0
210
0.0
220
0.0
230
1.0
 40
0.9786024672390528
 41
0.9728837124541085
 42
2.54907590451546
  0
ELLIPSE
  5
444A
330
1F
100
AcDbEntity
  8
AM_0
 48
0.5
100
AcDbEllipse
 10
-126.9249121054448
 20
-8.46091906229271
 30
0.0
 11
-0.4163396698087166
 21
3.136127551828749
 31
0.0
210
0.0
220
0.0
230
0.9999999999999998
 40
0.9716653864790639
 41
-0.4356361420394435
 42
1.417179834520841
  0
SPLINE
  5
444B
330
1F
100
AcDbEntity
  8
AM_0
100
AcDbSpline
210
0.0
220
0.0
230
1.0
 70
     8
 71
     3
 72
    55
 73
    51
 74
     0
 42
0.0000000001
 43
0.0000000001
 40
0.0
 40
0.0
 40
0.0
 40
0.0
 40
1.010743684496582
 40
2.022833576467832
 40
3.037578957496688
 40
4.056212745003489
 40
5.079857003664532
 40
6.109500240690281
 40
7.145961322679372
 40
8.189895241603872
 40
9.241717795325891
 40
10.30168407291828
 40
11.36983447792315
 40
12.44600489715814
 40
13.52984294512926
 40
14.62081576220742
 40
15.7182257034828
 40
16.82123173843959
 40
17.92886860250316
 40
19.0400688939571
 40
20.15368796660465
 40
21.26852814259644
 40
22.38336992938901
 40
23.49698739941135
 40
24.6081876908653
 40
25.71582455492886
 40
26.81883757994213
 40
27.91624752121713
 40
29.00722033829659
 40
30.09105838626677
 40
31.16722880550176
 40
32.23537921050758
 40
33.29534548809967
 40
34.347168041821
 40
35.39108718934584
 40
36.42754827133493
 40
37.45720575381954
 40
38.48085062012849
 40
39.49948440763516
 40
40.51422944315121
 40
41.52631975251916
 40
42.53706336719636
 40
43.54780698187354
 40
44.55989729124051
 40
45.57464232675757
 40
46.59327611426424
 40
47.6169209805722
 40
48.64656348684535
 40
49.68302456883444
 40
50.58557219878025
 40
50.58557219878025
 40
50.58557219878025
 40
50.58557219878025
 10
-16.60873740092809
 20
-12.49999870750383
 30
0.0
 10
-17.32262533542045
 20
-12.49256151033482
 30
0.0
 10
-18.75135203030519
 20
-12.47767721040893
 30
0.0
 10
-20.8939221317553
 20
-12.35769304328244
 30
0.0
 10
-23.03640077496624
 20
-12.16694956091267
 30
0.0
 10
-25.1787468197834
 20
-11.89961531585062
 30
0.0
 10
-27.32093888896566
 20
-11.5593131996658
 30
0.0
 10
-29.4629347218531
 20
-11.14755648163809
 30
0.0
 10
-31.60474148332681
 20
-10.66711890178263
 30
0.0
 10
-33.74634017988936
 20
-10.12094242996672
 30
0.0
 10
-35.88771622335048
 20
-9.51238055659409
 30
0.0
 10
-38.02888028728599
 20
-8.845253161636046
 30
0.0
 10
-40.16983810616022
 20
-8.123643110484968
 30
0.0
 10
-42.31061642952617
 20
-7.352042609010744
 30
0.0
 10
-44.45122505866456
 20
-6.535193307615211
 30
0.0
 10
-46.591683842878
 20
-5.678132796728045
 30
0.0
 10
-48.73201652014405
 20
-4.786148455265558
 30
0.0
 10
-50.87224187516514
 20
-3.864725564898956
 30
0.0
 10
-53.0123806790721
 20
-2.919531234846331
 30
0.0
 10
-55.15245583225963
 20
-1.95638302391447
 30
0.0
 10
-57.2924861052239
 20
-0.9812019714849483
 30
0.0
 10
-59.43250171850731
 20
-0.0000012579562976
 30
0.0
 10
-61.57250772491123
 20
0.9812171177966879
 30
0.0
 10
-63.7125451707905
 20
1.956382984077809
 30
0.0
 10
-65.85261768202652
 20
2.919534110404473
 30
0.0
 10
-67.99276030177733
 20
3.864732041226202
 30
0.0
 10
-70.13299453547983
 20
4.786147068008062
 30
0.0
 10
-72.27333059075633
 20
5.678135933072248
 30
0.0
 10
-74.41378968398078
 20
6.535195748971712
 30
0.0
 10
-76.55439823522924
 20
7.352045222147584
 30
0.0
 10
-78.69517656407694
 20
8.12364572475051
 30
0.0
 10
-80.836134437483
 20
8.845255603353736
 30
0.0
 10
-82.97729828042697
 20
9.512383679510229
 30
0.0
 10
-85.11866512104054
 20
10.12094017928931
 30
0.0
 10
-87.2602505742887
 20
10.66712380465431
 30
0.0
 10
-89.40205654126323
 20
11.14757104550509
 30
0.0
 10
-91.54406766871883
 20
11.55928073519982
 30
0.0
 10
-93.68626681509828
 20
11.89968818208345
 30
0.0
 10
-95.82861349500268
 20
12.16670553690353
 30
0.0
 10
-97.9710936268729
 20
12.35860733495709
 30
0.0
 10
-100.1136619116789
 20
12.47424235383247
 30
0.0
 10
-102.2562772781235
 20
12.51287218738574
 30
0.0
 10
-104.3988926414156
 20
12.47424235377206
 30
0.0
 10
-106.5414609356976
 20
12.35860733520036
 30
0.0
 10
-108.6839410326798
 20
12.16670553598824
 30
0.0
 10
-110.8262878433881
 20
11.89968818552502
 30
0.0
 10
-112.9684760543972
 20
11.55928238180258
 30
0.0
 10
-115.1104787431443
 20
11.147575255015
 30
0.0
 10
-117.1549014408884
 20
10.68893306765986
 30
0.0
 10
-118.4813461697324
 20
10.35352370019355
 30
0.0
 10
-119.0967392131257
 20
10.1900623531729
 30
0.0
  0
SPLINE
  5
444C
330
1F
100
AcDbEntity
  8
AM_0
100
AcDbSpline
210
0.0
220
0.0
230
1.0
 70
     8
 71
     3
 72
    23
 73
    19
 74
     0
 42
0.0000000001
 43
0.0000000001
 40
16.03460024169435
 40
16.03460024169435
 40
16.03460024169435
 40
16.03460024169435
 40
16.35212704903564
 40
17.38177054169784
 40
18.41822485651776
 40
19.46214173629503
 40
20.51396345435107
 40
21.57393551351153
 40
22.64208202342361
 40
23.7182574881101
 40
24.80209208578934
 40
25.89306333925047
 40
26.99048218457928
 40
28.09348763352352
 40
29.20111863782268
 40
30.31232390128032
 40
31.42594612798585
 40
32.5407912310448
 40
32.5407912310486
 40
32.5407912310486
 40
32.5407912310486
 10
-128.0127523141173
 20
12.50000000000114
 30
0.0
 10
-127.7926295673442
 20
12.45780220124633
 30
0.0
 10
-126.8596526411022
 20
12.27404266449962
 30
0.0
 10
-125.2162037380541
 20
11.91399389748525
 30
0.0
 10
-123.0879331063082
 20
11.37860531838987
 30
0.0
 10
-120.961639312432
 20
10.77745318430706
 30
0.0
 10
-118.8371967120298
 20
10.11401665716932
 30
0.0
 10
-116.7145299048687
 20
9.391994410467859
 30
0.0
 10
-114.5935162058945
 20
8.61551382785106
 30
0.0
 10
-112.4740079157747
 20
7.789093831540672
 30
0.0
 10
-110.3558845964361
 20
6.917414389792447
 30
0.0
 10
-108.2389764302516
 20
6.005547602172045
 30
0.0
 10
-106.1231118654868
 20
5.058793632419664
 30
0.0
 10
-104.0081499281206
 20
4.082595918956678
 30
0.0
 10
-101.8939136618566
 20
3.082630917802043
 30
0.0
 10
-99.78020724363982
 20
2.064737690931078
 30
0.0
 10
-97.66685855810068
 20
1.034814653957738
 30
0.0
 10
-96.25833786422111
 20
0.3443075732767234
 30
0.0
 10
-95.55369340499943
 20
-0.0011400689768447
 30
0.0
  0
LINE
  5
444D
330
1F
100
AcDbEntity
  8
AM_11
 48
0.5
100
AcDbLine
 10
-128.0127523141174
 20
12.50000000000114
 30
0.0
 11
-102.2562263503112
 21
12.50000000000093
 31
0.0
  0
SPLINE
  5
444E
330
1F
100
AcDbEntity
  8
AM_0
 48
0.5
100
AcDbSpline
210
0.0
220
0.0
230
1.0
 70
     8
 71
     3
 72
    26
 73
    22
 74
     0
 42
0.0000000001
 43
0.0000000001
 40
0.0
 40
0.0
 40
0.0
 40
0.0
 40
0.8422864037471089
 40
1.685694647057321
 40
2.531315797913884
 40
3.380177287502886
 40
4.233214169721234
 40
5.09125020057522
 40
5.954967768899448
 40
6.824900391836836
 40
7.701419186604396
 40
8.584724417931369
 40
9.47485577056355
 40
10.37165251267315
 40
11.27486274211709
 40
12.18400675634887
 40
13.09851504074504
 40
14.01768673654235
 40
14.94071745659532
 40
15.8667176994736
 40
16.76607142455336
 40
16.76607142455336
 40
16.76607142455336
 40
16.76607142455336
 10
-89.48558037653212
 20
-12.50063578287528
 30
0.0
 10
-90.19946831111035
 20
-12.49319858603036
 30
0.0
 10
-91.62819500616757
 20
-12.47831428675302
 30
0.0
 10
-93.77076510632626
 20
-12.35833011475302
 30
0.0
 10
-95.91324375446522
 20
-12.16758665097925
 30
0.0
 10
-98.05558978075843
 20
-11.900252336016
 30
0.0
 10
-100.1977819195983
 20
-11.55995048268791
 30
0.0
 10
-102.3397774902076
 20
-11.14819277494096
 30
0.0
 10
-104.4815750676119
 20
-10.66776120761169
 30
0.0
 10
-106.623160044799
 20
-10.12157368007538
 30
0.0
 10
-108.7645273588546
 20
-9.5130191946826
 30
0.0
 10
-110.9056946333117
 20
-8.845885445168121
 30
0.0
 10
-113.0466529958724
 20
-8.124291767395208
 30
0.0
 10
-115.1874267041978
 20
-7.352664595919616
 30
0.0
 10
-117.3280443819076
 20
-6.535838857689769
 30
0.0
 10
-119.4685106540728
 20
-5.678769628132538
 30
0.0
 10
-121.6088414767446
 20
-4.786781682184654
 30
0.0
 10
-123.7490761545799
 20
-3.865378392891125
 30
0.0
 10
-125.8891793178253
 20
-2.920108830017889
 30
0.0
 10
-128.0072989719521
 20
-1.967180971380733
 30
0.0
 10
-129.4106329347611
 20
-1.326997351552373
 30
0.0
 10
-130.0000000000008
 20
-0.9846859848081486
 30
0.0
  0
SPLINE
  5
444F
330
1F
100
AcDbEntity
  8
AM_0
 48
0.5
100
AcDbSpline
210
0.0
220
0.0
230
1.0
 70
     8
 71
     3
 72
    22
 73
    18
 74
     0
 42
0.0000000001
 43
0.0000000001
 40
0.0
 40
0.0
 40
0.0
 40
0.0
 40
1.010743684496582
 40
2.022833993863546
 40
3.037578683882831
 40
4.056212471389632
 40
5.079857945358201
 40
6.109499720892564
 40
7.145961650132166
 40
8.189873411961459
 40
9.241710626092514
 40
10.30166235592959
 40
11.36982472628033
 40
12.44598212828784
 40
13.52983440361964
 40
14.62080578343036
 40
14.90544694398022
 40
14.90544694398022
 40
14.90544694398022
 40
14.90544694398022
 10
-95.48296320076886
 20
-12.49999999999909
 30
0.0
 10
-96.19720886832851
 20
-12.49320080758379
 30
0.0
 10
-97.62593613102502
 20
-12.47832095130237
 30
0.0
 10
-99.76850398746407
 20
-12.35830336120507
 30
0.0
 10
-101.9109849490634
 20
-12.16759199117968
 30
0.0
 10
-104.053332133041
 20
-11.9002574996741
 30
0.0
 10
-106.1955183676047
 20
-11.55992363478241
 30
0.0
 10
-108.3375213048268
 20
-11.14820152842347
 30
0.0
 10
-110.4793095567617
 20
-10.66775250270493
 30
0.0
 10
-112.6208978510929
 20
-10.12155706749295
 30
0.0
 10
-114.7622668996657
 20
-9.513025575773536
 30
0.0
 10
-116.9034278930645
 20
-8.845861618752358
 30
0.0
 10
-119.0443946339106
 20
-8.124310665719036
 30
0.0
 10
-121.1851655140865
 20
-7.35266230654378
 30
0.0
 10
-123.3257806384126
 20
-6.535832290640914
 30
0.0
 10
-124.9346025000059
 20
-5.891673445362513
 30
0.0
 10
-125.8310941833301
 20
-5.523492955330453
 30
0.0
 10
-126.0164588528236
 20
-5.446988326692351
 30
0.0
  0
LINE
  5
4450
330
1F
100
AcDbEntity
  8
AM_0
 48
0.5
100
AcDbLine
 10
-106.4750289950353
 20
5.213349598743557
 30
0.0
 11
-130.0000000000008
 21
-0.9846859848081486
 31
0.0
  0
LINE
  5
4451
330
1F
100
AcDbEntity
  8
AM_11
 48
0.5
100
AcDbLine
 10
-125.7113471959585
 20
-12.49999985921628
 30
0.0
 11
-95.48296320076849
 21
-12.49999999999909
 31
0.0
  0
LINE
  5
466B
330
1F
100
AcDbEntity
  8
AM_0
100
AcDbLine
 10
-203.750000000001
 20
-12.49999999999954
 30
0.0
 11
-125.8490075631779
 21
-12.49999999999953
 31
0.0
  0
DIMENSION
  5
466D
330
1F
100
AcDbEntity
  8
AM_5
100
AcDbDimension
  2
*D7
 10
-221.5000010000008
 20
-12.49999999999954
 30
0.0
 11
-224.9000010000008
 21
0.0000000000004225
 31
0.0
 70
    32
  1
%%c<>
 51
359.9999999999998
  3
AM_JIS$0
100
AcDbAlignedDimension
 13
-203.7500000000007
 23
12.50000000000045
 33
0.0
 14
-203.750000000001
 24
-12.49999999999954
 34
0.0
 50
270.0
100
AcDbRotatedDimension
1001
ACAD
1000
DSTYLE
1002
{
1070
   271
1070
     0
1002
}
1001
GENIUS_GENDTOL_13
1000

1000
h7
1000

1040
0.0
  0
LINE
  5
467A
330
1F
100
AcDbEntity
  8
AM_0
 48
0.5
100
AcDbLine
 10
-205.000000000001
 20
-11.24999999999951
 30
0.0
 11
-205.0000000000006
 21
11.25000000000049
 31
0.0
  0
LINE
  5
467B
330
1F
100
AcDbEntity
  8
AM_0
 48
0.5
100
AcDbLine
 10
-203.750000000001
 20
-12.49999999999955
 30
0.0
 11
-203.7500000000006
 21
12.50000000000046
 31
0.0
  0
LINE
  5
467D
330
1F
100
AcDbEntity
  8
AM_0
100
AcDbLine
 10
-128.0127523141174
 20
12.50000000000114
 30
0.0
 11
-203.7500000000007
 21
12.50000000000045
 31
0.0
  0
DIMENSION
  5
4819
330
1F
100
AcDbEntity
  8
AM_5
100
AcDbDimension
  2
*D8
 10
17.05788916828689
 20
-12.49999997516731
 30
0.0
 11
13.65788916828689
 21
0.0000000124163553
 31
0.0
 70
    32
  1
%%c<>
 51
359.9999999999998
  3
AM_JIS$0
100
AcDbAlignedDimension
 13
-5.000000000000906
 23
12.50000000000002
 33
0.0
 14
-5.000000041667076
 24
-12.4999999751673
 34
0.0
 50
89.99999999999774
100
AcDbRotatedDimension
1001
GENIUS_GENDTOL_13
1000

1000
h7
1000

1040
0.0
1001
ACAD
1000
DSTYLE
1002
{
1070
   271
1070
     0
1002
}
  0
ELLIPSE
  5
5652
330
1F
100
AcDbEntity
  8
AM_0
 48
0.5
100
AcDbEllipse
 10
11.71148386499836
 20
-12.4297214932617
 30
0.0
 11
-9.133611645707677
 21
-18.17618019105948
 31
0.0
210
0.0
220
0.0
230
-1.0
 40
0.7661203636765102
 41
1.345828882220657
 42
1.646194032212534
  0
LINE
  5
5653
330
1F
100
AcDbEntity
  8
AM_0
 48
0.5
100
AcDbLine
 10
-3.90024042875757
 20
-9.663246287624012
 30
0.0
 11
-5.000000041667076
 21
-12.4999999751673
 31
0.0
  0
LINE
  5
5810
330
1F
100
AcDbEntity
  8
AM_0
 48
0.5
100
AcDbLine
 10
-203.7500000000007
 20
12.50000000000045
 30
0.0
 11
-205.0000000000007
 21
11.25000000000045
 31
0.0
1001
GENIUS_GENFIL_13
1070
     0
1040
1.25
1040
1.25
1040
20.0
1040
0.0
1002
{
1002
}
1001
GENIUS_GENODEF_13
1002
{
1000
HIER
1070
     0
1002
}
1002
{
1000
MANEDIT
1070
     0
1002
}
1002
{
1000
NOSEL
1070
     0
1002
}
1002
{
1000
BEHIND
1070
     0
1002
}
1002
{
1000
REACTOR
1002
}
1001
GENIUS_GENOBJ-N-CHA_13
1002
{
1000
OWNER
1000
GEN
1002
}
  0
LINE
  5
5817
330
1F
100
AcDbEntity
  8
AM_0
100
AcDbLine
 10
-205.000000000001
 20
-11.24999999999954
 30
0.0
 11
-203.750000000001
 21
-12.49999999999954
 31
0.0
1001
GENIUS_GENFIL_13
1070
     0
1040
1.25
1040
1.25
1040
20.0
1040
0.0
1002
{
1002
}
1001
GENIUS_GENODEF_13
1002
{
1000
HIER
1070
     0
1002
}
1002
{
1000
MANEDIT
1070
     0
1002
}
1002
{
1000
NOSEL
1070
     0
1002
}
1002
{
1000
BEHIND
1070
     0
1002
}
1002
{
1000
REACTOR
1002
}
1001
GENIUS_GENOBJ-N-CHA_13
1002
{
1000
OWNER
1000
GEN
1002
}
  0
DIMENSION
  5
587E
330
1F
100
AcDbEntity
  8
AM_5
100
AcDbDimension
  2
*D9
 10
-1.425466239848057
 20
-3.916409345660866
 30
0.0
 11
25.78684427261946
 21
-0.0000285607344588
 31
0.0
 70
    34
  1
<>
 51
359.9999999999998
  3
AM_JIS$2
100
AcDb2LineAngularDimension
 13
-0.000000000000322
 23
0.0000000000000897
 33
0.0
 14
-1.425437746792967
 24
3.916358054693759
 34
0.0
 15
-0.000000000000322
 25
0.0000000000001166
 35
0.0
 16
26.52435722971289
 26
-11.4415141297845
 36
0.0
1001
GENIUS_GENDTOL_13
1000

1000
h7
1000

1040
0.0
1001
ACAD
1000
DSTYLE
1002
{
1070
   271
1070
     1
1070
   179
1070
     1
1002
}
  0
ELLIPSE
  5
5BFD
330
1F
100
AcDbEntity
  8
AM_11
 48
0.5
100
AcDbEllipse
 10
-212.848598213591
 20
45.6754616867817
 30
0.0
 11
-52.72102753321266
 21
0.0000000000003076
 31
0.0
210
0.0
220
0.0
230
1.0
 40
0.9578947368421049
 41
1.720222128742265
 42
2.011520147323574
  0
VIEWPORT
  5
110
330
101
100
AcDbEntity
 67
     1
  8
0
100
AcDbViewport
 10
420.5
 20
297.0
 30
0.0
 40
948.9782706766916
 41
628.452
 68
     1
 69
     1
1001
ACAD
1000
MVIEW
1002
{
1070
    16
1010
0.0
1020
0.0
1030
0.0
1010
0.0
1020
0.0
1030
1.0
1040
0.0
1040
628.452
1040
420.5
1040
297.0
1040
50.0
1040
0.0
1040
0.0
1070
     0
1070
   100
1070
     1
1070
     1
1070
     0
1070
     0
1070
     0
1070
     0
1040
0.0
1040
0.0
1040
0.0
1040
10.0
1040
10.0
1040
10.0
1040
10.0
1070
     0
1002
{
1002
}
1002
}
  0
ENDSEC
  0
SECTION
  2
OBJECTS
  0
DICTIONARY
  5
C
330
0
100
AcDbDictionary
  3
ACAD_GROUP
350
D
  3
ACAD_LAYOUT
350
1A
  3
ACAD_MLINESTYLE
350
17
  3
ACAD_PLOTSETTINGS
350
19
  3
ACAD_PLOTSTYLENAME
350
E
  3
ACDBVARIABLEDICTIONARY
350
34
  3
ACMDICTIONARY
350
43
  3
AMG
350
2B
  3
AMGSNAPSETTINGS
350
6E
  3
DWGPROPS
350
5CDA
  3
ACDBHEADERROUNDTRIPXREC
350
5CE7
  0
DICTIONARY
  5
74
330
1F
100
AcDbDictionary
280
     1
  3
ACAD_INDEX
360
5CDC
  3
ACAD_LAYOUTSELFREF
360
5D0A
  0
DICTIONARY
  5
5D0F
330
101
100
AcDbDictionary
280
     1
  3
ACAD_LAYOUTSELFREF
360
5D10
  0
DICTIONARY
  5
D
102
{ACAD_REACTORS
330
C
102
}
330
C
100
AcDbDictionary
  0
DICTIONARY
  5
1A
102
{ACAD_REACTORS
330
C
102
}
330
C
100
AcDbDictionary
  0
DICTIONARY
  5
17
102
{ACAD_REACTORS
330
C
102
}
330
C
100
AcDbDictionary
  3
STANDARD
350
18
  0
DICTIONARY
  5
19
102
{ACAD_REACTORS
330
C
102
}
330
C
100
AcDbDictionary
  0
ACDBDICTIONARYWDFLT
  5
E
102
{ACAD_REACTORS
330
C
102
}
330
C
100
AcDbDictionary
281
     1
  3
Normal
350
F
100
AcDbDictionaryWithDefault
340
F
  0
DICTIONARY
  5
34
102
{ACAD_REACTORS
330
C
102
}
330
C
100
AcDbDictionary
  3
INDEXCTL
350
35
  3
SORTENTS
350
B5E
  0
DICTIONARY
  5
43
102
{ACAD_REACTORS
330
C
102
}
330
C
100
AcDbDictionary
  3
ACMSTDDICTIONARY
350
260
  0
DICTIONARY
  5
2B
102
{ACAD_REACTORS
330
C
102
}
330
C
100
AcDbDictionary
  3
ACMGSETTINGS
350
2C
  0
DICTIONARY
  5
6E
102
{ACAD_REACTORS
330
C
102
}
330
C
100
AcDbDictionary
  0
XRECORD
  5
5CDA
102
{ACAD_REACTORS
330
C
102
}
330
C
100
AcDbXrecord
  1
DWGPROPS COOKIE
  2

  3

  4

  6

  7

  8

  9

300
AmdtFileType=82
301
=
302
=
303
=
304
=
305
=
306
=
307
=
308
=
309
=
 40
0.1308683680555555
 41
2452800.443498622
 42
2452948.708550706
  1

 90
        1
  0
DICTIONARY
  5
5CE7
102
{ACAD_REACTORS
330
C
102
}
330
C
100
AcDbDictionary
  3
TSTACKALIGN
350
5CE8
  3
TSTACKSIZE
350
5CE9
  3
HYPERLINKBASE
350
5CEA
  3
STYLESHEET
350
5CEB
  3
LAYOUTDICT
350
5CEC
  3
PLOTSETDICT
350
5CED
  3
PLOTSTYLNAMDICT
350
5CEE
  3
LWETCUNION
350
5CEF
  3
INSUNITS
350
5CF0
  3
CEPSNTYPE
350
5CF1
  3
FINGERPRINTGUID
350
5CF2
  3
VERSIONGUID
350
5CF3
  3
PSVPSCALE
350
5CF4
  3
DIMSTYLEDATA
350
5CF5
  3
PUCSORTHOREF
350
5CF6
  3
PUCSORTHOVIEW
350
5CF7
  3
PUCSBASE
350
5CF8
  3
PUCSORGTOP
350
5CF9
  3
PUCSORGBOTTOM
350
5CFA
  3
PUCSORGLEFT
350
5CFB
  3
PUCSORGRIGHT
350
5CFC
  3
PUCSORGFRONT
350
5CFD
  3
PUCSORGBACK
350
5CFE
  3
UCSORTHOREF
350
5CFF
  3
UCSORTHOVIEW
350
5D00
  3
UCSBASE
350
5D01
  3
UCSORGTOP
350
5D02
  3
UCSORGBOTTOM
350
5D03
  3
UCSORGLEFT
350
5D04
  3
UCSORGRIGHT
350
5D05
  3
UCSORGFRONT
350
5D06
  3
UCSORGBACK
350
5D07
  0
DICTIONARY
  5
5CDC
102
{ACAD_REACTORS
330
74
102
}
330
74
100
AcDbDictionary
  3
*A1
350
5CDD
  0
XRECORD
  5
5D0A
102
{ACAD_REACTORS
330
74
102
}
330
74
100
AcDbXrecord
340
1F
  0
XRECORD
  5
5D10
102
{ACAD_REACTORS
330
5D0F
102
}
330
5D0F
100
AcDbXrecord
340
101
  0
MLINESTYLE
  5
18
102
{ACAD_REACTORS
330
17
102
}
330
17
100
AcDbMlineStyle
  2
STANDARD
 70
     0
  3

 62
   256
 51
90.0
 52
90.0
 71
     2
 49
0.5
 62
   256
  6
BYLAYER
 49
-0.5
 62
   256
  6
BYLAYER
  0
ACDBPLACEHOLDER
  5
F
102
{ACAD_REACTORS
330
E
102
}
330
E
100
AcDbPlaceHolder
280
     0
  0
DICTIONARYVAR
  5
35
102
{ACAD_REACTORS
330
34
102
}
330
34
100
DictionaryVariables
280
     0
  1
1
  0
DICTIONARYVAR
  5
B5E
102
{ACAD_REACTORS
330
34
102
}
330
34
100
DictionaryVariables
280
     0
  1
96
  0
DICTIONARY
  5
260
102
{ACAD_REACTORS
330
43
102
}
330
43
100
AcDbDictionary
  0
DICTIONARY
  5
2C
102
{ACAD_REACTORS
330
2B
102
}
330
2B
100
AcDbDictionary
  3
DWGSETTINGS
350
2D
  0
XRECORD
  5
5CE8
102
{ACAD_REACTORS
330
5CE7
102
}
330
5CE7
100
AcDbXrecord
 90
        1
  0
XRECORD
  5
5CE9
102
{ACAD_REACTORS
330
5CE7
102
}
330
5CE7
100
AcDbXrecord
 90
       70
  0
XRECORD
  5
5CEA
102
{ACAD_REACTORS
330
5CE7
102
}
330
5CE7
100
AcDbXrecord
  1

  0
XRECORD
  5
5CEB
102
{ACAD_REACTORS
330
5CE7
102
}
330
5CE7
100
AcDbXrecord
  1
ASAMI.ctb
  0
XRECORD
  5
5CEC
102
{ACAD_REACTORS
330
5CE7
102
}
330
5CE7
100
AcDbXrecord
340
1A
  0
XRECORD
  5
5CED
102
{ACAD_REACTORS
330
5CE7
102
}
330
5CE7
100
AcDbXrecord
340
19
  0
XRECORD
  5
5CEE
102
{ACAD_REACTORS
330
5CE7
102
}
330
5CE7
100
AcDbXrecord
340
E
  0
XRECORD
  5
5CEF
102
{ACAD_REACTORS
330
5CE7
102
}
330
5CE7
100
AcDbXrecord
 90
    10781
  0
XRECORD
  5
5CF0
102
{ACAD_REACTORS
330
5CE7
102
}
330
5CE7
100
AcDbXrecord
 90
        4
  0
XRECORD
  5
5CF1
102
{ACAD_REACTORS
330
5CE7
102
}
330
5CE7
100
AcDbXrecord
 90
        0
  0
XRECORD
  5
5CF2
102
{ACAD_REACTORS
330
5CE7
102
}
330
5CE7
100
AcDbXrecord
  1
{AFB28963-8C59-40AE-9337-C84526B81ACE}
  0
XRECORD
  5
5CF3
102
{ACAD_REACTORS
330
5CE7
102
}
330
5CE7
100
AcDbXrecord
  1
{4A30FA2C-7C60-4891-93D3-B3A6BDD315AB}
  0
XRECORD
  5
5CF4
102
{ACAD_REACTORS
330
5CE7
102
}
330
5CE7
100
AcDbXrecord
 40
0.0
  0
XRECORD
  5
5CF5
102
{ACAD_REACTORS
330
5CE7
102
}
330
5CE7
100
AcDbXrecord
1000
DSTYLE
1002
{
1070
    79
 70
     2
1070
   341
340
59
1070
   342
340
59
1070
   371
 70
    -1
1070
   372
 70
    -1
1002
}
  0
XRECORD
  5
5CF6
102
{ACAD_REACTORS
330
5CE7
102
}
330
5CE7
100
AcDbXrecord
340
0
  0
XRECORD
  5
5CF7
102
{ACAD_REACTORS
330
5CE7
102
}
330
5CE7
100
AcDbXrecord
 70
     0
  0
XRECORD
  5
5CF8
102
{ACAD_REACTORS
330
5CE7
102
}
330
5CE7
100
AcDbXrecord
340
0
  0
XRECORD
  5
5CF9
102
{ACAD_REACTORS
330
5CE7
102
}
330
5CE7
100
AcDbXrecord
 10
0.0
 20
0.0
 30
0.0
  0
XRECORD
  5
5CFA
102
{ACAD_REACTORS
330
5CE7
102
}
330
5CE7
100
AcDbXrecord
 10
0.0
 20
0.0
 30
0.0
  0
XRECORD
  5
5CFB
102
{ACAD_REACTORS
330
5CE7
102
}
330
5CE7
100
AcDbXrecord
 10
0.0
 20
0.0
 30
0.0
  0
XRECORD
  5
5CFC
102
{ACAD_REACTORS
330
5CE7
102
}
330
5CE7
100
AcDbXrecord
 10
0.0
 20
0.0
 30
0.0
  0
XRECORD
  5
5CFD
102
{ACAD_REACTORS
330
5CE7
102
}
330
5CE7
100
AcDbXrecord
 10
0.0
 20
0.0
 30
0.0
  0
XRECORD
  5
5CFE
102
{ACAD_REACTORS
330
5CE7
102
}
330
5CE7
100
AcDbXrecord
 10
0.0
 20
0.0
 30
0.0
  0
XRECORD
  5
5CFF
102
{ACAD_REACTORS
330
5CE7
102
}
330
5CE7
100
AcDbXrecord
340
0
  0
XRECORD
  5
5D00
102
{ACAD_REACTORS
330
5CE7
102
}
330
5CE7
100
AcDbXrecord
 70
     0
  0
XRECORD
  5
5D01
102
{ACAD_REACTORS
330
5CE7
102
}
330
5CE7
100
AcDbXrecord
340
0
  0
XRECORD
  5
5D02
102
{ACAD_REACTORS
330
5CE7
102
}
330
5CE7
100
AcDbXrecord
 10
0.0
 20
0.0
 30
0.0
  0
XRECORD
  5
5D03
102
{ACAD_REACTORS
330
5CE7
102
}
330
5CE7
100
AcDbXrecord
 10
0.0
 20
0.0
 30
0.0
  0
XRECORD
  5
5D04
102
{ACAD_REACTORS
330
5CE7
102
}
330
5CE7
100
AcDbXrecord
 10
0.0
 20
0.0
 30
0.0
  0
XRECORD
  5
5D05
102
{ACAD_REACTORS
330
5CE7
102
}
330
5CE7
100
AcDbXrecord
 10
0.0
 20
0.0
 30
0.0
  0
XRECORD
  5
5D06
102
{ACAD_REACTORS
330
5CE7
102
}
330
5CE7
100
AcDbXrecord
 10
0.0
 20
0.0
 30
0.0
  0
XRECORD
  5
5D07
102
{ACAD_REACTORS
330
5CE7
102
}
330
5CE7
100
AcDbXrecord
 10
0.0
 20
0.0
 30
0.0
  0
LAYER_INDEX
  5
5CDD
102
{ACAD_REACTORS
330
5CDC
102
}
330
5CDC
100
AcDbIndex
 40
2453151.56878
100
AcDbLayerIndex
  8
0
360
5CDE
 90
        0
  8
AM_0
360
5CDF
 90
       38
  8
AM_7
360
5CE0
 90
        1
  8
AM_11
360
5CE1
 90
       16
  8
AM_5
360
5CE2
 90
        5
  8
Defpoints
360
5CE3
 90
        0
  8
AM_6
360
5CE4
 90
        1
  8
AM_CL
360
5CE5
 90
        0
  0
XRECORD
  5
2D
102
{ACAD_REACTORS
330
2C
102
}
330
2C
100
AcDbXrecord
  1
VERSION
140
15.0
  1
PRODUCT
  2
AutoCAD Mechanical 2000
  0
IDBUFFER
  5
5CDE
330
0
100
AcDbIdBuffer
  0
IDBUFFER
  5
5CDF
330
0
100
AcDbIdBuffer
330
4442
330
4443
330
4444
330
4445
330
4446
330
4447
330
4448
330
4449
330
444A
330
444B
330
444C
330
444E
330
444F
330
4450
330
466B
330
467A
330
467B
330
467D
330
5652
330
5653
330
5810
330
5817
330
C1D
330
C20
330
24A7
330
24BE
330
4434
330
4435
330
4436
330
4437
330
4438
330
443B
330
443C
330
443D
330
443E
330
443F
330
4440
330
4441
  0
IDBUFFER
  5
5CE0
330
0
100
AcDbIdBuffer
330
23EF
  0
IDBUFFER
  5
5CE1
330
0
100
AcDbIdBuffer
330
24B7
330
24B8
330
24B9
330
24C7
330
24C8
330
24D4
330
24D5
330
24E6
330
24E7
330
2BF3
330
2BF5
330
4439
330
443A
330
444D
330
4451
330
5BFD
  0
IDBUFFER
  5
5CE2
330
0
100
AcDbIdBuffer
330
CC6
330
2069
330
466D
330
4819
330
587E
  0
IDBUFFER
  5
5CE3
330
0
100
AcDbIdBuffer
  0
IDBUFFER
  5
5CE4
330
0
100
AcDbIdBuffer
330
19BD
  0
IDBUFFER
  5
5CE5
330
0
100
AcDbIdBuffer
  0
ENDSEC
  0
EOF
