  0
SECTION
  2
HEADER
  9
$ACADVER
  1
AC1015
  9
$ACADMAINTVER
 70
     6
  9
$DWGCODEPAGE
  3
ANSI_932
  9
$INSBASE
 10
0.0
 20
0.0
 30
0.0
  9
$EXTMIN
 10
-32.21262989011981
 20
-62.06493418848329
 30
0.0
  9
$EXTMAX
 10
211.6703009593366
 20
23.93037351676706
 30
0.0
  9
$LIMMIN
 10
-193.8848976949696
 20
-159.3148132568574
  9
$LIMMAX
 10
226.1151023050304
 20
137.6851867431427
  9
$ORTHOMODE
 70
     0
  9
$REGENMODE
 70
     1
  9
$FILLMODE
 70
     1
  9
$QTEXTMODE
 70
     0
  9
$MIRRTEXT
 70
     1
  9
$LTSCALE
 40
1.0
  9
$ATTMODE
 70
     1
  9
$TEXTSIZE
 40
3.8
  9
$TRACEWID
 40
1.0
  9
$TEXTSTYLE
  7
STANDARD
  9
$CLAYER
  8
AM_0
  9
$CELTYPE
  6
ByLayer
  9
$CECOLOR
 62
   256
  9
$CELTSCALE
 40
1.0
  9
$DISPSILH
 70
     0
  9
$DIMSCALE
 40
1.0
  9
$DIMASZ
 40
2.5
  9
$DIMEXO
 40
0.0
  9
$DIMDLI
 40
10.0
  9
$DIMRND
 40
0.0
  9
$DIMDLE
 40
0.0
  9
$DIMEXE
 40
1.0
  9
$DIMTP
 40
0.1
  9
$DIMTM
 40
0.1000000001
  9
$DIMTXT
 40
3.8
  9
$DIMCEN
 40
0.0
  9
$DIMTSZ
 40
0.0
  9
$DIMTOL
 70
     0
  9
$DIMLIM
 70
     0
  9
$DIMTIH
 70
     0
  9
$DIMTOH
 70
     0
  9
$DIMSE1
 70
     0
  9
$DIMSE2
 70
     0
  9
$DIMTAD
 70
     3
  9
$DIMZIN
 70
     1
  9
$DIMBLK
  1
Open30
  9
$DIMASO
 70
     1
  9
$DIMSHO
 70
     1
  9
$DIMPOST
  1

  9
$DIMAPOST
  1
"
  9
$DIMALT
 70
     0
  9
$DIMALTD
 70
     2
  9
$DIMALTF
 40
0.0393701
  9
$DIMLFAC
 40
1.0
  9
$DIMTOFL
 70
     1
  9
$DIMTVP
 40
0.0
  9
$DIMTIX
 70
     0
  9
$DIMSOXD
 70
     0
  9
$DIMSAH
 70
     0
  9
$DIMBLK1
  1

  9
$DIMBLK2
  1

  9
$DIMSTYLE
  2
AM_JIS
  9
$DIMCLRD
 70
     3
  9
$DIMCLRE
 70
     3
  9
$DIMCLRT
 70
     2
  9
$DIMTFAC
 40
0.71
  9
$DIMGAP
 40
1.5
  9
$DIMJUST
 70
     0
  9
$DIMSD1
 70
     0
  9
$DIMSD2
 70
     0
  9
$DIMTOLJ
 70
     0
  9
$DIMTZIN
 70
     8
  9
$DIMALTZ
 70
     0
  9
$DIMALTTZ
 70
     0
  9
$DIMUPT
 70
     0
  9
$DIMDEC
 70
     1
  9
$DIMTDEC
 70
     2
  9
$DIMALTU
 70
     2
  9
$DIMALTTD
 70
     2
  9
$DIMTXSTY
  7
STANDARD
  9
$DIMAUNIT
 70
     1
  9
$DIMADEC
 70
     0
  9
$DIMALTRND
 40
0.0
  9
$DIMAZIN
 70
     2
  9
$DIMDSEP
 70
    46
  9
$DIMATFIT
 70
     3
  9
$DIMFRAC
 70
     0
  9
$DIMLDRBLK
  1
Open30
  9
$DIMLUNIT
 70
     2
  9
$DIMLWD
 70
    13
  9
$DIMLWE
 70
    13
  9
$DIMTMOVE
 70
     0
  9
$LUNITS
 70
     2
  9
$LUPREC
 70
     2
  9
$SKETCHINC
 40
1.0
  9
$FILLETRAD
 40
2.5
  9
$AUNITS
 70
     1
  9
$AUPREC
 70
     5
  9
$MENU
  1
.
  9
$ELEVATION
 40
0.0
  9
$PELEVATION
 40
0.0
  9
$THICKNESS
 40
0.0
  9
$LIMCHECK
 70
     0
  9
$CHAMFERA
 40
2.5
  9
$CHAMFERB
 40
2.5
  9
$CHAMFERC
 40
20.0
  9
$CHAMFERD
 40
0.0
  9
$SKPOLY
 70
     0
  9
$TDCREATE
 40
2451856.608395394
  9
$TDUCREATE
 40
2451856.233395394
  9
$TDUPDATE
 40
2455429.745829167
  9
$TDUUPDATE
 40
2455429.370829167
  9
$TDINDWG
 40
0.7455462384
  9
$TDUSRTIMER
 40
0.7455416088
  9
$USRTIMER
 70
     1
  9
$ANGBASE
 50
0.0
  9
$ANGDIR
 70
     0
  9
$PDMODE
 70
     0
  9
$PDSIZE
 40
0.0
  9
$PLINEWID
 40
0.0
  9
$SPLFRAME
 70
     0
  9
$SPLINETYPE
 70
     6
  9
$SPLINESEGS
 70
     8
  9
$HANDSEED
  5
75F2
  9
$SURFTAB1
 70
     6
  9
$SURFTAB2
 70
     6
  9
$SURFTYPE
 70
     6
  9
$SURFU
 70
     6
  9
$SURFV
 70
     6
  9
$UCSBASE
  2

  9
$UCSNAME
  2

  9
$UCSORG
 10
0.0
 20
0.0
 30
0.0
  9
$UCSXDIR
 10
1.0
 20
0.0
 30
0.0
  9
$UCSYDIR
 10
0.0
 20
1.0
 30
0.0
  9
$UCSORTHOREF
  2

  9
$UCSORTHOVIEW
 70
     0
  9
$UCSORGTOP
 10
0.0
 20
0.0
 30
0.0
  9
$UCSORGBOTTOM
 10
0.0
 20
0.0
 30
0.0
  9
$UCSORGLEFT
 10
0.0
 20
0.0
 30
0.0
  9
$UCSORGRIGHT
 10
0.0
 20
0.0
 30
0.0
  9
$UCSORGFRONT
 10
0.0
 20
0.0
 30
0.0
  9
$UCSORGBACK
 10
0.0
 20
0.0
 30
0.0
  9
$PUCSBASE
  2

  9
$PUCSNAME
  2

  9
$PUCSORG
 10
0.0
 20
0.0
 30
0.0
  9
$PUCSXDIR
 10
1.0
 20
0.0
 30
0.0
  9
$PUCSYDIR
 10
0.0
 20
1.0
 30
0.0
  9
$PUCSORTHOREF
  2

  9
$PUCSORTHOVIEW
 70
     0
  9
$PUCSORGTOP
 10
0.0
 20
0.0
 30
0.0
  9
$PUCSORGBOTTOM
 10
0.0
 20
0.0
 30
0.0
  9
$PUCSORGLEFT
 10
0.0
 20
0.0
 30
0.0
  9
$PUCSORGRIGHT
 10
0.0
 20
0.0
 30
0.0
  9
$PUCSORGFRONT
 10
0.0
 20
0.0
 30
0.0
  9
$PUCSORGBACK
 10
0.0
 20
0.0
 30
0.0
  9
$USERI1
 70
     0
  9
$USERI2
 70
     0
  9
$USERI3
 70
     0
  9
$USERI4
 70
     0
  9
$USERI5
 70
     0
  9
$USERR1
 40
0.0
  9
$USERR2
 40
0.0
  9
$USERR3
 40
0.0
  9
$USERR4
 40
0.0
  9
$USERR5
 40
0.0
  9
$WORLDVIEW
 70
     1
  9
$SHADEDGE
 70
     3
  9
$SHADEDIF
 70
    70
  9
$TILEMODE
 70
     1
  9
$MAXACTVP
 70
    64
  9
$PINSBASE
 10
0.0
 20
0.0
 30
0.0
  9
$PLIMCHECK
 70
     0
  9
$PEXTMIN
 10
1.000000000000000E+20
 20
1.000000000000000E+20
 30
1.000000000000000E+20
  9
$PEXTMAX
 10
-1.000000000000000E+20
 20
-1.000000000000000E+20
 30
-1.000000000000000E+20
  9
$PLIMMIN
 10
0.0
 20
0.0
  9
$PLIMMAX
 10
420.0
 20
297.0
  9
$UNITMODE
 70
     0
  9
$VISRETAIN
 70
     1
  9
$PLINEGEN
 70
     0
  9
$PSLTSCALE
 70
     1
  9
$TREEDEPTH
 70
  3020
  9
$CMLSTYLE
  2
Standard
  9
$CMLJUST
 70
     0
  9
$CMLSCALE
 40
20.0
  9
$PROXYGRAPHICS
 70
     1
  9
$MEASUREMENT
 70
     1
  9
$CELWEIGHT
370
    -1
  9
$ENDCAPS
280
     0
  9
$JOINSTYLE
280
     0
  9
$LWDISPLAY
290
     0
  9
$INSUNITS
 70
     4
  9
$HYPERLINKBASE
  1

  9
$STYLESHEET
  1
sei_cad.ctb
  9
$XEDIT
290
     1
  9
$CEPSNTYPE
380
     0
  9
$PSTYLEMODE
290
     1
  9
$FINGERPRINTGUID
  2
{403304E0-8DA2-11D3-AB8C-000629E2A613}
  9
$VERSIONGUID
  2
{F791D0E3-7078-4EBE-B5B8-81002F9A967C}
  9
$EXTNAMES
290
     1
  9
$PSVPSCALE
 40
0.0
  9
$OLESTARTUP
290
     0
  0
ENDSEC
  0
SECTION
  2
CLASSES
  0
CLASS
  1
ACDBDICTIONARYWDFLT
  2
AcDbDictionaryWithDefault
  3
ObjectDBX Classes
 90
        0
280
     0
281
     0
  0
CLASS
  1
ACDBPLACEHOLDER
  2
AcDbPlaceHolder
  3
ObjectDBX Classes
 90
        0
280
     0
281
     0
  0
CLASS
  1
LAYOUT
  2
AcDbLayout
  3
ObjectDBX Classes
 90
        0
280
     0
281
     0
  0
CLASS
  1
ACME_DOCUMENT
  2
AcMeDbDoc
  3
AcMeServices
 90
        0
280
     1
281
     0
  0
CLASS
  1
ACMESCOPE
  2
AcMeScope
  3
AcMeServices
 90
        0
280
     1
281
     0
  0
CLASS
  1
ACMECOMMANDHISTORY
  2
AcMeCommandHistory
  3
AcMeServices
 90
        0
280
     1
281
     0
  0
CLASS
  1
DICTIONARYVAR
  2
AcDbDictionaryVar
  3
ObjectDBX Classes
 90
        0
280
     0
281
     0
  0
CLASS
  1
ACIMSYSVARMAN
  2
AcImSysVarManager
  3
AcMeServices
 90
        0
280
     1
281
     0
  0
CLASS
  1
ACIMREALSYSVAR
  2
AcImRealSysVar
  3
AcMeServices
 90
        0
280
     1
281
     0
  0
CLASS
  1
ACIMINTSYSVAR
  2
AcImIntSysVar
  3
AcMeServices
 90
        0
280
     1
281
     0
  0
CLASS
  1
ACMEDRAWINGMAN
  2
AcMeDrawingMan
  3
AcMeServices
 90
        0
280
     1
281
     0
  0
CLASS
  1
ACMEVIEW
  2
AcMeView
  3
AcMeServices
 90
        0
280
     1
281
     0
  0
CLASS
  1
ACDBENTITYCACHE
  2
AcMeEntityCache
  3
AcMeServices
 90
        0
280
     1
281
     0
  0
CLASS
  1
GSMANAGER
  2
AcMeGSManager
  3
AcMeServices
 90
        0
280
     1
281
     0
  0
CLASS
  1
AMDTINTERNALREACTOR
  2
AmdtInternalReactor
  3
AcMeServices
 90
        0
280
     1
281
     0
  0
CLASS
  1
ACMESTATEMGR
  2
AcMeStateMgr
  3
AcMeServices
 90
        0
280
     1
281
     0
  0
CLASS
  1
ACME_DATABASE
  2
AcMeDbDatabase
  3
AcMeServices
 90
        0
280
     1
281
     0
  0
CLASS
  1
ACRFINSADJUSTERMGR
  2
AcRfInsAdjusterMgr
  3
AcMeServices
 90
        0
280
     1
281
     0
  0
CLASS
  1
AMGSETTINGSOBJ
  2
AmgSettingsObj
  3
"AcadM|Product Description: AutoCAD Mechanical 2000|Company: Autodesk"
 90
        0
280
     1
281
     0
  0
CLASS
  1
ACMDATADICTIONARY
  2
AcmDataDictionary
  3
"AcmSymBB|Product Description: AutoCAD Mechanical 2004 DX|Company: Autodesk"
 90
        0
280
     1
281
     0
  0
CLASS
  1
ACMDATAENTRYBLOCK
  2
AcmDataEntryBlock
  3
"AcmSymBB|Product Description: AutoCAD Mechanical 2004 DX|Company: Autodesk"
 90
        0
280
     1
281
     0
  0
CLASS
  1
AMGOBJPROPCFG
  2
AmgObjPropCfg
  3
"AmgLay|Product Description: AutoCAD Mechanical 2000|Company: Autodesk"
 90
        1
280
     1
281
     0
  0
CLASS
  1
ACAMGFILTERDAT
  2
AcAmgFilterDat
  3
"AcadM|Product Description: AutoCAD Mechanical 2000|Company: Autodesk"
 90
        0
280
     1
281
     0
  0
CLASS
  1
LAYER_INDEX
  2
AcDbLayerIndex
  3
ObjectDBX Classes
 90
        0
280
     0
281
     0
  0
CLASS
  1
IDBUFFER
  2
AcDbIdBuffer
  3
ObjectDBX Classes
 90
        0
280
     0
281
     0
  0
CLASS
  1
ACIMSTRSYSVAR
  2
AcImStrSysVar
  3
AcMeServices
 90
        0
280
     1
281
     0
  0
CLASS
  1
ACMSTANDARDJIS
  2
AcmStandardJIS
  3
"Amdt_StdImp|Product Description: AutoCAD Mechanical 2004 DX|Company: Autodesk"
 90
        0
280
     1
281
     0
  0
CLASS
  1
ACMSURFSTANDARDJIS
  2
AcmSurfTextStdJIS
  3
"Amdt_StdImp|Product Description: AutoCAD Mechanical 2004 DX|Company: Autodesk"
 90
        0
280
     1
281
     0
  0
CLASS
  1
ACMFCFSTANDARDJIS
  2
AcmFCFStdJIS
  3
"Amdt_StdImp|Product Description: AutoCAD Mechanical 2004 DX|Company: Autodesk"
 90
        0
280
     1
281
     0
  0
CLASS
  1
ACMWELDSTANDARDJIS
  2
AcmWeldingStdJIS
  3
"Amdt_StdImp|Product Description: AutoCAD Mechanical 2004 DX|Company: Autodesk"
 90
        0
280
     1
281
     0
  0
CLASS
  1
ACMIDSTANDARDJIS
  2
AcmIdStdJIS
  3
"Amdt_StdImp|Product Description: AutoCAD Mechanical 2004 DX|Company: Autodesk"
 90
        0
280
     1
281
     0
  0
CLASS
  1
ACMDATUMSTANDARDJIS
  2
AcmDatumStdJIS
  3
"Amdt_StdImp|Product Description: AutoCAD Mechanical 2004 DX|Company: Autodesk"
 90
        0
280
     1
281
     0
  0
CLASS
  1
ACMBOMSTANDARDJIS
  2
AcmBOMStdJIS
  3
"Amdt_StdImp|Product Description: AutoCAD Mechanical 2004 DX|Company: Autodesk"
 90
        0
280
     1
281
     0
  0
CLASS
  1
AMDTNOTE
  2
AmdtNote
  3
"AcmSymBB|Product Description: AutoCAD Mechanical 2004 DX|Company: Autodesk"
 90
     1023
280
     1
281
     1
  0
CLASS
  1
TABLESTYLE
  2
AcDbTableStyle
  3
ObjectDBX Classes
 90
     2047
280
     0
281
     0
  0
CLASS
  1
ACGREFMASTER
  2
AcGrefMaster
  3
AcAttribServices
 90
        0
280
     1
281
     0
  0
CLASS
  1
AM_DRAWING_MGR
  2
AcDmDwgMgr
  3
AcMechDwgViewMgmt
 90
        0
280
     1
281
     0
  0
CLASS
  1
AM_DWG_DOCUMENT
  2
AcDmDwgDocument
  3
AcMechDwgViewMgmt
 90
        0
280
     1
281
     0
  0
CLASS
  1
AM_DWG_SHEET
  2
AcDmSheet
  3
AcMechDwgViewMgmt
 90
        0
280
     1
281
     0
  0
CLASS
  1
AM_VIEWDIMPARMAP
  2
AcDmViewDimParMap
  3
AcMechDwgViewMgmt
 90
        0
280
     1
281
     0
  0
CLASS
  1
AM_DWGMGR_NAME
  2
AcDmDwgMgrName
  3
AcMechDwgViewMgmt
 90
        0
280
     1
281
     0
  0
CLASS
  1
ACGREFACADMASTER
  2
AcGrefacadMaster
  3
AcGrefServices
 90
        0
280
     1
281
     0
  0
CLASS
  1
AMDTMENUSTATEMGR
  2
AmdtMenuStateMgr
  3
McadcomServices
 90
        0
280
     1
281
     0
  0
CLASS
  1
AMDTMCOMMENUSTATE
  2
AmdtMcomMenuState
  3
McadcomServices
 90
        0
280
     1
281
     0
  0
CLASS
  1
AMIMASTER
  2
AmiMaster
  3
AmiServices
 90
        0
280
     1
281
     0
  0
CLASS
  1
MAPIAMMOUDLE
  2
MApiAmModule
  3
MApiAmServices
 90
        0
280
     1
281
     0
  0
CLASS
  1
AMDTADMENUSTATE
  2
AmdtAdMenuState
  3
DesignerServices
 90
        0
280
     1
281
     0
  0
CLASS
  1
ADAPPL
  2
AcAdAppl
  3
DesignerServices
 90
        0
280
     1
281
     0
  0
CLASS
  1
DEPMGR
  2
AcAdDepMgr
  3
DesignerServices
 90
        0
280
     1
281
     0
  0
CLASS
  1
PARAMMGR
  2
AcAdParamMgr
  3
DesignerServices
 90
        0
280
     1
281
     0
  0
CLASS
  1
PARAMSCOPE
  2
AcAdParamScope
  3
DesignerServices
 90
        0
280
     1
281
     0
  0
CLASS
  1
NAMEDAPPL
  2
AcAdNamedAppl
  3
DesignerServices
 90
        0
280
     1
281
     0
  0
CLASS
  1
AMDTDMMENUSTATE
  2
AmdtDmMenuState
  3
AcMechDwgViewMgmt
 90
        0
280
     1
281
     0
  0
CLASS
  1
AMDTAMMENUSTATE
  2
AmdtAmMenuState
  3
DesignerAssemblies
 90
        0
280
     1
281
     0
  0
CLASS
  1
ACAMPROJECT
  2
AcAmProject
  3
DesignerAssemblies
 90
        0
280
     1
281
     0
  0
CLASS
  1
ACAMGRCOMPDEF
  2
AcAmGrCompDef
  3
DesignerAssemblies
 90
        0
280
     1
281
     0
  0
CLASS
  1
ACCMCONTEXT
  2
AcCmContext
  3
DesignerAssemblies
 90
        0
280
     1
281
     0
  0
CLASS
  1
ACAMCOMPDEF
  2
AcAmCompDef
  3
DesignerAssemblies
 90
        0
280
     1
281
     0
  0
CLASS
  1
ACAMCOMPDEFMGR
  2
AcAmCompDefMgr
  3
DesignerAssemblies
 90
        0
280
     1
281
     0
  0
CLASS
  1
AMCONTEXTMGR
  2
AcAmContextMgr
  3
DesignerAssemblies
 90
        0
280
     1
281
     0
  0
CLASS
  1
ACAMCONTEXTMODELER
  2
AcAmContextModeler
  3
DesignerAssemblies
 90
        0
280
     1
281
     0
  0
CLASS
  1
ACAMGTITLESTD
  2
AcAmgTitleStd
  3
"TITLEAPP"
 90
        0
280
     1
281
     0
  0
CLASS
  1
ACMDETAILSTANDARDJIS
  2
AmdtDetailSymStdJIS
  3
"Amdt_StdImp|Product Description: AutoCAD Mechanical 2004 DX|Company: Autodesk"
 90
        0
280
     1
281
     0
  0
CLASS
  1
ACMSECTIONSTANDARDJIS
  2
AmdtSectionSymStdJIS
  3
"Amdt_StdImp|Product Description: AutoCAD Mechanical 2004 DX|Company: Autodesk"
 90
        0
280
     1
281
     0
  0
CLASS
  1
ACMCENTERLINESTANDARDJIS
  2
AmdtCenterLineStdJIS
  3
"Amdt_StdImp|Product Description: AutoCAD Mechanical 2004 DX|Company: Autodesk"
 90
        0
280
     1
281
     0
  0
CLASS
  1
ACMTHREADLINESTANDARDJIS
  2
AmdtThreadLineStdJIS
  3
"Amdt_StdImp|Product Description: AutoCAD Mechanical 2004 DX|Company: Autodesk"
 90
        0
280
     1
281
     0
  0
CLASS
  1
ACMNOTESTANDARDJIS
  2
AmdtNoteStdJIS
  3
"Amdt_StdImp|Product Description: AutoCAD Mechanical 2004 DX|Company: Autodesk"
 90
        0
280
     1
281
     0
  0
CLASS
  1
AMDTNOTETEMPLATEDB
  2
AmdtNoteTemplateDB
  3
AMDT_STDIMP_MODULE_NAME
 90
        0
280
     1
281
     0
  0
CLASS
  1
ACAMGLAYSTD
  2
AcAmgLayStd
  3
"AcAmgLayStd|Product Description: AutoCAD Mechanical 2000|Company: Autodesk"
 90
        0
280
     1
281
     0
  0
CLASS
  1
ACAMGDIMSTD
  2
AcAmgDimStd
  3
"AcAmgDimStd|Product Description: AutoCAD Mechanical 2000|Company: Autodesk"
 90
        0
280
     1
281
     0
  0
CLASS
  1
ACAMGHOLECHARTSTDJIS
  2
AcAmgHoleChartStdJIS
  3
ACMSYMBB_MODULE_NAME
 90
        0
280
     1
281
     0
  0
CLASS
  1
CATALOGSTATE
  2
AcAmCatalogState
  3
DesignerAssemblies
 90
        0
280
     1
281
     0
  0
CLASS
  1
ACAMGRCOMPDEFSET
  2
AcAmGrCompDefSet
  3
DesignerAssemblies
 90
        0
280
     1
281
     0
  0
CLASS
  1
AMDTBROWSERDBTAB
  2
AmdtBrowserDbTab
  3
McadcomServices
 90
        0
280
     1
281
     0
  0
CLASS
  1
CBROWSERAPPOBJECT
  2
CBrowserAppObject
  3
McadcomServices
 90
        0
280
     1
281
     0
  0
CLASS
  1
DM_PLACEHOLDER
  2
AcDmSelsetPlaceholder
  3
AcMechDwgViewMgmt
 90
        0
280
     1
281
     0
  0
CLASS
  1
ACMSTANDARDANSI
  2
AcmStandardANSI
  3
"Amdt_StdImp|Product Description: AutoCAD Mechanical 2004 DX|Company: Autodesk"
 90
        0
280
     1
281
     0
  0
CLASS
  1
ACMSURFSTANDARDANSI
  2
AcmSurfTextStdANSI
  3
"Amdt_StdImp|Product Description: AutoCAD Mechanical 2004 DX|Company: Autodesk"
 90
        0
280
     1
281
     0
  0
CLASS
  1
ACMFCFSTANDARDANSI
  2
AcmFCFStdANSI
  3
"Amdt_StdImp|Product Description: AutoCAD Mechanical 2004 DX|Company: Autodesk"
 90
        0
280
     1
281
     0
  0
CLASS
  1
ACMWELDSTANDARDANSI
  2
AcmWeldingStdANSI
  3
"Amdt_StdImp|Product Description: AutoCAD Mechanical 2004 DX|Company: Autodesk"
 90
        0
280
     1
281
     0
  0
CLASS
  1
ACMIDSTANDARDANSI
  2
AcmIdStdANSI
  3
"Amdt_StdImp|Product Description: AutoCAD Mechanical 2004 DX|Company: Autodesk"
 90
        0
280
     1
281
     0
  0
CLASS
  1
ACMDATUMSTANDARDANSI
  2
AcmDatumStdANSI
  3
"Amdt_StdImp|Product Description: AutoCAD Mechanical 2004 DX|Company: Autodesk"
 90
        0
280
     1
281
     0
  0
CLASS
  1
ACMBOMSTANDARDANSI
  2
AcmBOMStdANSI
  3
"Amdt_StdImp|Product Description: AutoCAD Mechanical 2004 DX|Company: Autodesk"
 90
        0
280
     1
281
     0
  0
CLASS
  1
ACMDETAILSTANDARDANSI
  2
AmdtDetailSymStdANSI
  3
"Amdt_StdImp|Product Description: AutoCAD Mechanical 2004 DX|Company: Autodesk"
 90
        0
280
     1
281
     0
  0
CLASS
  1
ACMSECTIONSTANDARDANSI
  2
AmdtSectionSymStdANSI
  3
"Amdt_StdImp|Product Description: AutoCAD Mechanical 2004 DX|Company: Autodesk"
 90
        0
280
     1
281
     0
  0
CLASS
  1
ACMCENTERLINESTANDARDANSI
  2
AmdtCenterLineStdANSI
  3
"Amdt_StdImp|Product Description: AutoCAD Mechanical 2004 DX|Company: Autodesk"
 90
        0
280
     1
281
     0
  0
CLASS
  1
ACMTHREADLINESTANDARDANSI
  2
AmdtThreadLineStdANSI
  3
"Amdt_StdImp|Product Description: AutoCAD Mechanical 2004 DX|Company: Autodesk"
 90
        0
280
     1
281
     0
  0
CLASS
  1
ACMNOTESTANDARDANSI
  2
AmdtNoteStdANSI
  3
"Amdt_StdImp|Product Description: AutoCAD Mechanical 2004 DX|Company: Autodesk"
 90
        0
280
     1
281
     0
  0
CLASS
  1
ACAMGHOLECHARTSTDANSI
  2
AcAmgHoleChartStdANSI
  3
ACMSYMBB_MODULE_NAME
 90
        0
280
     1
281
     0
  0
ENDSEC
  0
SECTION
  2
TABLES
  0
TABLE
  2
VPORT
  5
8
330
0
100
AcDbSymbolTable
 70
     3
  0
VPORT
  5
75EB
330
8
100
AcDbSymbolTableRecord
100
AcDbViewportTableRecord
  2
*Active
 70
     0
 10
0.0
 20
0.0
 11
1.0
 21
1.0
 12
64.54487005521753
 22
-37.85462367995979
 13
0.0
 23
0.0
 14
2.5
 24
2.5
 15
10.0
 25
10.0
 16
0.0
 26
0.0
 36
1.0
 17
0.0
 27
0.0
 37
0.0
 40
274.6313578846014
 41
1.347381864623244
 42
50.0
 43
0.0
 44
0.0
 50
0.0
 51
0.0
 71
     0
 72
  2000
 73
     1
 74
     3
 75
     0
 76
     0
 77
     0
 78
     0
281
     0
 65
     1
110
0.0
120
0.0
130
0.0
111
1.0
121
0.0
131
0.0
112
0.0
122
1.0
132
0.0
 79
     0
146
0.0
  0
ENDTAB
  0
TABLE
  2
LTYPE
  5
5
330
0
100
AcDbSymbolTable
 70
    27
  0
LTYPE
  5
14
330
5
100
AcDbSymbolTableRecord
100
AcDbLinetypeTableRecord
  2
ByBlock
 70
     0
  3

 72
    65
 73
     0
 40
0.0
  0
LTYPE
  5
15
330
5
100
AcDbSymbolTableRecord
100
AcDbLinetypeTableRecord
  2
ByLayer
 70
     0
  3

 72
    65
 73
     0
 40
0.0
  0
LTYPE
  5
16
330
5
100
AcDbSymbolTableRecord
100
AcDbLinetypeTableRecord
  2
Continuous
 70
     0
  3
Solid line
 72
    65
 73
     0
 40
0.0
  0
LTYPE
  5
48
330
5
100
AcDbSymbolTableRecord
100
AcDbLinetypeTableRecord
  2
AM_ISO02W050
 70
     0
  3
__ __ __ __ __ __ __ __ __ __ __ __ __ __ __
 72
    65
 73
     2
 40
7.5
 49
6.0
 74
     0
 49
-1.5
 74
     0
  0
LTYPE
  5
49
330
5
100
AcDbSymbolTableRecord
100
AcDbLinetypeTableRecord
  2
AM_ISO08W050
 70
     0
  3
____ . ____ . ____ . ____ . ____ . ____ . ____
 72
    65
 73
     4
 40
18.0
 49
12.0
 74
     0
 49
-1.5
 74
     0
 49
3.0
 74
     0
 49
-1.5
 74
     0
  0
LTYPE
  5
4A
330
5
100
AcDbSymbolTableRecord
100
AcDbLinetypeTableRecord
  2
AM_ISO09W050
 70
     0
  3
_____ . . _____ . . _____ . . ____ .. ____
 72
    65
 73
     6
 40
22.5
 49
12.0
 74
     0
 49
-1.5
 74
     0
 49
3.0
 74
     0
 49
-1.5
 74
     0
 49
3.0
 74
     0
 49
-1.5
 74
     0
  0
LTYPE
  5
4B
330
5
100
AcDbSymbolTableRecord
100
AcDbLinetypeTableRecord
  2
Amconstr
 70
     0
  3
_______________________
 72
    65
 73
     2
 40
9999.0
 49
9999.0
 74
     0
 49
0.0
 74
     0
  0
LTYPE
  5
4C
330
5
100
AcDbSymbolTableRecord
100
AcDbLinetypeTableRecord
  2
AM_ISO02W050x2
 70
     0
  3
 _ _ _ _ _ _ _ _ _ _ _ _
 72
    65
 73
     2
 40
3.75
 49
3.0
 74
     0
 49
-0.75
 74
     0
  0
LTYPE
  5
4D
330
5
100
AcDbSymbolTableRecord
100
AcDbLinetypeTableRecord
  2
AM_ISO08W050x2
 70
     0
  3
__ . __ . __ . __ . __ . __
 72
    65
 73
     4
 40
9.0
 49
6.0
 74
     0
 49
-0.75
 74
     0
 49
1.5
 74
     0
 49
-0.75
 74
     0
  0
LTYPE
  5
50
330
5
100
AcDbSymbolTableRecord
100
AcDbLinetypeTableRecord
  2
Amzigzag
 70
     0
  3
/\/-/\/-/\/-/\/-/\/-/\/
 72
    65
 73
     2
 40
11.0001
 49
0.0001
 74
     4
 75
   135
340
4F
 46
0.04
 50
0.0
 44
0.0
 45
0.0
 49
-11.0
 74
     0
  0
LTYPE
  5
118
330
5
100
AcDbSymbolTableRecord
100
AcDbLinetypeTableRecord
  2
CENTER
 70
     0
  3
____ _ ____ _ ____ _ ____ _ ____ _ ____ _ ____
 72
    65
 73
     4
 40
17.5
 49
13.0
 74
     0
 49
-1.5
 74
     0
 49
1.5
 74
     0
 49
-1.5
 74
     0
  0
LTYPE
  5
7AA
330
5
100
AcDbSymbolTableRecord
100
AcDbLinetypeTableRecord
  2
ACJISTGB
 70
     0
  3
__ . . __ . .
 72
    65
 73
     6
 40
9.0
 49
4.0
 74
     0
 49
-1.0
 74
     0
 49
1.0
 74
     0
 49
-1.0
 74
     0
 49
1.0
 74
     0
 49
-1.0
 74
     0
  0
LTYPE
  5
7AB
330
5
100
AcDbSymbolTableRecord
100
AcDbLinetypeTableRecord
  2
ACJISTGL
 70
     0
  3
_ _ _ _ _
 72
    65
 73
     2
 40
3.0
 49
2.0
 74
     0
 49
-1.0
 74
     0
  0
LTYPE
  5
5EE9
330
5
100
AcDbSymbolTableRecord
100
AcDbLinetypeTableRecord
  2
HIDDEN
 70
     0
  3
Hidden __ __ __ __ __ __ __ __ __ __ __ __ __ _
 72
    65
 73
     2
 40
9.524999999999999
 49
6.35
 74
     0
 49
-3.175
 74
     0
  0
LTYPE
  5
5EEA
330
5
100
AcDbSymbolTableRecord
100
AcDbLinetypeTableRecord
  2
PHANTOM2
 70
     0
  3
Phantom (.5x) ___ _ _ ___ _ _ ___ _ _ ___ _ _
 72
    65
 73
     6
 40
31.75
 49
15.875
 74
     0
 49
-3.175
 74
     0
 49
3.175
 74
     0
 49
-3.175
 74
     0
 49
3.175
 74
     0
 49
-3.175
 74
     0
  0
LTYPE
  5
72F1
330
5
100
AcDbSymbolTableRecord
100
AcDbLinetypeTableRecord
  2
ACANSTGB
 70
     0
  3
__ . . __ . .
 72
    65
 73
     6
 40
0.35433070866
 49
0.15748031496
 74
     0
 49
-0.03937007874
 74
     0
 49
0.03937007874
 74
     0
 49
-0.03937007874
 74
     0
 49
0.03937007874
 74
     0
 49
-0.03937007874
 74
     0
  0
LTYPE
  5
72F2
330
5
100
AcDbSymbolTableRecord
100
AcDbLinetypeTableRecord
  2
ACANSTGL
 70
     0
  3
_ _ _ _ _
 72
    65
 73
     2
 40
0.11811023622
 49
0.07874015748
 74
     0
 49
-0.03937007874
 74
     0
  0
ENDTAB
  0
TABLE
  2
LAYER
  5
2
330
0
100
AcDbSymbolTable
 70
    18
  0
LAYER
  5
10
330
2
100
AcDbSymbolTableRecord
100
AcDbLayerTableRecord
  2
0
 70
     0
 62
     7
  6
Continuous
370
    -3
390
F
  0
LAYER
  5
68
330
2
100
AcDbSymbolTableRecord
100
AcDbLayerTableRecord
  2
AM_5
 70
     0
 62
     3
  6
Continuous
370
    13
390
F
  0
LAYER
  5
7B
330
2
100
AcDbSymbolTableRecord
100
AcDbLayerTableRecord
  2
Defpoints
 70
     0
 62
     7
  6
Continuous
290
     0
370
    -3
390
F
  0
LAYER
  5
5A3
330
2
100
AcDbSymbolTableRecord
100
AcDbLayerTableRecord
  2
AM_7
 70
     0
 62
     4
  6
AM_ISO08W050
370
    13
390
F
  0
LAYER
  5
5D4
330
2
100
AcDbSymbolTableRecord
100
AcDbLayerTableRecord
  2
AM_11
 70
     0
 62
     3
  6
AM_ISO09W050
370
    13
390
F
  0
LAYER
  5
5F1
330
2
100
AcDbSymbolTableRecord
100
AcDbLayerTableRecord
  2
AM_0
 70
     0
 62
     7
  6
Continuous
370
    30
390
F
  0
LAYER
  5
130D
330
2
100
AcDbSymbolTableRecord
100
AcDbLayerTableRecord
  2
PV0001_1
 70
     0
 62
     7
  6
Continuous
370
    -3
390
F
  0
ENDTAB
  0
TABLE
  2
STYLE
  5
3
330
0
100
AcDbSymbolTable
 70
    21
  0
STYLE
  5
11
330
3
100
AcDbSymbolTableRecord
100
AcDbTextStyleTableRecord
  2
STANDARD
 70
     0
 40
3.8
 41
1.0
 50
0.0
 71
     0
 42
3.8
  3
ISOCP.SHX
  4
EXTFONT.SHX
  0
STYLE
  5
4F
330
3
100
AcDbSymbolTableRecord
100
AcDbTextStyleTableRecord
  2

 70
     1
 40
0.0
 41
1.0
 50
0.0
 71
     0
 42
2.5
  3
ltypeshp.shx
  4

  0
STYLE
  5
7A2
330
3
100
AcDbSymbolTableRecord
100
AcDbTextStyleTableRecord
  2
ACJISTS
 70
     0
 40
1.0
 41
1.0
 50
0.0
 71
     0
 42
2.5
  3
isocp.shx
  4
bigfont.shx
  0
STYLE
  5
7A9
330
3
100
AcDbSymbolTableRecord
100
AcDbTextStyleTableRecord
  2
ACJISGDT
 70
     0
 40
0.0
 41
1.0
 50
0.0
 71
     0
 42
2.5
  3
amgdt.shx
  4

  0
STYLE
  5
72F3
330
3
100
AcDbSymbolTableRecord
100
AcDbTextStyleTableRecord
  2
ACANSTS
 70
     0
 40
1.0
 41
1.0
 50
0.0
 71
     0
 42
3.0
  3
romans.shx
  4
extfont.shx
  0
STYLE
  5
72F4
330
3
100
AcDbSymbolTableRecord
100
AcDbTextStyleTableRecord
  2
ACANSGDT
 70
     0
 40
0.0
 41
1.0
 50
0.0
 71
     0
 42
3.0
  3
amgdtans.shx
  4

  0
ENDTAB
  0
TABLE
  2
VIEW
  5
6
330
0
100
AcDbSymbolTable
 70
     6
  0
VIEW
  5
4F5
330
6
100
AcDbSymbolTableRecord
100
AcDbViewTableRecord
  2
AM_VIEW1
 70
     0
 40
148.5
 10
-82.60317658944196
 20
63.43518674314265
 41
222.5634422110553
 11
0.0
 21
0.0
 31
1.0
 12
0.0
 22
0.0
 32
0.0
 42
50.0
 43
0.0
 44
0.0
 50
0.0
 71
     0
281
     0
 72
     0
  0
VIEW
  5
4F6
330
6
100
AcDbSymbolTableRecord
100
AcDbViewTableRecord
  2
AM_VIEW2
 70
     0
 40
148.5
 10
114.8333811995028
 20
63.43518674314265
 41
222.5634422110553
 11
0.0
 21
0.0
 31
1.0
 12
0.0
 22
0.0
 32
0.0
 42
50.0
 43
0.0
 44
0.0
 50
0.0
 71
     0
281
     0
 72
     0
  0
VIEW
  5
4F7
330
6
100
AcDbSymbolTableRecord
100
AcDbViewTableRecord
  2
AM_VIEW3
 70
     0
 40
148.5
 10
-82.60317658944196
 20
-85.06481325685735
 41
222.5634422110553
 11
0.0
 21
0.0
 31
1.0
 12
0.0
 22
0.0
 32
0.0
 42
50.0
 43
0.0
 44
0.0
 50
0.0
 71
     0
281
     0
 72
     0
  0
VIEW
  5
4F8
330
6
100
AcDbSymbolTableRecord
100
AcDbViewTableRecord
  2
AM_VIEW4
 70
     0
 40
148.5
 10
114.8333811995028
 20
-85.06481325685735
 41
222.5634422110553
 11
0.0
 21
0.0
 31
1.0
 12
0.0
 22
0.0
 32
0.0
 42
50.0
 43
0.0
 44
0.0
 50
0.0
 71
     0
281
     0
 72
     0
  0
VIEW
  5
4F9
330
6
100
AcDbSymbolTableRecord
100
AcDbViewTableRecord
  2
AM_VIEW5
 70
     0
 40
148.5
 10
16.11510230503041
 20
-10.81481325685735
 41
222.5634422110553
 11
0.0
 21
0.0
 31
1.0
 12
0.0
 22
0.0
 32
0.0
 42
50.0
 43
0.0
 44
0.0
 50
0.0
 71
     0
281
     0
 72
     0
  0
VIEW
  5
4FA
330
6
100
AcDbSymbolTableRecord
100
AcDbViewTableRecord
  2
AM_VIEW6
 70
     0
 40
296.99703
 10
16.11510230503041
 20
-10.81481325685735
 41
445.1224331532663
 11
0.0
 21
0.0
 31
1.0
 12
0.0
 22
0.0
 32
0.0
 42
50.0
 43
0.0
 44
0.0
 50
0.0
 71
     0
281
     0
 72
     0
  0
ENDTAB
  0
TABLE
  2
UCS
  5
7
330
0
100
AcDbSymbolTable
 70
     0
  0
ENDTAB
  0
TABLE
  2
APPID
  5
9
330
0
100
AcDbSymbolTable
 70
    34
  0
APPID
  5
12
330
9
100
AcDbSymbolTableRecord
100
AcDbRegAppTableRecord
  2
ACAD
 70
     0
  0
APPID
  5
2C
330
9
100
AcDbSymbolTableRecord
100
AcDbRegAppTableRecord
  2
MCAD_NO_VIS
 70
     0
  0
APPID
  5
2D
330
9
100
AcDbSymbolTableRecord
100
AcDbRegAppTableRecord
  2
ACAD_TEMP_GRAPHIC
 70
     0
  0
APPID
  5
B5
330
9
100
AcDbSymbolTableRecord
100
AcDbRegAppTableRecord
  2
GENIUS_GENDTOL_13
 70
     0
  0
APPID
  5
12C
330
9
100
AcDbSymbolTableRecord
100
AcDbRegAppTableRecord
  2
GENIUS_GENCFG_13
 70
     0
  0
APPID
  5
12D
330
9
100
AcDbSymbolTableRecord
100
AcDbRegAppTableRecord
  2
GENIUS_GENCFG0_13
 70
     0
  0
APPID
  5
12E
330
9
100
AcDbSymbolTableRecord
100
AcDbRegAppTableRecord
  2
GENIUS_GENCFG1_13
 70
     0
  0
APPID
  5
12F
330
9
100
AcDbSymbolTableRecord
100
AcDbRegAppTableRecord
  2
GENIUS_GENCFG2_13
 70
     0
  0
APPID
  5
130
330
9
100
AcDbSymbolTableRecord
100
AcDbRegAppTableRecord
  2
GENIUS_GENCFG3_13
 70
     0
  0
APPID
  5
131
330
9
100
AcDbSymbolTableRecord
100
AcDbRegAppTableRecord
  2
GENIUS_GENCFG4_13
 70
     0
  0
APPID
  5
53B
330
9
100
AcDbSymbolTableRecord
100
AcDbRegAppTableRecord
  2
GENIUS_GENBLLY_14
 70
     0
  0
APPID
  5
53C
330
9
100
AcDbSymbolTableRecord
100
AcDbRegAppTableRecord
  2
GENIUS_GENODEF_13
 70
     0
  0
APPID
  5
53D
330
9
100
AcDbSymbolTableRecord
100
AcDbRegAppTableRecord
  2
GENIUS_GENOBJ-N-CEN_13
 70
     0
  0
APPID
  5
549
330
9
100
AcDbSymbolTableRecord
100
AcDbRegAppTableRecord
  2
GENIUS_GENTRA_14
 70
     0
  0
APPID
  5
553
330
9
100
AcDbSymbolTableRecord
100
AcDbRegAppTableRecord
  2
GENIUS_GENOBJ-N-TIT_13
 70
     0
  0
APPID
  5
554
330
9
100
AcDbSymbolTableRecord
100
AcDbRegAppTableRecord
  2
GENIUS_GENTITLE_13
 70
     0
  0
APPID
  5
555
330
9
100
AcDbSymbolTableRecord
100
AcDbRegAppTableRecord
  2
GENIUS_GENOENT_13
 70
     0
  0
APPID
  5
556
330
9
100
AcDbSymbolTableRecord
100
AcDbRegAppTableRecord
  2
GENIUS_GENOREF_13
 70
     0
  0
APPID
  5
557
330
9
100
AcDbSymbolTableRecord
100
AcDbRegAppTableRecord
  2
GENIUS_GENOLIS_13
 70
     0
  0
APPID
  5
558
330
9
100
AcDbSymbolTableRecord
100
AcDbRegAppTableRecord
  2
GENIUS_GENZVEED_13
 70
     0
  0
APPID
  5
559
330
9
100
AcDbSymbolTableRecord
100
AcDbRegAppTableRecord
  2
GENIUS_GENSCREG_15
 70
     0
  0
APPID
  5
55A
330
9
100
AcDbSymbolTableRecord
100
AcDbRegAppTableRecord
  2
GENIUS_GENOBJ-N-SDF_13
 70
     0
  0
APPID
  5
567
330
9
100
AcDbSymbolTableRecord
100
AcDbRegAppTableRecord
  2
GENIUS_GENREC_14
 70
     0
  0
APPID
  5
568
330
9
100
AcDbSymbolTableRecord
100
AcDbRegAppTableRecord
  2
GENIUS_GENOBJ-N-REC_13
 70
     0
  0
APPID
  5
609
330
9
100
AcDbSymbolTableRecord
100
AcDbRegAppTableRecord
  2
GENIUS_GENOBJ-N-HTC_13
 70
     0
  0
APPID
  5
60A
330
9
100
AcDbSymbolTableRecord
100
AcDbRegAppTableRecord
  2
GENIUS_GENHATCH_13
 70
     0
  0
APPID
  5
5D94
330
9
100
AcDbSymbolTableRecord
100
AcDbRegAppTableRecord
  2
BASE_TYPE
 70
     0
  0
APPID
  5
5EEC
330
9
100
AcDbSymbolTableRecord
100
AcDbRegAppTableRecord
  2
AD_DRAW
 70
     0
  0
APPID
  5
5EEF
330
9
100
AcDbSymbolTableRecord
100
AcDbRegAppTableRecord
  2
ACATTRIBSERVICES
 70
     0
  0
APPID
  5
5F0D
330
9
100
AcDbSymbolTableRecord
100
AcDbRegAppTableRecord
  2
DESIGNERASSEMBLIES
 70
     0
  0
APPID
  5
5F20
330
9
100
AcDbSymbolTableRecord
100
AcDbRegAppTableRecord
  2
ACADM_DIM_EDIT
 70
     0
  0
APPID
  5
5F21
330
9
100
AcDbSymbolTableRecord
100
AcDbRegAppTableRecord
  2
AMDT_DM_ADJ
 70
     0
  0
APPID
  5
653B
330
9
100
AcDbSymbolTableRecord
100
AcDbRegAppTableRecord
  2
GENIUS_GENCEN_19
 70
     0
  0
APPID
  5
6676
330
9
100
AcDbSymbolTableRecord
100
AcDbRegAppTableRecord
  2
ACAD_PSEXT
 70
     0
  0
ENDTAB
  0
TABLE
  2
DIMSTYLE
  5
A
330
0
100
AcDbSymbolTable
 70
    28
100
AcDbDimStyleTable
  0
DIMSTYLE
105
69
330
A
100
AcDbSymbolTableRecord
100
AcDbDimStyleTableRecord
  2
AM_JIS
 70
     0
  4
"
 41
2.5
 42
0.0
 43
10.0
 44
1.0
 47
0.1
 48
0.1000000001
 73
     0
 74
     0
 77
     3
 78
     1
 79
     2
140
3.8
141
0.0
143
0.0393701
146
0.71
147
1.5
172
     1
176
     3
177
     3
178
     2
271
     2
272
     2
275
     1
283
     0
284
     8
340
11
341
6A
342
6A
371
    13
372
    13
  0
DIMSTYLE
105
70
330
A
100
AcDbSymbolTableRecord
100
AcDbDimStyleTableRecord
  2
AM_JIS$3
 70
     0
  4
"
 41
2.5
 42
0.0
 43
10.0
 44
1.0
 47
0.1
 48
0.1000000001
 73
     0
 74
     0
 77
     3
 78
     1
 79
     2
140
3.8
141
0.0
143
0.0393701
146
0.71
147
1.5
172
     1
176
     3
177
     3
178
     2
271
     2
272
     2
275
     1
283
     0
284
     8
288
     1
289
     0
340
11
341
6A
342
6A
371
    13
372
    13
  0
DIMSTYLE
105
71
330
A
100
AcDbSymbolTableRecord
100
AcDbDimStyleTableRecord
  2
AM_JIS$4
 70
     0
  4
"
 41
2.5
 42
0.0
 43
10.0
 44
1.0
 47
0.1
 48
0.1000000001
 73
     0
 74
     0
 77
     3
 78
     1
 79
     2
140
3.8
141
0.0
143
0.0393701
146
0.71
147
1.5
172
     1
176
     3
177
     3
178
     2
271
     2
272
     2
275
     1
283
     0
284
     8
288
     1
289
     0
340
11
341
6A
342
6A
371
    13
372
    13
  0
DIMSTYLE
105
72
330
A
100
AcDbSymbolTableRecord
100
AcDbDimStyleTableRecord
  2
AM_JIS$6
 70
     0
  4
"
 41
2.5
 42
0.0
 43
10.0
 44
1.0
 47
0.1
 48
0.1000000001
 73
     0
 74
     0
 78
     1
 79
     2
140
3.8
141
0.0
143
0.0393701
146
0.71
147
1.5
172
     1
176
     3
177
     3
178
     2
271
     2
272
     2
275
     1
283
     0
284
     8
340
11
341
6A
342
6A
371
    13
372
    13
  0
DIMSTYLE
105
73
330
A
100
AcDbSymbolTableRecord
100
AcDbDimStyleTableRecord
  2
AM_JIS$7
 70
     0
  4
"
 41
2.5
 42
0.0
 43
10.0
 44
1.0
 47
0.1
 48
0.1000000001
 73
     0
 74
     0
 77
     3
 78
     1
 79
     2
140
5.0
141
0.0
143
0.0393701
146
0.71
147
1.5
172
     1
176
     3
177
     3
178
     2
271
     2
272
     2
275
     1
283
     0
284
     8
340
11
341
6A
342
6A
371
    13
372
    13
  0
DIMSTYLE
105
74
330
A
100
AcDbSymbolTableRecord
100
AcDbDimStyleTableRecord
  2
AM_JIS$SF
 70
     0
  4
"
 41
2.5
 42
1.0
 43
10.0
 44
1.0
 47
0.1
 48
0.1
 73
     0
 74
     0
 75
     1
 76
     1
 77
     3
 78
     8
 79
     2
140
3.5
141
0.0
143
0.0393701
146
0.71
147
1.5
176
   256
177
   256
178
     2
271
     2
272
     3
274
     4
340
11
341
6A
342
6A
343
6A
344
6A
371
    -1
372
    -1
  0
DIMSTYLE
105
79
330
A
100
AcDbSymbolTableRecord
100
AcDbDimStyleTableRecord
  2
AM_JIS$SH
 70
     0
  4
"
 41
2.5
 42
1.0
 43
10.0
 44
1.0
 47
0.1
 48
0.1
 73
     0
 74
     0
 75
     1
 76
     1
 77
     3
 78
     8
 79
     2
140
3.5
141
0.0
143
0.0393701
144
2.0
146
0.71
147
1.5
173
     1
176
   256
177
   256
178
     2
271
     2
272
     3
274
     4
340
11
341
6A
342
6A
343
75
344
6A
371
    -1
372
    -1
  0
DIMSTYLE
105
124
330
A
100
AcDbSymbolTableRecord
100
AcDbDimStyleTableRecord
  2
STANDARD
 70
     0
340
11
  0
DIMSTYLE
105
927
102
{ACAD_REACTORS
330
6777
330
6C29
330
6D6A
330
6EEA
330
6FAF
102
}
330
A
100
AcDbSymbolTableRecord
100
AcDbDimStyleTableRecord
  2
AM_JIS$0
 70
     0
  4
"
 41
2.5
 42
0.0
 43
10.0
 44
1.0
 47
0.1
 48
0.1000000001
 73
     0
 74
     0
 77
     3
 78
     1
 79
     2
140
3.8
141
0.0
143
0.0393701
146
0.71
147
1.5
172
     1
176
     3
177
     3
178
     2
271
     2
272
     2
275
     1
283
     0
284
     8
289
     0
340
11
341
6A
342
6A
371
    13
372
    13
  0
DIMSTYLE
105
9A0
102
{ACAD_REACTORS
330
71D6
102
}
330
A
100
AcDbSymbolTableRecord
100
AcDbDimStyleTableRecord
  2
AM_JIS$2
 70
     0
  4
"
 41
2.5
 42
0.0
 43
10.0
 44
1.0
 47
0.1
 48
0.1000000001
 73
     0
 74
     0
 77
     3
 78
     1
 79
     2
140
3.8
141
0.0
143
0.0393701
146
0.71
147
1.5
172
     1
176
     3
177
     3
178
     2
271
     2
272
     2
275
     1
283
     0
284
     8
289
     0
340
11
341
6A
342
6A
371
    13
372
    13
  0
DIMSTYLE
105
72F5
330
A
100
AcDbSymbolTableRecord
100
AcDbDimStyleTableRecord
  2
AM_ANSI
 70
     0
  4
mm
 41
0.1
 42
0.05
 43
0.5
 44
0.1
 47
0.1
 48
0.1
 78
     7
 79
     2
140
0.12
141
0.0
146
0.71
147
0.06
176
   256
177
   256
178
     2
274
     4
284
     7
340
11
371
    -1
372
    -1
  0
DIMSTYLE
105
72F6
330
A
100
AcDbSymbolTableRecord
100
AcDbDimStyleTableRecord
  2
AM_ANSI$7
 70
     0
  4
mm
 41
0.1
 42
0.05
 43
0.5
 44
0.1
 47
0.1
 48
0.1
 78
     7
 79
     2
140
0.24
141
0.0
146
0.71
147
0.06
176
   256
177
   256
178
     2
274
     4
284
     7
340
11
371
    -1
372
    -1
  0
DIMSTYLE
105
72F7
330
A
100
AcDbSymbolTableRecord
100
AcDbDimStyleTableRecord
  2
AM_ANSI$SF
 70
     0
  4
mm
 41
0.1
 42
0.05
 43
0.5
 44
0.1
 47
0.1
 48
0.1
 75
     1
 76
     1
 78
     7
 79
     2
140
0.12
141
0.0
146
0.71
147
0.06
176
   256
177
   256
178
     2
274
     4
284
     7
340
11
371
    -1
372
    -1
  0
DIMSTYLE
105
72F8
330
A
100
AcDbSymbolTableRecord
100
AcDbDimStyleTableRecord
  2
AM_ANSI$SH
 70
     0
  4
mm
 41
0.1
 42
0.05
 43
0.5
 44
0.1
 47
0.1
 48
0.1
 75
     1
 76
     1
 78
     7
 79
     2
140
0.12
141
0.0
146
0.71
147
0.06
173
     1
176
   256
177
   256
178
     2
274
     4
284
     7
340
11
343
75
371
    -1
372
    -1
  0
DIMSTYLE
105
72F9
330
A
100
AcDbSymbolTableRecord
100
AcDbDimStyleTableRecord
  2
Standard$0
 70
     0
340
11
  0
DIMSTYLE
105
72FA
330
A
100
AcDbSymbolTableRecord
100
AcDbDimStyleTableRecord
  2
Standard$2
 70
     0
340
11
  0
DIMSTYLE
105
72FB
330
A
100
AcDbSymbolTableRecord
100
AcDbDimStyleTableRecord
  2
Standard$4
 70
     0
340
11
  0
DIMSTYLE
105
72FC
330
A
100
AcDbSymbolTableRecord
100
AcDbDimStyleTableRecord
  2
Standard$3
 70
     0
340
11
  0
ENDTAB
  0
TABLE
  2
BLOCK_RECORD
  5
1
330
0
100
AcDbSymbolTable
 70
    37
  0
BLOCK_RECORD
  5
1F
102
{ACAD_XDICTIONARY
360
10B
102
}
330
1
100
AcDbSymbolTableRecord
100
AcDbBlockTableRecord
  2
*Model_Space
340
22
  0
BLOCK_RECORD
  5
1B
330
1
100
AcDbSymbolTableRecord
100
AcDbBlockTableRecord
  2
*Paper_Space
340
1E
  0
BLOCK_RECORD
  5
23
330
1
100
AcDbSymbolTableRecord
100
AcDbBlockTableRecord
  2
*Paper_Space0
340
26
  0
BLOCK_RECORD
  5
6A
330
1
100
AcDbSymbolTableRecord
100
AcDbBlockTableRecord
  2
_Open30
340
0
102
{BLKREFS
331
75C0
331
75C1
331
75AD
331
75AE
331
74D9
331
74DA
331
74E2
331
74E3
331
7543
331
7544
331
74F4
331
74F5
102
}
  0
BLOCK_RECORD
  5
75
330
1
100
AcDbSymbolTableRecord
100
AcDbBlockTableRecord
  2
GENAXEH
340
0
  0
BLOCK_RECORD
  5
5F04
330
1
100
AcDbSymbolTableRecord
100
AcDbBlockTableRecord
  2
*U30
340
0
  0
BLOCK_RECORD
  5
6778
330
1
100
AcDbSymbolTableRecord
100
AcDbBlockTableRecord
  2
*D31
340
0
  0
BLOCK_RECORD
  5
6C2A
330
1
100
AcDbSymbolTableRecord
100
AcDbBlockTableRecord
  2
*D32
340
0
  0
BLOCK_RECORD
  5
6D6B
330
1
100
AcDbSymbolTableRecord
100
AcDbBlockTableRecord
  2
*D33
340
0
  0
BLOCK_RECORD
  5
6EEB
330
1
100
AcDbSymbolTableRecord
100
AcDbBlockTableRecord
  2
*D34
340
0
  0
BLOCK_RECORD
  5
6FB0
330
1
100
AcDbSymbolTableRecord
100
AcDbBlockTableRecord
  2
*D35
340
0
  0
BLOCK_RECORD
  5
71D7
330
1
100
AcDbSymbolTableRecord
100
AcDbBlockTableRecord
  2
*D36
340
0
  0
ENDTAB
  0
ENDSEC
  0
SECTION
  2
BLOCKS
  0
BLOCK
  5
20
330
1F
100
AcDbEntity
  8
0
100
AcDbBlockBegin
  2
*Model_Space
 70
     0
 71
     0
 10
0.0
 20
0.0
 30
0.0
  3
*Model_Space
  1

  0
ENDBLK
  5
21
330
1F
100
AcDbEntity
  8
0
100
AcDbBlockEnd
  0
BLOCK
  5
1C
330
1B
100
AcDbEntity
 67
     1
  8
0
100
AcDbBlockBegin
  2
*Paper_Space
 70
     0
 71
     0
 10
0.0
 20
0.0
 30
0.0
  3
*Paper_Space
  1

  0
ENDBLK
  5
1D
330
1B
100
AcDbEntity
 67
     1
  8
0
100
AcDbBlockEnd
  0
BLOCK
  5
24
330
23
100
AcDbEntity
  8
0
100
AcDbBlockBegin
  2
*Paper_Space0
 70
     0
 71
     0
 10
0.0
 20
0.0
 30
0.0
  3
*Paper_Space0
  1

  0
ENDBLK
  5
25
330
23
100
AcDbEntity
  8
0
100
AcDbBlockEnd
  0
BLOCK
  5
6E
330
6A
100
AcDbEntity
  8
0
100
AcDbBlockBegin
  2
_Open30
 70
     0
 71
     0
 10
0.0
 20
0.0
 30
0.0
  3
_Open30
  1

  0
LINE
  5
6B
330
6A
100
AcDbEntity
  8
0
 62
     0
370
    -2
100
AcDbLine
 10
-1.0
 20
0.26794919
 30
0.0
 11
0.0
 21
0.0
 31
0.0
  0
LINE
  5
6C
330
6A
100
AcDbEntity
  8
0
 62
     0
370
    -2
100
AcDbLine
 10
0.0
 20
0.0
 30
0.0
 11
-1.0
 21
-0.26794919
 31
0.0
  0
LINE
  5
6D
330
6A
100
AcDbEntity
  8
0
 62
     0
370
    -2
100
AcDbLine
 10
0.0
 20
0.0
 30
0.0
 11
-1.0
 21
0.0
 31
0.0
  0
ENDBLK
  5
6F
330
6A
100
AcDbEntity
  8
0
100
AcDbBlockEnd
  0
BLOCK
  5
77
330
75
100
AcDbEntity
  8
0
100
AcDbBlockBegin
  2
GENAXEH
 70
     0
 71
     0
 10
0.0
 20
0.0
 30
0.0
  3
GENAXEH
  1

  0
LINE
  5
76
330
75
100
AcDbEntity
  8
0
100
AcDbLine
 10
-1.0
 20
0.0
 30
0.0
 11
1.0
 21
0.0
 31
0.0
  0
ENDBLK
  5
78
330
75
100
AcDbEntity
  8
0
100
AcDbBlockEnd
  0
BLOCK
  5
5F05
330
5F04
100
AcDbEntity
  8
0
100
AcDbBlockBegin
  2
*U30
 70
     1
 71
     0
 10
0.0
 20
0.0
 30
0.0
  3
*U30
  1

  0
ENDBLK
  5
5F06
330
5F04
100
AcDbEntity
  8
0
100
AcDbBlockEnd
  0
BLOCK
  5
67AB
330
6778
100
AcDbEntity
  8
0
100
AcDbBlockBegin
  2
*D31
 70
     1
 71
     0
 10
0.0
 20
0.0
 30
0.0
  3
*D31
  1

  0
LINE
  5
75BD
330
6778
100
AcDbEntity
  8
AM_5
 62
     3
370
    13
100
AcDbLine
 10
0.0
 20
7.049999999999999
 30
0.0
 11
-12.99996948242199
 21
7.050000000000003
 31
0.0
  0
LINE
  5
75BE
330
6778
100
AcDbEntity
  8
AM_5
 62
     3
370
    13
100
AcDbLine
 10
0.0
 20
-7.049999999999999
 30
0.0
 11
-12.99996948242199
 21
-7.049999999999995
 31
0.0
  0
LINE
  5
75BF
330
6778
100
AcDbEntity
  8
AM_5
 62
     3
370
    13
100
AcDbLine
 10
-11.99996948242199
 20
4.550000000000003
 30
0.0
 11
-11.99996948242199
 21
-4.549999999999995
 31
0.0
  0
INSERT
  5
75C0
330
6778
100
AcDbEntity
  8
AM_5
 62
     3
370
    13
100
AcDbBlockReference
  2
_Open30
 10
-11.99996948242199
 20
7.050000000000003
 30
0.0
 41
2.5
 42
2.5
 43
2.5
 50
90.0
  0
INSERT
  5
75C1
330
6778
100
AcDbEntity
  8
AM_5
 62
     3
370
    13
100
AcDbBlockReference
  2
_Open30
 10
-11.99996948242199
 20
-7.049999999999995
 30
0.0
 41
2.5
 42
2.5
 43
2.5
 50
270.0
  0
MTEXT
  5
75C2
330
6778
100
AcDbEntity
  8
AM_5
 62
     2
100
AcDbMText
 10
-15.39996948242199
 20
0.000000000000002
 30
0.0
 40
3.8
 41
0.0
 71
     5
 72
     1
  1
%%c14.1
 11
6.123031769111886E-17
 21
1.0
 31
0.0
 73
     1
 44
1.0
  0
POINT
  5
75C3
330
6778
100
AcDbEntity
  8
Defpoints
 62
     0
100
AcDbPoint
 10
0.0
 20
7.049999999999999
 30
0.0
  0
POINT
  5
75C4
330
6778
100
AcDbEntity
  8
Defpoints
 62
     0
100
AcDbPoint
 10
0.0
 20
-7.049999999999999
 30
0.0
  0
POINT
  5
75C5
330
6778
100
AcDbEntity
  8
Defpoints
 62
     0
100
AcDbPoint
 10
-11.99996948242199
 20
-7.049999999999995
 30
0.0
  0
ENDBLK
  5
67AC
330
6778
100
AcDbEntity
  8
0
100
AcDbBlockEnd
  0
BLOCK
  5
6C49
330
6C2A
100
AcDbEntity
  8
0
100
AcDbBlockBegin
  2
*D32
 70
     1
 71
     0
 10
0.0
 20
0.0
 30
0.0
  3
*D32
  1

  0
LINE
  5
75AA
330
6C2A
100
AcDbEntity
  8
AM_5
 62
     3
370
    13
100
AcDbLine
 10
190.0
 20
-8.000000000000034
 30
0.0
 11
211.6703009593366
 21
-8.000000000000039
 31
0.0
  0
LINE
  5
75AB
330
6C2A
100
AcDbEntity
  8
AM_5
 62
     3
370
    13
100
AcDbLine
 10
189.9999999999999
 20
7.999999999999974
 30
0.0
 11
211.6703009593366
 21
7.999999999999967
 31
0.0
  0
LINE
  5
75AC
330
6C2A
100
AcDbEntity
  8
AM_5
 62
     3
370
    13
100
AcDbLine
 10
210.6703009593366
 20
-5.50000000000004
 30
0.0
 11
210.6703009593366
 21
5.499999999999967
 31
0.0
  0
INSERT
  5
75AD
330
6C2A
100
AcDbEntity
  8
AM_5
 62
     3
370
    13
100
AcDbBlockReference
  2
_Open30
 10
210.6703009593366
 20
-8.000000000000039
 30
0.0
 41
2.5
 42
2.5
 43
2.5
 50
270.0
  0
INSERT
  5
75AE
330
6C2A
100
AcDbEntity
  8
AM_5
 62
     3
370
    13
100
AcDbBlockReference
  2
_Open30
 10
210.6703009593366
 20
7.999999999999967
 30
0.0
 41
2.5
 42
2.5
 43
2.5
 50
90.0
  0
MTEXT
  5
75AF
330
6C2A
100
AcDbEntity
  8
AM_5
 62
     2
100
AcDbMText
 10
207.2703009593366
 20
-0.0000000000000018
 30
0.0
 40
3.8
 41
0.0
 71
     5
 72
     1
  1
%%c16
 11
6.123031769111886E-17
 21
1.0
 31
0.0
 73
     1
 44
1.0
  0
POINT
  5
75B0
330
6C2A
100
AcDbEntity
  8
Defpoints
 62
     0
100
AcDbPoint
 10
190.0
 20
-8.000000000000034
 30
0.0
  0
POINT
  5
75B1
330
6C2A
100
AcDbEntity
  8
Defpoints
 62
     0
100
AcDbPoint
 10
189.9999999999999
 20
7.999999999999974
 30
0.0
  0
POINT
  5
75B2
330
6C2A
100
AcDbEntity
  8
Defpoints
 62
     0
100
AcDbPoint
 10
210.6703009593366
 20
7.999999999999967
 30
0.0
  0
ENDBLK
  5
6C4A
330
6C2A
100
AcDbEntity
  8
0
100
AcDbBlockEnd
  0
BLOCK
  5
6DA7
330
6D6B
100
AcDbEntity
  8
0
100
AcDbBlockBegin
  2
*D33
 70
     1
 71
     0
 10
0.0
 20
0.0
 30
0.0
  3
*D33
  1

  0
LINE
  5
74D6
330
6D6B
100
AcDbEntity
  8
AM_5
 62
     3
370
    13
100
AcDbLine
 10
191.5
 20
-6.500000000000016
 30
0.0
 11
191.5
 21
-21.24999999999995
 31
0.0
  0
LINE
  5
74D7
330
6D6B
100
AcDbEntity
  8
AM_5
 62
     3
370
    13
100
AcDbLine
 10
143.5
 20
-7.500000000000034
 30
0.0
 11
143.5
 21
-21.24999999999995
 31
0.0
  0
LINE
  5
74D8
330
6D6B
100
AcDbEntity
  8
AM_5
 62
     3
370
    13
100
AcDbLine
 10
189.0
 20
-20.24999999999995
 30
0.0
 11
146.0
 21
-20.24999999999995
 31
0.0
  0
INSERT
  5
74D9
330
6D6B
100
AcDbEntity
  8
AM_5
 62
     3
370
    13
100
AcDbBlockReference
  2
_Open30
 10
191.5
 20
-20.24999999999995
 30
0.0
 41
2.5
 42
2.5
 43
2.5
  0
INSERT
  5
74DA
330
6D6B
100
AcDbEntity
  8
AM_5
 62
     3
370
    13
100
AcDbBlockReference
  2
_Open30
 10
143.5
 20
-20.24999999999995
 30
0.0
 41
2.5
 42
2.5
 43
2.5
 50
180.0
  0
MTEXT
  5
74DB
330
6D6B
100
AcDbEntity
  8
AM_5
 62
     2
100
AcDbMText
 10
167.5
 20
-16.84999999999996
 30
0.0
 40
3.8
 41
0.0
 71
     5
 72
     1
  1
48
 73
     1
 44
1.0
  0
POINT
  5
74DC
330
6D6B
100
AcDbEntity
  8
Defpoints
 62
     0
100
AcDbPoint
 10
191.5
 20
-6.500000000000016
 30
0.0
  0
POINT
  5
74DD
330
6D6B
100
AcDbEntity
  8
Defpoints
 62
     0
100
AcDbPoint
 10
143.5
 20
-7.500000000000034
 30
0.0
  0
POINT
  5
74DE
330
6D6B
100
AcDbEntity
  8
Defpoints
 62
     0
100
AcDbPoint
 10
143.5
 20
-20.24999999999995
 30
0.0
  0
ENDBLK
  5
6DA8
330
6D6B
100
AcDbEntity
  8
0
100
AcDbBlockEnd
  0
BLOCK
  5
6F01
330
6EEB
100
AcDbEntity
  8
0
100
AcDbBlockBegin
  2
*D34
 70
     1
 71
     0
 10
0.0
 20
0.0
 30
0.0
  3
*D34
  1

  0
LINE
  5
74DF
330
6EEB
100
AcDbEntity
  8
AM_5
 62
     3
370
    13
100
AcDbLine
 10
0.0
 20
-8.25
 30
0.0
 11
-0.0000000000000018
 21
-37.87875592371975
 31
0.0
  0
LINE
  5
74E0
330
6EEB
100
AcDbEntity
  8
AM_5
 62
     3
370
    13
100
AcDbLine
 10
191.5
 20
-6.500000000000016
 30
0.0
 11
191.5
 21
-37.87875592371975
 31
0.0
  0
LINE
  5
74E1
330
6EEB
100
AcDbEntity
  8
AM_5
 62
     3
370
    13
100
AcDbLine
 10
2.499999999999998
 20
-36.87875592371975
 30
0.0
 11
189.0
 21
-36.87875592371975
 31
0.0
  0
INSERT
  5
74E2
330
6EEB
100
AcDbEntity
  8
AM_5
 62
     3
370
    13
100
AcDbBlockReference
  2
_Open30
 10
-0.0000000000000018
 20
-36.87875592371975
 30
0.0
 41
2.5
 42
2.5
 43
2.5
 50
180.0
  0
INSERT
  5
74E3
330
6EEB
100
AcDbEntity
  8
AM_5
 62
     3
370
    13
100
AcDbBlockReference
  2
_Open30
 10
191.5
 20
-36.87875592371975
 30
0.0
 41
2.5
 42
2.5
 43
2.5
  0
MTEXT
  5
74E4
330
6EEB
100
AcDbEntity
  8
AM_5
 62
     2
100
AcDbMText
 10
95.5158933049058
 20
-33.47875592371975
 30
0.0
 40
3.8
 41
0.0
 71
     5
 72
     1
  1
191.5
 73
     1
 44
1.0
  0
POINT
  5
74E5
330
6EEB
100
AcDbEntity
  8
Defpoints
 62
     0
100
AcDbPoint
 10
0.0
 20
-8.25
 30
0.0
  0
POINT
  5
74E6
330
6EEB
100
AcDbEntity
  8
Defpoints
 62
     0
100
AcDbPoint
 10
191.5
 20
-6.500000000000016
 30
0.0
  0
POINT
  5
74E7
330
6EEB
100
AcDbEntity
  8
Defpoints
 62
     0
100
AcDbPoint
 10
191.5
 20
-36.87875592371975
 30
0.0
  0
ENDBLK
  5
6F02
330
6EEB
100
AcDbEntity
  8
0
100
AcDbBlockEnd
  0
BLOCK
  5
6FCF
330
6FB0
100
AcDbEntity
  8
0
100
AcDbBlockBegin
  2
*D35
 70
     1
 71
     0
 10
0.0
 20
0.0
 30
0.0
  3
*D35
  1

  0
LINE
  5
7540
330
6FB0
100
AcDbEntity
  8
AM_5
 62
     3
370
    13
100
AcDbLine
 10
0.0
 20
-7.049999999999999
 30
0.0
 11
-0.0000000000000009
 21
-21.24999999999995
 31
0.0
  0
LINE
  5
7541
330
6FB0
100
AcDbEntity
  8
AM_5
 62
     3
370
    13
100
AcDbLine
 10
124.5
 20
-5.172573599229402
 30
0.0
 11
124.5
 21
-21.24999999999995
 31
0.0
  0
LINE
  5
7542
330
6FB0
100
AcDbEntity
  8
AM_5
 62
     3
370
    13
100
AcDbLine
 10
2.499999999999999
 20
-20.24999999999995
 30
0.0
 11
122.0
 21
-20.24999999999995
 31
0.0
  0
INSERT
  5
7543
330
6FB0
100
AcDbEntity
  8
AM_5
 62
     3
370
    13
100
AcDbBlockReference
  2
_Open30
 10
-0.0000000000000008
 20
-20.24999999999995
 30
0.0
 41
2.5
 42
2.5
 43
2.5
 50
180.0
  0
INSERT
  5
7544
330
6FB0
100
AcDbEntity
  8
AM_5
 62
     3
370
    13
100
AcDbBlockReference
  2
_Open30
 10
124.5
 20
-20.24999999999995
 30
0.0
 41
2.5
 42
2.5
 43
2.5
  0
MTEXT
  5
7545
330
6FB0
100
AcDbEntity
  8
AM_5
 62
     2
100
AcDbMText
 10
62.24999999999999
 20
-16.84962598425192
 30
0.0
 40
3.8
 41
0.0
 71
     5
 72
     1
  1
124.5
 73
     1
 44
1.0
  0
POINT
  5
7546
330
6FB0
100
AcDbEntity
  8
Defpoints
 62
     0
100
AcDbPoint
 10
0.0
 20
-7.049999999999999
 30
0.0
  0
POINT
  5
7547
330
6FB0
100
AcDbEntity
  8
Defpoints
 62
     0
100
AcDbPoint
 10
124.5
 20
-5.172573599229402
 30
0.0
  0
POINT
  5
7548
330
6FB0
100
AcDbEntity
  8
Defpoints
 62
     0
100
AcDbPoint
 10
124.5
 20
-20.24999999999995
 30
0.0
  0
ENDBLK
  5
6FD0
330
6FB0
100
AcDbEntity
  8
0
100
AcDbBlockEnd
  0
BLOCK
  5
7202
330
71D7
100
AcDbEntity
  8
0
100
AcDbBlockBegin
  2
*D36
 70
     1
 71
     0
 10
0.0
 20
0.0
 30
0.0
  3
*D36
  1

  0
LINE
  5
74F1
330
71D7
100
AcDbEntity
  8
AM_5
 62
     3
370
    13
100
AcDbLine
 10
-2.547791639863419
 20
0.0000000000000018
 30
0.0
 11
-11.25773529483886
 21
23.93037351676706
 31
0.0
  0
LINE
  5
74F2
330
71D7
100
AcDbEntity
  8
AM_5
 62
     3
370
    13
100
AcDbLine
 10
-2.547791639863419
 20
0.0000000000000018
 30
0.0
 11
-11.25773529483886
 21
-23.93037351676705
 31
0.0
  0
ARC
  5
74F3
330
71D7
100
AcDbEntity
  8
AM_5
 62
     3
370
    13
100
AcDbCircle
 10
-2.547791639863419
 20
0.0000000000000018
 30
0.0
 40
24.46617158358973
100
AcDbArc
 50
115.8571418735634
 51
244.1428581264366
  0
INSERT
  5
74F4
330
71D7
100
AcDbEntity
  8
AM_5
 62
     3
370
    13
100
AcDbBlockReference
  2
_Open30
 10
-10.91571515151319
 20
22.99068089598115
 30
0.0
 41
2.5
 42
2.5
 43
2.5
 50
22.9285709367817
  0
INSERT
  5
74F5
330
71D7
100
AcDbEntity
  8
AM_5
 62
     3
370
    13
100
AcDbBlockReference
  2
_Open30
 10
-10.91571515151319
 20
-22.99068089598114
 30
0.0
 41
2.5
 42
2.5
 43
2.5
 50
337.0714290632184
  0
MTEXT
  5
74F6
330
71D7
100
AcDbEntity
  8
AM_5
 62
     2
100
AcDbMText
 10
-30.41396322345315
 20
-0.0000000000000007
 30
0.0
 40
3.8
 41
0.0
 71
     5
 72
     1
  1
140°
 11
6.123031769111886E-17
 21
1.0
 31
0.0
 73
     1
 44
1.0
  0
POINT
  5
74F7
330
71D7
100
AcDbEntity
  8
Defpoints
 62
     0
100
AcDbPoint
 10
-25.01302446161197
 20
9.690555516702085
 30
0.0
  0
POINT
  5
74F8
330
71D7
100
AcDbEntity
  8
Defpoints
 62
     0
100
AcDbPoint
 10
-2.547791639863419
 20
0.0000000000000018
 30
0.0
  0
POINT
  5
74F9
330
71D7
100
AcDbEntity
  8
Defpoints
 62
     0
100
AcDbPoint
 10
0.0
 20
-7.0
 30
0.0
  0
POINT
  5
74FA
330
71D7
100
AcDbEntity
  8
Defpoints
 62
     0
100
AcDbPoint
 10
-2.547791639863419
 20
0.0000000000000018
 30
0.0
  0
POINT
  5
74FB
330
71D7
100
AcDbEntity
  8
Defpoints
 62
     0
100
AcDbPoint
 10
0.0
 20
7.000000000000002
 30
0.0
  0
ENDBLK
  5
7203
330
71D7
100
AcDbEntity
  8
0
100
AcDbBlockEnd
  0
ENDSEC
  0
SECTION
  2
ENTITIES
  0
MTEXT
  5
1A92
330
1F
100
AcDbEntity
  8
PV0001_1
 62
     2
370
    30
100
AcDbMText
 10
93.36077423095701
 20
-12.425247192382
 30
0.0
 40
2.3
 41
0.0
 71
     4
 72
     5
  1
\W0.72;　
 73
     1
 44
1.0
  0
MTEXT
  5
1A93
330
1F
100
AcDbEntity
  8
PV0001_1
 62
     2
370
    30
100
AcDbMText
 10
95.43577423095701
 20
-12.425247192382
 30
0.0
 40
2.3
 41
0.0
 71
     4
 72
     5
  1
\W0.72;　
 73
     1
 44
1.0
  0
LINE
  5
5F37
330
1F
100
AcDbEntity
  8
PV0001_1
  6
Continuous
 48
0.5
370
    30
100
AcDbLine
 10
143.5
 20
7.500015258790006
 30
0.0
 11
143.5
 21
-7.500000000000034
 31
0.0
  0
LINE
  5
5F38
330
1F
100
AcDbEntity
  8
PV0001_1
  6
Continuous
 48
0.5
370
    30
100
AcDbLine
 10
191.5
 20
6.499999999999963
 30
0.0
 11
191.5
 21
-6.500000000000017
 31
0.0
  0
LINE
  5
5F3B
330
1F
100
AcDbEntity
  8
PV0001_1
  6
Continuous
 48
0.5
370
    30
100
AcDbLine
 10
190.0
 20
7.999999999999959
 30
0.0
 11
190.0
 21
-8.00000000000003
 31
0.0
  0
LINE
  5
5F42
330
1F
100
AcDbEntity
  8
PV0001_1
  6
Continuous
 48
0.5
370
    30
100
AcDbLine
 10
144.0
 20
8.000015258790002
 30
0.0
 11
144.0
 21
-8.000000000000034
 31
0.0
  0
LINE
  5
61DF
330
1F
100
AcDbEntity
  8
AM_0
100
AcDbLine
 10
6.986155243295428
 20
7.049999999999999
 30
0.0
 11
6.986155243295443
 21
-7.049999999999999
 31
0.0
  0
LINE
  5
61E0
330
1F
100
AcDbEntity
  8
AM_0
100
AcDbLine
 10
0.0
 20
7.049999999999999
 30
0.0
 11
0.0
 21
-7.049999999999999
 31
0.0
  0
LINE
  5
61F8
330
1F
100
AcDbEntity
  8
AM_11
100
AcDbLine
 10
6.986155243295428
 20
-0.023013500828851
 30
0.0
 11
34.8731850373049
 21
-6.500000000000011
 31
0.0
  0
LINE
  5
653A
330
1F
100
AcDbEntity
  8
AM_7
100
AcDbLine
 10
-5.705720275878988
 20
0.0000000000000018
 30
0.0
 11
199.7678024352066
 21
-0.0000000000000426
 31
0.0
1001
GENIUS_GENOBJ-N-CEN_13
1002
{
1000
OWNER
1000
GEN
1002
}
1001
GENIUS_GENODEF_13
1002
{
1000
HIER
1070
     0
1002
}
1002
{
1000
MANEDIT
1070
     0
1002
}
1002
{
1000
NOSEL
1070
     0
1002
}
1002
{
1000
BEHIND
1070
     0
1002
}
1002
{
1000
OTHER
1070
     0
1002
}
1002
{
1000
REACTOR
1002
}
1001
GENIUS_GENCEN_19
1002
{
1040
2.794
1002
}
  0
DIMENSION
  5
6777
330
1F
100
AcDbEntity
  8
AM_5
100
AcDbDimension
  2
*D31
 10
-11.99996948242199
 20
-7.049999999999995
 30
0.0
 11
-11.99996948242199
 21
0.0000000000000016
 31
0.0
 70
   160
  1
%%c<>
 71
     5
 42
14.1
  3
AM_JIS$0
100
AcDbAlignedDimension
 13
0.0
 23
7.049999999999999
 33
0.0
 14
0.0
 24
-7.049999999999999
 34
0.0
 50
90.0
100
AcDbRotatedDimension
1001
ACAD
1000
DSTYLE
1002
{
1070
   271
1070
     1
1002
}
  0
LINE
  5
6AC4
330
1F
100
AcDbEntity
  8
AM_0
100
AcDbLine
 10
190.0
 20
7.999999999999959
 30
0.0
 11
144.0
 21
8.000015258790002
 31
0.0
  0
LINE
  5
6ACC
330
1F
100
AcDbEntity
  8
AM_0
100
AcDbLine
 10
143.5
 20
-7.500000000000034
 30
0.0
 11
141.5
 21
-6.500000000000011
 31
0.0
  0
LINE
  5
6ACD
330
1F
100
AcDbEntity
  8
AM_0
100
AcDbLine
 10
141.5
 20
-6.500000000000012
 30
0.0
 11
6.986155243295428
 21
-6.500000000000011
 31
0.0
  0
LINE
  5
6ACE
330
1F
100
AcDbEntity
  8
AM_0
100
AcDbLine
 10
6.986155243295428
 20
6.499999999999988
 30
0.0
 11
141.5
 21
6.499999999999995
 31
0.0
  0
LINE
  5
6B35
330
1F
100
AcDbEntity
  8
AM_0
100
AcDbLine
 10
144.0
 20
8.000015258790002
 30
0.0
 11
143.5
 21
7.500015258790002
 31
0.0
  0
LINE
  5
6B36
330
1F
100
AcDbEntity
  8
AM_0
100
AcDbLine
 10
143.5
 20
7.500015258790002
 30
0.0
 11
141.5
 21
6.499999999999988
 31
0.0
  0
LINE
  5
6BDA
330
1F
100
AcDbEntity
  8
AM_0
100
AcDbLine
 10
190.0
 20
-8.000000000000027
 30
0.0
 11
191.5
 21
-6.500000000000016
 31
0.0
  0
LINE
  5
6BDC
330
1F
100
AcDbEntity
  8
AM_0
100
AcDbLine
 10
189.9999999999999
 20
7.999999999999973
 30
0.0
 11
191.5
 21
6.499999999999959
 31
0.0
  0
DIMENSION
  5
6C29
330
1F
100
AcDbEntity
  8
AM_5
100
AcDbDimension
  2
*D32
 10
210.6703009593366
 20
7.999999999999967
 30
0.0
 11
210.6703009593366
 21
-0.0000000000000022
 31
0.0
 70
   160
  1
%%c<>
 71
     5
 42
16.00000000000001
  3
AM_JIS$0
100
AcDbAlignedDimension
 13
190.0
 23
-8.000000000000034
 33
0.0
 14
189.9999999999999
 24
7.999999999999973
 34
0.0
 50
90.0
100
AcDbRotatedDimension
1001
ACAD
1000
DSTYLE
1002
{
1070
   271
1070
     0
1002
}
  0
LINE
  5
6D07
330
1F
100
AcDbEntity
  8
AM_0
100
AcDbLine
 10
190.0
 20
-8.000000000000034
 30
0.0
 11
144.0
 21
-8.000000000000034
 31
0.0
  0
LINE
  5
6D34
330
1F
100
AcDbEntity
  8
AM_0
100
AcDbLine
 10
143.5
 20
-7.500000000000034
 30
0.0
 11
144.0
 21
-8.000000000000034
 31
0.0
  0
DIMENSION
  5
6D6A
330
1F
100
AcDbEntity
  8
AM_5
100
AcDbDimension
  2
*D33
 10
143.5
 20
-20.24999999999995
 30
0.0
 11
167.5
 21
-16.84999999999996
 31
0.0
 70
    32
 71
     5
 42
48.0
  3
AM_JIS$0
100
AcDbAlignedDimension
 13
191.5
 23
-6.500000000000016
 33
0.0
 14
143.5
 24
-7.500000000000034
 34
0.0
 50
0.0000000000001018
100
AcDbRotatedDimension
1001
ACAD
1000
DSTYLE
1002
{
1070
   271
1070
     0
1002
}
  0
DIMENSION
  5
6EEA
330
1F
100
AcDbEntity
  8
AM_5
100
AcDbDimension
  2
*D34
 10
191.5
 20
-36.87875592371975
 30
0.0
 11
95.5158933049058
 21
-36.87875592371975
 31
0.0
 70
   160
 71
     5
 42
191.5
  3
AM_JIS$0
100
AcDbAlignedDimension
 13
0.0
 23
-8.25
 33
0.0
 14
191.5
 24
-6.500000000000016
 34
0.0
 50
0.0000000000001018
100
AcDbRotatedDimension
1001
ACAD
1000
DSTYLE
1002
{
1070
   271
1070
     1
1002
}
  0
LINE
  5
6F42
330
1F
100
AcDbEntity
  8
AM_0
100
AcDbLine
 10
141.5
 20
-6.500000000000011
 30
0.0
 11
141.5
 21
6.499999999999988
 31
0.0
  0
LINE
  5
6F9D
330
1F
100
AcDbEntity
  8
AM_11
100
AcDbLine
 10
124.5
 20
-5.172573599229402
 30
0.0
 11
124.5
 21
6.499999999999991
 31
0.0
  0
DIMENSION
  5
6FAF
330
1F
100
AcDbEntity
  8
AM_5
100
AcDbDimension
  2
*D35
 10
124.5
 20
-20.24999999999995
 30
0.0
 11
62.24999999999999
 21
-16.84962598425192
 31
0.0
 70
    32
 71
     5
 42
124.5
  3
AM_JIS$0
100
AcDbAlignedDimension
 13
0.0
 23
-7.049999999999999
 33
0.0
 14
124.5
 24
-5.172573599229402
 34
0.0
 50
0.0000000000001018
100
AcDbRotatedDimension
1001
ACAD
1000
DSTYLE
1002
{
1070
   271
1070
     1
1002
}
  0
LINE
  5
718B
330
1F
100
AcDbEntity
  8
AM_0
100
AcDbLine
 10
6.986155243295428
 20
7.049999999999999
 30
0.0
 11
0.0
 21
7.049999999999999
 31
0.0
  0
LINE
  5
718C
330
1F
100
AcDbEntity
  8
AM_0
100
AcDbLine
 10
0.0
 20
-7.049999999999999
 30
0.0
 11
6.986155243295443
 21
-7.049999999999999
 31
0.0
  0
DIMENSION
  5
71D6
330
1F
100
AcDbEntity
  8
AM_5
100
AcDbDimension
  2
*D36
 10
0.0
 20
7.000000000000002
 30
0.0
 11
-30.41396322345315
 21
0.0000000000000042
 31
0.0
 70
    34
 71
     5
 42
2.443460952792061
  3
AM_JIS$2
100
AcDb2LineAngularDimension
 13
0.0
 23
-7.0
 33
0.0
 14
-2.547791639863419
 24
0.0000000000000018
 34
0.0
 15
-2.547791639863419
 25
0.0000000000000018
 35
0.0
 16
-25.01302446161197
 26
9.690555516702085
 36
0.0
1001
ACAD
1000
DSTYLE
1002
{
1070
   271
1070
     1
1002
}
  0
LINE
  5
7259
330
1F
100
AcDbEntity
  8
AM_0
100
AcDbLine
 10
0.0
 20
-7.049999999999999
 30
0.0
 11
-2.565990151576727
 21
0.0000000000000018
 31
0.0
  0
LINE
  5
725A
330
1F
100
AcDbEntity
  8
AM_0
100
AcDbLine
 10
-2.565990151576727
 20
0.0000000000000018
 30
0.0
 11
0.0
 21
7.049999999999999
 31
0.0
  0
LINE
  5
753E
330
1F
100
AcDbEntity
  8
AM_11
100
AcDbLine
 10
25.56380678016825
 20
6.499999999999989
 30
0.0
 11
82.84428370394508
 21
-6.80385051552121
 31
0.0
  0
LINE
  5
753F
330
1F
100
AcDbEntity
  8
AM_11
100
AcDbLine
 10
74.24307762164771
 20
6.499999999999991
 30
0.0
 11
130.2153090549721
 21
-6.500000000000012
 31
0.0
  0
TEXT
  5
7577
330
1F
100
AcDbEntity
  8
0
100
AcDbText
 10
32.28432297807999
 20
-61.64095946820729
 30
0.0
 40
5.0
  1
SMDT1410MTL /MEL
100
AcDbText
  0
TEXT
  5
7578
330
1F
100
AcDbEntity
  8
0
100
AcDbText
 10
23.14022616956831
 20
-52.3090236071624
 30
0.0
 40
5.0
  1
ヘッド
100
AcDbText
  0
TEXT
  5
7579
330
1F
100
AcDbEntity
  8
0
100
AcDbText
 10
142.0414040797734
 20
-52.54901056618215
 30
0.0
 40
5.0
  1
ホルダ
100
AcDbText
  0
TEXT
  5
757A
330
1F
100
AcDbEntity
  8
0
100
AcDbText
 10
150.2943230366804
 20
-62.03016236435181
 30
0.0
 40
5.0
  1
SMDH140D
100
AcDbText
  0
TEXT
  5
757B
330
1F
100
AcDbEntity
  8
0
100
AcDbText
 10
71.85241837206601
 20
-18.50779554431071
 30
0.0
 40
3.5
  1
有効首下長
100
AcDbText
  0
ENDSEC
  0
SECTION
  2
OBJECTS
  0
DICTIONARY
  5
C
330
0
100
AcDbDictionary
281
     1
  3
ACAD_COLOR
350
5EB3
  3
ACAD_GROUP
350
D
  3
ACAD_LAYOUT
350
1A
  3
ACAD_MATERIAL
350
5EB2
  3
ACAD_MLINESTYLE
350
17
  3
ACAD_PLOTSETTINGS
350
19
  3
ACAD_PLOTSTYLENAME
350
E
  3
ACAD_TABLESTYLE
350
5EB4
  3
AcAmCatalogState
350
5F1D
  3
ACDBHEADERROUNDTRIPXREC
350
75EE
  3
AcDbVariableDictionary
350
30
  3
ACDMSYSVARMGR
350
5ECE
  3
ACGREF_MASTER
350
5EC6
  3
ACGREFACAD_MASTER
350
5EF0
  3
AcmDictionary
350
43
  3
ACME_BOM_MANAGER_NAME
350
36
  3
ACME_COMMAND_HISTORY
350
2F
  3
ACME_SCOPE_NAME
350
2E
  3
ACMESTATEMGR
350
3B
  3
AcmeSysVarManager
350
32
  3
AcmSystemVariableManager
350
79D
  3
AD_APPL
350
5EFB
  3
ADSYSVARMGR
350
5EFA
  3
AmdtNamedDwgMgr
350
5EEB
  3
AMG
350
3F
  3
AMGSNAPSETTINGS
350
59
  3
AMI_MASTER
350
5EF3
  3
AUTOCAD_ASSEMBLIES_PROJECT
350
5F03
  3
Designer_Assemblies_SysVars
350
5EFE
  3
DWGPROPS
350
75F1
  3
GREFAM_MODULE
350
5EF4
  3
SAKAE_DICT
350
1CE6
  3
table_dic_data
350
5D95
  0
DICTIONARY
  5
10B
330
1F
100
AcDbDictionary
280
     1
281
     1
  0
DICTIONARY
  5
5EB3
102
{ACAD_REACTORS
330
C
102
}
330
C
100
AcDbDictionary
281
     1
  0
DICTIONARY
  5
D
102
{ACAD_REACTORS
330
C
102
}
330
C
100
AcDbDictionary
281
     1
  0
DICTIONARY
  5
1A
102
{ACAD_REACTORS
330
C
102
}
330
C
100
AcDbDictionary
281
     1
  3
Model
350
22
  3
ﾚｲｱｳﾄ1
350
1E
  3
ﾚｲｱｳﾄ2
350
26
  0
DICTIONARY
  5
5EB2
102
{ACAD_REACTORS
330
C
102
}
330
C
100
AcDbDictionary
281
     1
  0
DICTIONARY
  5
17
102
{ACAD_REACTORS
330
C
102
}
330
C
100
AcDbDictionary
281
     1
  3
Standard
350
18
  0
DICTIONARY
  5
19
102
{ACAD_REACTORS
330
C
102
}
330
C
100
AcDbDictionary
281
     1
  0
ACDBDICTIONARYWDFLT
  5
E
102
{ACAD_REACTORS
330
C
102
}
330
C
100
AcDbDictionary
281
     1
  3
Normal
350
F
100
AcDbDictionaryWithDefault
340
F
  0
DICTIONARY
  5
5EB4
102
{ACAD_REACTORS
330
C
102
}
330
C
100
AcDbDictionary
281
     1
  3
Standard
350
5EB5
  0
ACAD_PROXY_OBJECT
  5
5F1D
102
{ACAD_REACTORS
330
C
102
}
330
C
100
AcDbProxyObject
 90
      499
 91
      571
 95
       25
 70
     0
 93
      600
310
3FFFFFFFE00A02814029F2E2E25B0B4BAB398AE483ECB654563CBCE90169031BA3239AE4AABC7C0483ECB652E464541504157C6A445F7AE29A2A1C1BEC1C5C1B046E2C82B483ECB65400AA
  0
DICTIONARY
  5
75EE
102
{ACAD_REACTORS
330
C
102
}
330
C
100
AcDbDictionary
281
     1
  3
COLORDICT
350
75EF
  3
MATERIALDICT
350
75F0
  0
DICTIONARY
  5
30
102
{ACAD_REACTORS
330
C
102
}
330
C
100
AcDbDictionary
281
     1
  3
CTABLESTYLE
350
61FD
  3
DIMASSOC
350
75EC
  3
HIDETEXT
350
75ED
  3
INDEXCTL
350
31
  0
ACAD_PROXY_OBJECT
  5
5ECE
102
{ACAD_REACTORS
330
C
102
}
330
C
100
AcDbProxyObject
 90
      499
 91
      507
 95
       25
 70
     0
 93
      240
310
4C51A47A0000000000000000000000000000000000000000000000000000
330
5ECF
330
5ED0
330
5ED1
330
5ED2
330
5ED3
330
5ED4
330
5ED5
330
5ED6
330
5ED7
330
5ED8
330
5ED9
330
5EDA
330
5EDB
330
5EDC
330
5EDD
330
5EDE
330
5EDF
330
5EE0
330
5EE1
330
5EE2
330
5EE3
330
5EE4
330
5EE5
330
5EE6
330
5EE7
330
5EE8
 94
        0
  0
ACAD_PROXY_OBJECT
  5
5EC6
102
{ACAD_REACTORS
330
C
102
}
330
C
100
AcDbProxyObject
 90
      499
 91
      535
 95
       25
 70
     0
 93
       34
310
0400004280
  0
ACAD_PROXY_OBJECT
  5
5EF0
102
{ACAD_REACTORS
330
C
102
}
330
C
100
AcDbProxyObject
 90
      499
 91
      541
 95
       25
 70
     0
 93
      114
310
04000041C080000000000000000000
  0
DICTIONARY
  5
43
102
{ACAD_REACTORS
330
C
102
}
330
C
100
AcDbDictionary
281
     1
  3
AcmBOMDATA
350
44
  3
AcmStdDictionary
350
7A0
  3
AMDTSECTSYM_ARROWCOLOR
350
5F11
  0
ACAD_PROXY_OBJECT
  5
36
102
{ACAD_REACTORS
330
C
102
}
330
C
100
AcDbProxyObject
 90
      499
 91
      510
 95
       25
 70
     0
 93
       50
310
00010040400000
330
0
330
0
330
37
 94
        0
  0
ACAD_PROXY_OBJECT
  5
2F
102
{ACAD_REACTORS
330
C
102
}
330
C
100
AcDbProxyObject
 90
      499
 91
      505
 95
       25
 70
     0
 93
     4986
310
4780504554E444F80505455241534580507414D4C41594552805055153415645404052D4D5347202D205050413A2020206465736B746F702E6172782046696C6556657273696F6E3A20392E322E302E3401415454D05591501014B5354D1C80B481414104E88080819195CDADD1BDC0B985C9E08119A5B1955995C9CDA5BDB
310
8E880E4B8C8B8C0B8D0050E414D4454524553455444424D4F4440805084E202D20554E444F014213880B4815539113C0504554E444F80504554E444F8050844524F5047454F4D80504554E444F80506494E534552548050653454C4543548050844524F5047454F4D8050844524F5047454F4D8050844524F5047454F4D805
310
0844524F5047454F4D8050644444544495480506444445444954805055153415645404052D4D5347202D205050413A2020206465736B746F702E6172782046696C6556657273696F6E3A20392E322E302E34014151549054D1601415454D05591501014B5354D1C80B481414104E88080819195CDADD1BDC0B985C9E08119A
310
5B1955995C9CDA5BDB8E880E4B8C8B8C0B8D0050E414D4454524553455444424D4F4440805084E202D20554E444F014213880B4815539113C0504554E444F80504554E444F8050844524F5047454F4D805055153415645404052D4D5347202D205050413A2020206465736B746F702E6172782046696C6556657273696F6E3
310
A20392E322E302E34014390535115149154D15511109353D1102014213880B4815539113C05084E202D20554E444F014115539113E014115539113E014154155491D1501014B5354D1C80B481414104E88080819195CDADD1BDC0B985C9E08119A5B1955995C9CDA5BDB8E880E4B8C8B8C0B8D00
  0
ACAD_PROXY_OBJECT
  5
2E
102
{ACAD_REACTORS
330
C
102
}
330
C
100
AcDbProxyObject
 90
      499
 91
      504
 95
       25
 70
     0
 93
      586
310
09000046408000000000000000001344E200000000000000000000000000000000000000000000000000000000000000000000000000000000000000000000000000000000AAA406AA80
360
33
360
34
360
35
360
37
360
79E
360
79F
360
5EC7
360
5EC8
360
5EC9
360
5ECA
360
5ECB
360
5ECC
360
5ECF
360
5ED0
360
5ED1
360
5ED2
360
5ED3
360
5ED4
360
5ED5
360
5ED6
360
5ED7
360
5ED8
360
5ED9
360
5EDA
360
5EDB
360
5EDC
360
5EDD
360
5EDE
360
5EDF
360
5EE0
360
5EE1
360
5EE2
360
5EE3
360
5EE4
360
5EE5
360
5EE6
360
5EE7
360
5EE8
360
5EF6
360
5EF7
360
5EF8
360
5EF9
360
5EFF
360
5F00
360
5F01
360
5F02
360
5F07
360
5F08
360
5F09
360
5F0A
360
5F0B
360
5F0C
 94
        0
  0
ACAD_PROXY_OBJECT
  5
3B
102
{ACAD_REACTORS
330
C
102
}
330
C
100
AcDbProxyObject
 90
      499
 91
      515
 95
       25
 70
     0
 93
       50
310
09000042641280
  0
ACAD_PROXY_OBJECT
  5
32
102
{ACAD_REACTORS
330
C
102
}
330
C
100
AcDbProxyObject
 90
      499
 91
      507
 95
       25
 70
     0
 93
       48
310
903412000000
330
33
330
34
330
35
 94
        0
  0
ACAD_PROXY_OBJECT
  5
79D
102
{ACAD_REACTORS
330
C
102
}
330
C
100
AcDbProxyObject
 90
      499
 91
      507
 95
       25
 70
     0
 93
       40
310
90240E0000
330
79E
330
79F
 94
        0
  0
ACAD_PROXY_OBJECT
  5
5EFB
102
{ACAD_REACTORS
330
C
102
}
330
C
100
AcDbProxyObject
 90
      499
 91
      551
 95
       25
 70
     0
 93
       42
310
000900004040
330
5EF6
 94
        0
  0
ACAD_PROXY_OBJECT
  5
5EFA
102
{ACAD_REACTORS
330
C
102
}
330
C
100
AcDbProxyObject
 90
      499
 91
      507
 95
       25
 70
     0
 93
        8
310
AA
  0
ACAD_PROXY_OBJECT
  5
5EEB
102
{ACAD_REACTORS
330
C
102
}
330
C
100
AcDbProxyObject
 90
      499
 91
      540
 95
       25
 70
     0
 93
       42
310
000100005E80
330
5EC7
 94
        0
  0
DICTIONARY
  5
3F
102
{ACAD_REACTORS
330
C
102
}
330
C
100
AcDbDictionary
281
     1
  3
AcMgSettings
350
40
  3
AMGLAYCFG
350
47
  0
DICTIONARY
  5
59
102
{ACAD_REACTORS
330
C
102
}
330
C
100
AcDbDictionary
281
     1
  3
DIMENSION
350
AE3
  3
FEA
350
AE4
  3
HATCH (1)
350
AE5
  3
HATCH (2)
350
AE6
  3
SYMBOLS
350
AE7
  0
ACAD_PROXY_OBJECT
  5
5EF3
102
{ACAD_REACTORS
330
C
102
}
330
C
100
AcDbProxyObject
 90
      499
 91
      544
 95
       25
 70
     0
 93
       34
310
0500004280
  0
ACAD_PROXY_OBJECT
  5
5F03
102
{ACAD_REACTORS
330
C
102
}
330
C
100
AcDbProxyObject
 90
      499
 91
      554
 95
       25
 70
     0
 93
       98
310
0900004E400000000000000000
330
5F0A
330
0
330
5F0B
330
0
330
0
330
0
330
0
330
0
 94
        0
  0
ACAD_PROXY_OBJECT
  5
5EFE
102
{ACAD_REACTORS
330
C
102
}
330
C
100
AcDbProxyObject
 90
      499
 91
      507
 95
       25
 70
     0
 93
       56
310
90441600000000
330
5EFF
330
5F00
330
5F01
330
5F02
 94
        0
  0
XRECORD
  5
75F1
102
{ACAD_REACTORS
330
C
102
}
330
C
100
AcDbXrecord
280
     1
  1
DWGPROPS COOKIE
  2

  3

  4

  6

  7

  8

  9

300
AmdtFileType=82
301
=
302
=
303
=
304
=
305
=
306
=
307
=
308
=
309
=
 40
0.0
 41
2451856.233395394
 42
2455429.370829167
  1

 90
        1
  0
ACAD_PROXY_OBJECT
  5
5EF4
102
{ACAD_REACTORS
330
C
102
}
330
C
100
AcDbProxyObject
 90
      499
 91
      545
 95
       25
 70
     0
 93
        8
310
05
  0
DICTIONARY
  5
1CE6
102
{ACAD_REACTORS
330
C
102
}
330
C
100
AcDbDictionary
281
     1
  3
XREC1
350
1CE7
  0
DICTIONARY
  5
5D95
102
{ACAD_REACTORS
330
C
102
}
330
C
100
AcDbDictionary
281
     1
  3
input_data
350
5D97
  3
table_data
350
5D96
  0
LAYOUT
  5
22
102
{ACAD_REACTORS
330
1A
102
}
330
1A
100
AcDbPlotSettings
  1

  2
Canon LBP9100C
  4
A4
  6
AM_VIEW1
 40
5.789083480834961
 41
5.789072036743164
 42
5.789093017578125
 43
5.789093017578125
 44
209.9733276367188
 45
296.9259948730469
 46
0.0
 47
0.0
 48
-193.8848976949696
 49
-159.3148132568574
140
226.1151023050304
141
137.6851867431427
142
1.0
143
1.497012393175651
 70
 11952
 72
     1
 73
     1
 74
     4
  7
sei_cad.ctb
 75
     0
147
0.6679971418798171
148
193.8848976949696
149
159.3148132568574
100
AcDbLayout
  1
Model
 70
     1
 71
     0
 10
0.0
 20
0.0
 11
12.0
 21
9.0
 12
0.0
 22
0.0
 32
0.0
 14
0.0
 24
0.0
 34
0.0
 15
0.0
 25
0.0
 35
0.0
146
0.0
 13
0.0
 23
0.0
 33
0.0
 16
1.0
 26
0.0
 36
0.0
 17
0.0
 27
1.0
 37
0.0
 76
     0
330
1F
1001
ACAD_PSEXT
1000
Canon LBP9100C
1000
Canon LBP9100C
1000
IP_10.254.89.242
1000

1070
     0
  0
LAYOUT
  5
1E
102
{ACAD_REACTORS
330
1A
102
}
330
1A
100
AcDbPlotSettings
  1

  2
SII LP-2150 (D-SCAN C2)
  4

  6

 40
0.0
 41
0.0
 42
0.0
 43
0.0
 44
0.0
 45
0.0
 46
0.0
 47
0.0
 48
0.0
 49
0.0
140
0.0
141
0.0
142
1.0
143
1.0
 70
   688
 72
     0
 73
     0
 74
     5
  7
sei_cad.ctb
 75
    16
147
1.0
148
0.0
149
0.0
100
AcDbLayout
  1
ﾚｲｱｳﾄ1
 70
     1
 71
     1
 10
0.0
 20
0.0
 11
420.0
 21
297.0
 12
0.0
 22
0.0
 32
0.0
 14
1.000000000000000E+20
 24
1.000000000000000E+20
 34
1.000000000000000E+20
 15
-1.000000000000000E+20
 25
-1.000000000000000E+20
 35
-1.000000000000000E+20
146
0.0
 13
0.0
 23
0.0
 33
0.0
 16
1.0
 26
0.0
 36
0.0
 17
0.0
 27
1.0
 37
0.0
 76
     0
330
1B
  0
LAYOUT
  5
26
102
{ACAD_REACTORS
330
1A
102
}
330
1A
100
AcDbPlotSettings
  1

  2
SII LP-2150 (D-SCAN C2)
  4

  6

 40
0.0
 41
0.0
 42
0.0
 43
0.0
 44
0.0
 45
0.0
 46
0.0
 47
0.0
 48
0.0
 49
0.0
140
0.0
141
0.0
142
1.0
143
1.0
 70
   688
 72
     0
 73
     0
 74
     5
  7
sei_cad.ctb
 75
    16
147
1.0
148
0.0
149
0.0
100
AcDbLayout
  1
ﾚｲｱｳﾄ2
 70
     1
 71
     2
 10
0.0
 20
0.0
 11
12.0
 21
9.0
 12
0.0
 22
0.0
 32
0.0
 14
0.0
 24
0.0
 34
0.0
 15
0.0
 25
0.0
 35
0.0
146
0.0
 13
0.0
 23
0.0
 33
0.0
 16
1.0
 26
0.0
 36
0.0
 17
0.0
 27
1.0
 37
0.0
 76
     0
330
23
  0
MLINESTYLE
  5
18
102
{ACAD_REACTORS
330
17
102
}
330
17
100
AcDbMlineStyle
  2
STANDARD
 70
     0
  3

 62
   256
 51
90.0
 52
90.0
 71
     2
 49
0.5
 62
   256
  6
BYLAYER
 49
-0.5
 62
   256
  6
BYLAYER
  0
ACDBPLACEHOLDER
  5
F
102
{ACAD_REACTORS
330
E
102
}
330
E
  0
TABLESTYLE
  5
5EB5
102
{ACAD_REACTORS
330
5EB4
102
}
330
5EB4
100
AcDbTableStyle
  3
Standard
 70
     0
 71
     8
 40
1.5
 41
1.5
280
     0
281
     0
  7
STANDARD
140
4.5
170
     2
 62
     0
 63
     7
283
     0
274
    -2
284
     1
 64
     0
275
    -2
285
     1
 65
     0
276
    -2
286
     1
 66
     0
277
    -2
287
     1
 67
     0
278
    -2
288
     1
 68
     0
279
    -2
289
     1
 69
     0
  7
STANDARD
140
6.0
170
     5
 62
     0
 63
     7
283
     0
274
    -2
284
     1
 64
     0
275
    -2
285
     1
 65
     0
276
    -2
286
     1
 66
     0
277
    -2
287
     1
 67
     0
278
    -2
288
     1
 68
     0
279
    -2
289
     1
 69
     0
  7
STANDARD
140
4.5
170
     5
 62
     0
 63
     7
283
     0
274
    -2
284
     1
 64
     0
275
    -2
285
     1
 65
     0
276
    -2
286
     1
 66
     0
277
    -2
287
     1
 67
     0
278
    -2
288
     1
 68
     0
279
    -2
289
     1
 69
     0
  0
XRECORD
  5
75EF
102
{ACAD_REACTORS
330
75EE
102
}
330
75EE
100
AcDbXrecord
280
     1
340
5EB3
  0
XRECORD
  5
75F0
102
{ACAD_REACTORS
330
75EE
102
}
330
75EE
100
AcDbXrecord
280
     1
340
5EB2
  0
DICTIONARYVAR
  5
61FD
102
{ACAD_REACTORS
330
30
102
}
330
30
100
DictionaryVariables
280
     0
  1
STANDARD
  0
DICTIONARYVAR
  5
75EC
102
{ACAD_REACTORS
330
30
102
}
330
30
100
DictionaryVariables
280
     0
  1
1
  0
DICTIONARYVAR
  5
75ED
102
{ACAD_REACTORS
330
30
102
}
330
30
100
DictionaryVariables
280
     0
  1
0
  0
DICTIONARYVAR
  5
31
102
{ACAD_REACTORS
330
30
102
}
330
30
100
DictionaryVariables
280
     0
  1
1
  0
ACAD_PROXY_OBJECT
  5
44
102
{ACAD_REACTORS
330
43
102
}
330
43
100
AcDbProxyObject
 90
      499
 91
      519
 95
       25
 70
     0
 93
      118
310
405010040CA904C415CD5B075DD098
350
45
 94
        0
  0
DICTIONARY
  5
7A0
102
{ACAD_REACTORS
330
43
102
}
330
43
100
AcDbDictionary
281
     1
  3
ANSI
350
72FE
  3
JIS
350
7A1
  0
XRECORD
  5
5F11
102
{ACAD_REACTORS
330
43
102
}
330
43
100
AcDbXrecord
280
     1
 90
-1023410169
  0
ACAD_PROXY_OBJECT
  5
33
330
2E
100
AcDbProxyObject
 90
      499
 91
      508
 95
       25
 70
     0
 93
      156
310
00010143D050D351505391D5531054925390D490
330
2E
 94
        0
  0
ACAD_PROXY_OBJECT
  5
34
330
2E
100
AcDbProxyObject
 90
      499
 91
      508
 95
       25
 70
     0
 93
      148
310
000101439050D351531253915054925390D490
330
2E
 94
        0
  0
ACAD_PROXY_OBJECT
  5
35
330
2E
100
AcDbProxyObject
 90
      499
 91
      509
 95
       25
 70
     0
 93
      156
310
000101439050D35154D6535093D314D256915080
330
2E
 94
        0
  0
ACAD_PROXY_OBJECT
  5
37
330
2E
100
AcDbProxyObject
 90
      499
 91
      511
 95
       25
 70
     0
 93
       88
310
000101411093D34C402B00
330
2E
330
0
330
0
 94
        0
  0
ACAD_PROXY_OBJECT
  5
79E
330
2E
100
AcDbProxyObject
 90
      499
 91
      509
 95
       25
 70
     0
 93
      108
310
00010142505351D153D35054D4E0
330
2E
 94
        0
  0
ACAD_PROXY_OBJECT
  5
79F
330
2E
100
AcDbProxyObject
 90
      499
 91
      525
 95
       25
 70
     0
 93
      140
310
00010142105350D55494D511005034A49530
330
2E
 94
        0
  0
ACAD_PROXY_OBJECT
  5
5EC7
330
2E
100
AcDbProxyObject
 90
      499
 91
      536
 95
       25
 70
     0
 93
      358
310
0001014124FEA55D00507392E322E302E32014124FEA55D00507392E322E302E3240501000041505391D311658
330
2E
330
5EC8
330
5ECE
 94
        0
  0
ACAD_PROXY_OBJECT
  5
5EC8
330
2E
100
AcDbProxyObject
 90
      499
 91
      537
 95
       25
 70
     0
 93
       56
310
000190240E0000
330
2E
330
5EC9
330
5ECB
 94
        0
  0
ACAD_PROXY_OBJECT
  5
5EC9
330
2E
100
AcDbProxyObject
 90
      499
 91
      538
 95
       25
 70
     0
 93
       48
310
0001AA000000
330
2E
330
1E
330
5ECA
330
0
 94
        0
  0
ACAD_PROXY_OBJECT
  5
5ECA
330
2E
100
AcDbProxyObject
 90
      499
 91
      539
 95
       25
 70
     0
 93
       28
310
0001AAA0
330
2E
 94
        0
  0
ACAD_PROXY_OBJECT
  5
5ECB
330
2E
100
AcDbProxyObject
 90
      499
 91
      538
 95
       25
 70
     0
 93
       48
310
0001AA000000
330
2E
330
26
330
5ECC
330
0
 94
        0
  0
ACAD_PROXY_OBJECT
  5
5ECC
330
2E
100
AcDbProxyObject
 90
      499
 91
      539
 95
       25
 70
     0
 93
       28
310
0001AAA0
330
2E
 94
        0
  0
ACAD_PROXY_OBJECT
  5
5ECF
330
2E
100
AcDbProxyObject
 90
      499
 91
      509
 95
       25
 70
     0
 93
      108
310
000101421053521310D05310D010
330
2E
 94
        0
  0
ACAD_PROXY_OBJECT
  5
5ED0
330
2E
100
AcDbProxyObject
 90
      499
 91
      509
 95
       25
 70
     0
 93
      124
310
00010142905354915554D15112535010
330
2E
 94
        0
  0
ACAD_PROXY_OBJECT
  5
5ED1
330
2E
100
AcDbProxyObject
 90
      499
 91
      509
 95
       25
 70
     0
 93
      132
310
00010143105354D150D51253D391125360
330
2E
 94
        0
  0
ACAD_PROXY_OBJECT
  5
5ED2
330
2E
100
AcDbProxyObject
 90
      499
 91
      509
 95
       25
 70
     0
 93
      124
310
00010142905355941093D49111549010
330
2E
 94
        0
  0
ACAD_PROXY_OBJECT
  5
5ED3
330
2E
100
AcDbProxyObject
 90
      499
 91
      509
 95
       25
 70
     0
 93
      116
310
0001014290535115D1D0D3D313D4A0
330
2E
 94
        0
  0
ACAD_PROXY_OBJECT
  5
5ED4
330
2E
100
AcDbProxyObject
 90
      499
 91
      509
 95
       25
 70
     0
 93
      148
310
00010143505355925155D49151949154D21010
330
2E
 94
        0
  0
ACAD_PROXY_OBJECT
  5
5ED5
330
2E
100
AcDbProxyObject
 90
      499
 91
      509
 95
       25
 70
     0
 93
      172
310
00010144105350539393D51154149154D15495915010
330
2E
 94
        0
  0
ACAD_PROXY_OBJECT
  5
5ED6
330
2E
100
AcDbProxyObject
 90
      499
 91
      509
 95
       25
 70
     0
 93
      172
310
00010144105350555513D11253505494905391D15010
330
2E
 94
        0
  0
ACAD_PROXY_OBJECT
  5
5ED7
330
2E
100
AcDbProxyObject
 90
      499
 91
      509
 95
       25
 70
     0
 93
      124
310
00010142D05351561514915191125360
330
2E
 94
        0
  0
ACAD_PROXY_OBJECT
  5
5ED8
330
2E
100
AcDbProxyObject
 90
      499
 91
      509
 95
       25
 70
     0
 93
      132
310
00010142D05355105410539393D5115010
330
2E
 94
        0
  0
ACAD_PROXY_OBJECT
  5
5ED9
330
2E
100
AcDbProxyObject
 90
      499
 91
      509
 95
       25
 70
     0
 93
      108
310
00010142105350555513D0D31010
330
2E
 94
        0
  0
ACAD_PROXY_OBJECT
  5
5EDA
330
2E
100
AcDbProxyObject
 90
      499
 91
      509
 95
       25
 70
     0
 93
      108
310
00010142105350D3119150551050
330
2E
 94
        0
  0
ACAD_PROXY_OBJECT
  5
5EDB
330
2E
100
AcDbProxyObject
 90
      499
 91
      509
 95
       25
 70
     0
 93
      108
310
00010142105350D315925155D3F0
330
2E
 94
        0
  0
ACAD_PROXY_OBJECT
  5
5EDC
330
2E
100
AcDbProxyObject
 90
      499
 91
      509
 95
       25
 70
     0
 93
      148
310
0001014350535212511156915493D112535010
330
2E
 94
        0
  0
ACAD_PROXY_OBJECT
  5
5EDD
330
2E
100
AcDbProxyObject
 90
      499
 91
      509
 95
       25
 70
     0
 93
      124
310
00010142905352105510D21254D3D010
330
2E
 94
        0
  0
ACAD_PROXY_OBJECT
  5
5EDE
330
2E
100
AcDbProxyObject
 90
      499
 91
      509
 95
       25
 70
     0
 93
      148
310
00010143905354D25391D31152105513105660
330
2E
 94
        0
  0
ACAD_PROXY_OBJECT
  5
5EDF
330
2E
100
AcDbProxyObject
 90
      499
 91
      509
 95
       25
 70
     0
 93
      124
310
00010142D0535115D1D193111254D420
330
2E
 94
        0
  0
ACAD_PROXY_OBJECT
  5
5EE0
330
2E
100
AcDbProxyObject
 90
      499
 91
      509
 95
       25
 70
     0
 93
      100
310
00010142105350555513D213A0
330
2E
 94
        0
  0
ACAD_PROXY_OBJECT
  5
5EE1
330
2E
100
AcDbProxyObject
 90
      499
 91
      509
 95
       25
 70
     0
 93
      116
310
000101425053521390D3D553951010
330
2E
 94
        0
  0
ACAD_PROXY_OBJECT
  5
5EE2
330
2E
100
AcDbProxyObject
 90
      499
 91
      509
 95
       25
 70
     0
 93
      108
310
0001014210535213941493D29010
330
2E
 94
        0
  0
ACAD_PROXY_OBJECT
  5
5EE3
330
2E
100
AcDbProxyObject
 90
      499
 91
      509
 95
       25
 70
     0
 93
      108
310
0001014210535213951654115070
330
2E
 94
        0
  0
ACAD_PROXY_OBJECT
  5
5EE4
330
2E
100
AcDbProxyObject
 90
      499
 91
      509
 95
       25
 70
     0
 93
      108
310
000101421053521395925155D0F0
330
2E
 94
        0
  0
ACAD_PROXY_OBJECT
  5
5EE5
330
2E
100
AcDbProxyObject
 90
      499
 91
      509
 95
       25
 70
     0
 93
      140
310
00010143505354D150D51253D390D3D41660
330
2E
 94
        0
  0
ACAD_PROXY_OBJECT
  5
5EE6
330
2E
100
AcDbProxyObject
 90
      499
 91
      509
 95
       25
 70
     0
 93
      108
310
00010142105350D3141493D29030
330
2E
 94
        0
  0
ACAD_PROXY_OBJECT
  5
5EE7
330
2E
100
AcDbProxyObject
 90
      499
 91
      508
 95
       25
 70
     0
 93
      212
310
00010143905350555513D2105510D21493D500000000000002E400
330
2E
 94
        0
  0
ACAD_PROXY_OBJECT
  5
5EE8
330
2E
100
AcDbProxyObject
 90
      499
 91
      509
 95
       25
 70
     0
 93
      156
310
00010143905350555513D2105510D21111551010
330
2E
 94
        0
  0
ACAD_PROXY_OBJECT
  5
5EF6
330
2E
100
AcDbProxyObject
 90
      499
 91
      547
 95
       25
 70
     0
 93
      698
310
0001000000009AA6A9AA4051E467269204A756C2033302030353A31313A343420323031302028555443290141CE4B8C8B8C0B8C80518467269204175672032302031373A35333A353920323031300141CE4B8C8B8C0B8C80
330
2E
330
5EF7
330
5EF8
330
5EFA
330
0
 94
        0
  0
ACAD_PROXY_OBJECT
  5
5EF7
330
2E
100
AcDbProxyObject
 90
      499
 91
      548
 95
       25
 70
     0
 93
       70
310
0001AAA80820000000
330
2E
330
5EF7
330
5EF7
 94
        0
  0
ACAD_PROXY_OBJECT
  5
5EF8
330
2E
100
AcDbProxyObject
 90
      499
 91
      549
 95
       25
 70
     0
 93
       48
310
000100000000
330
2E
330
0
330
5EF9
330
0
330
0
 94
        0
  0
ACAD_PROXY_OBJECT
  5
5EF9
330
2E
100
AcDbProxyObject
 90
      499
 91
      550
 95
       25
 70
     0
 93
       40
310
000100AAAA
330
2E
330
0
 94
        0
  0
ACAD_PROXY_OBJECT
  5
5EFF
330
2E
100
AcDbProxyObject
 90
      499
 91
      525
 95
       25
 70
     0
 93
      180
310
00010143105050D3D35411119390535140504434F4D500
330
2E
 94
        0
  0
ACAD_PROXY_OBJECT
  5
5F00
330
2E
100
AcDbProxyObject
 90
      499
 91
      525
 95
       25
 70
     0
 93
      212
310
0001014390505193D311115491119390535140506466F6C6465720
330
2E
 94
        0
  0
ACAD_PROXY_OBJECT
  5
5F01
330
2E
100
AcDbProxyObject
 90
      499
 91
      525
 95
       25
 70
     0
 93
      180
310
00010143105050539393D1119390535140504284156290
330
2E
 94
        0
  0
ACAD_PROXY_OBJECT
  5
5F02
330
2E
100
AcDbProxyObject
 90
      499
 91
      525
 95
       25
 70
     0
 93
      436
310
00010143905050D3D35415925155D31254D50052295BD96CA0A90B396CA0A894591A496CA0A8DB691A496CA0A89BA96CA0A95E28F95310
330
2E
 94
        0
  0
ACAD_PROXY_OBJECT
  5
5F07
330
2E
100
AcDbProxyObject
 90
      499
 91
      555
 95
       25
 70
     0
 93
       32
310
00010000
330
2E
340
5F04
330
5F09
330
5F04
 94
        0
  0
ACAD_PROXY_OBJECT
  5
5F08
330
2E
100
AcDbProxyObject
 90
      499
 91
      556
 95
       25
 70
     0
 93
       18
310
000180
330
2E
 94
        0
  0
ACAD_PROXY_OBJECT
  5
5F09
330
2E
100
AcDbProxyObject
 90
      499
 91
      557
 95
       25
 70
     0
 93
      226
310
0001014454D351120C4D0C110B54D351150C4D0C8C1050055401550000
330
2E
330
5F07
330
5F08
 94
        0
  0
ACAD_PROXY_OBJECT
  5
5F0A
330
2E
100
AcDbProxyObject
 90
      499
 91
      558
 95
       25
 70
     0
 93
      178
310
000100AAAAAAAA5E64F9A10C1091EBE68CDB710B3EC180
330
2E
330
5F09
 94
        0
  0
ACAD_PROXY_OBJECT
  5
5F0B
330
2E
100
AcDbProxyObject
 90
      499
 91
      559
 95
       25
 70
     0
 93
      108
310
000190140A000000000000AAAAA0
330
2E
330
5F0C
330
5F0C
330
5F0C
330
5F0C
330
5F0C
330
0
 94
        0
  0
ACAD_PROXY_OBJECT
  5
5F0C
330
2E
100
AcDbProxyObject
 90
      499
 91
      560
 95
       25
 70
     0
 93
       51
310
00010000AAAA80
330
2E
330
5F0B
330
5F09
 94
        0
  0
DICTIONARY
  5
40
102
{ACAD_REACTORS
330
3F
102
}
330
3F
100
AcDbDictionary
281
     1
  3
DWGSETTINGS
350
41
  3
FEM
350
54
  3
Shaft
350
53
  3
TRANSSETTINGS
350
42
  0
ACAD_PROXY_OBJECT
  5
47
102
{ACAD_REACTORS
330
3F
102
}
330
3F
100
AcDbProxyObject
 90
      499
 91
      521
 95
       25
 70
     0
 93
    23232
310
41502491013041105357CC201C00030C011E441013141105357CC603800030C011E441013241105357CCA01400030C011E441013341105357CCE01800030C010D9013441105357CD200C00030C010D9013541105357CD600C00030C010D9013641105357CDA00800030C011E9013741105357CDE01000030C010D901384110
310
5357CE200400030C011E9013941105357CE63F400030C0241102324141505357CC4C201C00030C011E902344141505357CC4C600C00030C010D902495041505357CC4CA01C00030C011E40902304E41505357CC13A01C00030C011E902314E41505357CC53A03800030C011E902324E41505357CC93A01400030C011E90233
310
4E41505357CCD3A01800030C010D902344E41505357CD13A00C00030C010D902354E41505357CD53A00C00030C010D902364E41505357CD93A00800030C011E902374E41505357CDD3A01000030C010D902384E41505357CE13A00400030C011E902394E41505357CE53A3F400030C024110332414E41905357CC4C13A01C0
310
0030C011E90334414E41905357CC4C53A00C00030C010D90349504E41905357CC4C93A01C00030C011E409044B4C494E41505357D0D3200400030C011E42504494E464F42105357D410549151A01000030C010D42D055241484D3541905357D093D4A01C00030C011E425045649455742105357D5925155D4E00400030C011
310
E42D06424548494E4441905357D25395A3F400030C0243505545241494C41505357D514A00C00030C010D4250348494441905357D21251201C00030C011E4250356495341905357D59254E01C00030C011E4250650415244494D42505357D41054911253600C00030C010D4250652454644494D42505357D49151911253601
310
000030C010D425774110531514901348070000C300479034110915312501348000000C0003FFFFFFFD034110921395901398000000C0003FFFFFFFE415092139594D06424548494E448000000C0003FFFFFFFE411093125110234418000000C0003FFFFFFFD03411093D05410234418000000C0003FFFFFFFD03411093D48C
310
9055241484D358010000C30047A411093D48CD055241484D358020000C30047A411093D48D5055241484D358000000C0003FFFFFFFE411093D48DD055241484D3581E0000C30047903411094105410234418000000C0003FFFFFFFD03411094115610234418000000C0003FFFFFFFD034110951112501358000000C0003FFF
310
FFFFD034110D0530C901348000000C0003FFFFFFFE4110D0530CD01348020000C30047A4110D0530D501348070000C30047A4110D0530DD013481E0000C30047A4110D15393901378000000C0003FFFFFFFE4110D15395D01378000000C0003FFFFFFFE4110D312539044B4C494E8000000C0003FFFFFFFE4110D3D38C5013
310
08000000C0003FFFFFFFD034110D3D38C901318000000C0003FFFFFFFD034110D3D38CD01328000000C0003FFFFFFFD034110D3D38D101328000000C0003FFFFFFFD034111115494101348000000C0003FFFFFFFD034111115510501348000000C0003FFFFFFFE4111125051D01358000000C0003FFFFFFFE4111125312501
310
358000000C0003FFFFFFFE411112535410650415244494D8000000C0003FFFFFFFE411112535490652454644494D8000000C0003FFFFFFFE411156135410234418000000C0003FFFFFFFD034111915353901388000000C0003FFFFFFFE415191535413901388030000C3004364151915354D410234418000000C0003FFFFFF
310
FE4151915354D510234418030000C300436415191535593901328000000C0003FFFFFFFE415191535595101328030000C3004364111931055101308000000C0003FFFFFFFD03411194905490234418000000C0003FFFFFFFD034111D49312501358000000C0003FFFFFFFD034111D5931250234418000000C0003FFFFFFFD0
310
34112105510D01388000000C0003FFFFFFFD014112125113901338000000C0003FFFFFFFD034112125115D01338000000C0003FFFFFFFD034112131253901348000000C0003FFFFFFFD01411213D0D3901378000000C0003FFFFFFFE411213D0D5D01378000000C0003FFFFFFFE4112539193D04494E464F8000000C0003FF
310
FFFFFE4113105112501348000000C0003FFFFFFFD034113115051101358000000C0003FFFFFFFE419397D0921395902394E8000000C0003FFFFFFFE419397D0D3D38C502304E8000000C0003FFFFFFFD03419397D0D3D38C902314E8000000C0003FFFFFFFD03419397D0D3D38CD02324E8000000C0003FFFFFFFD03419397
310
D0D3D38D102324E8000000C0003FFFFFFFD03419397D0D15393902374E8000000C0003FFFFFFFE419397D0D15395D02374E8000000C0003FFFFFFFE419397D1125312502354E8000000C0003FFFFFFFE419397D2105510D02384E8000000C0003FFFFFFFD01419397D2125113902334E8000000C0003FFFFFFFD03419397D2
310
125115D02334E8000000C0003FFFFFFFD03419397D3115051102354E8000000C0003FFFFFFFE419397D391D25410349504E8000000C0003FFFFFFFE419397D412105390334414E8000000C0003FFFFFFFE419397D510D3D3902304E8000000C0003FFFFFFFD03419397D5121312502344E8000000C0003FFFFFFFD01419397
310
D5131153902304E8000000C0003FFFFFFFD03419397D516150CD02364E8000000C0003FFFFFFFD03419397D594131250332414E8000000C0003FFFFFFFE411391D25410249508000000C0003FFFFFFFE411410530C9055241484D358010000C30047A411410530CD055241484D358020000C30047A411410530D5055241484
310
D358000000C0003FFFFFFFE411410530DD055241484D3581E0000C30047903411412105390234418000000C0003FFFFFFFE411413D4D3901368070000C30047A419413D4D49151901368050000C30047903411413D4D6101368000000C0003FFFFFFFD03411414D150D0234418000000C0003FFFFFFFD03411490D1D390137
310
8000000C0003FFFFFFFE411490D1D5D01378000000C0003FFFFFFFE4114919112501348000000C0003FFFFFFFD034114945514901348070000C30047903411494D093D01348000000C0003FFFFFFFD034114D09492D01348000000C0003FFFFFFFD014114D0D153901378000000C0003FFFFFFFD034114D150D51013480000
310
00C0003FFFFFFFD014114D15313901378000000C0003FFFFFFFD034114D15315D01378000000C0003FFFFFFFD034114D4D654D01308000000C0003FFFFFFFD034114D51312501348070000C300479034114D6508C501358000000C0003FFFFFFFD034114D6508C901358000000C0003FFFFFFFD034114D6508CD0135802000
310
0C30047A4114D6508D501358070000C300479034114D65353901378000000C0003FFFFFFFD034114D65355D01378000000C0003FFFFFFFD03411510D3D3901308000000C0003FFFFFFFD034115121312501348000000C0003FFFFFFFD01411512550C9055241484D358010000C30047A411512550CD055241484D358020000
310
C30047A411512550D5055241484D358000000C0003FFFFFFFE411512550DD055241484D3581E0000C300479034115131153901308000000C0003FFFFFFFD03415514905253105545241494C8000000C0003FFFFFFFE41151492D3901378000000C0003FFFFFFFD0341151492D5D01378000000C0003FFFFFFFD03411514931
310
2501348000000C0003FFFFFFFD01411516150C501368030000C300436411516150C901368030000C300436411516150CD01368000000C0003FFFFFFFE411516150D501368070000C30047A411516150DD013681E0000C30047A4115925155D04564945578000000C0003FFFFFFFE41159151121034849448000000C0003FFF
310
FFFFD0241159151159035649538000000C0003FFFFFFFD02411594131250232418000000C0003FFFFFFFE4116925690501348000000C0003FFFFFFFD01411354D653501358020000C30047AAAA3F400030C01013F90A4051E4091E40D0D4110D4151E4190D41D1E4391E4791E7F6
340
16
340
16
340
16
340
48
340
16
340
16
340
16
340
49
340
16
340
16
340
49
340
4A
340
16
340
16
340
16
340
16
340
48
340
16
340
16
340
16
340
49
340
16
340
16
340
49
340
4A
340
16
340
4B
340
16
340
16
340
16
340
16
340
16
340
48
340
16
340
16
340
16
340
4C
340
15
340
15
340
15
340
15
340
15
340
15
340
15
340
15
340
15
340
15
340
15
340
15
340
15
340
15
340
15
340
15
340
4D
340
15
340
15
340
15
340
15
340
15
340
15
340
15
340
15
340
15
340
15
340
15
340
15
340
15
340
15
340
15
340
16
340
15
340
15
340
15
340
15
340
15
340
15
340
15
340
15
340
4C
340
15
340
15
340
4D
340
15
340
15
340
15
340
15
340
15
340
15
340
15
340
15
340
15
340
4D
340
15
340
15
340
15
340
4C
340
15
340
15
340
15
340
15
340
15
340
15
340
15
340
15
340
15
340
15
340
15
340
15
340
15
340
15
340
15
340
15
340
15
340
15
340
15
340
4D
340
15
340
15
340
4D
340
15
340
15
340
16
340
15
340
4D
340
15
340
15
340
4C
340
15
340
15
340
16
340
15
340
4D
340
15
340
15
340
15
340
15
340
15
340
15
340
15
340
15
340
15
340
4D
340
15
340
15
340
15
340
15
340
15
340
15
340
15
340
15
340
15
340
15
340
15
340
50
340
16
 94
        0
  0
ACAD_PROXY_OBJECT
  5
AE3
102
{ACAD_REACTORS
330
59
102
}
330
59
100
AcDbProxyObject
 90
      499
 91
      522
 95
       25
 70
     0
 93
      253
310
43D1444494D454E53494F4E2C414D44545F2A5F44494D404A9012A404A9012A0
  0
ACAD_PROXY_OBJECT
  5
AE4
102
{ACAD_REACTORS
330
59
102
}
330
59
100
AcDbProxyObject
 90
      499
 91
      522
 95
       25
 70
     0
 93
      181
310
43D012A42D05357D191504B505357CA9012A404A9012A8
  0
ACAD_PROXY_OBJECT
  5
AE5
102
{ACAD_REACTORS
330
59
102
}
330
59
100
AcDbProxyObject
 90
      499
 91
      522
 95
       25
 70
     0
 93
      133
310
43D054841544348404A9012A404A9012A8
  0
ACAD_PROXY_OBJECT
  5
AE6
102
{ACAD_REACTORS
330
59
102
}
330
59
100
AcDbProxyObject
 90
      499
 91
      522
 95
       25
 70
     0
 93
      549
310
43D044C494E4549CE0B0E138B0A8B4E0B0A8B4E138B105357CE0B105357CE138B0A8B505357CE0B0A8B505357CE139012A404A910494E534552542C5354445041525432448
  0
ACAD_PROXY_OBJECT
  5
AE7
102
{ACAD_REACTORS
330
59
102
}
330
59
100
AcDbProxyObject
 90
      499
 91
      522
 95
       25
 70
     0
 93
      909
310
43D6641434D46434652414D452C41434D444154554D5441524745542C41434D444154554D49442C41434D57454C4453594D2C41434D5355524653594D2C41434D4645415449442C41434D504152545245462C41434D42414C4C4F4F4E2C414D44544544474553594D404A9012A404A9012A8
  0
XRECORD
  5
1CE7
102
{ACAD_REACTORS
330
1CE6
102
}
330
1CE6
100
AcDbXrecord
280
     1
  1
PV
 40
1.0
 50
-8479.775367936183
 51
-5987.408959117102
 52
8537.071147449266
 53
6044.704738630185
  0
XRECORD
  5
5D97
102
{ACAD_REACTORS
330
5D95
102
}
330
5D95
100
AcDbXrecord
280
     1
  1
1,,,,,,,,,^M^J2,,,,,,,,,^M^J3,,,,,,,,,^M^J4,,,,,,,,,^M^J5,,,,,,,,,
  0

  0
XRECORD
  5
5D96
102
{ACAD_REACTORS
330
5D95
102
}
330
5D95
100
AcDbXrecord
280
     1
  1
5,10
  0

  0
ACAD_PROXY_OBJECT
  5
45
102
{ACAD_REACTORS
330
44
102
}
330
44
100
AcDbProxyObject
 90
      499
 91
      520
 95
       25
 70
     0
 93
      157
310
057356C1D77406406AA8FFFFFFFF05DD01009010
330
1F
330
0
330
5F09
 94
        0
  0
ACAD_PROXY_OBJECT
  5
72FE
102
{ACAD_REACTORS
330
7A0
102
}
330
7A0
100
AcDbProxyObject
 90
      499
 91
      576
 95
       25
 70
     0
 93
     2395
310
5DCB81E85EB51B8BE3F8030000C30041105394D2501640600800030C0200800030C00B81E85EB51B8BE3F48821E8720B1B6A9BAB9332A32BC3A29BA3220480A1282C6DA8C868CA6E8C88120286A0B1B6ABB2B63234B733A9BA3220480A1082C6DA92C8A6E8C88120285A0B1B6A230BA3AB6A9BA3220480A1282C6DA849E9AA
310
6E8C8812028820B6B23A2232BA30B4B629BCB6A9BA3220480A2282DAC8E8A6CAC6E8D2DEDCA6F2DAA6E8C88120288A0B6B23A21B2B73A32B92634B732A9BA3220480A2282DAC8E8A8D0E4CAC2C898D2DCCAA6E8C88120285A0B6B23A2737BA32A9BA3220480A1682C682DACE98C2F2A6E8C88120285A0B1A0B6B3A234B6A9B
310
A3220480A2282C682DACE90DED8CA86D0C2E4E8A6E8C88120286A0B1A0B6B3AA34BA3632A9BA3220480A02812020
340
72F3
360
72FF
360
7300
360
7301
360
7302
360
7303
360
7304
360
7305
360
7306
360
7307
360
7308
360
7309
360
730F
360
7310
360
7311
360
7312
340
0
340
0
 94
        0
  0
ACAD_PROXY_OBJECT
  5
7A1
102
{ACAD_REACTORS
330
7A0
102
}
330
7A0
100
AcDbProxyObject
 90
      499
 91
      526
 95
       25
 70
     0
 93
     2379
310
5DC33333333333309408000000C00040D29254D01640600800030C0200800030C003333333333330940C8121E8720B1B6A9BAB9332A32BC3A29BA3220480A1282C6DA8C868CA6E8C88120286A0B1B6ABB2B63234B733A9BA3220480A1082C6DA92C8A6E8C88120285A0B1B6A230BA3AB6A9BA3220480A1282C6DA849E9AA6E
310
8C88120286A0B1A0B6B3AA34BA3632A9BA3220480A2082DAC8E888CAE8C2D2D8A6F2DAA6E8C88120288A0B6B23A29B2B1BA34B7B729BCB6A9BA3220480A2282DAC8E886CADCE8CAE498D2DCCAA6E8C88120288A0B6B23A2A343932B0B22634B732A9BA3220480A1682DAC8E89CDEE8CAA6E8C88120285A0B1A0B6B3A630BCA
310
9BA3220480A1682C682DACE88D2DAA6E8C88120288A0B1A0B6B3A437B632A1B430B93A29BA3220480C812020
340
7A2
360
7A3
360
7A4
360
7A5
360
7A6
360
7A7
360
7A8
360
5F0E
360
5F0F
360
5F10
360
5F12
360
5F13
360
5F14
360
5F1A
360
5F1B
360
5F1C
340
0
340
0
 94
        0
  0
ACAD_PROXY_OBJECT
  5
41
102
{ACAD_REACTORS
330
40
102
}
330
40
100
AcDbProxyObject
 90
      499
 91
      518
 95
       25
 70
     0
 93
     2844
310
4050B44574753455454494E4753A0E8482A68AA6A88882A069492A684A1A0A723A0A92920ACA0A81969B9820C868A9C829C8E82A12686AF87260F862666A8321A2A72224A0A50000000000000122020E868A9C889282A682A106260F86460F8666083A1A2A72224A9AA250000000000000042020C868A9C988A9C940000000
310
00000048808321A2A727A323250000000000000122020E868A9C9E8C8C62940000000000000488083A1A2A727A3231925000000000000012202128698929C82A4A482B282A0A6264685C6A8421A624A722AA2CA820A82AC2624A722A1288AE8EAAA68682988A94283A620A9AA27A12520A80982109A82968AAC928AAE9FA04
310
832829A1A0A622830020000419491559254D2505404C1055343414C4541503313A314214D510539110549110540D29254D0954494D455354414D504A01668CD426D2B734141D5915494D253D3905414C4D4B8C0C1107B44574753455454494E4753454E447D0
  0
ACAD_PROXY_OBJECT
  5
54
102
{ACAD_REACTORS
330
40
102
}
330
40
100
AcDbProxyObject
 90
      499
 91
      518
 95
       25
 70
     0
 93
      411
310
4050346454D21092DCC6E486DECACC942842630BCA3B937BAB820A8320A6AFA322A0A20F688AE8EA68AA8A8929C8EA68A9C88FA0
  0
ACAD_PROXY_OBJECT
  5
53
102
{ACAD_REACTORS
330
40
102
}
330
40
100
AcDbProxyObject
 90
      499
 91
      518
 95
       25
 70
     0
 93
      591
310
40505536861667421292DCE8CAE4E4EAE0E89FC84A634B3B43A2634B732A7E80A1A98D2CED0E898D2DCCAACD2CAEE9FA028229B4B232A7E80A20F688AE8EA68AA8A8929C8EA68A9C88FA
  0
ACAD_PROXY_OBJECT
  5
42
102
{ACAD_REACTORS
330
40
102
}
330
40
100
AcDbProxyObject
 90
      499
 91
      518
 95
       25
 70
     0
 93
      852
310
4050D5452414E5353455454494E4753A2488A482AE929C8EA8A4829CA69882A8929E9C0C00800050D4F524947494E414C4C595F4F4E0600400028529A7AAA921A2A620A723A0A81A52827212AAA0A48AA68AA4AC8A0C0080001107B44574753455454494E4753454E447D0
  0
ACAD_PROXY_OBJECT
  5
72FF
330
72FE
100
AcDbProxyObject
 90
      499
 91
      577
 95
       25
 70
     0
 93
       96
310
5DC20E80A0280A0280A02808
  0
ACAD_PROXY_OBJECT
  5
7300
330
72FE
100
AcDbProxyObject
 90
      499
 91
      578
 95
       25
 70
     0
 93
      332
310
5DD0E4050140501405014050140501405014050142501405014050140501405012000000000000000400
340
72F4
 94
        0
  0
ACAD_PROXY_OBJECT
  5
7301
330
72FE
100
AcDbProxyObject
 90
      499
 91
      579
 95
       25
 70
     0
 93
      403
310
5DCC199999999999E99F91F4050140501405014050140501405014050140501405014050140501405014050140501405014040
340
0
 94
        0
  0
ACAD_PROXY_OBJECT
  5
7302
330
72FE
100
AcDbProxyObject
 90
      499
 91
      580
 95
       25
 70
     0
 93
       10
310
5DC0
  0
ACAD_PROXY_OBJECT
  5
7303
330
72FE
100
AcDbProxyObject
 90
      499
 91
      581
 95
       25
 70
     0
 93
      257
310
5DE290EA22A7D90F49F9353333333333727F44D4CCCCCCCCCDC9FC010000618000
340
72F1
340
72F2
 94
        0
  0
ACAD_PROXY_OBJECT
  5
7304
330
72FE
100
AcDbProxyObject
 90
      499
 91
      582
 95
       25
 70
     0
 93
    13023
310
5DD0E411255115350141236025B6901405014069011309A4F2590CB64FD3347454E545241434F2C4A504E2C302C8D8096DA2C47454E54524154582C25732C2847454E4D53472067656E647767203232322940690120281A8AA2CA0282484A4BE52028120280A03202261349E4B2196C9FA668E8A9CA8A482869E5894A09C58
310
605921292F94588E8A9CA8A482A8B0584AE658508E8A9C9AA68E40CECADCC8EECE406464665280D202405044E414D454050496BC914F4051C40640A8B95C2E97CBE502404CD1D15395149050D3CB1294138B0C0B25AF2453CB11D15395149055160B095CCB0A11D1539354D1C819D95B991DD9C80C8C8D8A50192C3D494628
310
4953424C414E4B28504152543A4E414D45292C424C4F434B3A4E414D452C504152543A4E414D452940480A0A888AA686A480A09251B1DBE80A3A80C81D10782C06030180C8099A3A2A72A2920A1A7962528271618164946C76F9623A2A72A2920AA2C1612B9961423A2A726A9A39033B2B7323BB39019189B94A0248090142
310
14D51053911054911014122D2E29A50147501904A383BFDFEFF5FBFCFD3347454E545241434F2C4A504E2C302C8B4B8A692C47454E54524154582C25732C2847454E4D53472067656E64776720323138294049012028426A0AA22A924A0A62028246EF4BDFA028EA0320B41396D838E9017D9FA668E8A9CA8A482869E5894A
310
09C5860591BBD2F7E588E8A9CA8A482A8B0584AE658508E8A9C9AA68E40CECADCC8EECE406464625280D202405044E4F544540504928D8B4C4051D40641A8B95C2E97CBE5F23F4CD1D15395149050D3CB1294138B0C0B24A362D30B11D15395149055160B095CCB0A11D1539354D1C819D95B991DD9C80C8C8D4A501A40480
310
A0CAC8A9C889EA480A1106F1072706BF02B680A3A80C83D172B85D2F97CBE47E9BA3A2A72A2920A1A79625282716181641BC41C9C1AFC0AD9623A2A72A2920AA2C1612B9961423A2A726A9A39033B2B7323BB39019191A14A0348090141911154D0D48C90141A43825AF880C90147501908A20F0580C0603019013447454E5
310
45241434F2C4A504E2C302C90E096BE20322C47454E54524154582C25732C2847454E4D53472067656E6477672033362940490120284A9AA20A72220A922192028345A5C53490192028EA0321347077FBFDFEBF7F9FA6A8E8A9CA8A482869E5894A09C586059169714D24064588E8A9CA8A482A8B0584AE658508E8A9C9AA6
310
8E40CECADCC8EECE4064646052809202405094D4154455249414C32405068DDE97BF20324051D40642A8272DB071D202FB3F4D11D15395149050D3CB1294138B0C0B2377A5EFC80C8B11D15395149055160B095CCB0A11D1539354D1C819D95B991DD9C80D0C0A501240480A089A82A6A680A091D7F2F9480A3A80A0485A06
310
81172B85D2F97CBE47E9923A2A72A2920A1A796252827161816475FCBE51623A2A72A2920AA2C1612B9961423A2A726A9A39033B2B7323BB3901A1914A024809014154149250D150141226FE29A501475014090C409022E570BA5F2F97C8FD3247454E545241434F2C4A504E2C302C89BF8A692C47454E54524154582C2573
310
2C2847454E4D53472067656E6477672034332940490120281A224A6A02824850CB202028EA028121A81A045CAE174BE5F2F91FA648E8A9CA8A482869E5894A09C58605921432C80588E8A9CA8A482A8B0584AE658508E8A9C9AA68E40CECADCC8EECE406868528092024050E441022E07A17AD46E338FE07800030C0001018
310
ACD56AB55AADF63F2B355AAD56AB7D8FD073D3C4954454D3E405018ACD56AB55AADF63F2B355AAD56AB7D8FD073D3C4954454D3E40501890C7E3F1783CEE3F2431F8FC5E0F3B8FD073D3C4954454D3E40501890C7E3F1783CEE3F2431F8FC5E0F3B8FD073D3C4954454D3E405029012B355AAD56AB7D8FCACD56AB55AADF63
310
F41CF4F125511534F901418F4F1455164F9014062B355AAD56AB7D8FCACD56AB55AADF63F41CF4F125511534F9014061309A4F2590CBA4FC4C2693C96432E93F41CF4F125511534F901901002B355AAD56AB7D8FCACD56AB55AADF63FA2000000000000008204018000618048220681A048120280C88214844882034852034
310
8452028521485214814000000000000F0BF0000000000003C2FD018020000C3008070000C3000EF7D3E365DBA88FC3BDF4F8D976EA23F2E07A17AD46E2F8FF20341A405024150741A4069703D0BD6A3717C7F0040001860100400018601002000186002026280A02
340
0
340
0
 94
        0
  0
ACAD_PROXY_OBJECT
  5
7305
330
72FE
100
AcDbProxyObject
 90
      499
 91
      583
 95
       25
 70
     0
 93
      994
310
5DC0B81E85EB51B8CE3F4BCF511155105253080F11115510525317D3105091530F971414D0D05311480F11115510525317D05094D4D0D053114F92341C9A9999999999B93F26A666666666724FC000000000000E03F4000000000000004000000000000005100000000000000244081E0000C3002E07A17AD46E338FC0
340
5EEA
340
72F3
 94
        0
  0
ACAD_PROXY_OBJECT
  5
7306
330
72FE
100
AcDbProxyObject
 90
      499
 91
      584
 95
       25
 70
     0
 93
      823
310
5DC031703D0BD6A3719C7E999EA9A2A1AA24A7A7101E29A2A1AA24A7A72FA620A122A62FA324A929AA1F169E29A2A1AA24A7A72FA620A122A62FA620A9AA1F1353333333333B27E3FFFE01C00030C008840F000061801353333333333B27F1703D0BD6A3719C7E
340
5EEA
340
72F3
 94
        0
  0
ACAD_PROXY_OBJECT
  5
7307
330
72FE
100
AcDbProxyObject
 90
      499
 91
      585
 95
       25
 70
     0
 93
      280
310
5DC2B8716D9CEF7C33F0A5723F0BD4A2F0FC295C8FC2F528BC3FA199999999999F99FC
  0
ACAD_PROXY_OBJECT
  5
7308
330
72FE
100
AcDbProxyObject
 90
      499
 91
      586
 95
       25
 70
     0
 93
       14
310
5DE4
340
0
 94
        0
  0
ACAD_PROXY_OBJECT
  5
7309
330
72FE
100
AcDbProxyObject
 90
      499
 91
      587
 95
       25
 70
     0
 93
     7123
310
5DD084050BA4050AA405024050E836583938376838C815B8367203140405013D3C696628657175616C28486F6C653A7461707065642C223022292C22252563222C486F6C653A6E6F6D696E616C2022202220696628657175616C28486F6C653A756E6974732C223122292C2278222C222D222920222022293E3C6966286571
310
75616C28486F6C653A7461707065642C223022292C486F6C653A6469612C486F6C653A706974636864657363293E207B5C46414D4744543B787D203C696628657175616C28486F6C653A7465726D696E6174696F6E2C223022292C486F6C653A64657074682C228AD192CA22293E5C507B5C46414D4744543B767D2525633C
310
486F6C653A63746469613E207B5C46414D4744543B787D203C486F6C653A637464657074683E406901405034050E836583938376838C815B83672031405FE3D3C696628657175616C28486F6C653A7461707065642C223022292C22252563222C486F6C653A6E6F6D696E616C2022202220696628657175616C28486F6C653
310
A756E6974732C223122292C2278222C222D222920222022293E3C696628657175616C28486F6C653A7461707065642C223022292C486F6C653A6469612C486F6C653A706974636864657363293E207B5C46414D4744543B787D203C696628657175616C28486F6C653A7465726D696E6174696F6E2C223022292C486F6C653
310
A64657074682C228AD192CA22293E5C507B5C46414D4744543B777D2525633C486F6C653A63746469613E2058203C486F6C653A6374616E676C653E252564406901405014050E836583938376838C815B83672031405CF3D3C696628657175616C28486F6C653A7461707065642C223022292C22252563222C486F6C653A6E
310
6F6D696E616C2022202220696628657175616C28486F6C653A756E6974732C223122292C2278222C222D222920222022293E3C696628657175616C28486F6C653A7461707065642C223022292C486F6C653A6469612C486F6C653A706974636864657363293E5C507B5C46414D4744543B787D203C696628657175616C2848
310
6F6C653A7465726D696E6174696F6E2C223022292C486F6C653A64657074682C228AD192CA22293E4069014051E4090E836583938376838C815B83672032405173D3C535444503A444553433E203C535444503A5354443E40690E836583938376838C815B836720314050C3D3C535444503A444553433E40690240515AAABB
310
A060
360
730A
330
730A
360
730B
330
730B
360
730C
330
730C
360
730D
360
730E
330
730D
330
730E
 94
        0
  0
ACAD_PROXY_OBJECT
  5
730F
330
72FE
100
AcDbProxyObject
 90
      499
 91
      568
 95
       25
 70
     0
 93
       26
310
5DD02A80
340
0
 94
        0
  0
ACAD_PROXY_OBJECT
  5
7310
330
72FE
100
AcDbProxyObject
 90
      499
 91
      569
 95
       25
 70
     0
 93
      258
310
5DD02000000000000380FC000000000000E03F408F0F9023C3E40DB18CCCFFFF80
340
72F5
340
72F9
340
72FA
340
72FC
340
72FB
340
0
340
72F6
340
72F7
340
72F8
340
0
 94
        0
  0
ACAD_PROXY_OBJECT
  5
7311
330
72FE
100
AcDbProxyObject
 90
      499
 91
      588
 95
       25
 70
     0
 93
    13993
310
5DD1D023FFFFFFFD010300002E07A17AD46E2F8FE00800030C01010300002E07A17AD46E2F8FE00800030C00050C8DC0955782CC838A83588367014ED1D15395149050D3CB1294138B0C0B23702555E0B320E2A0D620D9CB11D15395149055160B095CCB0A11D1539354D1C819D95B991A5B5E880CCC0A78000C0000000000
310
00000000000000000000007B14AE47E17AA43F2E07A17AD46E2F8FE00800030C007B14AE47E17AA43F2E07A17AD46E2F8FE00800030C020143CF4F111959985D5B1D151A5D1B194F8050A8C8A8365815B8375838B014E51D15395149050D3CB1294138B0C0B2322A0D96056E0DD60E2CB11D15395149055160B095CCB0A11D
310
1539354D1C819D95B991A5B5E880CCC4A78000C000000000000000000000000000000007B14AE47E17AA43F2E07A17AD46E2F8FE00800030C007B14AE47E17AA43F2E07A17AD46E2F8FE00800030C020143CF4F111959985D5B1D151A5D1B194F90D4410F4450240D0441507431014391244D05449074510C4350F00014123
310
2D24D7C053247454E545241434F2C4A504E2C302C8CB4935F2C47454E54524154582C25732C2847454E4D53472067656E64696D7A20312900010104002214000282465A49AF80A648E8A9CA8A482869E5894A09C586059196926BE588E8A9CA8A482A8B0584AE658508E8A9C9AA68E40CECADCC8D2DAF44062520002020800
310
43E80005028C8A014C11D15395149050D3CB1294138B0C0B23228B11D15395149055160B095CCB0A11D1539354D1C819D95B991A5B5E880C8A4054E3D3C4946284953424C414E4B28486F6C654974656D292C4F726967696E2C20486F6C654974656D293E3C4946284953424C414E4B28486F6C654974656D292C22222C204
310
86F6C65496E646578293E010104002234000280AC00A5E8E8A9CA8A482869E5894A09C586058B0588E8A9CA8A482A8B0584AE658508E8A9C9AA68E40CECADCC8D2DAF4406652000202000040A800050159014BD1D15395149050D3CB1294138B0C0B164B11D15395149055160B095CCB0A11D1539354D1C819D95B991A5B5E
310
880D0A4000404000081D0000A02A40297A3A2A72A2920A1A796252827161816291623A2A72A2920AA2C1612B9961423A2A726A9A39033B2B73234B6BD101B148000808000104A000140A0F4C053047454E545241434F2C4A504E2C302C83D32C47454E54524154582C25732C2847454E4D53472067656E64696D7A20372900
310
0101030020B400028141E980A608E8A9CA8A482869E5894A09C58605907A6588E8A9CA8A482A8B0584AE658508E8A9C9AA68E40CECADCC8D2DAF4407052000202020041E800050490E096BE014CD1D15395149050D3CB1294138B0C0B243825AF8B11D15395149055160B095CCB0A11D1539354D1C819D95B991A5B5E880C8
310
C0A400040010008650000A091B012DB40299A3A2A72A2920A1A79625282716181646C04B6D1623A2A72A2920AA2C1612B9961423A2A726A9A39033B2B73234B6BD10189A148000808280501A00014320D0E0E4E0D9A0D8A0D3A0D60053B47454E545241434F2C4A504E2C302C8343839383668362834E83582C47454E54524
310
154582C25732C2847454E4D53472067656E64696D7A203135290001010500A1D4000281464500A628E8A9CA8A482869E5894A09C5860591914588E8A9CA8A482A8B0584AE658508E8A9C9AA68E40CECADCC8D2DAF440626C52000202080044A800050E8C8A8343839383668362834E8358014F51D15395149050D3CB129413
310
8B0C0B2322A0D0E0E4E0D9A0D8A0D3A0D60B11D15395149055160B095CCB0A11D1539354D1C819D95B991A5B5E880C4DCA4000404140089D0000A0921292F940299A3A2A72A2920A1A796252827161816484A4BE51623A2A72A2920AA2C1612B9961423A2A726A9A39033B2B73234B6BD10189C948000808300114A0001412
310
2D2E29A4053347454E545241434F2C4A504E2C302C8B4B8A692C47454E54524154582C25732C2847454E4D53472067656E64696D7A20323129000100040021B4878030026A6666666667A4FE064D4CCCCCCCCCF49FC049A9999999999E93F809353333333333D27F0226A6666666667A4FE044D4CCCCCCCCCF49FC0D818000
310
00000000000810026A666666666764FE004D4CCCCCCCCCF49FC009A9999999999E93F801353333333333D27F032E07A17AD46E378FE0633B333333333032050F006004D4CCCCCCCCCF49FC0C9A9999999999E93F819353333333333D27F0326A6666666667A4FE064D4CCCCCCCCCF49FC0C9A9999999999E93F81B03000000
310
00000000102004D4CCCCCCCCCEC9FC009A9999999999E93F819353333333333D27F0026A6666666667A4FE065C0F42F5A8DC6F1FC0C6766666666660640A088800000021E000000890000002260000008220E000200890000002060002008100008000
340
0
340
0
340
0
340
0
340
72F3
340
72F3
 94
        0
  0
ACAD_PROXY_OBJECT
  5
7312
330
72FE
100
AcDbProxyObject
 90
      499
 91
      561
 95
       25
 70
     0
 93
     5214
310
5DD9741105394D2506414E53495F4342905394D257D512551554D15414E53495F54525F5265766973696F6E6C697374614191143202831372E307832322E30696E63682941905394D257D0D1146202832382E307834302E30696E63682941905394D257D191142202831312E307831372E30696E63682941905394D257D091
310
144202832322E307833342E30696E63682941905394D257D111145202833342E307834342E30696E63682941905394D257D1510412028382E357831312E30696E63682941905394D257D050543905B9CDA482557247A25E4C81110D0C414E53495F5449544C45444343505B9CDA482557247A25E4C81050B414E53495F5449
310
544C454143905B9CDA482557247A25E4C81050D0C414E53495F5449544C45414343505B9CDA482557247A25E4C81110B414E53495F5449544C4544425554C82557247A25E4D0A414E53495F544954555342110979A97F0838A8358836720415F42525F45505394D257D09497D4995D9A5CDA5BDB9B1A5CDD18510979A97F08
310
38A8358836720415F54525F45505394D257D51497D4995D9A5CDA5BDB9B1A5CDD18510979A97F0838A8358836720445F42525F45505394D257D09497D4995D9A5CDA5BDB9B1A5CDD19110979A97F0838A8358836720445F54525F45505394D257D51497D4995D9A5CDA5BDB9B1A5CDD19110979A97F0838A8358836720415F
310
424C5F45505394D257D09317D4995D9A5CDA5BDB9B1A5CDD18510979A97F0838A8358836720415F544C5F45505394D257D51317D4995D9A5CDA5BDB9B1A5CDD18510979A97F0838A8358836720445F424C5F45505394D257D09317D4995D9A5CDA5BDB9B1A5CDD19110979A97F0838A8358836720445F544C5F45505394D25
310
7D51317D4995D9A5CDA5BDB9B1A5CDD190
  0
ACAD_PROXY_OBJECT
  5
7A3
330
7A1
100
AcDbProxyObject
 90
      499
 91
      527
 95
       25
 70
     0
 93
       86
310
5DEA0C80A0280A0280A034
  0
ACAD_PROXY_OBJECT
  5
7A4
330
7A1
100
AcDbProxyObject
 90
      499
 91
      528
 95
       25
 70
     0
 93
      282
310
5DD0E4050140501405014050140501405014050141101405014041000000000000001000
340
7A9
 94
        0
  0
ACAD_PROXY_OBJECT
  5
7A5
330
7A1
100
AcDbProxyObject
 90
      499
 91
      529
 95
       25
 70
     0
 93
      323
310
5DCC199999999999E99F91740501405014050140501405014050140501405014050140501405014040
340
0
 94
        0
  0
ACAD_PROXY_OBJECT
  5
7A6
330
7A1
100
AcDbProxyObject
 90
      499
 91
      530
 95
       25
 70
     0
 93
       10
310
5DC0
  0
ACAD_PROXY_OBJECT
  5
7A7
330
7A1
100
AcDbProxyObject
 90
      499
 91
      531
 95
       25
 70
     0
 93
      257
310
5DE0C16A22A7D90F49F80000000000001081400000000000004204010000618000
340
7AA
340
7AB
 94
        0
  0
ACAD_PROXY_OBJECT
  5
7A8
330
7A1
100
AcDbProxyObject
 90
      499
 91
      532
 95
       25
 70
     0
 93
     5277
310
5DD06411255115350141236025B6901405014069010000000000000910240690120281A8AA2CA0282484A4BE52028120280A032020000000000001220480D202405044E414D454050496BC914F4051C40640A80000000000004E4090193C3D3C4946284953424C414E4B28504152543A4E414D45292C424C4F434B3A4E414D
310
452C504152543A4E414D45293E3C41435F44455343524950544E3E40480A109A82A88AA492829880A091BBD2F7E80A3A80C81D0E27A15AF46E08A81203480901411393D5115014124A363B7D0147501904A0000000000000F902406428F4F1050D7D393D5114F901202832B22A72227A92028366EF6EE06F582028EA0320B4
310
0000000000001F20480C879E9E20A1AFAB27222FA620A122A61F20240506445020000000000000490201C00030C00010180000000000003E400000000000000F901073D3C4954454D3E4050180000000000003E400000000000000F901073D3C4954454D3E40501800000000000034400000000000000D101073D3C4954454
310
D3E40501800000000000034400000000000000D101073D3C4954454D3E405029010000000000000F9000000000000003E4041CF4F125511534F901418F4F1455164F9014060000000000000F9000000000000003E4041CF4F125511534F901800000000000034400000000000000D101073D3C4954454D3E40640400000000
310
0000003E400000000000000F90288800000000000020810000001800120881A068120480A032208521122080D21480D211480A1485214852050000000000003C2FC000000000000F0BF40600800030C0200400030C00CDCCCCCCCCCCEC3F3373333333333B0FC3333333333330940C80D069014090341504901A1999999999
310
9984A040100006180400800061804010000618008098A02808
340
0
340
0
 94
        0
  0
ACAD_PROXY_OBJECT
  5
5F0E
330
7A1
100
AcDbProxyObject
 90
      499
 91
      561
 95
       25
 70
     0
 93
     3042
310
5DD9740D29254D064A49535F413342929254D7D512551311505134A49535F42525F5265766973696F6E6C6973744190F4134522028323937783231306D6D2941D29254D7D04D1490E41312028353934783834316D6D2941929254D7D04C50F41344C2028323130783239376D6D2941D29254D7D04D1310E413320283239377
310
83432306D6D2941929254D7D04CD0E41322028343230783539346D6D2941929254D7D04C90F4130202838343178313138396D6D2941929254D7D04C10243129254C82557247A25E4C81050A4A49535F5449544C454143129254C82557247A25E4C81090A4A49535F5449544C45424110E979A97F0838A835883675F42525F4
310
4D29254D7D09497D4995D9A5CDA5BDB9B1A5CDD10E979A97F0838A835883675F54525F44D29254D7D51497D4995D9A5CDA5BDB9B1A5CDD10E979A97F0838A835883675F424C5F44D29254D7D09317D4995D9A5CDA5BDB9B1A5CDD10E979A97F0838A835883675F544C5F44D29254D7D51317D4995D9A5CDA5BDB9B1A5CDD00
  0
ACAD_PROXY_OBJECT
  5
5F0F
330
7A1
100
AcDbProxyObject
 90
      499
 91
      562
 95
       25
 70
     0
 93
      898
310
5DC4000000000000124048CF4F11115510525317D3105091530F880A0F11115510525317D05094D4D0D053114F8A50241C9A9999999999B93F26A666666666724FC000000000000E03F400000000000000400000000000000510000000000000024408070000C300000000000000049000
340
16
340
7A2
 94
        0
  0
ACAD_PROXY_OBJECT
  5
5F10
330
7A1
100
AcDbProxyObject
 90
      499
 91
      563
 95
       25
 70
     0
 93
      823
310
5DC0B00000000000002480959E9E29A2A1AA24A7A72FA620A122A62FA324A929AA1F169E29A2A1AA24A7A72FA620A122A62FA620A9AA1F000000000000048803FFFE01C00030C008140380006180000000000000048800000000000000A2000000000000002480
340
118
340
7A2
 94
        0
  0
ACAD_PROXY_OBJECT
  5
5F12
330
7A1
100
AcDbProxyObject
 90
      499
 91
      564
 95
       25
 70
     0
 93
      152
310
5DE8273108AC1C5A0640A3D0A5723F0BD1F200
  0
ACAD_PROXY_OBJECT
  5
5F13
330
7A1
100
AcDbProxyObject
 90
      499
 91
      565
 95
       25
 70
     0
 93
       14
310
5DE0
340
0
 94
        0
  0
ACAD_PROXY_OBJECT
  5
5F14
330
7A1
100
AcDbProxyObject
 90
      499
 91
      566
 95
       25
 70
     0
 93
     6059
310
5DD084050BA4050AA405024050E836583938376838C815B83672031405983D3C486F6C653A6469613E3C696628657175616C28486F6C653A7465726D696E6174696F6E2C223022292C2220905B82B320222C22208368838A838B22293E3C696628657175616C28486F6C653A7465726D696E6174696F6E2C223022292C486F
310
6C653A64657074682C2222293E2C203C486F6C653A63746469613E2082B482AE82E882CC905B82B3203C486F6C653A637464657074683E406901405034050E836583938376838C815B83672031405EF3D3C486F6C653A6374616E676C653E252564202525633C486F6C653A63746469613E208E4D8C8A2C203C69662865717
310
5616C28486F6C653A7461707065642C223022292C22252563222C486F6C653A6E6F6D696E616C202220782022293E3C696628657175616C28486F6C653A7461707065642C223022292C486F6C653A6469612C486F6C653A706974636864657363293E203C696628657175616C28486F6C653A7465726D696E6174696F6E2C2
310
23022292C22905B82B320222C222022293E3C696628657175616C28486F6C653A7465726D696E6174696F6E2C223022292C486F6C653A64657074682C2222293E406901405014050E836583938376838C815B83672031405C73D3C696628657175616C28486F6C653A7461707065642C223022292C22252563222C486F6C65
310
3A6E6F6D696E616C202220782022293E3C696628657175616C28486F6C653A7461707065642C223022292C486F6C653A6469612C486F6C653A706974636864657363293E203C696628657175616C28486F6C653A7465726D696E6174696F6E2C223022292C22905B82B320222C222022293E3C696628657175616C28486F6C
310
653A7465726D696E6174696F6E2C223022292C486F6C653A64657074682C2222293E4069014051E4090E836583938376838C815B83672032405173D3C535444503A444553433E203C535444503A5354443E40690E836583938376838C815B836720314050C3D3C535444503A444553433E40690240515AAABBA120
360
5F18
330
5F18
360
5F19
330
5F19
360
5F17
330
5F17
360
5F16
360
5F15
330
5F16
330
5F15
 94
        0
  0
ACAD_PROXY_OBJECT
  5
5F1A
330
7A1
100
AcDbProxyObject
 90
      499
 91
      568
 95
       25
 70
     0
 93
       26
310
5DD02A80
340
47
 94
        0
  0
ACAD_PROXY_OBJECT
  5
5F1B
330
7A1
100
AcDbProxyObject
 90
      499
 91
      569
 95
       25
 70
     0
 93
      250
310
5DD020000000000000A1000000000000002440408F0F9023C3E409A0DCFFFF80
340
69
340
927
340
0
340
70
340
71
340
72
340
73
340
74
340
79
340
0
 94
        0
  0
ACAD_PROXY_OBJECT
  5
5F1C
330
7A1
100
AcDbProxyObject
 90
      499
 91
      570
 95
       25
 70
     0
 93
    13889
310
5DD1D003FFFFFFFD030300030CCCCCCCCCCCC250200800030C01030300030CCCCCCCCCCCC250200800030C00050C8DC0955782CC838A83588367014ED1D15395149050D3CB1294138B0C0B23702555E0B320E2A0D620D9CB11D15395149055160B095CCB0A11D1539354D1C819D95B991A5B5E880CCC0A78000C0000000000
310
00000000000000000000010CCCCCCCCCCCC250200800030C010CCCCCCCCCCCC250200800030C020143CF4F111959985D5B1D151A5D1B194F8050A8C8A8365815B8375838B014E51D15395149050D3CB1294138B0C0B2322A0D96056E0DD60E2CB11D15395149055160B095CCB0A11D1539354D1C819D95B991A5B5E880CCC4
310
A78000C000000000000000000000000000000010CCCCCCCCCCCC250200800030C010CCCCCCCCCCCC250200800030C020143CF4F111959985D5B1D151A5D1B194F90D44111409034110541D0C4350F4050E44D03449074510F000141232D24D7C053247454E545241434F2C4A504E2C302C8CB4935F2C47454E54524154582C
310
25732C2847454E4D53472067656E64696D7A20312900010104002214000281464500A608E8A9CA8A482869E5894A09C5860591914588E8A9CA8A482A8B0584AE658508E8A9C9AA68E40CECADCC8D2DAF4406452029E9E9E27B934B3B4B71F1E24A31427A91424A9A12620A7259427B934B3B4B7149624A9A12620A7259424B
310
A32B6949496111116111711149F1E24BA32B69F00808200111A000140560052F47454E545241434F2C4A504E2C302C582C47454E54524154582C25732C2847454E4D53472067656E64696D7A20332900010100002054000280AC80A5E8E8A9CA8A482869E5894A09C586058B2588E8A9CA8A482A8B0584AE658508E8A9C9AA
310
68E40CECADCC8D2DAF4406852000202000040E800050152014BD1D15395149050D3CB1294138B0C0B148B11D15395149055160B095CCB0A11D1539354D1C819D95B991A5B5E880D8A400040400008250000A0507A6029823A2A72A2920A1A79625282716181641E99623A2A72A2920AA2C1612B9961423A2A726A9A39033B2
310
B73234B6BD101B948000808180105A000140A0F4C053047454E545241434F2C4A504E2C302C83D32C47454E54524154582C25732C2847454E4D53472067656E64696D7A203829000101010020F400028248704B5F00A668E8A9CA8A482869E5894A09C58605921C12D7C588E8A9CA8A482A8B0584AE658508E8A9C9AA68E40
310
CECADCC8D2DAF440646052000200080043280005048B4B8A69014CD1D15395149050D3CB1294138B0C0B22D2E29A4B11D15395149055160B095CCB0A11D1539354D1C819D95B991A5B5E880C8C4A4000400100086D0000A09196926BE029923A2A72A2920A1A796252827161816465A49AF9623A2A72A2920AA2C1612B9961
310
423A2A726A9A39033B2B73234B6BD10189480A02620202080043E80005048D8096DA014CD1D15395149050D3CB1294138B0C0B236025B68B11D15395149055160B095CCB0A11D1539354D1C819D95B991A5B5E880C4D0A4000404140280D0000A190687072706CD06C5069D06B0029DA3A2A72A2920A1A7962528271618164
310
1A1C1C9C1B341B141A741AC1623A2A72A2920AA2C1612B9961423A2A726A9A39033B2B73234B6BD10189A94800080820050EA000143A322A0D0E0E4E0D9A0D8A0D3A0D60053D47454E545241434F2C4A504E2C302C8C8A8343839383668362834E83582C47454E54524154582C25732C2847454E4D53472067656E64696D7A
310
2031372900010105002274000281464500A628E8A9CA8A482869E5894A09C5860591914588E8A9CA8A482A8B0584AE658508E8A9C9AA68E40CECADCC8D2DAF440626C52000202080044A8000504909497CA014CD1D15395149050D3CB1294138B0C0B242525F28B11D15395149055160B095CCB0A11D1539354D1C819D95B9
310
91A5B5E880C4E4A400040418008A521E000000000000001CA040C00000000000034408080000000000006881010000000000000D102040000000000001A204080000000000003440818000000000000728103000000000000125020600000000004028A040000000000000034408000000000000004881000000000000000D
310
102000000000000001A204000000000000003440818000000000000508143C0000000000000039408180000000000006881030000000000000D102060000000000001A2040C00000000000034408180000000000006881030000000000000E5020600000000000024A040C0000000000805140800000000000000688100000
310
00000000009102000000000000001A2040000000000000034408180000000000006881030000000000000A10284220000000878000002020000008380000020400000081800000208000000828000002028900000000
340
0
340
0
340
0
340
0
340
7A2
340
7A2
 94
        0
  0
ACAD_PROXY_OBJECT
  5
730A
330
7309
100
AcDbProxyObject
 90
      499
 91
      567
 95
       25
 70
     0
 93
     2256
310
5DE0143A0D960E4E0DDA0E32056E0D9C80C40405013D3C696628657175616C28486F6C653A7461707065642C223022292C22252563222C486F6C653A6E6F6D696E616C2022202220696628657175616C28486F6C653A756E6974732C223122292C2278222C222D222920222022293E3C696628657175616C28486F6C653A74
310
61707065642C223022292C486F6C653A6469612C486F6C653A706974636864657363293E207B5C46414D4744543B787D203C696628657175616C28486F6C653A7465726D696E6174696F6E2C223022292C486F6C653A64657074682C228AD192CA22293E5C507B5C46414D4744543B767D2525633C486F6C653A6374646961
310
3E207B5C46414D4744543B787D203C486F6C653A637464657074683E
  0
ACAD_PROXY_OBJECT
  5
730B
330
7309
100
AcDbProxyObject
 90
      499
 91
      567
 95
       25
 70
     0
 93
     2192
310
5DE0143A0D960E4E0DDA0E32056E0D9C80C405FE3D3C696628657175616C28486F6C653A7461707065642C223022292C22252563222C486F6C653A6E6F6D696E616C2022202220696628657175616C28486F6C653A756E6974732C223122292C2278222C222D222920222022293E3C696628657175616C28486F6C653A7461
310
707065642C223022292C486F6C653A6469612C486F6C653A706974636864657363293E207B5C46414D4744543B787D203C696628657175616C28486F6C653A7465726D696E6174696F6E2C223022292C486F6C653A64657074682C228AD192CA22293E5C507B5C46414D4744543B777D2525633C486F6C653A63746469613E
310
2058203C486F6C653A6374616E676C653E252564
  0
ACAD_PROXY_OBJECT
  5
730C
330
7309
100
AcDbProxyObject
 90
      499
 91
      567
 95
       25
 70
     0
 93
     1816
310
5DE0143A0D960E4E0DDA0E32056E0D9C80C405CF3D3C696628657175616C28486F6C653A7461707065642C223022292C22252563222C486F6C653A6E6F6D696E616C2022202220696628657175616C28486F6C653A756E6974732C223122292C2278222C222D222920222022293E3C696628657175616C28486F6C653A7461
310
707065642C223022292C486F6C653A6469612C486F6C653A706974636864657363293E5C507B5C46414D4744543B787D203C696628657175616C28486F6C653A7465726D696E6174696F6E2C223022292C486F6C653A64657074682C228AD192CA22293E
  0
ACAD_PROXY_OBJECT
  5
730D
330
7309
100
AcDbProxyObject
 90
      499
 91
      567
 95
       25
 70
     0
 93
      344
310
5DE0143A0D960E4E0DDA0E32056E0D9C80C805173D3C535444503A444553433E203C535444503A5354443E
  0
ACAD_PROXY_OBJECT
  5
730E
330
7309
100
AcDbProxyObject
 90
      499
 91
      567
 95
       25
 70
     0
 93
      256
310
5DE0143A0D960E4E0DDA0E32056E0D9C80C4050C3D3C535444503A444553433E
  0
ACAD_PROXY_OBJECT
  5
5F18
330
5F14
100
AcDbProxyObject
 90
      499
 91
      567
 95
       25
 70
     0
 93
     1376
310
5DE0143A0D960E4E0DDA0E32056E0D9C80C405983D3C486F6C653A6469613E3C696628657175616C28486F6C653A7465726D696E6174696F6E2C223022292C2220905B82B320222C22208368838A838B22293E3C696628657175616C28486F6C653A7465726D696E6174696F6E2C223022292C486F6C653A64657074682C22
310
22293E2C203C486F6C653A63746469613E2082B482AE82E882CC905B82B3203C486F6C653A637464657074683E
  0
ACAD_PROXY_OBJECT
  5
5F19
330
5F14
100
AcDbProxyObject
 90
      499
 91
      567
 95
       25
 70
     0
 93
     2072
310
5DE0143A0D960E4E0DDA0E32056E0D9C80C405EF3D3C486F6C653A6374616E676C653E252564202525633C486F6C653A63746469613E208E4D8C8A2C203C696628657175616C28486F6C653A7461707065642C223022292C22252563222C486F6C653A6E6F6D696E616C202220782022293E3C696628657175616C28486F6C
310
653A7461707065642C223022292C486F6C653A6469612C486F6C653A706974636864657363293E203C696628657175616C28486F6C653A7465726D696E6174696F6E2C223022292C22905B82B320222C222022293E3C696628657175616C28486F6C653A7465726D696E6174696F6E2C223022292C486F6C653A6465707468
310
2C2222293E
  0
ACAD_PROXY_OBJECT
  5
5F17
330
5F14
100
AcDbProxyObject
 90
      499
 91
      567
 95
       25
 70
     0
 93
     1752
310
5DE0143A0D960E4E0DDA0E32056E0D9C80C405C73D3C696628657175616C28486F6C653A7461707065642C223022292C22252563222C486F6C653A6E6F6D696E616C202220782022293E3C696628657175616C28486F6C653A7461707065642C223022292C486F6C653A6469612C486F6C653A706974636864657363293E20
310
3C696628657175616C28486F6C653A7465726D696E6174696F6E2C223022292C22905B82B320222C222022293E3C696628657175616C28486F6C653A7465726D696E6174696F6E2C223022292C486F6C653A64657074682C2222293E
  0
ACAD_PROXY_OBJECT
  5
5F16
330
5F14
100
AcDbProxyObject
 90
      499
 91
      567
 95
       25
 70
     0
 93
      344
310
5DE0143A0D960E4E0DDA0E32056E0D9C80C805173D3C535444503A444553433E203C535444503A5354443E
  0
ACAD_PROXY_OBJECT
  5
5F15
330
5F14
100
AcDbProxyObject
 90
      499
 91
      567
 95
       25
 70
     0
 93
      256
310
5DE0143A0D960E4E0DDA0E32056E0D9C80C4050C3D3C535444503A444553433E
  0
ENDSEC
  0
EOF
