  0
SECTION
  2
HEADER
  9
$ACADVER
  1
AC1014
  9
$ACADMAINTVER
 70
     9
  9
$DWGCODEPAGE
  3
ANSI_932
  9
$INSBASE
 10
0.0
 20
0.0
 30
0.0
  9
$EXTMIN
 10
-59.35000000000009
 20
-27.25000000023349
 30
-0.00000001
  9
$EXTMAX
 10
7.500000000000011
 20
5.500000000233408
 30
0.00000001
  9
$LIMMIN
 10
-60.36881839096389
 20
-31.12689657279345
  9
$LIMMAX
 10
9.351254156808437
 20
6.786240345436169
  9
$ORTHOMODE
 70
     0
  9
$REGENMODE
 70
     1
  9
$FILLMODE
 70
     1
  9
$QTEXTMODE
 70
     0
  9
$MIRRTEXT
 70
     0
  9
$DRAGMODE
 70
     2
  9
$LTSCALE
 40
1.0
  9
$OSMODE
 70
    55
  9
$ATTMODE
 70
     1
  9
$TEXTSIZE
 40
2.5
  9
$TRACEWID
 40
1.0
  9
$TEXTSTYLE
  7
STANDARD
  9
$CLAYER
  8
AM_0
  9
$CELTYPE
  6
BYLAYER
  9
$CECOLOR
 62
   256
  9
$CELTSCALE
 40
1.0
  9
$DELOBJ
 70
     1
  9
$DISPSILH
 70
     0
  9
$DIMSCALE
 40
0.5
  9
$DIMASZ
 40
2.5
  9
$DIMEXO
 40
1.0
  9
$DIMDLI
 40
12.0
  9
$DIMRND
 40
0.0
  9
$DIMDLE
 40
0.0
  9
$DIMEXE
 40
1.0
  9
$DIMTP
 40
0.1
  9
$DIMTM
 40
0.1
  9
$DIMTXT
 40
3.2
  9
$DIMCEN
 40
0.0
  9
$DIMTSZ
 40
0.0
  9
$DIMTOL
 70
     0
  9
$DIMLIM
 70
     0
  9
$DIMTIH
 70
     0
  9
$DIMTOH
 70
     0
  9
$DIMSE1
 70
     0
  9
$DIMSE2
 70
     0
  9
$DIMTAD
 70
     3
  9
$DIMZIN
 70
     8
  9
$DIMBLK
  1
OPEN30
  9
$DIMASO
 70
     1
  9
$DIMSHO
 70
     1
  9
$DIMPOST
  1

  9
$DIMAPOST
  1
"
  9
$DIMALT
 70
     0
  9
$DIMALTD
 70
     2
  9
$DIMALTF
 40
0.0393701
  9
$DIMLFAC
 40
1.0
  9
$DIMTOFL
 70
     1
  9
$DIMTVP
 40
0.0
  9
$DIMTIX
 70
     0
  9
$DIMSOXD
 70
     0
  9
$DIMSAH
 70
     0
  9
$DIMBLK1
  1

  9
$DIMBLK2
  1

  9
$DIMSTYLE
  2
AM_JIS
  9
$DIMCLRD
 70
   256
  9
$DIMCLRE
 70
   256
  9
$DIMCLRT
 70
     2
  9
$DIMTFAC
 40
0.71
  9
$DIMGAP
 40
1.5
  9
$DIMJUST
 70
     0
  9
$DIMSD1
 70
     0
  9
$DIMSD2
 70
     0
  9
$DIMTOLJ
 70
     0
  9
$DIMTZIN
 70
     0
  9
$DIMALTZ
 70
     0
  9
$DIMALTTZ
 70
     0
  9
$DIMFIT
 70
     3
  9
$DIMUPT
 70
     0
  9
$DIMUNIT
 70
     2
  9
$DIMDEC
 70
     3
  9
$DIMTDEC
 70
     3
  9
$DIMALTU
 70
     2
  9
$DIMALTTD
 70
     2
  9
$DIMTXSTY
  7
ASAMI
  9
$DIMAUNIT
 70
     0
  9
$LUNITS
 70
     2
  9
$LUPREC
 70
     2
  9
$SKETCHINC
 40
1.0
  9
$FILLETRAD
 40
2.5
  9
$AUNITS
 70
     0
  9
$AUPREC
 70
     0
  9
$MENU
  1
.
  9
$ELEVATION
 40
0.0
  9
$PELEVATION
 40
0.0
  9
$THICKNESS
 40
0.0
  9
$LIMCHECK
 70
     0
  9
$BLIPMODE
 70
     0
  9
$CHAMFERA
 40
2.5
  9
$CHAMFERB
 40
2.5
  9
$CHAMFERC
 40
20.0
  9
$CHAMFERD
 40
0.0
  9
$SKPOLY
 70
     0
  9
$TDCREATE
 40
2452802.716478761
  9
$TDUPDATE
 40
2453152.360838912
  9
$TDINDWG
 40
0.0805715972
  9
$TDUSRTIMER
 40
0.0805715972
  9
$USRTIMER
 70
     1
  9
$ANGBASE
 50
0.0
  9
$ANGDIR
 70
     0
  9
$PDMODE
 70
     0
  9
$PDSIZE
 40
0.0
  9
$PLINEWID
 40
0.0
  9
$COORDS
 70
     1
  9
$SPLFRAME
 70
     0
  9
$SPLINETYPE
 70
     6
  9
$SPLINESEGS
 70
     8
  9
$ATTDIA
 70
     1
  9
$ATTREQ
 70
     1
  9
$HANDLING
 70
 12289
  9
$HANDSEED
  5
20EA
  9
$SURFTAB1
 70
     6
  9
$SURFTAB2
 70
     6
  9
$SURFTYPE
 70
     6
  9
$SURFU
 70
     6
  9
$SURFV
 70
     6
  9
$UCSNAME
  2

  9
$UCSORG
 10
0.0
 20
0.0
 30
0.0
  9
$UCSXDIR
 10
1.0
 20
0.0
 30
0.0
  9
$UCSYDIR
 10
0.0
 20
1.0
 30
0.0
  9
$PUCSNAME
  2

  9
$PUCSORG
 10
0.0
 20
0.0
 30
0.0
  9
$PUCSXDIR
 10
1.0
 20
0.0
 30
0.0
  9
$PUCSYDIR
 10
0.0
 20
1.0
 30
0.0
  9
$USERI1
 70
     0
  9
$USERI2
 70
     0
  9
$USERI3
 70
     0
  9
$USERI4
 70
     0
  9
$USERI5
 70
     0
  9
$USERR1
 40
0.0
  9
$USERR2
 40
0.0
  9
$USERR3
 40
0.0
  9
$USERR4
 40
0.0
  9
$USERR5
 40
0.0
  9
$WORLDVIEW
 70
     1
  9
$SHADEDGE
 70
     3
  9
$SHADEDIF
 70
    70
  9
$TILEMODE
 70
     1
  9
$MAXACTVP
 70
    64
  9
$PINSBASE
 10
0.0
 20
0.0
 30
0.0
  9
$PLIMCHECK
 70
     0
  9
$PEXTMIN
 10
1.000000000000000E+20
 20
1.000000000000000E+20
 30
1.000000000000000E+20
  9
$PEXTMAX
 10
-1.000000000000000E+20
 20
-1.000000000000000E+20
 30
-1.000000000000000E+20
  9
$PLIMMIN
 10
0.0
 20
0.0
  9
$PLIMMAX
 10
841.0
 20
594.0
  9
$UNITMODE
 70
     0
  9
$VISRETAIN
 70
     1
  9
$PLINEGEN
 70
     0
  9
$PSLTSCALE
 70
     0
  9
$TREEDEPTH
 70
  3020
  9
$PICKSTYLE
 70
     0
  9
$CMLSTYLE
  2
STANDARD
  9
$CMLJUST
 70
     0
  9
$CMLSCALE
 40
20.0
  9
$PROXYGRAPHICS
 70
     1
  9
$MEASUREMENT
 70
     1
  0
ENDSEC
  0
SECTION
  2
CLASSES
  0
CLASS
  1
ACDBDICTIONARYWDFLT
  2
AcDbDictionaryWithDefault
  3
AutoCAD 2000
 90
        0
280
     0
281
     0
  0
CLASS
  1
ACDBPLACEHOLDER
  2
AcDbPlaceHolder
  3
AutoCAD 2000
 90
        0
280
     0
281
     0
  0
CLASS
  1
LAYOUT
  2
AcDbLayout
  3
AutoCAD 2000
 90
        0
280
     0
281
     0
  0
CLASS
  1
AMGSETTINGSOBJ
  2
AmgSettingsObj
  3
"AcadM|Product Description: AutoCAD Mechanical 2000|Company: Autodesk"
 90
        0
280
     0
281
     0
  0
CLASS
  1
ACME_DOCUMENT
  2
AcMeDbDoc
  3
AcMeServices
 90
        0
280
     0
281
     0
  0
CLASS
  1
ACMESCOPE
  2
AcMeScope
  3
AcMeServices
 90
        0
280
     0
281
     0
  0
CLASS
  1
ACMECOMMANDHISTORY
  2
AcMeCommandHistory
  3
AcMeServices
 90
        0
280
     0
281
     0
  0
CLASS
  1
DICTIONARYVAR
  2
AcDbDictionaryVar
  3
AutoCAD 2000
 90
        0
280
     0
281
     0
  0
CLASS
  1
ACIMSYSVARMAN
  2
AcImSysVarManager
  3
AcMeServices
 90
        0
280
     0
281
     0
  0
CLASS
  1
ACIMREALSYSVAR
  2
AcImRealSysVar
  3
AcMeServices
 90
        0
280
     0
281
     0
  0
CLASS
  1
ACIMINTSYSVAR
  2
AcImIntSysVar
  3
AcMeServices
 90
        0
280
     0
281
     0
  0
CLASS
  1
ACMEDRAWINGMAN
  2
AcMeDrawingMan
  3
AcMeServices
 90
        0
280
     0
281
     0
  0
CLASS
  1
ACMEVIEW
  2
AcMeView
  3
AcMeServices
 90
        0
280
     0
281
     0
  0
CLASS
  1
ACDBENTITYCACHE
  2
AcMeEntityCache
  3
AcMeServices
 90
        0
280
     0
281
     0
  0
CLASS
  1
GSMANAGER
  2
AcMeGSManager
  3
AcMeServices
 90
        0
280
     0
281
     0
  0
CLASS
  1
AmdtInternalReactor
  2
AmdtInternalReactor
  3
AcMeServices
 90
        0
280
     0
281
     0
  0
CLASS
  1
ACMESTATEMGR
  2
AcMeStateMgr
  3
AcMeServices
 90
        0
280
     0
281
     0
  0
CLASS
  1
ACME_DATABASE
  2
AcMeDbDatabase
  3
AcMeServices
 90
        0
280
     0
281
     0
  0
CLASS
  1
ACRFINSADJUSTERMGR
  2
AcRfInsAdjusterMgr
  3
AcMeServices
 90
        0
280
     0
281
     0
  0
CLASS
  1
ACMDATADICTIONARY
  2
AcmDataDictionary
  3
"AcmSymBB|Product Description: AutoCAD Mechanical 2000|Company: Autodesk"
 90
        0
280
     0
281
     0
  0
CLASS
  1
ACMDATAENTRYBLOCK
  2
AcmDataEntryBlock
  3
"AcmSymBB|Product Description: AutoCAD Mechanical 2000|Company: Autodesk"
 90
        0
280
     0
281
     0
  0
CLASS
  1
AMGOBJPROPCFG
  2
AmgObjPropCfg
  3
"AmgLay|Product Description: AutoCAD Mechanical 2000|Company: Autodesk"
 90
        1
280
     0
281
     0
  0
CLASS
  1
ACAMGFILTERDAT
  2
AcAmgFilterDat
  3
"AcadM|Product Description: AutoCAD Mechanical 2000|Company: Autodesk"
 90
        0
280
     0
281
     0
  0
CLASS
  1
LAYER_INDEX
  2
AcDbLayerIndex
  3
AutoCAD 2000
 90
        0
280
     0
281
     0
  0
CLASS
  1
IDBUFFER
  2
AcDbIdBuffer
  3
AutoCAD 2000
 90
        0
280
     0
281
     0
  0
CLASS
  1
ACIMSTRSYSVAR
  2
AcImStrSysVar
  3
AcMeServices
 90
        0
280
     0
281
     0
  0
CLASS
  1
ACMSTANDARDJIS
  2
AcmStandardJIS
  3
"AcmSymBB|Product Description: AutoCAD Mechanical 2000|Company: Autodesk"
 90
        0
280
     0
281
     0
  0
CLASS
  1
ACMSURFSTANDARDJIS
  2
AcmSurfTextStdJIS
  3
"AcmSymBB|Product Description: AutoCAD Mechanical 2000|Company: Autodesk"
 90
        0
280
     0
281
     0
  0
CLASS
  1
ACMFCFSTANDARDJIS
  2
AcmFCFStdJIS
  3
"AcmSymBB|Product Description: AutoCAD Mechanical 2000|Company: Autodesk"
 90
        0
280
     0
281
     0
  0
CLASS
  1
ACMWELDSTANDARDJIS
  2
AcmWeldingStdJIS
  3
"AcmSymBB|Product Description: AutoCAD Mechanical 2000|Company: Autodesk"
 90
        0
280
     0
281
     0
  0
CLASS
  1
ACMIDSTANDARDJIS
  2
AcmIdStdJIS
  3
"AcmSymBB|Product Description: AutoCAD Mechanical 2000|Company: Autodesk"
 90
        0
280
     0
281
     0
  0
CLASS
  1
ACMDATUMSTANDARDJIS
  2
AcmDatumStdJIS
  3
"AcmSymBB|Product Description: AutoCAD Mechanical 2000|Company: Autodesk"
 90
        0
280
     0
281
     0
  0
CLASS
  1
ACMBOMSTANDARDJIS
  2
AcmBOMStdJIS
  3
"AcmSymBB|Product Description: AutoCAD Mechanical 2000|Company: Autodesk"
 90
        0
280
     0
281
     0
  0
CLASS
  1
ACMSTANDARDANSI
  2
AcmStandardANSI
  3
"AcmSymBB|Product Description: AutoCAD Mechanical 2000|Company: Autodesk"
 90
        0
280
     0
281
     0
  0
CLASS
  1
ACMSURFSTANDARDANSI
  2
AcmSurfTextStdANSI
  3
"AcmSymBB|Product Description: AutoCAD Mechanical 2000|Company: Autodesk"
 90
        0
280
     0
281
     0
  0
CLASS
  1
ACMFCFSTANDARDANSI
  2
AcmFCFStdANSI
  3
"AcmSymBB|Product Description: AutoCAD Mechanical 2000|Company: Autodesk"
 90
        0
280
     0
281
     0
  0
CLASS
  1
ACMWELDSTANDARDANSI
  2
AcmWeldingStdANSI
  3
"AcmSymBB|Product Description: AutoCAD Mechanical 2000|Company: Autodesk"
 90
        0
280
     0
281
     0
  0
CLASS
  1
ACMIDSTANDARDANSI
  2
AcmIdStdANSI
  3
"AcmSymBB|Product Description: AutoCAD Mechanical 2000|Company: Autodesk"
 90
        0
280
     0
281
     0
  0
CLASS
  1
ACMDATUMSTANDARDANSI
  2
AcmDatumStdANSI
  3
"AcmSymBB|Product Description: AutoCAD Mechanical 2000|Company: Autodesk"
 90
        0
280
     0
281
     0
  0
CLASS
  1
ACMBOMSTANDARDANSI
  2
AcmBOMStdANSI
  3
"AcmSymBB|Product Description: AutoCAD Mechanical 2000|Company: Autodesk"
 90
        0
280
     0
281
     0
  0
CLASS
  1
ACMSTANDARDBSI
  2
AcmStandardBSI
  3
"AcmSymBB|Product Description: AutoCAD Mechanical 2000|Company: Autodesk"
 90
        0
280
     0
281
     0
  0
CLASS
  1
ACMSURFSTANDARDBSI
  2
AcmSurfTextStdBSI
  3
"AcmSymBB|Product Description: AutoCAD Mechanical 2000|Company: Autodesk"
 90
        0
280
     0
281
     0
  0
CLASS
  1
ACMFCFSTANDARDBSI
  2
AcmFCFStdBSI
  3
"AcmSymBB|Product Description: AutoCAD Mechanical 2000|Company: Autodesk"
 90
        0
280
     0
281
     0
  0
CLASS
  1
ACMWELDSTANDARDBSI
  2
AcmWeldingStdBSI
  3
"AcmSymBB|Product Description: AutoCAD Mechanical 2000|Company: Autodesk"
 90
        0
280
     0
281
     0
  0
CLASS
  1
ACMIDSTANDARDBSI
  2
AcmIdStdBSI
  3
"AcmSymBB|Product Description: AutoCAD Mechanical 2000|Company: Autodesk"
 90
        0
280
     0
281
     0
  0
CLASS
  1
ACMDATUMSTANDARDBSI
  2
AcmDatumStdBSI
  3
"AcmSymBB|Product Description: AutoCAD Mechanical 2000|Company: Autodesk"
 90
        0
280
     0
281
     0
  0
CLASS
  1
ACMBOMSTANDARDBSI
  2
AcmBOMStdBSI
  3
"AcmSymBB|Product Description: AutoCAD Mechanical 2000|Company: Autodesk"
 90
        0
280
     0
281
     0
  0
CLASS
  1
LONG_TRANSACTION
  2
AcDbLongTransaction
  3
AutoCAD 2000
 90
        0
280
     0
281
     0
  0
CLASS
  1
LWPOLYLINE
  2
AcDbPolyline
  3
AutoCAD 2000
 90
        0
280
     0
281
     1
  0
CLASS
  1
HATCH
  2
AcDbHatch
  3
AutoCAD 2000
 90
        0
280
     0
281
     1
  0
CLASS
  1
XRECORD
  2
AcDbXrecord
  3
AutoCAD 2000
 90
        0
280
     0
281
     0
  0
ENDSEC
  0
SECTION
  2
TABLES
  0
TABLE
  2
VPORT
  5
8
330
0
100
AcDbSymbolTable
 70
     3
  0
VPORT
  5
20BF
330
8
100
AcDbSymbolTableRecord
100
AcDbViewportTableRecord
  2
*ACTIVE
 70
     0
 10
0.0
 20
0.0
 11
1.0
 21
1.0
 12
-14.02648880367038
 22
-6.508669561614112
 13
0.0
 23
0.0
 14
2.5
 24
2.5
 15
10.0
 25
10.0
 16
0.0
 26
0.0
 36
1.0
 17
0.0
 27
0.0
 37
0.0
 40
131.6504763731299
 41
1.56570841889117
 42
50.0
 43
0.0
 44
0.0
 50
0.0
 51
0.0
 71
     0
 72
   100
 73
     1
 74
     3
 75
     0
 76
     0
 77
     0
 78
     0
  0
ENDTAB
  0
TABLE
  2
LTYPE
  5
5
330
0
100
AcDbSymbolTable
 70
    10
  0
LTYPE
  5
14
330
5
100
AcDbSymbolTableRecord
100
AcDbLinetypeTableRecord
  2
BYBLOCK
 70
     0
  3

 72
    65
 73
     0
 40
0.0
  0
LTYPE
  5
15
330
5
100
AcDbSymbolTableRecord
100
AcDbLinetypeTableRecord
  2
BYLAYER
 70
     0
  3

 72
    65
 73
     0
 40
0.0
  0
LTYPE
  5
16
330
5
100
AcDbSymbolTableRecord
100
AcDbLinetypeTableRecord
  2
CONTINUOUS
 70
     0
  3
Solid line
 72
    65
 73
     0
 40
0.0
  0
LTYPE
  5
4B
330
5
100
AcDbSymbolTableRecord
100
AcDbLinetypeTableRecord
  2
AM_ISO02W050
 70
     0
  3
__ __ __ __ __ __ __ __ __ __ __ __ __ __ __
 72
    65
 73
     2
 40
7.5
 49
6.0
 74
     0
 49
-1.5
 74
     0
  0
LTYPE
  5
4C
330
5
100
AcDbSymbolTableRecord
100
AcDbLinetypeTableRecord
  2
AM_ISO08W050
 70
     0
  3
____ . ____ . ____ . ____ . ____ . ____ . ____
 72
    65
 73
     4
 40
18.0
 49
12.0
 74
     0
 49
-1.5
 74
     0
 49
3.0
 74
     0
 49
-1.5
 74
     0
  0
LTYPE
  5
4D
330
5
100
AcDbSymbolTableRecord
100
AcDbLinetypeTableRecord
  2
AM_ISO09W050
 70
     0
  3
_____ . . _____ . . _____ . . ____ .. ____
 72
    65
 73
     6
 40
22.5
 49
12.0
 74
     0
 49
-1.5
 74
     0
 49
3.0
 74
     0
 49
-1.5
 74
     0
 49
3.0
 74
     0
 49
-1.5
 74
     0
  0
LTYPE
  5
4E
330
5
100
AcDbSymbolTableRecord
100
AcDbLinetypeTableRecord
  2
AMCONSTR
 70
     0
  3
_______________________
 72
    65
 73
     2
 40
9999.0
 49
9999.0
 74
     0
 49
0.0
 74
     0
  0
LTYPE
  5
4F
330
5
100
AcDbSymbolTableRecord
100
AcDbLinetypeTableRecord
  2
AM_ISO02W050X2
 70
     0
  3
 _ _ _ _ _ _ _ _ _ _ _ _
 72
    65
 73
     2
 40
3.75
 49
3.0
 74
     0
 49
-0.75
 74
     0
  0
LTYPE
  5
50
330
5
100
AcDbSymbolTableRecord
100
AcDbLinetypeTableRecord
  2
AM_ISO08W050X2
 70
     0
  3
__ . __ . __ . __ . __ . __
 72
    65
 73
     4
 40
9.0
 49
6.0
 74
     0
 49
-0.75
 74
     0
 49
1.5
 74
     0
 49
-0.75
 74
     0
  0
LTYPE
  5
53
330
5
100
AcDbSymbolTableRecord
100
AcDbLinetypeTableRecord
  2
AMZIGZAG
 70
     0
  3
/\/-/\/-/\/-/\/-/\/-/\/
 72
    65
 73
     2
 40
11.00009999999999
 49
0.0001
 74
     4
 75
   135
340
52
 46
0.04
 50
0.0
 44
0.0
 45
0.0
 49
-11.0
 74
     0
  0
LTYPE
  5
166
330
5
100
AcDbSymbolTableRecord
100
AcDbLinetypeTableRecord
  2
ACJISTGL
 70
     0
  3
_ _ _ _ _
 72
    65
 73
     2
 40
3.0
 49
2.0
 74
     0
 49
-1.0
 74
     0
  0
LTYPE
  5
26A
330
5
100
AcDbSymbolTableRecord
100
AcDbLinetypeTableRecord
  2
ACJISTGB
 70
     0
  3
__ . . __ . .
 72
    65
 73
     6
 40
9.0
 49
4.0
 74
     0
 49
-1.0
 74
     0
 49
1.0
 74
     0
 49
-1.0
 74
     0
 49
1.0
 74
     0
 49
-1.0
 74
     0
  0
ENDTAB
  0
TABLE
  2
LAYER
  5
2
330
0
100
AcDbSymbolTable
 70
     7
  0
LAYER
  5
10
330
2
100
AcDbSymbolTableRecord
100
AcDbLayerTableRecord
  2
0
 70
     0
 62
     7
  6
CONTINUOUS
  0
LAYER
  5
3F9
330
2
100
AcDbSymbolTableRecord
100
AcDbLayerTableRecord
  2
AM_0
 70
     0
 62
     7
  6
CONTINUOUS
  0
LAYER
  5
BA4
330
2
100
AcDbSymbolTableRecord
100
AcDbLayerTableRecord
  2
AM_5
 70
     0
 62
     3
  6
CONTINUOUS
  0
LAYER
  5
BA5
330
2
100
AcDbSymbolTableRecord
100
AcDbLayerTableRecord
  2
AM_11
 70
     0
 62
     3
  6
AM_ISO09W050
  0
LAYER
  5
BA6
330
2
100
AcDbSymbolTableRecord
100
AcDbLayerTableRecord
  2
AM_7
 70
     0
 62
     4
  6
AM_ISO08W050
  0
LAYER
  5
E64
330
2
100
AcDbSymbolTableRecord
100
AcDbLayerTableRecord
  2
AM_6
 70
     0
 62
     2
  6
CONTINUOUS
  0
LAYER
  5
F4D
330
2
100
AcDbSymbolTableRecord
100
AcDbLayerTableRecord
  2
DEFPOINTS
 70
     0
 62
     7
  6
CONTINUOUS
  0
ENDTAB
  0
TABLE
  2
STYLE
  5
3
330
0
100
AcDbSymbolTable
 70
     5
  0
STYLE
  5
11
330
3
100
AcDbSymbolTableRecord
100
AcDbTextStyleTableRecord
  2
STANDARD
 70
     0
 40
0.0
 41
1.0
 50
0.0
 71
     0
 42
2.5
  3
simplex.shx
  4
EXTFONT.SHX
  0
STYLE
  5
52
330
3
100
AcDbSymbolTableRecord
100
AcDbTextStyleTableRecord
  2

 70
     1
 40
0.0
 41
1.0
 50
0.0
 71
     0
 42
2.5
  3
ltypeshp.shx
  4

  0
STYLE
  5
6B
330
3
100
AcDbSymbolTableRecord
100
AcDbTextStyleTableRecord
  2
ASAMI
 70
     0
 40
0.0
 41
1.0
 50
0.0
 71
     0
 42
2.5
  3
simplex.shx
  4
EXTFONT.SHX
  0
STYLE
  5
262
330
3
100
AcDbSymbolTableRecord
100
AcDbTextStyleTableRecord
  2
ACJISTS
 70
     0
 40
1.0
 41
1.0
 50
0.0
 71
     0
 42
2.5
  3
simplex.shx
  4
bigfont.shx
  0
STYLE
  5
269
330
3
100
AcDbSymbolTableRecord
100
AcDbTextStyleTableRecord
  2
ACJISGDT
 70
     0
 40
0.0
 41
1.0
 50
0.0
 71
     0
 42
2.5
  3
amgdtans.shx
  4

  0
ENDTAB
  0
TABLE
  2
VIEW
  5
6
330
0
100
AcDbSymbolTable
 70
     0
  0
ENDTAB
  0
TABLE
  2
UCS
  5
7
330
0
100
AcDbSymbolTable
 70
     0
  0
ENDTAB
  0
TABLE
  2
APPID
  5
9
330
0
100
AcDbSymbolTable
 70
    12
  0
APPID
  5
12
330
9
100
AcDbSymbolTableRecord
100
AcDbRegAppTableRecord
  2
ACAD
 70
     0
  0
APPID
  5
30
330
9
100
AcDbSymbolTableRecord
100
AcDbRegAppTableRecord
  2
MCAD_NO_VIS
 70
     0
  0
APPID
  5
31
330
9
100
AcDbSymbolTableRecord
100
AcDbRegAppTableRecord
  2
ACAD_TEMP_GRAPHIC
 70
     0
  0
APPID
  5
2C2
330
9
100
AcDbSymbolTableRecord
100
AcDbRegAppTableRecord
  2
GENIUS_GENDTOL_13
 70
     0
  0
APPID
  5
339
330
9
100
AcDbSymbolTableRecord
100
AcDbRegAppTableRecord
  2
GENIUS_GENODEF_13
 70
     0
  0
APPID
  5
33A
330
9
100
AcDbSymbolTableRecord
100
AcDbRegAppTableRecord
  2
GENIUS_GENOBJ-N-RSBK_13
 70
     0
  0
APPID
  5
33B
330
9
100
AcDbSymbolTableRecord
100
AcDbRegAppTableRecord
  2
GENIUS_GENOBJ-N-LIB_13
 70
     0
  0
APPID
  5
33C
330
9
100
AcDbSymbolTableRecord
100
AcDbRegAppTableRecord
  2
GENIUS_GENSCALE_13
 70
     0
  0
APPID
  5
378
330
9
100
AcDbSymbolTableRecord
100
AcDbRegAppTableRecord
  2
GENIUS_GENDIMSH_14
 70
     0
  0
APPID
  5
BB0
330
9
100
AcDbSymbolTableRecord
100
AcDbRegAppTableRecord
  2
GENIUS_GENOBJ-N-CEN_13
 70
     0
  0
APPID
  5
BB1
330
9
100
AcDbSymbolTableRecord
100
AcDbRegAppTableRecord
  2
GENIUS_GENFIL_13
 70
     0
  0
APPID
  5
BB2
330
9
100
AcDbSymbolTableRecord
100
AcDbRegAppTableRecord
  2
GENIUS_GENOBJ-N-CHA_13
 70
     0
  0
ENDTAB
  0
TABLE
  2
DIMSTYLE
  5
A
330
0
100
AcDbSymbolTable
 70
     8
  0
DIMSTYLE
105
58
102
{ACAD_REACTORS
330
F4C
330
10E0
330
15A3
330
163E
102
}
330
A
100
AcDbSymbolTableRecord
100
AcDbDimStyleTableRecord
  2
AM_JIS
 70
     0
  3

  4
"
  5
OPEN30
  6

  7

 40
0.5
 41
2.5
 42
1.0
 43
12.0
 44
1.0
 45
0.0
 46
0.0
 47
0.1
 48
0.1
140
3.2
141
0.0
142
0.0
143
0.0393701
144
1.0
145
0.0
146
0.71
147
1.5
 71
     0
 72
     0
 73
     0
 74
     0
 75
     0
 76
     0
 77
     3
 78
     8
170
     0
171
     2
172
     1
173
     0
174
     0
175
     0
176
   256
177
   256
178
     2
270
     2
271
     3
272
     3
273
     2
274
     2
340
6B
275
     0
280
     0
281
     0
282
     0
283
     0
284
     0
285
     0
286
     0
287
     3
288
     0
  0
DIMSTYLE
105
5F
330
A
100
AcDbSymbolTableRecord
100
AcDbDimStyleTableRecord
  2
AM_JIS$3
 70
     0
  3

  4
"
  5
OPEN30
  6

  7

 40
0.5
 41
2.5
 42
1.0
 43
10.0
 44
1.0
 45
0.0
 46
0.0
 47
0.1
 48
0.1
140
3.2
141
0.0
142
0.0
143
0.0393701
144
1.0
145
0.0
146
0.71
147
1.5
 71
     0
 72
     0
 73
     0
 74
     1
 75
     0
 76
     0
 77
     3
 78
     8
170
     0
171
     2
172
     0
173
     0
174
     0
175
     0
176
   256
177
   256
178
     2
270
     2
271
     2
272
     3
273
     2
274
     2
340
6B
275
     0
280
     0
281
     0
282
     0
283
     0
284
     0
285
     0
286
     0
287
     0
288
     1
  0
DIMSTYLE
105
60
330
A
100
AcDbSymbolTableRecord
100
AcDbDimStyleTableRecord
  2
AM_JIS$4
 70
     0
  3

  4
"
  5
OPEN30
  6

  7

 40
0.5
 41
2.5
 42
1.0
 43
10.0
 44
1.0
 45
0.0
 46
0.0
 47
0.1
 48
0.1
140
3.2
141
0.0
142
0.0
143
0.0393701
144
1.0
145
0.0
146
0.71
147
1.5
 71
     0
 72
     0
 73
     0
 74
     1
 75
     0
 76
     0
 77
     3
 78
     8
170
     0
171
     2
172
     0
173
     0
174
     0
175
     0
176
   256
177
   256
178
     2
270
     2
271
     2
272
     3
273
     2
274
     2
340
6B
275
     0
280
     0
281
     0
282
     0
283
     0
284
     0
285
     0
286
     0
287
     0
288
     1
  0
DIMSTYLE
105
61
330
A
100
AcDbSymbolTableRecord
100
AcDbDimStyleTableRecord
  2
AM_JIS$6
 70
     0
  3

  4
"
  5
OPEN30
  6

  7

 40
0.5
 41
2.5
 42
1.0
 43
10.0
 44
1.0
 45
0.0
 46
0.0
 47
0.1
 48
0.1
140
3.2
141
0.0
142
0.0
143
0.0393701
144
1.0
145
0.0
146
0.71
147
1.5
 71
     0
 72
     0
 73
     0
 74
     0
 75
     0
 76
     0
 77
     0
 78
     8
170
     0
171
     2
172
     1
173
     0
174
     0
175
     0
176
   256
177
   256
178
     2
270
     2
271
     2
272
     2
273
     2
274
     2
340
6B
275
     0
280
     0
281
     0
282
     0
283
     0
284
     0
285
     0
286
     0
287
     3
288
     0
  0
DIMSTYLE
105
62
330
A
100
AcDbSymbolTableRecord
100
AcDbDimStyleTableRecord
  2
AM_JIS$7
 70
     0
  3

  4
"
  5
OPEN30
  6

  7

 40
0.5
 41
2.5
 42
1.0
 43
10.0
 44
1.0
 45
0.0
 46
0.0
 47
0.1
 48
0.1
140
3.2
141
0.0
142
0.0
143
0.0393701
144
1.0
145
0.0
146
0.71
147
1.5
 71
     0
 72
     0
 73
     0
 74
     0
 75
     0
 76
     0
 77
     3
 78
     8
170
     0
171
     2
172
     1
173
     0
174
     0
175
     0
176
   256
177
   256
178
     2
270
     2
271
     2
272
     3
273
     2
274
     2
340
6B
275
     0
280
     0
281
     0
282
     0
283
     0
284
     0
285
     0
286
     0
287
     3
288
     0
  0
DIMSTYLE
105
63
330
A
100
AcDbSymbolTableRecord
100
AcDbDimStyleTableRecord
  2
AM_JIS$SF
 70
     0
  3

  4
"
  5
OPEN30
  6

  7

 40
0.5
 41
2.5
 42
1.0
 43
10.0
 44
1.0
 45
0.0
 46
0.0
 47
0.1
 48
0.1
140
3.2
141
0.0
142
0.0
143
0.0393701
144
1.0
145
0.0
146
0.71
147
1.5
 71
     0
 72
     0
 73
     0
 74
     0
 75
     1
 76
     1
 77
     3
 78
     8
170
     0
171
     2
172
     1
173
     0
174
     0
175
     0
176
   256
177
   256
178
     2
270
     2
271
     2
272
     2
273
     2
274
     2
340
6B
275
     0
280
     0
281
     0
282
     0
283
     0
284
     0
285
     0
286
     0
287
     3
288
     0
  0
DIMSTYLE
105
68
330
A
100
AcDbSymbolTableRecord
100
AcDbDimStyleTableRecord
  2
AM_JIS$SH
 70
     0
  3

  4
"
  5

  6
GENAXEH
  7
OPEN30
 40
0.5
 41
2.5
 42
1.0
 43
10.0
 44
1.0
 45
0.0
 46
0.0
 47
0.1
 48
0.1
140
3.2
141
0.0
142
0.0
143
0.0393701
144
2.0
145
0.0
146
0.71
147
1.5
 71
     0
 72
     0
 73
     0
 74
     0
 75
     1
 76
     1
 77
     3
 78
     8
170
     0
171
     2
172
     1
173
     1
174
     0
175
     0
176
   256
177
   256
178
     2
270
     2
271
     2
272
     2
273
     2
274
     2
340
6B
275
     0
280
     0
281
     0
282
     0
283
     0
284
     0
285
     0
286
     0
287
     3
288
     0
  0
DIMSTYLE
105
B34
330
A
100
AcDbSymbolTableRecord
100
AcDbDimStyleTableRecord
  2
AM_JIS$2
 70
     0
  3

  4
"
  5
OPEN30
  6

  7

 40
0.5
 41
2.5
 42
1.0
 43
12.0
 44
1.0
 45
0.0
 46
0.0
 47
0.1
 48
0.1
140
3.2
141
0.0
142
0.0
143
0.0393701
144
1.0
145
0.0
146
0.71
147
1.5
 71
     0
 72
     0
 73
     0
 74
     0
 75
     0
 76
     0
 77
     3
 78
     8
170
     0
171
     2
172
     1
173
     0
174
     0
175
     0
176
   256
177
   256
178
     2
270
     2
271
     3
272
     3
273
     2
274
     2
340
6B
275
     0
280
     0
281
     0
282
     0
283
     0
284
     0
285
     0
286
     0
287
     3
288
     0
  0
ENDTAB
  0
TABLE
  2
BLOCK_RECORD
  5
1
330
0
100
AcDbSymbolTable
 70
     9
  0
BLOCK_RECORD
  5
1F
102
{ACAD_XDICTIONARY
360
74
102
}
330
1
100
AcDbSymbolTableRecord
100
AcDbBlockTableRecord
  2
*MODEL_SPACE
  0
BLOCK_RECORD
  5
101
102
{ACAD_XDICTIONARY
360
20E8
102
}
330
1
100
AcDbSymbolTableRecord
100
AcDbBlockTableRecord
  2
*PAPER_SPACE
  0
BLOCK_RECORD
  5
59
330
1
100
AcDbSymbolTableRecord
100
AcDbBlockTableRecord
  2
_OPEN30
  0
BLOCK_RECORD
  5
64
330
1
100
AcDbSymbolTableRecord
100
AcDbBlockTableRecord
  2
GENAXEH
  0
BLOCK_RECORD
  5
F4E
330
1
100
AcDbSymbolTableRecord
100
AcDbBlockTableRecord
  2
*D5
  0
BLOCK_RECORD
  5
10E1
330
1
100
AcDbSymbolTableRecord
100
AcDbBlockTableRecord
  2
*D6
  0
BLOCK_RECORD
  5
15A4
330
1
100
AcDbSymbolTableRecord
100
AcDbBlockTableRecord
  2
*D7
  0
BLOCK_RECORD
  5
163F
330
1
100
AcDbSymbolTableRecord
100
AcDbBlockTableRecord
  2
*D8
  0
ENDTAB
  0
ENDSEC
  0
SECTION
  2
BLOCKS
  0
BLOCK
  5
20
330
1F
100
AcDbEntity
  8
0
100
AcDbBlockBegin
  2
*MODEL_SPACE
 70
     0
 10
0.0
 20
0.0
 30
0.0
  3
*MODEL_SPACE
  1

  0
ENDBLK
  5
21
330
1F
100
AcDbEntity
  8
0
100
AcDbBlockEnd
  0
BLOCK
  5
103
330
101
100
AcDbEntity
 67
     1
  8
0
100
AcDbBlockBegin
  2
*PAPER_SPACE
 70
     0
 10
0.0
 20
0.0
 30
0.0
  3
*PAPER_SPACE
  1

  0
ENDBLK
  5
104
330
101
100
AcDbEntity
 67
     1
  8
0
100
AcDbBlockEnd
  0
BLOCK
  5
5D
330
59
100
AcDbEntity
  8
0
100
AcDbBlockBegin
  2
_OPEN30
 70
     0
 10
0.0
 20
0.0
 30
0.0
  3
_OPEN30
  1

  0
LINE
  5
5A
330
59
100
AcDbEntity
  8
0
 62
     0
100
AcDbLine
 10
-1.0
 20
0.26794919
 30
0.0
 11
0.0
 21
0.0
 31
0.0
  0
LINE
  5
5B
330
59
100
AcDbEntity
  8
0
 62
     0
100
AcDbLine
 10
0.0
 20
0.0
 30
0.0
 11
-1.0
 21
-0.26794919
 31
0.0
  0
LINE
  5
5C
330
59
100
AcDbEntity
  8
0
 62
     0
100
AcDbLine
 10
0.0
 20
0.0
 30
0.0
 11
-1.0
 21
0.0
 31
0.0
  0
ENDBLK
  5
5E
330
59
100
AcDbEntity
  8
0
100
AcDbBlockEnd
  0
BLOCK
  5
66
330
64
100
AcDbEntity
  8
0
100
AcDbBlockBegin
  2
GENAXEH
 70
     0
 10
0.0
 20
0.0
 30
0.0
  3
GENAXEH
  1

  0
LINE
  5
65
330
64
100
AcDbEntity
  8
0
100
AcDbLine
 10
-1.0
 20
0.0
 30
0.0
 11
1.0
 21
0.0
 31
0.0
  0
ENDBLK
  5
67
330
64
100
AcDbEntity
  8
0
100
AcDbBlockEnd
  0
BLOCK
  5
F59
330
F4E
100
AcDbEntity
  8
0
100
AcDbBlockBegin
  2
*D5
 70
     1
 10
0.0
 20
0.0
 30
0.0
  3
*D5
  1

  0
LINE
  5
1E86
330
F4E
100
AcDbEntity
  8
AM_5
100
AcDbLine
 10
-50.0000000000001
 20
-3.166666666900149
 30
0.0
 11
-50.0000000000001
 21
-16.50000000023348
 31
0.0
  0
LINE
  5
1E87
330
F4E
100
AcDbEntity
  8
AM_5
100
AcDbLine
 10
-0.0000000000000995
 20
-1.000000000069945
 30
0.0
 11
-0.0000000000001005
 21
-16.50000000023348
 31
0.0
  0
LINE
  5
1E88
330
F4E
100
AcDbEntity
  8
AM_5
100
AcDbLine
 10
-48.7500000000001
 20
-16.00000000023348
 30
0.0
 11
-1.2500000000001
 21
-16.00000000023348
 31
0.0
  0
INSERT
  5
1E89
330
F4E
100
AcDbEntity
  8
AM_5
100
AcDbBlockReference
  2
_OPEN30
 10
-50.0000000000001
 20
-16.00000000023348
 30
0.0
 41
1.25
 42
1.25
 43
1.25
 50
180.0
  0
INSERT
  5
1E8A
330
F4E
100
AcDbEntity
  8
AM_5
100
AcDbBlockReference
  2
_OPEN30
 10
-0.0000000000001004
 20
-16.00000000023348
 30
0.0
 41
1.25
 42
1.25
 43
1.25
  0
MTEXT
  5
1E8B
330
F4E
100
AcDbEntity
  8
AM_5
 62
     2
100
AcDbMText
 10
-25.0000000000001
 20
-14.45000000023348
 30
0.0
 40
1.6
 41
0.0
 71
     5
 72
     1
  1
50
  7
ASAMI
1001
ACAD
1000
MTEXTBEGIN
1070
    73
1070
     1
1070
    44
1040
1.0
1070
    74
1070
     0
1000
MTEXTEND
  0
POINT
  5
1E8C
330
F4E
100
AcDbEntity
  8
DEFPOINTS
 62
     0
100
AcDbPoint
 10
-50.0000000000001
 20
-2.666666666900149
 30
0.0
  0
POINT
  5
1E8D
330
F4E
100
AcDbEntity
  8
DEFPOINTS
 62
     0
100
AcDbPoint
 10
-0.0000000000000995
 20
-0.5000000000699459
 30
0.0
  0
POINT
  5
1E8E
330
F4E
100
AcDbEntity
  8
DEFPOINTS
 62
     0
100
AcDbPoint
 10
-0.0000000000001004
 20
-16.00000000023348
 30
0.0
  0
ENDBLK
  5
F5A
330
F4E
100
AcDbEntity
  8
0
100
AcDbBlockEnd
  0
BLOCK
  5
10ED
330
10E1
100
AcDbEntity
  8
0
100
AcDbBlockBegin
  2
*D6
 70
     1
 10
0.0
 20
0.0
 30
0.0
  3
*D6
  1

  0
LINE
  5
1FD2
330
10E1
100
AcDbEntity
  8
AM_5
100
AcDbLine
 10
-15.00000000000083
 20
-3.00000000034984
 30
0.0
 11
-15.00000000000081
 21
-10.50000000023351
 31
0.0
  0
LINE
  5
1FD3
330
10E1
100
AcDbEntity
  8
AM_5
100
AcDbLine
 10
-0.0000000000005268
 20
-1.333333333449976
 30
0.0
 11
-0.0000000000005089
 21
-10.50000000023348
 31
0.0
  0
LINE
  5
1FD4
330
10E1
100
AcDbEntity
  8
AM_5
100
AcDbLine
 10
-13.75000000000082
 20
-10.00000000023351
 30
0.0
 11
-1.250000000000509
 21
-10.00000000023349
 31
0.0
  0
INSERT
  5
1FD5
330
10E1
100
AcDbEntity
  8
AM_5
100
AcDbBlockReference
  2
_OPEN30
 10
-15.00000000000082
 20
-10.00000000023351
 30
0.0
 41
1.25
 42
1.25
 43
1.25
 50
180.0000000000001
  0
INSERT
  5
1FD6
330
10E1
100
AcDbEntity
  8
AM_5
100
AcDbBlockReference
  2
_OPEN30
 10
-0.0000000000005099
 20
-10.00000000023348
 30
0.0
 41
1.25
 42
1.25
 43
1.25
 50
0.0000000000001018
  0
MTEXT
  5
1FD7
330
10E1
100
AcDbEntity
  8
AM_5
 62
     2
100
AcDbMText
 10
-7.500000000000667
 20
-8.450000000233503
 30
0.0
 40
1.6
 41
0.0
 71
     5
 72
     1
  1
15
  7
ASAMI
1001
ACAD
1000
MTEXTBEGIN
1070
    73
1070
     1
1070
    44
1040
1.0
1070
    74
1070
     0
1000
MTEXTEND
  0
POINT
  5
1FD8
330
10E1
100
AcDbEntity
  8
DEFPOINTS
 62
     0
100
AcDbPoint
 10
-15.00000000000084
 20
-2.500000000349809
 30
0.0
  0
POINT
  5
1FD9
330
10E1
100
AcDbEntity
  8
DEFPOINTS
 62
     0
100
AcDbPoint
 10
-0.0000000000005295
 20
-0.8333333334499764
 30
0.0
  0
POINT
  5
1FDA
330
10E1
100
AcDbEntity
  8
DEFPOINTS
 62
     0
100
AcDbPoint
 10
-0.0000000000005301
 20
-10.00000000023348
 30
0.0
  0
ENDBLK
  5
10EE
330
10E1
100
AcDbEntity
  8
0
100
AcDbBlockEnd
  0
BLOCK
  5
15AE
330
15A4
100
AcDbEntity
  8
0
100
AcDbBlockBegin
  2
*D7
 70
     1
 10
0.0
 20
0.0
 30
0.0
  3
*D7
  1

  0
LINE
  5
1F2B
330
15A4
100
AcDbEntity
  8
AM_5
100
AcDbLine
 10
-50.16666666666672
 20
-3.000000000233618
 30
0.0
 11
-57.50000000000009
 21
-3.000000000233632
 31
0.0
  0
LINE
  5
1F2C
330
15A4
100
AcDbEntity
  8
AM_5
100
AcDbLine
 10
-50.16666666666673
 20
3.000000000233421
 30
0.0
 11
-57.5000000000001
 21
3.000000000233407
 31
0.0
  0
LINE
  5
1F2D
330
15A4
100
AcDbEntity
  8
AM_5
100
AcDbLine
 10
-57.00000000000009
 20
-4.25000000023363
 30
0.0
 11
-57.00000000000009
 21
-5.50000000023363
 31
0.0
  0
LINE
  5
1F2E
330
15A4
100
AcDbEntity
  8
AM_5
100
AcDbLine
 10
-57.0000000000001
 20
4.250000000233408
 30
0.0
 11
-57.00000000000011
 21
5.500000000233408
 31
0.0
  0
LINE
  5
1F2F
330
15A4
100
AcDbEntity
  8
AM_5
100
AcDbLine
 10
-57.00000000000009
 20
-3.000000000233631
 30
0.0
 11
-57.0000000000001
 21
3.000000000233408
 31
0.0
  0
INSERT
  5
1F30
330
15A4
100
AcDbEntity
  8
AM_5
100
AcDbBlockReference
  2
_OPEN30
 10
-57.00000000000009
 20
-3.000000000233631
 30
0.0
 41
1.25
 42
1.25
 43
1.25
 50
90.0000000000001
  0
INSERT
  5
1F31
330
15A4
100
AcDbEntity
  8
AM_5
100
AcDbBlockReference
  2
_OPEN30
 10
-57.0000000000001
 20
3.000000000233408
 30
0.0
 41
1.25
 42
1.25
 43
1.25
 50
270.0000000000001
  0
MTEXT
  5
1F32
330
15A4
100
AcDbEntity
  8
AM_5
 62
     2
100
AcDbMText
 10
-58.5500000000001
 20
-0.0000000000001111
 30
0.0
 40
1.6
 41
0.0
 71
     5
 72
     1
  1
%%c6
  7
ASAMI
 11
-0.000000000000002
 21
1.0
 31
0.0
1001
ACAD
1000
MTEXTBEGIN
1070
    73
1070
     1
1070
    44
1040
1.0
1070
    74
1070
     0
1000
MTEXTEND
  0
POINT
  5
1F33
330
15A4
100
AcDbEntity
  8
DEFPOINTS
 62
     0
100
AcDbPoint
 10
-49.66666666666673
 20
-3.000000000233506
 30
0.0
  0
POINT
  5
1F34
330
15A4
100
AcDbEntity
  8
DEFPOINTS
 62
     0
100
AcDbPoint
 10
-49.66666666666673
 20
3.000000000233533
 30
0.0
  0
POINT
  5
1F35
330
15A4
100
AcDbEntity
  8
DEFPOINTS
 62
     0
100
AcDbPoint
 10
-57.00000000000009
 20
3.000000000233535
 30
0.0
  0
ENDBLK
  5
15AF
330
15A4
100
AcDbEntity
  8
0
100
AcDbBlockEnd
  0
BLOCK
  5
164B
330
163F
100
AcDbEntity
  8
0
100
AcDbBlockBegin
  2
*D8
 70
     1
 10
0.0
 20
0.0
 30
0.0
  3
*D8
  1

  0
LINE
  5
1F75
330
163F
100
AcDbEntity
  8
AM_5
100
AcDbLine
 10
0.4999999999995945
 20
-2.500000000349791
 30
0.0
 11
7.500000000000011
 21
-2.500000000349777
 31
0.0
  0
LINE
  5
1F76
330
163F
100
AcDbEntity
  8
AM_5
100
AcDbLine
 10
0.4999999999994413
 20
2.500000000350234
 30
0.0
 11
7.5
 21
2.500000000350248
 31
0.0
  0
LINE
  5
1F77
330
163F
100
AcDbEntity
  8
AM_5
100
AcDbLine
 10
7.000000000000008
 20
-1.250000000349778
 30
0.0
 11
7.000000000000003
 21
1.250000000350247
 31
0.0
  0
INSERT
  5
1F78
330
163F
100
AcDbEntity
  8
AM_5
100
AcDbBlockReference
  2
_OPEN30
 10
7.000000000000011
 20
-2.500000000349778
 30
0.0
 41
1.25
 42
1.25
 43
1.25
 50
270.0000000000001
  0
INSERT
  5
1F79
330
163F
100
AcDbEntity
  8
AM_5
100
AcDbBlockReference
  2
_OPEN30
 10
7.0
 20
2.500000000350247
 30
0.0
 41
1.25
 42
1.25
 43
1.25
 50
90.0000000000001
  0
MTEXT
  5
1F7A
330
163F
100
AcDbEntity
  8
AM_5
 62
     2
100
AcDbMText
 10
5.450000000000006
 20
0.000000000000231
 30
0.0
 40
1.6
 41
0.0
 71
     5
 72
     1
  1
%%c5
  7
ASAMI
 11
-0.000000000000002
 21
1.0
 31
0.0
1001
ACAD
1000
MTEXTBEGIN
1070
    73
1070
     1
1070
    44
1040
1.0
1070
    74
1070
     0
1000
MTEXTEND
  0
POINT
  5
1F7B
330
163F
100
AcDbEntity
  8
DEFPOINTS
 62
     0
100
AcDbPoint
 10
-0.0000000000004111
 20
-2.500000000349792
 30
0.0
  0
POINT
  5
1F7C
330
163F
100
AcDbEntity
  8
DEFPOINTS
 62
     0
100
AcDbPoint
 10
-0.0000000000005532
 20
2.500000000350233
 30
0.0
  0
POINT
  5
1F7D
330
163F
100
AcDbEntity
  8
DEFPOINTS
 62
     0
100
AcDbPoint
 10
7.000000000000007
 20
2.500000000350231
 30
0.0
  0
ENDBLK
  5
164C
330
163F
100
AcDbEntity
  8
0
100
AcDbBlockEnd
  0
ENDSEC
  0
SECTION
  2
ENTITIES
  0
LINE
  5
C26
330
1F
100
AcDbEntity
  8
AM_0
100
AcDbLine
 10
-50.00000000000015
 20
2.666666666900105
 30
0.0
 11
-50.00000000000004
 21
-2.666666666900149
 31
0.0
  0
LINE
  5
C27
330
1F
100
AcDbEntity
  8
AM_0
100
AcDbLine
 10
-49.66666666666673
 20
-3.000000000233506
 30
0.0
 11
-49.66666666666673
 21
3.000000000233419
 31
0.0
  0
LINE
  5
C2A
330
1F
100
AcDbEntity
  8
AM_0
100
AcDbLine
 10
-20.5000000000001
 20
-3.00000000023349
 30
0.0
 11
-20.5000000000001
 21
3.000000000233434
 31
0.0
  0
LINE
  5
C2E
330
1F
100
AcDbEntity
  8
AM_0
100
AcDbLine
 10
-49.66666666666684
 20
3.000000000233419
 30
0.0
 11
-20.5000000000001
 21
3.000000000233437
 31
0.0
  0
LINE
  5
C32
330
1F
100
AcDbEntity
  8
AM_0
100
AcDbLine
 10
-49.66666666666684
 20
3.000000000233419
 30
0.0
 11
-50.00000000000015
 21
2.666666666900105
 31
0.0
1001
GENIUS_GENFIL_13
1070
     0
1040
1.0
1040
1.0
1040
20.0
1040
0.0
1002
{
1002
}
1001
GENIUS_GENOBJ-N-CHA_13
1002
{
1000
OWNER
1000
GEN
1002
}
1001
GENIUS_GENODEF_13
1002
{
1000
HIER
1070
     0
1002
}
1002
{
1000
MANEDIT
1070
     0
1002
}
1002
{
1000
NOSEL
1070
     0
1002
}
1002
{
1000
BEHIND
1070
     0
1002
}
1002
{
1000
OTHER
1070
     0
1002
}
1002
{
1000
REACTOR
1002
}
  0
LINE
  5
C3C
330
1F
100
AcDbEntity
  8
AM_0
100
AcDbLine
 10
-20.5000000000001
 20
-3.000000000233487
 30
0.0
 11
-49.66666666666673
 21
-3.000000000233506
 31
0.0
  0
LINE
  5
C44
330
1F
100
AcDbEntity
  8
AM_0
100
AcDbLine
 10
-50.00000000000004
 20
-2.666666666900149
 30
0.0
 11
-49.66666666666673
 21
-3.000000000233506
 31
0.0
1001
GENIUS_GENFIL_13
1070
     0
1040
1.0
1040
1.0
1040
20.0
1040
0.0
1002
{
1002
}
1001
GENIUS_GENODEF_13
1002
{
1000
HIER
1070
     0
1002
}
1002
{
1000
MANEDIT
1070
     0
1002
}
1002
{
1000
NOSEL
1070
     0
1002
}
1002
{
1000
BEHIND
1070
     0
1002
}
1002
{
1000
OTHER
1070
     0
1002
}
1002
{
1000
REACTOR
1002
}
1001
GENIUS_GENOBJ-N-CHA_13
1002
{
1000
OWNER
1000
GEN
1002
}
  0
TEXT
  5
E65
330
1F
100
AcDbEntity
  8
AM_6
100
AcDbText
 10
-35.654761904762
 20
-27.25000000023348
 30
0.0
 40
2.5
  1
ASM2050DL
 72
     4
 11
-25.0000000000001
 21
-26.00000000023348
 31
0.0
100
AcDbText
  0
DIMENSION
  5
F4C
330
1F
100
AcDbEntity
  8
AM_5
100
AcDbDimension
  2
*D5
 10
-0.0000000000001004
 20
-16.00000000023348
 30
0.0
 11
-25.0000000000001
 21
-14.45000000023348
 31
0.0
 70
    32
  1
<>
  3
AM_JIS
100
AcDbAlignedDimension
 13
-50.0000000000001
 23
-2.666666666900149
 33
0.0
 14
-0.0000000000000995
 24
-0.5000000000699459
 34
0.0
100
AcDbRotatedDimension
1001
GENIUS_GENDTOL_13
1000

1000
h7
1000

1040
0.0
  0
DIMENSION
  5
10E0
330
1F
100
AcDbEntity
  8
AM_5
100
AcDbDimension
  2
*D6
 10
-0.0000000000005301
 20
-10.00000000023348
 30
0.0
 11
-7.500000000000684
 21
-8.450000000233487
 31
0.0
 70
    32
  1
<>
 51
359.9999999999998
  3
AM_JIS
100
AcDbAlignedDimension
 13
-15.00000000000084
 23
-2.500000000349809
 33
0.0
 14
-0.0000000000005295
 24
-0.8333333334499764
 34
0.0
100
AcDbRotatedDimension
1001
GENIUS_GENDTOL_13
1000

1000
h7
1000

1040
0.0
  0
DIMENSION
  5
15A3
330
1F
100
AcDbEntity
  8
AM_5
100
AcDbDimension
  2
*D7
 10
-57.00000000000009
 20
3.000000000233535
 30
0.0
 11
-57.00000000000009
 21
0.000000000000007
 31
0.0
 70
   160
  1
%%c<>
 51
359.9999999999998
  3
AM_JIS
100
AcDbAlignedDimension
 13
-49.66666666666673
 23
-3.000000000233506
 33
0.0
 14
-49.66666666666673
 24
3.000000000233533
 34
0.0
 50
270.0
100
AcDbRotatedDimension
1001
GENIUS_GENDTOL_13
1000

1000
h7
1000

1040
0.0
  0
DIMENSION
  5
163E
330
1F
100
AcDbEntity
  8
AM_5
100
AcDbDimension
  2
*D8
 10
7.000000000000007
 20
2.500000000350231
 30
0.0
 11
5.450000000000006
 21
0.00000000000022
 31
0.0
 70
    32
  1
%%c<>
 51
359.9999999999998
  3
AM_JIS
100
AcDbAlignedDimension
 13
-0.0000000000004111
 23
-2.500000000349792
 33
0.0
 14
-0.0000000000005532
 24
2.500000000350233
 34
0.0
 50
90.0
100
AcDbRotatedDimension
1001
GENIUS_GENDTOL_13
1000

1000
h7
1000

1040
0.0
  0
LINE
  5
17E1
330
1F
100
AcDbEntity
  8
AM_7
100
AcDbLine
 10
-51.5000000000001
 20
-0.0000000000000223
 30
0.0
 11
1.4999999999999
 21
0.0
 31
0.0
1001
GENIUS_GENODEF_13
1002
{
1000
HIER
1070
     0
1002
}
1002
{
1000
MANEDIT
1070
     0
1002
}
1002
{
1000
NOSEL
1070
     0
1002
}
1002
{
1000
BEHIND
1070
     0
1002
}
1002
{
1000
REACTOR
1002
}
1001
GENIUS_GENOBJ-N-CEN_13
1002
{
1000
OWNER
1000
GEN
1002
}
  0
LINE
  5
199E
330
1F
100
AcDbEntity
  8
AM_0
100
AcDbLine
 10
-20.5000000000001
 20
3.000000000233434
 30
0.0
 11
-18.63397459665143
 21
2.500000000350204
 31
0.0
  0
LINE
  5
199F
330
1F
100
AcDbEntity
  8
AM_0
100
AcDbLine
 10
-20.50000000000008
 20
-3.00000000023349
 30
0.0
 11
-18.63397459665114
 21
-2.500000000350178
 31
0.0
  0
SPLINE
  5
1BE7
330
1F
100
AcDbEntity
  8
AM_0
100
AcDbSpline
210
0.0
220
0.0
230
1.0
 70
     8
 71
     3
 72
     8
 73
     4
 74
     0
 42
0.0000000001
 43
0.0000000001
 40
2.181517009851762
 40
2.181517009851762
 40
2.181517009851762
 40
2.181517009851762
 40
4.807938801585805
 40
4.807938801585805
 40
4.807938801585805
 40
4.807938801585805
 10
-13.40390007176189
 20
-2.45582987283198
 30
0.0
 10
-15.35791256951532
 20
-2.02191144930169
 30
0.0
 10
-16.80328851859694
 20
-1.599887269129705
 30
0.0
 10
-18.00000000000083
 20
-1.183677998839538
 30
0.0
  0
SPLINE
  5
1BE8
330
1F
100
AcDbEntity
  8
AM_0
100
AcDbSpline
210
0.0
220
0.0
230
1.0
 70
     8
 71
     3
 72
     8
 73
     4
 74
     0
 42
0.0000000001
 43
0.0000000001
 40
0.0
 40
0.0
 40
0.0
 40
0.0
 40
0.5504284074339211
 40
0.5504284074339211
 40
0.5504284074339211
 40
0.5504284074339211
 10
-14.01907205721328
 20
-2.500000000349805
 30
0.0
 10
-15.50358729821935
 20
-2.500000000349835
 30
0.0
 10
-16.80772908975576
 20
-2.319707152845532
 30
0.0
 10
-17.99999999994576
 20
-2.027593414794071
 30
0.0
  0
SPLINE
  5
1BE9
330
1F
100
AcDbEntity
  8
AM_0
100
AcDbSpline
210
0.0
220
0.0
230
1.0
 70
     8
 71
     3
 72
     8
 73
     4
 74
     0
 42
0.0000000001
 43
0.0000000001
 40
0.9753439196676739
 40
0.9753439196676739
 40
0.9753439196676739
 40
0.9753439196676739
 40
3.061507184260607
 40
3.061507184260607
 40
3.061507184260607
 40
3.061507184260607
 10
-13.81263289177856
 20
-2.485177406867701
 30
0.0
 10
-15.04222012573398
 20
-2.353919847968281
 30
0.0
 10
-16.11688578729089
 20
-2.154258800110397
 30
0.0
 10
-17.08726823061949
 20
-1.908552931920559
 30
0.0
  0
SPLINE
  5
1BEA
330
1F
100
AcDbEntity
  8
AM_0
100
AcDbSpline
210
0.0
220
0.0
230
1.0
 70
     8
 71
     3
 72
     8
 73
     4
 74
     0
 42
0.0000000001
 43
0.0000000001
 40
0.0
 40
0.0
 40
0.0
 40
0.0
 40
1.426212009403259
 40
1.426212009403259
 40
1.426212009403259
 40
1.426212009403259
 10
-15.00000000000033
 20
2.500000000350141
 30
0.0
 10
-15.56494831039962
 20
2.500000000350141
 30
0.0
 10
-16.11985822610428
 20
2.45346232936877
 30
0.0
 10
-16.66666666666751
 20
2.369366483393782
 30
0.0
  0
SPLINE
  5
1BEB
330
1F
100
AcDbEntity
  8
AM_0
100
AcDbSpline
210
0.0
220
0.0
230
1.0
 70
     8
 71
     3
 72
     8
 73
     4
 74
     0
 42
0.0000000001
 43
0.0000000001
 40
0.9774076760691542
 40
0.9774076760691542
 40
0.9774076760691542
 40
0.9774076760691542
 40
7.357693791159725
 40
7.357693791159725
 40
7.357693791159725
 40
7.357693791159725
 10
-15.15354813083689
 20
2.498857105251311
 30
0.0
 10
-11.81984898531692
 20
2.082937938163512
 30
0.0
 10
-9.508859962800297
 20
1.041468969081821
 30
0.0
 10
-7.197870940283671
 20
0.0000000000002005
 30
0.0
  0
SPLINE
  5
1BEC
330
1F
100
AcDbEntity
  8
AM_0
100
AcDbSpline
210
0.0
220
0.0
230
1.0
 70
     8
 71
     3
 72
     8
 73
     4
 74
     0
 42
0.0000000001
 43
0.0000000001
 40
3.269815770496093
 40
3.269815770496093
 40
3.269815770496093
 40
3.269815770496093
 40
14.49327715076166
 40
14.49327715076166
 40
14.49327715076166
 40
14.49327715076166
 10
-15.38617772803318
 20
2.492800728112093
 30
0.0
 10
-12.3616750511511
 20
1.935977154285015
 30
0.0
 10
-10.3031088083869
 20
0.9679885771426079
 30
0.0
 10
-8.244542565622701
 20
0.0000000000002008
 30
0.0
  0
SPLINE
  5
1BED
330
1F
100
AcDbEntity
  8
AM_0
100
AcDbSpline
210
0.0
220
0.0
230
1.0
 70
     8
 71
     3
 72
     8
 73
     4
 74
     0
 42
0.0000000001
 43
0.0000000001
 40
0.0
 40
0.0
 40
0.0
 40
0.0
 40
11.86206080997351
 40
11.86206080997351
 40
11.86206080997351
 40
11.86206080997351
 10
-6.8856215340027
 20
-1.956136266114126
 30
0.0
 10
-9.281997455209378
 20
-1.956136266114125
 30
0.0
 10
-11.56103036579725
 20
-1.269263496146646
 30
0.0
 10
-14.05022776520501
 20
-0.2703002198699976
 30
0.0
  0
SPLINE
  5
1BEE
330
1F
100
AcDbEntity
  8
AM_0
100
AcDbSpline
210
0.0
220
0.0
230
1.0
 70
     8
 71
     3
 72
     8
 73
     4
 74
     0
 42
0.0000000001
 43
0.0000000001
 40
0.3443266157452782
 40
0.3443266157452782
 40
0.3443266157452782
 40
0.3443266157452782
 40
7.320123087841765
 40
7.320123087841765
 40
7.320123087841765
 40
7.320123087841765
 10
-14.99999999929919
 20
2.500000000350215
 30
0.0
 10
-11.07246702654551
 20
2.181364680594258
 30
0.0
 10
-8.525720065895592
 20
1.090682340297193
 30
0.0
 10
-5.97897310524554
 20
0.0000000000002002
 30
0.0
  0
SPLINE
  5
1BEF
330
1F
100
AcDbEntity
  8
AM_0
100
AcDbSpline
210
0.0
220
0.0
230
1.0
 70
     8
 71
     3
 72
     8
 73
     4
 74
     0
 42
0.0000000001
 43
0.0000000001
 40
0.0
 40
0.0
 40
0.0
 40
0.0
 40
0.2781144329453257
 40
0.2781144329453257
 40
0.2781144329453257
 40
0.2781144329453257
 10
-1.39726339163905
 20
0.8071588467443861
 30
0.0
 10
-0.8419232781198029
 20
0.8775008788676641
 30
0.0
 10
-0.2769855712999838
 20
1.181614752377896
 30
0.0
 10
-0.00000000000034
 20
1.584896681415613
 30
0.0
  0
ELLIPSE
  5
1BF0
330
1F
100
AcDbEntity
  8
AM_0
100
AcDbEllipse
 10
4.135690424304975
 20
-0.6266798107839985
 30
0.0
 11
-4.718047640055187
 21
0.0000000000002434
 31
0.0
210
0.0
220
0.0
230
1.0
 40
0.8250000000000154
 41
-0.0711801993779546
 42
0.4937555949844428
  0
SPLINE
  5
1BF1
330
1F
100
AcDbEntity
  8
AM_0
100
AcDbSpline
210
0.0
220
0.0
230
1.0
 70
     8
 71
     3
 72
     8
 73
     4
 74
     0
 42
0.0000000001
 43
0.0000000001
 40
2.181517009851762
 40
2.181517009851762
 40
2.181517009851762
 40
2.181517009851762
 40
7.320123087841765
 40
7.320123087841765
 40
7.320123087841765
 40
7.320123087841765
 10
-0.2723286132216199
 20
-2.014383198987857
 30
0.0
 10
-2.226934334204146
 20
-1.606866520668872
 30
0.0
 10
-4.102953719724847
 20
-0.8034332603343006
 30
0.0
 10
-5.978973105245415
 20
0.0000000000002002
 30
0.0
  0
ELLIPSE
  5
1BF2
330
1F
100
AcDbEntity
  8
AM_0
100
AcDbEllipse
 10
-1.359736171311806
 20
1.35197367673625
 30
0.0
 11
-0.6614470242477049
 21
0.0000000000002255
 31
0.0
210
0.0
220
0.0
230
1.0
 40
0.8249999999999607
 41
0.4058313670111076
 42
1.51403081017274
  0
SPLINE
  5
1BF3
330
1F
100
AcDbEntity
  8
AM_0
100
AcDbSpline
210
0.0
220
0.0
230
1.0
 70
     8
 71
     3
 72
     8
 73
     4
 74
     0
 42
0.0000000001
 43
0.0000000001
 40
0.0
 40
0.0
 40
0.0
 40
0.0
 40
0.3761021742426976
 40
0.3761021742426976
 40
0.3761021742426976
 40
0.3761021742426976
 10
-1.967456833847545
 20
1.136543187583839
 30
0.0
 10
-2.727071463770096
 20
1.150477113237883
 30
0.0
 10
-1.308237364038993
 20
-0.130277522555687
 30
0.0
 10
-0.6075083343794758
 20
-0.3726064000587001
 30
0.0
  0
SPLINE
  5
1BF4
330
1F
100
AcDbEntity
  8
AM_0
100
AcDbSpline
210
0.0
220
0.0
230
1.0
 70
     8
 71
     3
 72
     8
 73
     4
 74
     0
 42
0.0000000001
 43
0.0000000001
 40
0.9753439196676739
 40
0.9753439196676739
 40
0.9753439196676739
 40
0.9753439196676739
 40
7.357693791159725
 40
7.357693791159725
 40
7.357693791159725
 40
7.357693791159725
 10
-0.0998104852213273
 20
-2.341510446696957
 30
0.0
 10
-2.574397878161317
 20
-2.08361168169533
 30
0.0
 10
-4.886134409222429
 20
-1.041805840847529
 30
0.0
 10
-7.197870940283671
 20
0.0000000000002005
 30
0.0
  0
SPLINE
  5
1BF5
330
1F
100
AcDbEntity
  8
AM_0
100
AcDbSpline
210
0.0
220
0.0
230
1.0
 70
     8
 71
     3
 72
     8
 73
     4
 74
     0
 42
0.0000000001
 43
0.0000000001
 40
0.0
 40
0.0
 40
0.0
 40
0.0
 40
1.449327715076165
 40
1.449327715076165
 40
1.449327715076165
 40
1.449327715076165
 10
-0.0000000000003341
 20
-2.500000000349813
 30
0.0
 10
-2.927934777932081
 20
-2.500000000349813
 30
0.0
 10
-5.586238671777643
 20
-1.250000000174806
 30
0.0
 10
-8.244542565622701
 20
0.0000000000002008
 30
0.0
  0
SPLINE
  5
1BF6
330
1F
100
AcDbEntity
  8
AM_0
100
AcDbSpline
210
0.0
220
0.0
230
1.0
 70
     8
 71
     3
 72
     8
 73
     4
 74
     0
 42
0.0000000001
 43
0.0000000001
 40
0.0
 40
0.0
 40
0.0
 40
0.0
 40
2.238610194515266
 40
2.238610194515266
 40
2.238610194515266
 40
2.238610194515266
 10
-6.8856215340027
 20
-1.956136266114126
 30
0.0
 10
-5.998867644191332
 20
-1.956136266114126
 30
0.0
 10
-5.128181447803356
 20
-1.862083275395973
 30
0.0
 10
-4.268580353289893
 20
-1.703143125315533
 30
0.0
  0
SPLINE
  5
1BF7
330
1F
100
AcDbEntity
  8
AM_0
100
AcDbSpline
210
0.0
220
0.0
230
1.0
 70
     8
 71
     3
 72
     8
 73
     4
 74
     0
 42
0.0000000001
 43
0.0000000001
 40
0.0
 40
0.0
 40
0.0
 40
0.0
 40
4.256459477032852
 40
4.256459477032852
 40
4.256459477032852
 40
4.256459477032852
 10
-6.885621534002696
 20
1.956136266114598
 30
0.0
 10
-5.199561134862815
 20
1.956136266114597
 30
0.0
 10
-3.571589694037344
 20
1.616109847058794
 30
0.0
 10
-1.967456833847545
 20
1.136543187583839
 30
0.0
  0
SPLINE
  5
1BF8
330
1F
100
AcDbEntity
  8
AM_0
100
AcDbSpline
210
0.0
220
0.0
230
1.0
 70
     8
 71
     3
 72
     8
 73
     4
 74
     0
 42
0.0000000001
 43
0.0000000001
 40
0.0
 40
0.0
 40
0.0
 40
0.0
 40
3.736652249739376
 40
3.736652249739376
 40
3.736652249739376
 40
3.736652249739376
 10
-0.00000000000034
 20
2.50000000035021
 30
0.0
 10
-1.480155377406827
 20
2.500000000350211
 30
0.0
 10
-2.891404054474794
 20
2.180550780996156
 30
0.0
 10
-4.268580353271072
 20
1.703143125279198
 30
0.0
  0
LINE
  5
1BF9
330
1F
100
AcDbEntity
  8
AM_11
 48
0.35
100
AcDbLine
 10
-0.00000000000034
 20
2.500000000350212
 30
0.0
 11
-15.00000000000084
 21
2.500000000350215
 31
0.0
  0
LINE
  5
1BFA
330
1F
100
AcDbEntity
  8
AM_0
100
AcDbLine
 10
-6.148897830333487
 20
-1.934911525240336
 30
0.0
 11
-14.01907205721328
 21
-2.500000000349805
 31
0.0
  0
LINE
  5
1BFB
330
1F
100
AcDbEntity
  8
AM_11
 48
0.35
100
AcDbLine
 10
-15.00000000000084
 20
-2.500000000349809
 30
0.0
 11
-0.0000000000003341
 21
-2.500000000349814
 31
0.0
  0
LINE
  5
1BFC
330
1F
100
AcDbEntity
  8
AM_5
100
AcDbLine
 10
-15.00000000000084
 20
-2.500000000349809
 30
0.0
 11
-15.00000000000084
 21
2.500000000350215
 31
0.0
  0
LINE
  5
1BFD
330
1F
100
AcDbEntity
  8
AM_0
100
AcDbLine
 10
-16.66666666666753
 20
0.8879899734120872
 30
0.0
 11
-14.05022776520501
 21
-0.2703002198699973
 31
0.0
  0
LINE
  5
1BFF
330
1F
100
AcDbEntity
  8
AM_0
100
AcDbLine
 10
-15.18729760140403
 20
-2.500000000350165
 30
0.0
 11
-18.63397459665114
 21
-2.500000000350178
 31
0.0
  0
LINE
  5
1C00
330
1F
100
AcDbEntity
  8
AM_0
100
AcDbLine
 10
-18.00000000000083
 20
-2.027593414801253
 30
0.0
 11
-16.10277593983805
 21
-1.780153284161632
 31
0.0
  0
LINE
  5
1C01
330
1F
100
AcDbEntity
  8
AM_0
100
AcDbLine
 10
-15.18729760140314
 20
2.500000000350215
 30
0.0
 11
-18.63397459665143
 21
2.500000000350204
 31
0.0
  0
LINE
  5
1C02
330
1F
100
AcDbEntity
  8
AM_0
100
AcDbLine
 10
-18.00000000000083
 20
-1.183677998839538
 30
0.0
 11
-16.66666666666753
 21
0.8879899734120872
 31
0.0
  0
POLYLINE
  5
1C03
330
1F
100
AcDbEntity
  8
AM_0
100
AcDb2dPolyline
 66
     1
 10
0.0
 20
0.0
 30
0.0
 70
     2
  0
VERTEX
  5
1C04
330
1C03
100
AcDbEntity
  8
AM_0
100
AcDbVertex
100
AcDb2dVertex
 10
-16.66666666666751
 20
0.8879899734120794
 30
0.0
 42
-0.00622219870902
  0
VERTEX
  5
1C05
330
1C03
100
AcDbEntity
  8
AM_0
100
AcDbVertex
100
AcDb2dVertex
 10
-17.00169897515112
 20
1.108415837564532
 30
0.0
 42
-0.0123210924853836
 70
     1
  0
VERTEX
  5
1C06
330
1C03
100
AcDbEntity
  8
AM_0
100
AcDbVertex
100
AcDb2dVertex
 10
-17.16666666666751
 20
1.225941589883114
 30
0.0
 42
-0.0025622273842705
  0
VERTEX
  5
1C07
330
1C03
100
AcDbEntity
  8
AM_0
100
AcDbVertex
100
AcDb2dVertex
 10
-17.64821798910735
 20
1.591090018531265
 30
0.0
 42
-0.0065720744075463
 70
     1
  0
VERTEX
  5
1C08
330
1C03
100
AcDbEntity
  8
AM_0
100
AcDbVertex
100
AcDb2dVertex
 10
-17.83333333333417
 20
1.736860032920192
 30
0.0
 42
-0.0309492041323482
  0
VERTEX
  5
1C09
330
1C03
100
AcDbEntity
  8
AM_0
100
AcDbVertex
100
AcDb2dVertex
 10
-17.98762095636353
 20
1.878324426748614
 30
0.0
 42
-0.1987734859115818
 70
     1
  0
VERTEX
  5
1C0A
330
1C03
100
AcDbEntity
  8
AM_0
100
AcDbVertex
100
AcDb2dVertex
 10
-18.00000000000085
 20
1.909826859486236
 30
0.0
 42
-0.2555084210409744
  0
VERTEX
  5
1C0B
330
1C03
100
AcDbEntity
  8
AM_0
100
AcDbVertex
100
AcDb2dVertex
 10
-17.98518303646768
 20
1.935805984997637
 30
0.0
 42
-0.0422410373741994
 70
     1
  0
VERTEX
  5
1C0C
330
1C03
100
AcDbEntity
  8
AM_0
100
AcDbVertex
100
AcDb2dVertex
 10
-17.83333333333418
 20
2.012506528281451
 30
0.0
 42
-0.0128479666274367
  0
VERTEX
  5
1C0D
330
1C03
100
AcDbEntity
  8
AM_0
100
AcDbVertex
100
AcDb2dVertex
 10
-17.65447934260495
 20
2.079337950780372
 30
0.0
 42
-0.0047690417067486
 70
     1
  0
VERTEX
  5
1C0E
330
1C03
100
AcDbEntity
  8
AM_0
100
AcDbVertex
100
AcDb2dVertex
 10
-17.16666666666751
 20
2.242276340235224
 30
0.0
 42
-0.0159813042361842
  0
VERTEX
  5
1C0F
330
1C03
100
AcDbEntity
  8
AM_0
100
AcDbVertex
100
AcDb2dVertex
 10
-16.9910180120933
 20
2.292950181852164
 30
0.0
 42
-0.0087658433046645
 70
     1
  0
VERTEX
  5
1C10
330
1C03
100
AcDbEntity
  8
AM_0
100
AcDbVertex
100
AcDb2dVertex
 10
-16.66666666666751
 20
2.369366483393781
 30
0.0
  0
SEQEND
  5
1C11
330
1C03
100
AcDbEntity
  8
AM_0
  0
LINE
  5
1C12
330
1F
100
AcDbEntity
  8
AM_0
100
AcDbLine
 10
-6.885621534002696
 20
1.956136266114598
 30
0.0
 11
-12.18128859656337
 21
2.108702500371808
 31
0.0
  0
LINE
  5
1C13
330
1F
100
AcDbEntity
  8
AM_0
100
AcDbLine
 10
-0.083184789079154
 20
-0.0510201803731436
 30
0.0
 11
-0.0831847890791481
 21
-2.34323110266105
 31
0.0
  0
LINE
  5
1C14
330
1F
100
AcDbEntity
  8
AM_0
100
AcDbLine
 10
-0.0000000000003341
 20
-2.500000000349814
 30
0.0
 11
-0.00000000000034
 21
2.500000000350212
 31
0.0
  0
LINE
  5
1C15
330
1F
100
AcDbEntity
  8
AM_0
100
AcDbLine
 10
-0.00000000000034
 20
0.0000000000001987
 30
0.0
 11
-0.5704099822547178
 21
-0.3498526654168331
 31
0.0
  0
LINE
  5
1C16
330
1F
100
AcDbEntity
  8
AM_0
100
AcDbLine
 10
-0.00000000000034
 20
0.0000000000001987
 30
0.0
 11
-1.397263391632229
 21
0.8071588467404071
 31
0.0
  0
LINE
  5
1E0E
330
1F
100
AcDbEntity
  8
AM_0
100
AcDbLine
 10
-18.63397459665143
 20
2.500000000350204
 30
0.0
 11
-18.63397459665142
 21
-2.500000000350177
 31
0.0
  0
VIEWPORT
  5
110
330
101
100
AcDbEntity
 67
     1
  8
0
100
AcDbViewport
 10
420.5
 20
297.0
 30
0.0
 40
948.9782706766916
 41
628.452
 68
     1
 69
     1
1001
ACAD
1000
MVIEW
1002
{
1070
    16
1010
0.0
1020
0.0
1030
0.0
1010
0.0
1020
0.0
1030
1.0
1040
0.0
1040
628.452
1040
420.5
1040
297.0
1040
50.0
1040
0.0
1040
0.0
1070
     0
1070
   100
1070
     1
1070
     1
1070
     0
1070
     0
1070
     0
1070
     0
1040
0.0
1040
0.0
1040
0.0
1040
10.0
1040
10.0
1040
10.0
1040
10.0
1070
     0
1002
{
1002
}
1002
}
  0
ENDSEC
  0
SECTION
  2
OBJECTS
  0
DICTIONARY
  5
C
330
0
100
AcDbDictionary
  3
ACAD_GROUP
350
D
  3
ACAD_LAYOUT
350
1A
  3
ACAD_MLINESTYLE
350
17
  3
ACAD_PLOTSETTINGS
350
19
  3
ACAD_PLOTSTYLENAME
350
E
  3
ACDBVARIABLEDICTIONARY
350
34
  3
ACMDICTIONARY
350
43
  3
AMG
350
2B
  3
AMGSNAPSETTINGS
350
6E
  3
DWGPROPS
350
20B4
  3
ACDBHEADERROUNDTRIPXREC
350
20C0
  0
DICTIONARY
  5
74
330
1F
100
AcDbDictionary
280
     1
  3
ACAD_INDEX
360
20B6
  3
ACAD_LAYOUTSELFREF
360
20E3
  0
DICTIONARY
  5
20E8
330
101
100
AcDbDictionary
280
     1
  3
ACAD_LAYOUTSELFREF
360
20E9
  0
DICTIONARY
  5
D
102
{ACAD_REACTORS
330
C
102
}
330
C
100
AcDbDictionary
  0
DICTIONARY
  5
1A
102
{ACAD_REACTORS
330
C
102
}
330
C
100
AcDbDictionary
  0
DICTIONARY
  5
17
102
{ACAD_REACTORS
330
C
102
}
330
C
100
AcDbDictionary
  3
STANDARD
350
18
  0
DICTIONARY
  5
19
102
{ACAD_REACTORS
330
C
102
}
330
C
100
AcDbDictionary
  0
ACDBDICTIONARYWDFLT
  5
E
102
{ACAD_REACTORS
330
C
102
}
330
C
100
AcDbDictionary
281
     1
  3
Normal
350
F
100
AcDbDictionaryWithDefault
340
F
  0
DICTIONARY
  5
34
102
{ACAD_REACTORS
330
C
102
}
330
C
100
AcDbDictionary
  3
INDEXCTL
350
35
  3
SORTENTS
350
B5E
  0
DICTIONARY
  5
43
102
{ACAD_REACTORS
330
C
102
}
330
C
100
AcDbDictionary
  3
ACMSTDDICTIONARY
350
260
  0
DICTIONARY
  5
2B
102
{ACAD_REACTORS
330
C
102
}
330
C
100
AcDbDictionary
  3
ACMGSETTINGS
350
2C
  0
DICTIONARY
  5
6E
102
{ACAD_REACTORS
330
C
102
}
330
C
100
AcDbDictionary
  0
XRECORD
  5
20B4
102
{ACAD_REACTORS
330
C
102
}
330
C
100
AcDbXrecord
  1
DWGPROPS COOKIE
  2

  3

  4

  6

  7

  8

  9

300
AmdtFileType=82
301
=
302
=
303
=
304
=
305
=
306
=
307
=
308
=
309
=
 40
0.0805227662037037
 41
2452802.716478761
 42
2453043.649612292
  1

 90
        1
  0
DICTIONARY
  5
20C0
102
{ACAD_REACTORS
330
C
102
}
330
C
100
AcDbDictionary
  3
TSTACKALIGN
350
20C1
  3
TSTACKSIZE
350
20C2
  3
HYPERLINKBASE
350
20C3
  3
STYLESHEET
350
20C4
  3
LAYOUTDICT
350
20C5
  3
PLOTSETDICT
350
20C6
  3
PLOTSTYLNAMDICT
350
20C7
  3
LWETCUNION
350
20C8
  3
INSUNITS
350
20C9
  3
CEPSNTYPE
350
20CA
  3
FINGERPRINTGUID
350
20CB
  3
VERSIONGUID
350
20CC
  3
PSVPSCALE
350
20CD
  3
DIMSTYLEDATA
350
20CE
  3
PUCSORTHOREF
350
20CF
  3
PUCSORTHOVIEW
350
20D0
  3
PUCSBASE
350
20D1
  3
PUCSORGTOP
350
20D2
  3
PUCSORGBOTTOM
350
20D3
  3
PUCSORGLEFT
350
20D4
  3
PUCSORGRIGHT
350
20D5
  3
PUCSORGFRONT
350
20D6
  3
PUCSORGBACK
350
20D7
  3
UCSORTHOREF
350
20D8
  3
UCSORTHOVIEW
350
20D9
  3
UCSBASE
350
20DA
  3
UCSORGTOP
350
20DB
  3
UCSORGBOTTOM
350
20DC
  3
UCSORGLEFT
350
20DD
  3
UCSORGRIGHT
350
20DE
  3
UCSORGFRONT
350
20DF
  3
UCSORGBACK
350
20E0
  0
DICTIONARY
  5
20B6
102
{ACAD_REACTORS
330
74
102
}
330
74
100
AcDbDictionary
  3
*A1
350
20B7
  0
XRECORD
  5
20E3
102
{ACAD_REACTORS
330
74
102
}
330
74
100
AcDbXrecord
340
1F
  0
XRECORD
  5
20E9
102
{ACAD_REACTORS
330
20E8
102
}
330
20E8
100
AcDbXrecord
340
101
  0
MLINESTYLE
  5
18
102
{ACAD_REACTORS
330
17
102
}
330
17
100
AcDbMlineStyle
  2
STANDARD
 70
     0
  3

 62
   256
 51
90.0
 52
90.0
 71
     2
 49
0.5
 62
   256
  6
BYLAYER
 49
-0.5
 62
   256
  6
BYLAYER
  0
ACDBPLACEHOLDER
  5
F
102
{ACAD_REACTORS
330
E
102
}
330
E
100
AcDbPlaceHolder
280
     0
  0
DICTIONARYVAR
  5
35
102
{ACAD_REACTORS
330
34
102
}
330
34
100
DictionaryVariables
280
     0
  1
1
  0
DICTIONARYVAR
  5
B5E
102
{ACAD_REACTORS
330
34
102
}
330
34
100
DictionaryVariables
280
     0
  1
96
  0
DICTIONARY
  5
260
102
{ACAD_REACTORS
330
43
102
}
330
43
100
AcDbDictionary
  0
DICTIONARY
  5
2C
102
{ACAD_REACTORS
330
2B
102
}
330
2B
100
AcDbDictionary
  3
DWGSETTINGS
350
2D
  0
XRECORD
  5
20C1
102
{ACAD_REACTORS
330
20C0
102
}
330
20C0
100
AcDbXrecord
 90
        1
  0
XRECORD
  5
20C2
102
{ACAD_REACTORS
330
20C0
102
}
330
20C0
100
AcDbXrecord
 90
       70
  0
XRECORD
  5
20C3
102
{ACAD_REACTORS
330
20C0
102
}
330
20C0
100
AcDbXrecord
  1

  0
XRECORD
  5
20C4
102
{ACAD_REACTORS
330
20C0
102
}
330
20C0
100
AcDbXrecord
  1
ASAMI.ctb
  0
XRECORD
  5
20C5
102
{ACAD_REACTORS
330
20C0
102
}
330
20C0
100
AcDbXrecord
340
1A
  0
XRECORD
  5
20C6
102
{ACAD_REACTORS
330
20C0
102
}
330
20C0
100
AcDbXrecord
340
19
  0
XRECORD
  5
20C7
102
{ACAD_REACTORS
330
20C0
102
}
330
20C0
100
AcDbXrecord
340
E
  0
XRECORD
  5
20C8
102
{ACAD_REACTORS
330
20C0
102
}
330
20C0
100
AcDbXrecord
 90
    10781
  0
XRECORD
  5
20C9
102
{ACAD_REACTORS
330
20C0
102
}
330
20C0
100
AcDbXrecord
 90
        4
  0
XRECORD
  5
20CA
102
{ACAD_REACTORS
330
20C0
102
}
330
20C0
100
AcDbXrecord
 90
        0
  0
XRECORD
  5
20CB
102
{ACAD_REACTORS
330
20C0
102
}
330
20C0
100
AcDbXrecord
  1
{AFB28963-8C59-40AE-9337-C84526B81ACE}
  0
XRECORD
  5
20CC
102
{ACAD_REACTORS
330
20C0
102
}
330
20C0
100
AcDbXrecord
  1
{EC61B2D1-2372-4AFF-8550-058773343ACB}
  0
XRECORD
  5
20CD
102
{ACAD_REACTORS
330
20C0
102
}
330
20C0
100
AcDbXrecord
 40
0.0
  0
XRECORD
  5
20CE
102
{ACAD_REACTORS
330
20C0
102
}
330
20C0
100
AcDbXrecord
1000
DSTYLE
1002
{
1070
    79
 70
     2
1070
   341
340
59
1070
   342
340
59
1070
   371
 70
    -1
1070
   372
 70
    -1
1002
}
  0
XRECORD
  5
20CF
102
{ACAD_REACTORS
330
20C0
102
}
330
20C0
100
AcDbXrecord
340
0
  0
XRECORD
  5
20D0
102
{ACAD_REACTORS
330
20C0
102
}
330
20C0
100
AcDbXrecord
 70
     0
  0
XRECORD
  5
20D1
102
{ACAD_REACTORS
330
20C0
102
}
330
20C0
100
AcDbXrecord
340
0
  0
XRECORD
  5
20D2
102
{ACAD_REACTORS
330
20C0
102
}
330
20C0
100
AcDbXrecord
 10
0.0
 20
0.0
 30
0.0
  0
XRECORD
  5
20D3
102
{ACAD_REACTORS
330
20C0
102
}
330
20C0
100
AcDbXrecord
 10
0.0
 20
0.0
 30
0.0
  0
XRECORD
  5
20D4
102
{ACAD_REACTORS
330
20C0
102
}
330
20C0
100
AcDbXrecord
 10
0.0
 20
0.0
 30
0.0
  0
XRECORD
  5
20D5
102
{ACAD_REACTORS
330
20C0
102
}
330
20C0
100
AcDbXrecord
 10
0.0
 20
0.0
 30
0.0
  0
XRECORD
  5
20D6
102
{ACAD_REACTORS
330
20C0
102
}
330
20C0
100
AcDbXrecord
 10
0.0
 20
0.0
 30
0.0
  0
XRECORD
  5
20D7
102
{ACAD_REACTORS
330
20C0
102
}
330
20C0
100
AcDbXrecord
 10
0.0
 20
0.0
 30
0.0
  0
XRECORD
  5
20D8
102
{ACAD_REACTORS
330
20C0
102
}
330
20C0
100
AcDbXrecord
340
0
  0
XRECORD
  5
20D9
102
{ACAD_REACTORS
330
20C0
102
}
330
20C0
100
AcDbXrecord
 70
     0
  0
XRECORD
  5
20DA
102
{ACAD_REACTORS
330
20C0
102
}
330
20C0
100
AcDbXrecord
340
0
  0
XRECORD
  5
20DB
102
{ACAD_REACTORS
330
20C0
102
}
330
20C0
100
AcDbXrecord
 10
0.0
 20
0.0
 30
0.0
  0
XRECORD
  5
20DC
102
{ACAD_REACTORS
330
20C0
102
}
330
20C0
100
AcDbXrecord
 10
0.0
 20
0.0
 30
0.0
  0
XRECORD
  5
20DD
102
{ACAD_REACTORS
330
20C0
102
}
330
20C0
100
AcDbXrecord
 10
0.0
 20
0.0
 30
0.0
  0
XRECORD
  5
20DE
102
{ACAD_REACTORS
330
20C0
102
}
330
20C0
100
AcDbXrecord
 10
0.0
 20
0.0
 30
0.0
  0
XRECORD
  5
20DF
102
{ACAD_REACTORS
330
20C0
102
}
330
20C0
100
AcDbXrecord
 10
0.0
 20
0.0
 30
0.0
  0
XRECORD
  5
20E0
102
{ACAD_REACTORS
330
20C0
102
}
330
20C0
100
AcDbXrecord
 10
0.0
 20
0.0
 30
0.0
  0
LAYER_INDEX
  5
20B7
102
{ACAD_REACTORS
330
20B6
102
}
330
20B6
100
AcDbIndex
 40
2453152.360838912
100
AcDbLayerIndex
  8
0
360
20B8
 90
        0
  8
AM_0
360
20B9
 90
       40
  8
AM_5
360
20BA
 90
        5
  8
AM_11
360
20BB
 90
        2
  8
AM_7
360
20BC
 90
        1
  8
AM_6
360
20BD
 90
        1
  8
Defpoints
360
20BE
 90
        0
  0
XRECORD
  5
2D
102
{ACAD_REACTORS
330
2C
102
}
330
2C
100
AcDbXrecord
  1
VERSION
140
15.0
  1
PRODUCT
  2
AutoCAD Mechanical 2000
  0
IDBUFFER
  5
20B8
330
0
100
AcDbIdBuffer
  0
IDBUFFER
  5
20B9
330
0
100
AcDbIdBuffer
330
1BEE
330
1BEF
330
1BF0
330
1BF1
330
1BF2
330
1BF3
330
1BF4
330
1BF5
330
1BF6
330
1BF7
330
1BF8
330
1BFA
330
1BFD
330
1BFF
330
1C00
330
1C01
330
1C02
330
1C03
330
1C12
330
1C13
330
1C14
330
1C15
330
1C16
330
1E0E
330
C26
330
C27
330
C2A
330
C2E
330
C32
330
C3C
330
C44
330
199E
330
199F
330
1BE7
330
1BE8
330
1BE9
330
1BEA
330
1BEB
330
1BEC
330
1BED
  0
IDBUFFER
  5
20BA
330
0
100
AcDbIdBuffer
330
F4C
330
10E0
330
15A3
330
163E
330
1BFC
  0
IDBUFFER
  5
20BB
330
0
100
AcDbIdBuffer
330
1BF9
330
1BFB
  0
IDBUFFER
  5
20BC
330
0
100
AcDbIdBuffer
330
17E1
  0
IDBUFFER
  5
20BD
330
0
100
AcDbIdBuffer
330
E65
  0
IDBUFFER
  5
20BE
330
0
100
AcDbIdBuffer
  0
ENDSEC
  0
EOF
