  0
SECTION
  2
HEADER
  9
$ACADVER
  1
AC1014
  9
$ACADMAINTVER
 70
     9
  9
$DWGCODEPAGE
  3
ANSI_932
  9
$INSBASE
 10
0.0
 20
0.0
 30
0.0
  9
$EXTMIN
 10
-83.2136363636364
 20
-31.242595073928
 30
-0.00000001
  9
$EXTMAX
 10
7.500000000000013
 20
6.543482060386386
 30
0.00000001
  9
$LIMMIN
 10
-93.57573384681908
 20
-41.83409018351714
  9
$LIMMAX
 10
19.25347833347271
 20
25.41539731565623
  9
$ORTHOMODE
 70
     0
  9
$REGENMODE
 70
     1
  9
$FILLMODE
 70
     1
  9
$QTEXTMODE
 70
     0
  9
$MIRRTEXT
 70
     0
  9
$DRAGMODE
 70
     2
  9
$LTSCALE
 40
1.0
  9
$OSMODE
 70
    55
  9
$ATTMODE
 70
     1
  9
$TEXTSIZE
 40
2.5
  9
$TRACEWID
 40
1.0
  9
$TEXTSTYLE
  7
STANDARD
  9
$CLAYER
  8
AM_0
  9
$CELTYPE
  6
BYLAYER
  9
$CECOLOR
 62
   256
  9
$CELTSCALE
 40
1.0
  9
$DELOBJ
 70
     1
  9
$DISPSILH
 70
     0
  9
$DIMSCALE
 40
0.5
  9
$DIMASZ
 40
2.5
  9
$DIMEXO
 40
1.0
  9
$DIMDLI
 40
12.0
  9
$DIMRND
 40
0.0
  9
$DIMDLE
 40
0.0
  9
$DIMEXE
 40
1.0
  9
$DIMTP
 40
0.1
  9
$DIMTM
 40
0.1
  9
$DIMTXT
 40
3.2
  9
$DIMCEN
 40
0.0
  9
$DIMTSZ
 40
0.0
  9
$DIMTOL
 70
     0
  9
$DIMLIM
 70
     0
  9
$DIMTIH
 70
     0
  9
$DIMTOH
 70
     0
  9
$DIMSE1
 70
     0
  9
$DIMSE2
 70
     0
  9
$DIMTAD
 70
     3
  9
$DIMZIN
 70
     8
  9
$DIMBLK
  1
OPEN30
  9
$DIMASO
 70
     1
  9
$DIMSHO
 70
     1
  9
$DIMPOST
  1

  9
$DIMAPOST
  1
"
  9
$DIMALT
 70
     0
  9
$DIMALTD
 70
     2
  9
$DIMALTF
 40
0.0393701
  9
$DIMLFAC
 40
1.0
  9
$DIMTOFL
 70
     1
  9
$DIMTVP
 40
0.0
  9
$DIMTIX
 70
     0
  9
$DIMSOXD
 70
     0
  9
$DIMSAH
 70
     0
  9
$DIMBLK1
  1

  9
$DIMBLK2
  1

  9
$DIMSTYLE
  2
AM_JIS
  9
$DIMCLRD
 70
   256
  9
$DIMCLRE
 70
   256
  9
$DIMCLRT
 70
     2
  9
$DIMTFAC
 40
0.71
  9
$DIMGAP
 40
1.5
  9
$DIMJUST
 70
     0
  9
$DIMSD1
 70
     0
  9
$DIMSD2
 70
     0
  9
$DIMTOLJ
 70
     0
  9
$DIMTZIN
 70
     0
  9
$DIMALTZ
 70
     0
  9
$DIMALTTZ
 70
     0
  9
$DIMFIT
 70
     3
  9
$DIMUPT
 70
     0
  9
$DIMUNIT
 70
     2
  9
$DIMDEC
 70
     3
  9
$DIMTDEC
 70
     3
  9
$DIMALTU
 70
     2
  9
$DIMALTTD
 70
     2
  9
$DIMTXSTY
  7
ASAMI
  9
$DIMAUNIT
 70
     0
  9
$LUNITS
 70
     2
  9
$LUPREC
 70
     2
  9
$SKETCHINC
 40
1.0
  9
$FILLETRAD
 40
2.5
  9
$AUNITS
 70
     0
  9
$AUPREC
 70
     0
  9
$MENU
  1
.
  9
$ELEVATION
 40
0.0
  9
$PELEVATION
 40
0.0
  9
$THICKNESS
 40
0.0
  9
$LIMCHECK
 70
     0
  9
$BLIPMODE
 70
     0
  9
$CHAMFERA
 40
2.5
  9
$CHAMFERB
 40
2.5
  9
$CHAMFERC
 40
20.0
  9
$CHAMFERD
 40
0.0
  9
$SKPOLY
 70
     0
  9
$TDCREATE
 40
2452802.716478761
  9
$TDUPDATE
 40
2453152.361150335
  9
$TDINDWG
 40
0.0660508796
  9
$TDUSRTIMER
 40
0.0660508796
  9
$USRTIMER
 70
     1
  9
$ANGBASE
 50
0.0
  9
$ANGDIR
 70
     0
  9
$PDMODE
 70
     0
  9
$PDSIZE
 40
0.0
  9
$PLINEWID
 40
0.0
  9
$COORDS
 70
     1
  9
$SPLFRAME
 70
     0
  9
$SPLINETYPE
 70
     6
  9
$SPLINESEGS
 70
     8
  9
$ATTDIA
 70
     1
  9
$ATTREQ
 70
     1
  9
$HANDLING
 70
 12289
  9
$HANDSEED
  5
19D5
  9
$SURFTAB1
 70
     6
  9
$SURFTAB2
 70
     6
  9
$SURFTYPE
 70
     6
  9
$SURFU
 70
     6
  9
$SURFV
 70
     6
  9
$UCSNAME
  2

  9
$UCSORG
 10
0.0
 20
0.0
 30
0.0
  9
$UCSXDIR
 10
1.0
 20
-0.0000000000000029
 30
0.0
  9
$UCSYDIR
 10
0.0000000000000029
 20
1.0
 30
0.0
  9
$PUCSNAME
  2

  9
$PUCSORG
 10
0.0
 20
0.0
 30
0.0
  9
$PUCSXDIR
 10
1.0
 20
0.0
 30
0.0
  9
$PUCSYDIR
 10
0.0
 20
1.0
 30
0.0
  9
$USERI1
 70
     0
  9
$USERI2
 70
     0
  9
$USERI3
 70
     0
  9
$USERI4
 70
     0
  9
$USERI5
 70
     0
  9
$USERR1
 40
0.0
  9
$USERR2
 40
0.0
  9
$USERR3
 40
0.0
  9
$USERR4
 40
0.0
  9
$USERR5
 40
0.0
  9
$WORLDVIEW
 70
     1
  9
$SHADEDGE
 70
     3
  9
$SHADEDIF
 70
    70
  9
$TILEMODE
 70
     1
  9
$MAXACTVP
 70
    64
  9
$PINSBASE
 10
0.0
 20
0.0
 30
0.0
  9
$PLIMCHECK
 70
     0
  9
$PEXTMIN
 10
1.000000000000000E+20
 20
1.000000000000000E+20
 30
1.000000000000000E+20
  9
$PEXTMAX
 10
-1.000000000000000E+20
 20
-1.000000000000000E+20
 30
-1.000000000000000E+20
  9
$PLIMMIN
 10
0.0
 20
0.0
  9
$PLIMMAX
 10
841.0
 20
594.0
  9
$UNITMODE
 70
     0
  9
$VISRETAIN
 70
     1
  9
$PLINEGEN
 70
     0
  9
$PSLTSCALE
 70
     0
  9
$TREEDEPTH
 70
  3020
  9
$PICKSTYLE
 70
     0
  9
$CMLSTYLE
  2
STANDARD
  9
$CMLJUST
 70
     0
  9
$CMLSCALE
 40
20.0
  9
$PROXYGRAPHICS
 70
     1
  9
$MEASUREMENT
 70
     1
  0
ENDSEC
  0
SECTION
  2
CLASSES
  0
CLASS
  1
ACDBDICTIONARYWDFLT
  2
AcDbDictionaryWithDefault
  3
AutoCAD 2000
 90
        0
280
     0
281
     0
  0
CLASS
  1
ACDBPLACEHOLDER
  2
AcDbPlaceHolder
  3
AutoCAD 2000
 90
        0
280
     0
281
     0
  0
CLASS
  1
LAYOUT
  2
AcDbLayout
  3
AutoCAD 2000
 90
        0
280
     0
281
     0
  0
CLASS
  1
AMGSETTINGSOBJ
  2
AmgSettingsObj
  3
"AcadM|Product Description: AutoCAD Mechanical 2000|Company: Autodesk"
 90
        0
280
     0
281
     0
  0
CLASS
  1
ACME_DOCUMENT
  2
AcMeDbDoc
  3
AcMeServices
 90
        0
280
     0
281
     0
  0
CLASS
  1
ACMESCOPE
  2
AcMeScope
  3
AcMeServices
 90
        0
280
     0
281
     0
  0
CLASS
  1
ACMECOMMANDHISTORY
  2
AcMeCommandHistory
  3
AcMeServices
 90
        0
280
     0
281
     0
  0
CLASS
  1
DICTIONARYVAR
  2
AcDbDictionaryVar
  3
AutoCAD 2000
 90
        0
280
     0
281
     0
  0
CLASS
  1
ACIMSYSVARMAN
  2
AcImSysVarManager
  3
AcMeServices
 90
        0
280
     0
281
     0
  0
CLASS
  1
ACIMREALSYSVAR
  2
AcImRealSysVar
  3
AcMeServices
 90
        0
280
     0
281
     0
  0
CLASS
  1
ACIMINTSYSVAR
  2
AcImIntSysVar
  3
AcMeServices
 90
        0
280
     0
281
     0
  0
CLASS
  1
ACMEDRAWINGMAN
  2
AcMeDrawingMan
  3
AcMeServices
 90
        0
280
     0
281
     0
  0
CLASS
  1
ACMEVIEW
  2
AcMeView
  3
AcMeServices
 90
        0
280
     0
281
     0
  0
CLASS
  1
ACDBENTITYCACHE
  2
AcMeEntityCache
  3
AcMeServices
 90
        0
280
     0
281
     0
  0
CLASS
  1
GSMANAGER
  2
AcMeGSManager
  3
AcMeServices
 90
        0
280
     0
281
     0
  0
CLASS
  1
AmdtInternalReactor
  2
AmdtInternalReactor
  3
AcMeServices
 90
        0
280
     0
281
     0
  0
CLASS
  1
ACMESTATEMGR
  2
AcMeStateMgr
  3
AcMeServices
 90
        0
280
     0
281
     0
  0
CLASS
  1
ACME_DATABASE
  2
AcMeDbDatabase
  3
AcMeServices
 90
        0
280
     0
281
     0
  0
CLASS
  1
ACRFINSADJUSTERMGR
  2
AcRfInsAdjusterMgr
  3
AcMeServices
 90
        0
280
     0
281
     0
  0
CLASS
  1
ACMDATADICTIONARY
  2
AcmDataDictionary
  3
"AcmSymBB|Product Description: AutoCAD Mechanical 2000|Company: Autodesk"
 90
        0
280
     0
281
     0
  0
CLASS
  1
ACMDATAENTRYBLOCK
  2
AcmDataEntryBlock
  3
"AcmSymBB|Product Description: AutoCAD Mechanical 2000|Company: Autodesk"
 90
        0
280
     0
281
     0
  0
CLASS
  1
AMGOBJPROPCFG
  2
AmgObjPropCfg
  3
"AmgLay|Product Description: AutoCAD Mechanical 2000|Company: Autodesk"
 90
        1
280
     0
281
     0
  0
CLASS
  1
ACAMGFILTERDAT
  2
AcAmgFilterDat
  3
"AcadM|Product Description: AutoCAD Mechanical 2000|Company: Autodesk"
 90
        0
280
     0
281
     0
  0
CLASS
  1
LAYER_INDEX
  2
AcDbLayerIndex
  3
AutoCAD 2000
 90
        0
280
     0
281
     0
  0
CLASS
  1
IDBUFFER
  2
AcDbIdBuffer
  3
AutoCAD 2000
 90
        0
280
     0
281
     0
  0
CLASS
  1
ACIMSTRSYSVAR
  2
AcImStrSysVar
  3
AcMeServices
 90
        0
280
     0
281
     0
  0
CLASS
  1
ACMSTANDARDJIS
  2
AcmStandardJIS
  3
"AcmSymBB|Product Description: AutoCAD Mechanical 2000|Company: Autodesk"
 90
        0
280
     0
281
     0
  0
CLASS
  1
ACMSURFSTANDARDJIS
  2
AcmSurfTextStdJIS
  3
"AcmSymBB|Product Description: AutoCAD Mechanical 2000|Company: Autodesk"
 90
        0
280
     0
281
     0
  0
CLASS
  1
ACMFCFSTANDARDJIS
  2
AcmFCFStdJIS
  3
"AcmSymBB|Product Description: AutoCAD Mechanical 2000|Company: Autodesk"
 90
        0
280
     0
281
     0
  0
CLASS
  1
ACMWELDSTANDARDJIS
  2
AcmWeldingStdJIS
  3
"AcmSymBB|Product Description: AutoCAD Mechanical 2000|Company: Autodesk"
 90
        0
280
     0
281
     0
  0
CLASS
  1
ACMIDSTANDARDJIS
  2
AcmIdStdJIS
  3
"AcmSymBB|Product Description: AutoCAD Mechanical 2000|Company: Autodesk"
 90
        0
280
     0
281
     0
  0
CLASS
  1
ACMDATUMSTANDARDJIS
  2
AcmDatumStdJIS
  3
"AcmSymBB|Product Description: AutoCAD Mechanical 2000|Company: Autodesk"
 90
        0
280
     0
281
     0
  0
CLASS
  1
ACMBOMSTANDARDJIS
  2
AcmBOMStdJIS
  3
"AcmSymBB|Product Description: AutoCAD Mechanical 2000|Company: Autodesk"
 90
        0
280
     0
281
     0
  0
CLASS
  1
ACMSTANDARDANSI
  2
AcmStandardANSI
  3
"AcmSymBB|Product Description: AutoCAD Mechanical 2000|Company: Autodesk"
 90
        0
280
     0
281
     0
  0
CLASS
  1
ACMSURFSTANDARDANSI
  2
AcmSurfTextStdANSI
  3
"AcmSymBB|Product Description: AutoCAD Mechanical 2000|Company: Autodesk"
 90
        0
280
     0
281
     0
  0
CLASS
  1
ACMFCFSTANDARDANSI
  2
AcmFCFStdANSI
  3
"AcmSymBB|Product Description: AutoCAD Mechanical 2000|Company: Autodesk"
 90
        0
280
     0
281
     0
  0
CLASS
  1
ACMWELDSTANDARDANSI
  2
AcmWeldingStdANSI
  3
"AcmSymBB|Product Description: AutoCAD Mechanical 2000|Company: Autodesk"
 90
        0
280
     0
281
     0
  0
CLASS
  1
ACMIDSTANDARDANSI
  2
AcmIdStdANSI
  3
"AcmSymBB|Product Description: AutoCAD Mechanical 2000|Company: Autodesk"
 90
        0
280
     0
281
     0
  0
CLASS
  1
ACMDATUMSTANDARDANSI
  2
AcmDatumStdANSI
  3
"AcmSymBB|Product Description: AutoCAD Mechanical 2000|Company: Autodesk"
 90
        0
280
     0
281
     0
  0
CLASS
  1
ACMBOMSTANDARDANSI
  2
AcmBOMStdANSI
  3
"AcmSymBB|Product Description: AutoCAD Mechanical 2000|Company: Autodesk"
 90
        0
280
     0
281
     0
  0
CLASS
  1
ACMSTANDARDBSI
  2
AcmStandardBSI
  3
"AcmSymBB|Product Description: AutoCAD Mechanical 2000|Company: Autodesk"
 90
        0
280
     0
281
     0
  0
CLASS
  1
ACMSURFSTANDARDBSI
  2
AcmSurfTextStdBSI
  3
"AcmSymBB|Product Description: AutoCAD Mechanical 2000|Company: Autodesk"
 90
        0
280
     0
281
     0
  0
CLASS
  1
ACMFCFSTANDARDBSI
  2
AcmFCFStdBSI
  3
"AcmSymBB|Product Description: AutoCAD Mechanical 2000|Company: Autodesk"
 90
        0
280
     0
281
     0
  0
CLASS
  1
ACMWELDSTANDARDBSI
  2
AcmWeldingStdBSI
  3
"AcmSymBB|Product Description: AutoCAD Mechanical 2000|Company: Autodesk"
 90
        0
280
     0
281
     0
  0
CLASS
  1
ACMIDSTANDARDBSI
  2
AcmIdStdBSI
  3
"AcmSymBB|Product Description: AutoCAD Mechanical 2000|Company: Autodesk"
 90
        0
280
     0
281
     0
  0
CLASS
  1
ACMDATUMSTANDARDBSI
  2
AcmDatumStdBSI
  3
"AcmSymBB|Product Description: AutoCAD Mechanical 2000|Company: Autodesk"
 90
        0
280
     0
281
     0
  0
CLASS
  1
ACMBOMSTANDARDBSI
  2
AcmBOMStdBSI
  3
"AcmSymBB|Product Description: AutoCAD Mechanical 2000|Company: Autodesk"
 90
        0
280
     0
281
     0
  0
CLASS
  1
LONG_TRANSACTION
  2
AcDbLongTransaction
  3
AutoCAD 2000
 90
        0
280
     0
281
     0
  0
CLASS
  1
LWPOLYLINE
  2
AcDbPolyline
  3
AutoCAD 2000
 90
        0
280
     0
281
     1
  0
CLASS
  1
HATCH
  2
AcDbHatch
  3
AutoCAD 2000
 90
        0
280
     0
281
     1
  0
CLASS
  1
XRECORD
  2
AcDbXrecord
  3
AutoCAD 2000
 90
        0
280
     0
281
     0
  0
ENDSEC
  0
SECTION
  2
TABLES
  0
TABLE
  2
VPORT
  5
8
330
0
100
AcDbSymbolTable
 70
     3
  0
VPORT
  5
19AA
330
8
100
AcDbSymbolTableRecord
100
AcDbViewportTableRecord
  2
*ACTIVE
 70
     0
 10
0.0
 20
0.0
 11
1.0
 21
1.0
 12
-37.85408644714962
 22
-12.34984436046856
 13
0.0
 23
0.0
 14
2.5
 24
2.5
 15
10.0
 25
10.0
 16
0.0
 26
0.0
 36
1.0
 17
0.0
 27
0.0
 37
0.0
 40
58.17062746472496
 41
1.56570841889117
 42
50.0
 43
0.0
 44
0.0
 50
0.0
 51
0.0
 71
     0
 72
   100
 73
     1
 74
     3
 75
     0
 76
     0
 77
     0
 78
     0
  0
ENDTAB
  0
TABLE
  2
LTYPE
  5
5
330
0
100
AcDbSymbolTable
 70
    10
  0
LTYPE
  5
14
330
5
100
AcDbSymbolTableRecord
100
AcDbLinetypeTableRecord
  2
BYBLOCK
 70
     0
  3

 72
    65
 73
     0
 40
0.0
  0
LTYPE
  5
15
330
5
100
AcDbSymbolTableRecord
100
AcDbLinetypeTableRecord
  2
BYLAYER
 70
     0
  3

 72
    65
 73
     0
 40
0.0
  0
LTYPE
  5
16
330
5
100
AcDbSymbolTableRecord
100
AcDbLinetypeTableRecord
  2
CONTINUOUS
 70
     0
  3
Solid line
 72
    65
 73
     0
 40
0.0
  0
LTYPE
  5
4B
330
5
100
AcDbSymbolTableRecord
100
AcDbLinetypeTableRecord
  2
AM_ISO02W050
 70
     0
  3
__ __ __ __ __ __ __ __ __ __ __ __ __ __ __
 72
    65
 73
     2
 40
7.5
 49
6.0
 74
     0
 49
-1.5
 74
     0
  0
LTYPE
  5
4C
330
5
100
AcDbSymbolTableRecord
100
AcDbLinetypeTableRecord
  2
AM_ISO08W050
 70
     0
  3
____ . ____ . ____ . ____ . ____ . ____ . ____
 72
    65
 73
     4
 40
18.0
 49
12.0
 74
     0
 49
-1.5
 74
     0
 49
3.0
 74
     0
 49
-1.5
 74
     0
  0
LTYPE
  5
4D
330
5
100
AcDbSymbolTableRecord
100
AcDbLinetypeTableRecord
  2
AM_ISO09W050
 70
     0
  3
_____ . . _____ . . _____ . . ____ .. ____
 72
    65
 73
     6
 40
22.5
 49
12.0
 74
     0
 49
-1.5
 74
     0
 49
3.0
 74
     0
 49
-1.5
 74
     0
 49
3.0
 74
     0
 49
-1.5
 74
     0
  0
LTYPE
  5
4E
330
5
100
AcDbSymbolTableRecord
100
AcDbLinetypeTableRecord
  2
AMCONSTR
 70
     0
  3
_______________________
 72
    65
 73
     2
 40
9999.0
 49
9999.0
 74
     0
 49
0.0
 74
     0
  0
LTYPE
  5
4F
330
5
100
AcDbSymbolTableRecord
100
AcDbLinetypeTableRecord
  2
AM_ISO02W050X2
 70
     0
  3
 _ _ _ _ _ _ _ _ _ _ _ _
 72
    65
 73
     2
 40
3.75
 49
3.0
 74
     0
 49
-0.75
 74
     0
  0
LTYPE
  5
50
330
5
100
AcDbSymbolTableRecord
100
AcDbLinetypeTableRecord
  2
AM_ISO08W050X2
 70
     0
  3
__ . __ . __ . __ . __ . __
 72
    65
 73
     4
 40
9.0
 49
6.0
 74
     0
 49
-0.75
 74
     0
 49
1.5
 74
     0
 49
-0.75
 74
     0
  0
LTYPE
  5
53
330
5
100
AcDbSymbolTableRecord
100
AcDbLinetypeTableRecord
  2
AMZIGZAG
 70
     0
  3
/\/-/\/-/\/-/\/-/\/-/\/
 72
    65
 73
     2
 40
11.00009999999999
 49
0.0001
 74
     4
 75
   135
340
52
 46
0.04
 50
0.0
 44
0.0
 45
0.0
 49
-11.0
 74
     0
  0
LTYPE
  5
166
330
5
100
AcDbSymbolTableRecord
100
AcDbLinetypeTableRecord
  2
ACJISTGL
 70
     0
  3
_ _ _ _ _
 72
    65
 73
     2
 40
3.0
 49
2.0
 74
     0
 49
-1.0
 74
     0
  0
LTYPE
  5
26A
330
5
100
AcDbSymbolTableRecord
100
AcDbLinetypeTableRecord
  2
ACJISTGB
 70
     0
  3
__ . . __ . .
 72
    65
 73
     6
 40
9.0
 49
4.0
 74
     0
 49
-1.0
 74
     0
 49
1.0
 74
     0
 49
-1.0
 74
     0
 49
1.0
 74
     0
 49
-1.0
 74
     0
  0
ENDTAB
  0
TABLE
  2
LAYER
  5
2
330
0
100
AcDbSymbolTable
 70
     7
  0
LAYER
  5
10
330
2
100
AcDbSymbolTableRecord
100
AcDbLayerTableRecord
  2
0
 70
     0
 62
     7
  6
CONTINUOUS
  0
LAYER
  5
3F9
330
2
100
AcDbSymbolTableRecord
100
AcDbLayerTableRecord
  2
AM_0
 70
     0
 62
     7
  6
CONTINUOUS
  0
LAYER
  5
BA4
330
2
100
AcDbSymbolTableRecord
100
AcDbLayerTableRecord
  2
AM_5
 70
     0
 62
     3
  6
CONTINUOUS
  0
LAYER
  5
BA5
330
2
100
AcDbSymbolTableRecord
100
AcDbLayerTableRecord
  2
AM_11
 70
     0
 62
     3
  6
AM_ISO09W050
  0
LAYER
  5
BA6
330
2
100
AcDbSymbolTableRecord
100
AcDbLayerTableRecord
  2
AM_7
 70
     0
 62
     4
  6
AM_ISO08W050
  0
LAYER
  5
E64
330
2
100
AcDbSymbolTableRecord
100
AcDbLayerTableRecord
  2
AM_6
 70
     0
 62
     2
  6
CONTINUOUS
  0
LAYER
  5
F4D
330
2
100
AcDbSymbolTableRecord
100
AcDbLayerTableRecord
  2
DEFPOINTS
 70
     0
 62
     7
  6
CONTINUOUS
  0
ENDTAB
  0
TABLE
  2
STYLE
  5
3
330
0
100
AcDbSymbolTable
 70
     5
  0
STYLE
  5
11
330
3
100
AcDbSymbolTableRecord
100
AcDbTextStyleTableRecord
  2
STANDARD
 70
     0
 40
0.0
 41
1.0
 50
0.0
 71
     0
 42
2.5
  3
simplex.shx
  4
EXTFONT.SHX
  0
STYLE
  5
52
330
3
100
AcDbSymbolTableRecord
100
AcDbTextStyleTableRecord
  2

 70
     1
 40
0.0
 41
1.0
 50
0.0
 71
     0
 42
2.5
  3
ltypeshp.shx
  4

  0
STYLE
  5
6B
330
3
100
AcDbSymbolTableRecord
100
AcDbTextStyleTableRecord
  2
ASAMI
 70
     0
 40
0.0
 41
1.0
 50
0.0
 71
     0
 42
2.5
  3
simplex.shx
  4
EXTFONT.SHX
  0
STYLE
  5
262
330
3
100
AcDbSymbolTableRecord
100
AcDbTextStyleTableRecord
  2
ACJISTS
 70
     0
 40
1.0
 41
1.0
 50
0.0
 71
     0
 42
2.5
  3
simplex.shx
  4
bigfont.shx
  0
STYLE
  5
269
330
3
100
AcDbSymbolTableRecord
100
AcDbTextStyleTableRecord
  2
ACJISGDT
 70
     0
 40
0.0
 41
1.0
 50
0.0
 71
     0
 42
2.5
  3
amgdtans.shx
  4

  0
ENDTAB
  0
TABLE
  2
VIEW
  5
6
330
0
100
AcDbSymbolTable
 70
     0
  0
ENDTAB
  0
TABLE
  2
UCS
  5
7
330
0
100
AcDbSymbolTable
 70
     0
  0
ENDTAB
  0
TABLE
  2
APPID
  5
9
330
0
100
AcDbSymbolTable
 70
    12
  0
APPID
  5
12
330
9
100
AcDbSymbolTableRecord
100
AcDbRegAppTableRecord
  2
ACAD
 70
     0
  0
APPID
  5
30
330
9
100
AcDbSymbolTableRecord
100
AcDbRegAppTableRecord
  2
MCAD_NO_VIS
 70
     0
  0
APPID
  5
31
330
9
100
AcDbSymbolTableRecord
100
AcDbRegAppTableRecord
  2
ACAD_TEMP_GRAPHIC
 70
     0
  0
APPID
  5
2C2
330
9
100
AcDbSymbolTableRecord
100
AcDbRegAppTableRecord
  2
GENIUS_GENDTOL_13
 70
     0
  0
APPID
  5
339
330
9
100
AcDbSymbolTableRecord
100
AcDbRegAppTableRecord
  2
GENIUS_GENODEF_13
 70
     0
  0
APPID
  5
33A
330
9
100
AcDbSymbolTableRecord
100
AcDbRegAppTableRecord
  2
GENIUS_GENOBJ-N-RSBK_13
 70
     0
  0
APPID
  5
33B
330
9
100
AcDbSymbolTableRecord
100
AcDbRegAppTableRecord
  2
GENIUS_GENOBJ-N-LIB_13
 70
     0
  0
APPID
  5
33C
330
9
100
AcDbSymbolTableRecord
100
AcDbRegAppTableRecord
  2
GENIUS_GENSCALE_13
 70
     0
  0
APPID
  5
378
330
9
100
AcDbSymbolTableRecord
100
AcDbRegAppTableRecord
  2
GENIUS_GENDIMSH_14
 70
     0
  0
APPID
  5
BB0
330
9
100
AcDbSymbolTableRecord
100
AcDbRegAppTableRecord
  2
GENIUS_GENOBJ-N-CEN_13
 70
     0
  0
APPID
  5
BB1
330
9
100
AcDbSymbolTableRecord
100
AcDbRegAppTableRecord
  2
GENIUS_GENFIL_13
 70
     0
  0
APPID
  5
BB2
330
9
100
AcDbSymbolTableRecord
100
AcDbRegAppTableRecord
  2
GENIUS_GENOBJ-N-CHA_13
 70
     0
  0
ENDTAB
  0
TABLE
  2
DIMSTYLE
  5
A
330
0
100
AcDbSymbolTable
 70
     8
  0
DIMSTYLE
105
58
102
{ACAD_REACTORS
330
1656
330
183B
330
1858
330
18DB
102
}
330
A
100
AcDbSymbolTableRecord
100
AcDbDimStyleTableRecord
  2
AM_JIS
 70
     0
  3

  4
"
  5
OPEN30
  6

  7

 40
0.5
 41
2.5
 42
1.0
 43
12.0
 44
1.0
 45
0.0
 46
0.0
 47
0.1
 48
0.1
140
3.2
141
0.0
142
0.0
143
0.0393701
144
1.0
145
0.0
146
0.71
147
1.5
 71
     0
 72
     0
 73
     0
 74
     0
 75
     0
 76
     0
 77
     3
 78
     8
170
     0
171
     2
172
     1
173
     0
174
     0
175
     0
176
   256
177
   256
178
     2
270
     2
271
     3
272
     3
273
     2
274
     2
340
6B
275
     0
280
     0
281
     0
282
     0
283
     0
284
     0
285
     0
286
     0
287
     3
288
     0
  0
DIMSTYLE
105
5F
330
A
100
AcDbSymbolTableRecord
100
AcDbDimStyleTableRecord
  2
AM_JIS$3
 70
     0
  3

  4
"
  5
OPEN30
  6

  7

 40
0.5
 41
2.5
 42
1.0
 43
10.0
 44
1.0
 45
0.0
 46
0.0
 47
0.1
 48
0.1
140
3.2
141
0.0
142
0.0
143
0.0393701
144
1.0
145
0.0
146
0.71
147
1.5
 71
     0
 72
     0
 73
     0
 74
     1
 75
     0
 76
     0
 77
     3
 78
     8
170
     0
171
     2
172
     0
173
     0
174
     0
175
     0
176
   256
177
   256
178
     2
270
     2
271
     2
272
     3
273
     2
274
     2
340
6B
275
     0
280
     0
281
     0
282
     0
283
     0
284
     0
285
     0
286
     0
287
     0
288
     1
  0
DIMSTYLE
105
60
330
A
100
AcDbSymbolTableRecord
100
AcDbDimStyleTableRecord
  2
AM_JIS$4
 70
     0
  3

  4
"
  5
OPEN30
  6

  7

 40
0.5
 41
2.5
 42
1.0
 43
10.0
 44
1.0
 45
0.0
 46
0.0
 47
0.1
 48
0.1
140
3.2
141
0.0
142
0.0
143
0.0393701
144
1.0
145
0.0
146
0.71
147
1.5
 71
     0
 72
     0
 73
     0
 74
     1
 75
     0
 76
     0
 77
     3
 78
     8
170
     0
171
     2
172
     0
173
     0
174
     0
175
     0
176
   256
177
   256
178
     2
270
     2
271
     2
272
     3
273
     2
274
     2
340
6B
275
     0
280
     0
281
     0
282
     0
283
     0
284
     0
285
     0
286
     0
287
     0
288
     1
  0
DIMSTYLE
105
61
330
A
100
AcDbSymbolTableRecord
100
AcDbDimStyleTableRecord
  2
AM_JIS$6
 70
     0
  3

  4
"
  5
OPEN30
  6

  7

 40
0.5
 41
2.5
 42
1.0
 43
10.0
 44
1.0
 45
0.0
 46
0.0
 47
0.1
 48
0.1
140
3.2
141
0.0
142
0.0
143
0.0393701
144
1.0
145
0.0
146
0.71
147
1.5
 71
     0
 72
     0
 73
     0
 74
     0
 75
     0
 76
     0
 77
     0
 78
     8
170
     0
171
     2
172
     1
173
     0
174
     0
175
     0
176
   256
177
   256
178
     2
270
     2
271
     2
272
     2
273
     2
274
     2
340
6B
275
     0
280
     0
281
     0
282
     0
283
     0
284
     0
285
     0
286
     0
287
     3
288
     0
  0
DIMSTYLE
105
62
330
A
100
AcDbSymbolTableRecord
100
AcDbDimStyleTableRecord
  2
AM_JIS$7
 70
     0
  3

  4
"
  5
OPEN30
  6

  7

 40
0.5
 41
2.5
 42
1.0
 43
10.0
 44
1.0
 45
0.0
 46
0.0
 47
0.1
 48
0.1
140
3.2
141
0.0
142
0.0
143
0.0393701
144
1.0
145
0.0
146
0.71
147
1.5
 71
     0
 72
     0
 73
     0
 74
     0
 75
     0
 76
     0
 77
     3
 78
     8
170
     0
171
     2
172
     1
173
     0
174
     0
175
     0
176
   256
177
   256
178
     2
270
     2
271
     2
272
     3
273
     2
274
     2
340
6B
275
     0
280
     0
281
     0
282
     0
283
     0
284
     0
285
     0
286
     0
287
     3
288
     0
  0
DIMSTYLE
105
63
330
A
100
AcDbSymbolTableRecord
100
AcDbDimStyleTableRecord
  2
AM_JIS$SF
 70
     0
  3

  4
"
  5
OPEN30
  6

  7

 40
0.5
 41
2.5
 42
1.0
 43
10.0
 44
1.0
 45
0.0
 46
0.0
 47
0.1
 48
0.1
140
3.2
141
0.0
142
0.0
143
0.0393701
144
1.0
145
0.0
146
0.71
147
1.5
 71
     0
 72
     0
 73
     0
 74
     0
 75
     1
 76
     1
 77
     3
 78
     8
170
     0
171
     2
172
     1
173
     0
174
     0
175
     0
176
   256
177
   256
178
     2
270
     2
271
     2
272
     2
273
     2
274
     2
340
6B
275
     0
280
     0
281
     0
282
     0
283
     0
284
     0
285
     0
286
     0
287
     3
288
     0
  0
DIMSTYLE
105
68
330
A
100
AcDbSymbolTableRecord
100
AcDbDimStyleTableRecord
  2
AM_JIS$SH
 70
     0
  3

  4
"
  5

  6
GENAXEH
  7
OPEN30
 40
0.5
 41
2.5
 42
1.0
 43
10.0
 44
1.0
 45
0.0
 46
0.0
 47
0.1
 48
0.1
140
3.2
141
0.0
142
0.0
143
0.0393701
144
2.0
145
0.0
146
0.71
147
1.5
 71
     0
 72
     0
 73
     0
 74
     0
 75
     1
 76
     1
 77
     3
 78
     8
170
     0
171
     2
172
     1
173
     1
174
     0
175
     0
176
   256
177
   256
178
     2
270
     2
271
     2
272
     2
273
     2
274
     2
340
6B
275
     0
280
     0
281
     0
282
     0
283
     0
284
     0
285
     0
286
     0
287
     3
288
     0
  0
DIMSTYLE
105
B34
330
A
100
AcDbSymbolTableRecord
100
AcDbDimStyleTableRecord
  2
AM_JIS$2
 70
     0
  3

  4
"
  5
OPEN30
  6

  7

 40
0.5
 41
2.5
 42
1.0
 43
12.0
 44
1.0
 45
0.0
 46
0.0
 47
0.1
 48
0.1
140
3.2
141
0.0
142
0.0
143
0.0393701
144
1.0
145
0.0
146
0.71
147
1.5
 71
     0
 72
     0
 73
     0
 74
     0
 75
     0
 76
     0
 77
     3
 78
     8
170
     0
171
     2
172
     1
173
     0
174
     0
175
     0
176
   256
177
   256
178
     2
270
     2
271
     3
272
     3
273
     2
274
     2
340
6B
275
     0
280
     0
281
     0
282
     0
283
     0
284
     0
285
     0
286
     0
287
     3
288
     0
  0
ENDTAB
  0
TABLE
  2
BLOCK_RECORD
  5
1
330
0
100
AcDbSymbolTable
 70
     9
  0
BLOCK_RECORD
  5
1F
102
{ACAD_XDICTIONARY
360
74
102
}
330
1
100
AcDbSymbolTableRecord
100
AcDbBlockTableRecord
  2
*MODEL_SPACE
  0
BLOCK_RECORD
  5
101
102
{ACAD_XDICTIONARY
360
19D3
102
}
330
1
100
AcDbSymbolTableRecord
100
AcDbBlockTableRecord
  2
*PAPER_SPACE
  0
BLOCK_RECORD
  5
59
330
1
100
AcDbSymbolTableRecord
100
AcDbBlockTableRecord
  2
_OPEN30
  0
BLOCK_RECORD
  5
64
330
1
100
AcDbSymbolTableRecord
100
AcDbBlockTableRecord
  2
GENAXEH
  0
BLOCK_RECORD
  5
1657
330
1
100
AcDbSymbolTableRecord
100
AcDbBlockTableRecord
  2
*D5
  0
BLOCK_RECORD
  5
183C
330
1
100
AcDbSymbolTableRecord
100
AcDbBlockTableRecord
  2
*D6
  0
BLOCK_RECORD
  5
1859
330
1
100
AcDbSymbolTableRecord
100
AcDbBlockTableRecord
  2
*D7
  0
BLOCK_RECORD
  5
18DC
330
1
100
AcDbSymbolTableRecord
100
AcDbBlockTableRecord
  2
*D8
  0
ENDTAB
  0
ENDSEC
  0
SECTION
  2
BLOCKS
  0
BLOCK
  5
20
330
1F
100
AcDbEntity
  8
0
100
AcDbBlockBegin
  2
*MODEL_SPACE
 70
     0
 10
0.0
 20
0.0
 30
0.0
  3
*MODEL_SPACE
  1

  0
ENDBLK
  5
21
330
1F
100
AcDbEntity
  8
0
100
AcDbBlockEnd
  0
BLOCK
  5
103
330
101
100
AcDbEntity
 67
     1
  8
0
100
AcDbBlockBegin
  2
*PAPER_SPACE
 70
     0
 10
0.0
 20
0.0
 30
0.0
  3
*PAPER_SPACE
  1

  0
ENDBLK
  5
104
330
101
100
AcDbEntity
 67
     1
  8
0
100
AcDbBlockEnd
  0
BLOCK
  5
5D
330
59
100
AcDbEntity
  8
0
100
AcDbBlockBegin
  2
_OPEN30
 70
     0
 10
0.0
 20
0.0
 30
0.0
  3
_OPEN30
  1

  0
LINE
  5
5A
330
59
100
AcDbEntity
  8
0
 62
     0
100
AcDbLine
 10
-1.0
 20
0.26794919
 30
0.0
 11
0.0
 21
0.0
 31
0.0
  0
LINE
  5
5B
330
59
100
AcDbEntity
  8
0
 62
     0
100
AcDbLine
 10
0.0
 20
0.0
 30
0.0
 11
-1.0
 21
-0.26794919
 31
0.0
  0
LINE
  5
5C
330
59
100
AcDbEntity
  8
0
 62
     0
100
AcDbLine
 10
0.0
 20
0.0
 30
0.0
 11
-1.0
 21
0.0
 31
0.0
  0
ENDBLK
  5
5E
330
59
100
AcDbEntity
  8
0
100
AcDbBlockEnd
  0
BLOCK
  5
66
330
64
100
AcDbEntity
  8
0
100
AcDbBlockBegin
  2
GENAXEH
 70
     0
 10
0.0
 20
0.0
 30
0.0
  3
GENAXEH
  1

  0
LINE
  5
65
330
64
100
AcDbEntity
  8
0
100
AcDbLine
 10
-1.0
 20
0.0
 30
0.0
 11
1.0
 21
0.0
 31
0.0
  0
ENDBLK
  5
67
330
64
100
AcDbEntity
  8
0
100
AcDbBlockEnd
  0
BLOCK
  5
1661
330
1657
100
AcDbEntity
  8
0
100
AcDbBlockBegin
  2
*D5
 70
     1
 10
0.0
 20
0.0
 30
0.0
  3
*D5
  1

  0
LINE
  5
18B9
330
1657
100
AcDbEntity
  8
AM_5
100
AcDbLine
 10
0.4999999999999821
 20
-6.000000000840101
 30
0.0
 11
7.500000000000013
 21
-6.000000000840087
 31
0.0
  0
LINE
  5
18BA
330
1657
100
AcDbEntity
  8
AM_5
100
AcDbLine
 10
0.4999999999999896
 20
6.000000000840031
 30
0.0
 11
7.499999999999988
 21
6.000000000840044
 31
0.0
  0
LINE
  5
18BB
330
1657
100
AcDbEntity
  8
AM_5
100
AcDbLine
 10
7.00000000000001
 20
-4.750000000840087
 30
0.0
 11
6.999999999999991
 21
4.750000000840044
 31
0.0
  0
INSERT
  5
18BC
330
1657
100
AcDbEntity
  8
AM_5
100
AcDbBlockReference
  2
_OPEN30
 10
7.000000000000013
 20
-6.000000000840087
 30
0.0
 41
1.25
 42
1.25
 43
1.25
 50
270.0000000000001
  0
INSERT
  5
18BD
330
1657
100
AcDbEntity
  8
AM_5
100
AcDbBlockReference
  2
_OPEN30
 10
6.999999999999988
 20
6.000000000840044
 30
0.0
 41
1.25
 42
1.25
 43
1.25
 50
90.0000000000001
  0
MTEXT
  5
18BE
330
1657
100
AcDbEntity
  8
AM_5
 62
     2
100
AcDbMText
 10
5.450000000000001
 20
-0.0000000000000252
 30
0.0
 40
1.6
 41
0.0
 71
     5
 72
     1
  1
%%c12
  7
ASAMI
 11
-0.000000000000002
 21
1.0
 31
0.0
1001
ACAD
1000
MTEXTBEGIN
1070
    73
1070
     1
1070
    44
1040
1.0
1070
    74
1070
     0
1000
MTEXTEND
  0
POINT
  5
18BF
330
1657
100
AcDbEntity
  8
DEFPOINTS
 62
     0
100
AcDbPoint
 10
-0.0000000000000313
 20
-6.000000000840102
 30
0.0
  0
POINT
  5
18C0
330
1657
100
AcDbEntity
  8
DEFPOINTS
 62
     0
100
AcDbPoint
 10
0.0000000000000028
 20
6.00000000084003
 30
0.0
  0
POINT
  5
18C1
330
1657
100
AcDbEntity
  8
DEFPOINTS
 62
     0
100
AcDbPoint
 10
7.000000000000002
 20
6.000000000840028
 30
0.0
  0
ENDBLK
  5
1662
330
1657
100
AcDbEntity
  8
0
100
AcDbBlockEnd
  0
BLOCK
  5
1846
330
183C
100
AcDbEntity
  8
0
100
AcDbBlockBegin
  2
*D6
 70
     1
 10
0.0
 20
0.0
 30
0.0
  3
*D6
  1

  0
LINE
  5
197E
330
183C
100
AcDbEntity
  8
AM_5
100
AcDbLine
 10
-25.00000000000079
 20
-6.50000000084004
 30
0.0
 11
-25.00000000000078
 21
-14.49259507392796
 31
0.0
  0
LINE
  5
197F
330
183C
100
AcDbEntity
  8
AM_5
100
AcDbLine
 10
-0.0000000000000285
 20
-6.500000000840067
 30
0.0
 11
-0.0000000000000128
 21
-14.49259507392792
 31
0.0
  0
LINE
  5
1980
330
183C
100
AcDbEntity
  8
AM_5
100
AcDbLine
 10
-23.75000000000078
 20
-13.99259507392796
 30
0.0
 11
-1.250000000000013
 21
-13.99259507392792
 31
0.0
  0
INSERT
  5
1981
330
183C
100
AcDbEntity
  8
AM_5
100
AcDbBlockReference
  2
_OPEN30
 10
-25.00000000000078
 20
-13.99259507392796
 30
0.0
 41
1.25
 42
1.25
 43
1.25
 50
180.0000000000001
  0
INSERT
  5
1982
330
183C
100
AcDbEntity
  8
AM_5
100
AcDbBlockReference
  2
_OPEN30
 10
-0.0000000000000138
 20
-13.99259507392792
 30
0.0
 41
1.25
 42
1.25
 43
1.25
 50
0.0000000000001018
  0
MTEXT
  5
1983
330
183C
100
AcDbEntity
  8
AM_5
 62
     2
100
AcDbMText
 10
-12.5000000000004
 20
-12.44259507392794
 30
0.0
 40
1.6
 41
0.0
 71
     5
 72
     1
  1
25
  7
ASAMI
1001
ACAD
1000
MTEXTBEGIN
1070
    73
1070
     1
1070
    44
1040
1.0
1070
    74
1070
     0
1000
MTEXTEND
  0
POINT
  5
1984
330
183C
100
AcDbEntity
  8
DEFPOINTS
 62
     0
100
AcDbPoint
 10
-25.00000000000081
 20
-6.000000000839989
 30
0.0
  0
POINT
  5
1985
330
183C
100
AcDbEntity
  8
DEFPOINTS
 62
     0
100
AcDbPoint
 10
-0.0000000000000416
 20
-6.000000000840067
 30
0.0
  0
POINT
  5
1986
330
183C
100
AcDbEntity
  8
DEFPOINTS
 62
     0
100
AcDbPoint
 10
-0.0000000000000421
 20
-13.99259507392792
 30
0.0
  0
ENDBLK
  5
1847
330
183C
100
AcDbEntity
  8
0
100
AcDbBlockEnd
  0
BLOCK
  5
1863
330
1859
100
AcDbEntity
  8
0
100
AcDbBlockBegin
  2
*D7
 70
     1
 10
0.0
 20
0.0
 30
0.0
  3
*D7
  1

  0
LINE
  5
18A7
330
1859
100
AcDbEntity
  8
AM_5
100
AcDbLine
 10
-75.00000000000003
 20
-5.300000000840876
 30
0.0
 11
-75.0
 21
-20.49259507392807
 31
0.0
  0
LINE
  5
18A8
330
1859
100
AcDbEntity
  8
AM_5
100
AcDbLine
 10
-0.0000000000000285
 20
-6.500000000840067
 30
0.0
 11
-0.0000000000000011
 21
-20.49259507392791
 31
0.0
  0
LINE
  5
18A9
330
1859
100
AcDbEntity
  8
AM_5
100
AcDbLine
 10
-73.75
 20
-19.99259507392807
 30
0.0
 11
-1.250000000000001
 21
-19.99259507392792
 31
0.0
  0
INSERT
  5
18AA
330
1859
100
AcDbEntity
  8
AM_5
100
AcDbBlockReference
  2
_OPEN30
 10
-75.0
 20
-19.99259507392807
 30
0.0
 41
1.25
 42
1.25
 43
1.25
 50
180.0000000000001
  0
INSERT
  5
18AB
330
1859
100
AcDbEntity
  8
AM_5
100
AcDbBlockReference
  2
_OPEN30
 10
-0.000000000000002
 20
-19.99259507392792
 30
0.0
 41
1.25
 42
1.25
 43
1.25
 50
0.0000000000001018
  0
MTEXT
  5
18AC
330
1859
100
AcDbEntity
  8
AM_5
 62
     2
100
AcDbMText
 10
-37.5
 20
-18.44259507392799
 30
0.0
 40
1.6
 41
0.0
 71
     5
 72
     1
  1
75
  7
ASAMI
1001
ACAD
1000
MTEXTBEGIN
1070
    73
1070
     1
1070
    44
1040
1.0
1070
    74
1070
     0
1000
MTEXTEND
  0
POINT
  5
18AD
330
1859
100
AcDbEntity
  8
DEFPOINTS
 62
     0
100
AcDbPoint
 10
-75.00000000000004
 20
-4.800000000840724
 30
0.0
  0
POINT
  5
18AE
330
1859
100
AcDbEntity
  8
DEFPOINTS
 62
     0
100
AcDbPoint
 10
-0.0000000000000416
 20
-6.000000000840067
 30
0.0
  0
POINT
  5
18AF
330
1859
100
AcDbEntity
  8
DEFPOINTS
 62
     0
100
AcDbPoint
 10
-0.0000000000000424
 20
-19.99259507392792
 30
0.0
  0
ENDBLK
  5
1864
330
1859
100
AcDbEntity
  8
0
100
AcDbBlockEnd
  0
BLOCK
  5
18E6
330
18DC
100
AcDbEntity
  8
0
100
AcDbBlockBegin
  2
*D8
 70
     1
 10
0.0
 20
0.0
 30
0.0
  3
*D8
  1

  0
LINE
  5
1955
330
18DC
100
AcDbEntity
  8
AM_5
100
AcDbLine
 10
-74.36363636363643
 20
-6.000000000840555
 30
0.0
 11
-81.36363636363642
 21
-6.000000000840532
 31
0.0
  0
LINE
  5
1956
330
18DC
100
AcDbEntity
  8
AM_5
100
AcDbLine
 10
-74.36363636363634
 20
6.000000000840402
 30
0.0
 11
-81.36363636363638
 21
6.000000000840424
 31
0.0
  0
LINE
  5
1957
330
18DC
100
AcDbEntity
  8
AM_5
100
AcDbLine
 10
-80.86363636363641
 20
-4.750000000840535
 30
0.0
 11
-80.86363636363639
 21
4.750000000840421
 31
0.0
  0
INSERT
  5
1958
330
18DC
100
AcDbEntity
  8
AM_5
100
AcDbBlockReference
  2
_OPEN30
 10
-80.86363636363641
 20
-6.000000000840535
 30
0.0
 41
1.25
 42
1.25
 43
1.25
 50
269.9999999999998
  0
INSERT
  5
1959
330
18DC
100
AcDbEntity
  8
AM_5
100
AcDbBlockReference
  2
_OPEN30
 10
-80.86363636363639
 20
6.000000000840421
 30
0.0
 41
1.25
 42
1.25
 43
1.25
 50
89.99999999999984
  0
MTEXT
  5
195A
330
18DC
100
AcDbEntity
  8
AM_5
 62
     2
100
AcDbMText
 10
-82.4136363636364
 20
-0.0000000000000544
 30
0.0
 40
1.6
 41
0.0
 71
     5
 72
     1
  1
%%c12
  7
ASAMI
 11
0.0000000000000029
 21
1.0
 31
0.0
1001
ACAD
1000
MTEXTBEGIN
1070
    73
1070
     1
1070
    44
1040
1.0
1070
    74
1070
     0
1000
MTEXTEND
  0
POINT
  5
195B
330
18DC
100
AcDbEntity
  8
DEFPOINTS
 62
     0
100
AcDbPoint
 10
-73.86363636363642
 20
-6.000000000840762
 30
0.0
  0
POINT
  5
195C
330
18DC
100
AcDbEntity
  8
DEFPOINTS
 62
     0
100
AcDbPoint
 10
-73.86363636363636
 20
6.000000000840195
 30
0.0
  0
POINT
  5
195D
330
18DC
100
AcDbEntity
  8
DEFPOINTS
 62
     0
100
AcDbPoint
 10
-80.86363636363641
 20
6.000000000840197
 30
0.0
  0
ENDBLK
  5
18E7
330
18DC
100
AcDbEntity
  8
0
100
AcDbBlockEnd
  0
ENDSEC
  0
SECTION
  2
ENTITIES
  0
TEXT
  5
E66
330
1F
100
AcDbEntity
  8
AM_6
100
AcDbText
 10
-47.91666666666669
 20
-31.24259507392799
 30
0.0
 40
2.5
  1
ASM2120DL
 72
     4
 11
-37.50000000000003
 21
-29.99259507392799
 31
0.0
100
AcDbText
  0
DIMENSION
  5
1656
330
1F
100
AcDbEntity
  8
AM_5
100
AcDbDimension
  2
*D5
 10
7.000000000000002
 20
6.000000000840028
 30
0.0
 11
5.450000000000001
 21
-0.0000000000000362
 31
0.0
 70
    32
  1
%%c<>
 51
359.9999999999998
  3
AM_JIS
100
AcDbAlignedDimension
 13
-0.0000000000000313
 23
-6.000000000840102
 33
0.0
 14
0.0000000000000028
 24
6.00000000084003
 34
0.0
 50
90.0
100
AcDbRotatedDimension
1001
GENIUS_GENDTOL_13
1000

1000
h7
1000

1040
0.0
  0
ELLIPSE
  5
182A
330
1F
100
AcDbEntity
  8
AM_0
100
AcDbEllipse
 10
-2.5495053212091
 20
3.244736824166424
 30
0.0
 11
-0.000000000000011
 21
1.309665108010314
 31
0.0
210
0.0
220
0.0
230
1.0
 40
0.9469696969696974
 41
1.976627693805545
 42
3.084827136967421
  0
LINE
  5
182B
330
1F
100
AcDbEntity
  8
AM_0
100
AcDbLine
 10
-0.0000000000000304
 20
-0.0000000000000021
 30
0.0
 11
-2.61986885930983
 21
1.93718123217657
 31
0.0
  0
LINE
  5
182C
330
1F
100
AcDbEntity
  8
AM_0
100
AcDbLine
 10
-11.52918343187474
 20
4.643787660577139
 30
0.0
 11
-22.83991611855577
 21
5.060886000891969
 31
0.0
  0
ELLIPSE
  5
182D
330
1F
100
AcDbEntity
  8
AM_0
100
AcDbEllipse
 10
7.754419545572264
 20
-1.504031545882089
 30
0.0
 11
-0.000000000000029
 21
9.341734327309088
 31
0.0
210
0.0
220
0.0
230
1.0
 40
0.9469696969696951
 41
1.499616127416868
 42
2.064551921779294
  0
LINE
  5
182E
330
1F
100
AcDbEntity
  8
AM_0
100
AcDbLine
 10
-11.52918343187476
 20
-4.643787660577368
 30
0.0
 11
-22.83991611855605
 21
-5.060886000892014
 31
0.0
  0
LINE
  5
182F
330
1F
100
AcDbEntity
  8
AM_11
 48
0.35
100
AcDbLine
 10
-25.00000000000081
 20
-6.000000000839989
 30
0.0
 11
-25.00000000000076
 21
6.000000000840014
 31
0.0
  0
LINE
  5
1830
330
1F
100
AcDbEntity
  8
AM_0
100
AcDbLine
 10
-0.0000000000000416
 20
-6.000000000840102
 30
0.0
 11
0.0000000000000132
 21
6.000000000839961
 31
0.0
  0
LINE
  5
1831
330
1F
100
AcDbEntity
  8
AM_0
100
AcDbLine
 10
-0.1559714795227422
 20
-0.1224484328960234
 30
0.0
 11
-0.1559714795227525
 21
-5.623754646387035
 31
0.0
  0
LINE
  5
1832
330
1F
100
AcDbEntity
  8
AM_0
100
AcDbLine
 10
-0.0000000000000304
 20
-0.0000000000000021
 30
0.0
 11
-1.069518716727234
 21
-0.8396463970009106
 31
0.0
  0
SPLINE
  5
1833
330
1F
100
AcDbEntity
  8
AM_0
100
AcDbSpline
210
0.0
220
0.0
230
1.0
 70
     8
 71
     3
 72
     8
 73
     4
 74
     0
 42
0.0000000001
 43
0.0000000001
 40
0.0
 40
0.0
 40
0.0
 40
0.0
 40
3.736652249739376
 40
3.736652249739376
 40
3.736652249739376
 40
3.736652249739376
 10
0.0000000000000132
 20
6.00000000084003
 30
0.0
 10
-2.775291332637072
 20
6.000000000840036
 30
0.0
 10
-5.421382602139493
 20
5.23332187439024
 30
0.0
 10
-8.00358816238276
 20
4.087543500669509
 30
0.0
  0
SPLINE
  5
1834
330
1F
100
AcDbEntity
  8
AM_0
100
AcDbSpline
210
0.0
220
0.0
230
1.0
 70
     8
 71
     3
 72
     8
 73
     4
 74
     0
 42
0.0000000001
 43
0.0000000001
 40
0.0
 40
0.0
 40
0.0
 40
0.0
 40
17.39193258091405
 40
17.39193258091405
 40
17.39193258091405
 40
17.39193258091405
 10
-0.0000000000000416
 20
-6.000000000840033
 30
0.0
 10
-5.489877708621901
 20
-6.000000000840021
 30
0.0
 10
-10.47419750958201
 20
-3.000000000419996
 30
0.0
 10
-15.45851731054212
 20
0.0000000000000301
 30
0.0
  0
SPLINE
  5
1835
330
1F
100
AcDbEntity
  8
AM_0
100
AcDbSpline
210
0.0
220
0.0
230
1.0
 70
     8
 71
     3
 72
     8
 73
     4
 74
     0
 42
0.0000000001
 43
0.0000000001
 40
0.9753439196676739
 40
0.9753439196676739
 40
0.9753439196676739
 40
0.9753439196676739
 40
7.357693791159725
 40
7.357693791159725
 40
7.357693791159725
 40
7.357693791159725
 10
-0.1871446597891841
 20
-5.619625072073178
 30
0.0
 10
-4.826996021551858
 20
-5.000668036069296
 30
0.0
 10
-9.161502017291507
 20
-2.500334018034601
 30
0.0
 10
-13.49600801303141
 20
0.000000000000026
 30
0.0
  0
SPLINE
  5
1836
330
1F
100
AcDbEntity
  8
AM_0
100
AcDbSpline
210
0.0
220
0.0
230
1.0
 70
     8
 71
     3
 72
     8
 73
     4
 74
     0
 42
0.0000000001
 43
0.0000000001
 40
2.181517009851762
 40
2.181517009851762
 40
2.181517009851762
 40
2.181517009851762
 40
7.320123087841765
 40
7.320123087841765
 40
7.320123087841765
 40
7.320123087841765
 10
-0.5106161497898857
 20
-4.834519677571439
 30
0.0
 10
-4.175501876632289
 20
-3.8564796496058
 30
0.0
 10
-7.693038224483315
 20
-1.92823982480289
 30
0.0
 10
-11.21057457233447
 20
0.0000000000000213
 30
0.0
  0
SPLINE
  5
1837
330
1F
100
AcDbEntity
  8
AM_0
100
AcDbSpline
210
0.0
220
0.0
230
1.0
 70
     8
 71
     3
 72
     8
 73
     4
 74
     0
 42
0.0000000001
 43
0.0000000001
 40
0.0
 40
0.0
 40
0.0
 40
0.0
 40
4.256459477032852
 40
4.256459477032852
 40
4.256459477032852
 40
4.256459477032852
 10
-12.91054037625438
 20
4.694727038674479
 30
0.0
 10
-9.749177127867065
 20
4.694727038674473
 30
0.0
 10
-6.696730676319318
 20
3.87866363294064
 30
0.0
 10
-3.688981563463264
 20
2.727703650200674
 30
0.0
  0
SPLINE
  5
1838
330
1F
100
AcDbEntity
  8
AM_0
100
AcDbSpline
210
0.0
220
0.0
230
1.0
 70
     8
 71
     3
 72
     8
 73
     4
 74
     0
 42
0.0000000001
 43
0.0000000001
 40
0.0
 40
0.0
 40
0.0
 40
0.0
 40
3.337373195343928
 40
3.337373195343928
 40
3.337373195343928
 40
3.337373195343928
 10
-2.61986885932262
 20
1.937181232185915
 30
0.0
 10
-1.5786061464739
 20
2.106002109281852
 30
0.0
 10
-0.5193479461869064
 20
2.835875405706428
 30
0.0
 10
-0.0000000000000232
 20
3.803752035396994
 30
0.0
  0
SPLINE
  5
1839
330
1F
100
AcDbEntity
  8
AM_0
100
AcDbSpline
210
0.0
220
0.0
230
1.0
 70
     8
 71
     3
 72
     8
 73
     4
 74
     0
 42
0.0000000001
 43
0.0000000001
 40
0.0
 40
0.0
 40
0.0
 40
0.0
 40
4.513226090912343
 40
4.513226090912343
 40
4.513226090912343
 40
4.513226090912343
 10
-3.688981563463264
 20
2.727703650200606
 30
0.0
 10
-5.113258994568115
 20
2.761145071770349
 30
0.0
 10
-2.452945057572431
 20
-0.3126660541343135
 30
0.0
 10
-1.139078126960639
 20
-0.8942553601414598
 30
0.0
  0
SPLINE
  5
183A
330
1F
100
AcDbEntity
  8
AM_0
100
AcDbSpline
210
0.0
220
0.0
230
1.0
 70
     8
 71
     3
 72
     8
 73
     4
 74
     0
 42
0.0000000001
 43
0.0000000001
 40
0.0
 40
0.0
 40
0.0
 40
0.0
 40
2.238610194515266
 40
2.238610194515266
 40
2.238610194515266
 40
2.238610194515266
 10
-12.9105403762544
 20
-4.694727038674497
 30
0.0
 10
-11.24787683285811
 20
-4.694727038674501
 30
0.0
 10
-9.615340214630506
 20
-4.468999860950866
 30
0.0
 10
-8.003588162417917
 20
-4.087543500757881
 30
0.0
  0
DIMENSION
  5
183B
330
1F
100
AcDbEntity
  8
AM_5
100
AcDbDimension
  2
*D6
 10
-0.0000000000000421
 20
-13.99259507392792
 30
0.0
 11
-12.50000000000042
 21
-12.44259507392792
 31
0.0
 70
    32
  1
<>
 51
359.9999999999998
  3
AM_JIS
100
AcDbAlignedDimension
 13
-25.00000000000081
 23
-6.000000000839989
 33
0.0
 14
-0.0000000000000416
 24
-6.000000000840067
 34
0.0
 50
359.9999999999998
100
AcDbRotatedDimension
1001
GENIUS_GENDTOL_13
1000

1000
h7
1000

1040
0.0
  0
LINE
  5
1848
330
1F
100
AcDbEntity
  8
AM_0
100
AcDbLine
 10
-25.63319693280004
 20
5.129025167086052
 30
0.0
 11
-25.65125228149507
 21
5.42681108098846
 31
0.0
  0
ELLIPSE
  5
1849
330
1F
100
AcDbEntity
  8
AM_0
100
AcDbEllipse
 10
-23.31476327711546
 20
4.325641899115681
 30
0.0
 11
0.0000000000001743
 21
9.984106576348395
 31
0.0
210
0.0
220
0.0
230
1.0
 40
0.9469696969696974
 41
2.192054873213191
 42
2.544019807642959
  0
LINE
  5
184A
330
1F
100
AcDbEntity
  8
AM_0
100
AcDbLine
 10
-26.34417705975887
 20
-0.932193891419676
 30
0.0
 11
-31.00277638604967
 21
-1.485697229758244
 31
0.0
  0
LINE
  5
184B
330
1F
100
AcDbEntity
  8
AM_0
100
AcDbLine
 10
-30.870522441408
 20
-4.026161890148324
 30
0.0
 11
-28.63430278219978
 21
-3.928255517187118
 31
0.0
  0
LINE
  5
184C
330
1F
100
AcDbEntity
  8
AM_0
100
AcDbLine
 10
-73.86363636363644
 20
6.00000000084012
 30
0.0
 11
-75.00000000000008
 21
4.800000000840123
 31
0.0
1001
GENIUS_GENFIL_13
1070
     0
1040
1.0
1040
1.0
1040
20.0
1040
0.0
1002
{
1002
}
1001
GENIUS_GENOBJ-N-CHA_13
1002
{
1000
OWNER
1000
GEN
1002
}
1001
GENIUS_GENODEF_13
1002
{
1000
HIER
1070
     0
1002
}
1002
{
1000
MANEDIT
1070
     0
1002
}
1002
{
1000
NOSEL
1070
     0
1002
}
1002
{
1000
BEHIND
1070
     0
1002
}
1002
{
1000
OTHER
1070
     0
1002
}
1002
{
1000
REACTOR
1002
}
  0
LINE
  5
184D
330
1F
100
AcDbEntity
  8
AM_0
100
AcDbLine
 10
-75.00000000000004
 20
-4.800000000840759
 30
0.0
 11
-73.8636363636364
 21
-6.000000000840762
 31
0.0
1001
GENIUS_GENFIL_13
1070
     0
1040
1.0
1040
1.0
1040
20.0
1040
0.0
1002
{
1002
}
1001
GENIUS_GENODEF_13
1002
{
1000
HIER
1070
     0
1002
}
1002
{
1000
MANEDIT
1070
     0
1002
}
1002
{
1000
NOSEL
1070
     0
1002
}
1002
{
1000
BEHIND
1070
     0
1002
}
1002
{
1000
OTHER
1070
     0
1002
}
1002
{
1000
REACTOR
1002
}
1001
GENIUS_GENOBJ-N-CHA_13
1002
{
1000
OWNER
1000
GEN
1002
}
  0
LINE
  5
184E
330
1F
100
AcDbEntity
  8
AM_0
100
AcDbLine
 10
-73.8636363636364
 20
-6.000000000840762
 30
0.0
 11
-73.86363636363637
 21
6.00000000084012
 31
0.0
  0
LINE
  5
184F
330
1F
100
AcDbEntity
  8
AM_0
100
AcDbLine
 10
-75.00000000000008
 20
4.800000000840123
 30
0.0
 11
-75.00000000000004
 21
-4.800000000840759
 31
0.0
  0
LINE
  5
1850
330
1F
100
AcDbEntity
  8
AM_0
100
AcDbLine
 10
-28.4761830026319
 20
-6.000000000840861
 30
0.0
 11
-73.8636363636364
 21
-6.000000000840762
 31
0.0
  0
LINE
  5
1851
330
1F
100
AcDbEntity
  8
AM_0
100
AcDbLine
 10
-28.4761830026303
 20
6.000000000840021
 30
0.0
 11
-73.86363636363644
 21
6.00000000084012
 31
0.0
  0
SPLINE
  5
1852
330
1F
100
AcDbEntity
  8
AM_0
100
AcDbSpline
210
0.0
220
0.0
230
1.0
 70
     8
 71
     3
 72
    11
 73
     7
 74
     0
 42
0.0000000001
 43
0.0000000001
 40
0.0
 40
0.0
 40
0.0
 40
0.0
 40
1.770584511763383
 40
3.985751774449011
 40
7.506644114693963
 40
11.34145522900442
 40
11.34145522900442
 40
11.34145522900442
 40
11.34145522900442
 10
-27.27272727272813
 20
5.576354816556873
 30
0.0
 10
-27.82078622444466
 20
5.637715868015464
 30
0.0
 10
-29.05451831957705
 20
5.775845349047449
 30
0.0
 10
-31.68789877361299
 20
4.411644666177513
 30
0.0
 10
-29.71516305066765
 20
0.5574325953660658
 30
0.0
 10
-27.68187924231845
 20
-0.4434082920483373
 30
0.0
 10
-26.62185019207499
 20
-0.9651851394192282
 30
0.0
  0
SPLINE
  5
1853
330
1F
100
AcDbEntity
  8
AM_0
100
AcDbSpline
210
0.0
220
0.0
230
1.0
 70
     8
 71
     3
 72
     8
 73
     4
 74
     0
 42
0.0000000001
 43
0.0000000001
 40
0.0
 40
0.0
 40
0.0
 40
0.0
 40
4.700510739615496
 40
4.700510739615496
 40
4.700510739615496
 40
4.700510739615496
 10
-26.6417718097768
 20
-5.493666282836934
 30
0.0
 10
-28.12551888667563
 20
-5.493666282836931
 30
0.0
 10
-29.49802066404183
 20
-4.759914086492628
 30
0.0
 10
-30.87052244140801
 20
-4.026161890148324
 30
0.0
  0
SPLINE
  5
1854
330
1F
100
AcDbEntity
  8
AM_0
100
AcDbSpline
210
0.0
220
0.0
230
1.0
 70
     8
 71
     3
 72
     9
 73
     5
 74
     0
 42
0.0000000001
 43
0.0000000001
 40
0.0
 40
0.0
 40
0.0
 40
0.0
 40
1.564848777615558
 40
3.603145118282518
 40
3.603145118282518
 40
3.603145118282518
 40
3.603145118282518
 10
-27.92742866236805
 20
-5.812322368493425
 30
0.0
 10
-28.39193852392032
 20
-5.626649586068362
 30
0.0
 10
-29.46149646714625
 20
-5.199128416507045
 30
0.0
 10
-30.36143048181914
 20
-4.449963749265201
 30
0.0
 10
-30.87052244140801
 20
-4.026161890148324
 30
0.0
  0
SPLINE
  5
1855
330
1F
100
AcDbEntity
  8
AM_0
100
AcDbSpline
210
0.0
220
0.0
230
1.0
 70
     8
 71
     3
 72
     9
 73
     5
 74
     0
 42
0.0000000001
 43
0.0000000001
 40
0.0
 40
0.0
 40
0.0
 40
0.0
 40
1.0116763048821
 40
1.811515889119457
 40
1.811515889119457
 40
1.811515889119457
 40
1.811515889119457
 10
-26.80037052215817
 20
5.619024055780855
 30
0.0
 10
-27.11612576663096
 20
5.671742643111542
 30
0.0
 10
-27.68151969715494
 20
5.766140977974789
 30
0.0
 10
-28.23278329150507
 20
5.928370647606761
 30
0.0
 10
-28.47618300263016
 20
6.000000000840021
 30
0.0
  0
SPLINE
  5
1856
330
1F
100
AcDbEntity
  8
AM_0
100
AcDbSpline
210
0.0
220
0.0
230
1.0
 70
     8
 71
     3
 72
     9
 73
     5
 74
     0
 42
0.0000000001
 43
0.0000000001
 40
0.0
 40
0.0
 40
0.0
 40
0.0
 40
0.6372086456672607
 40
2.223943165088666
 40
2.223943165088666
 40
2.223943165088666
 40
2.223943165088666
 10
-28.63430278219959
 20
-3.928255517187186
 30
0.0
 10
-28.43288918775663
 20
-3.93800261587042
 30
0.0
 10
-27.72992887834605
 20
-3.972021290355483
 30
0.0
 10
-27.05513817428331
 20
-4.194807473731012
 30
0.0
 10
-26.5736898529732
 20
-4.353760514061074
 30
0.0
  0
SPLINE
  5
1857
330
1F
100
AcDbEntity
  8
AM_0
100
AcDbSpline
210
0.0
220
0.0
230
1.0
 70
     8
 71
     3
 72
     9
 73
     5
 74
     0
 42
0.0000000001
 43
0.0000000001
 40
0.0
 40
0.0
 40
0.0
 40
0.0
 40
1.18985670392594
 40
2.00393300402074
 40
2.00393300402074
 40
2.00393300402074
 40
2.00393300402074
 10
-26.64177180977345
 20
-5.493666282836866
 30
0.0
 10
-27.01063265136939
 20
-5.571206794513744
 30
0.0
 10
-27.63186074709393
 20
-5.701798982619465
 30
0.0
 10
-28.23227226150261
 20
-5.913854656592479
 30
0.0
 10
-28.4761830026319
 20
-6.00000000084086
 30
0.0
  0
DIMENSION
  5
1858
330
1F
100
AcDbEntity
  8
AM_5
100
AcDbDimension
  2
*D7
 10
-0.0000000000000424
 20
-19.99259507392792
 30
0.0
 11
-37.50000000000004
 21
-18.44259507392791
 31
0.0
 70
    32
  1
<>
 51
359.9999999999998
  3
AM_JIS
100
AcDbAlignedDimension
 13
-75.00000000000004
 23
-4.800000000840724
 33
0.0
 14
-0.0000000000000416
 24
-6.000000000840067
 34
0.0
 50
359.9999999999998
100
AcDbRotatedDimension
1001
GENIUS_GENDTOL_13
1000

1000
h7
1000

1040
0.0
  0
ELLIPSE
  5
1865
330
1F
100
AcDbEntity
  8
AM_0
100
AcDbEllipse
 10
-22.59062907267627
 20
7.753039850696176
 30
0.0
 11
0.0000000000000587
 21
12.81662961844596
 31
0.0
210
0.0
220
0.0
230
1.0
 40
0.9469696969696967
 41
2.375809577687878
 42
3.121051712547926
  0
LINE
  5
1866
330
1F
100
AcDbEntity
  8
AM_7
 48
0.6
100
AcDbLine
 10
2.367673243166962
 20
-0.0000000000000071
 30
0.0
 11
-77.05406818720764
 21
0.0000000000000952
 31
0.0
1001
GENIUS_GENODEF_13
1002
{
1000
HIER
1070
     0
1002
}
1002
{
1000
MANEDIT
1070
     0
1002
}
1002
{
1000
NOSEL
1070
     0
1002
}
1002
{
1000
BEHIND
1070
     0
1002
}
1002
{
1000
OTHER
1070
     0
1002
}
1002
{
1000
REACTOR
1002
}
1001
GENIUS_GENOBJ-N-CEN_13
1002
{
1000
OWNER
1000
GEN
1002
}
  0
SPLINE
  5
1867
330
1F
100
AcDbEntity
  8
AM_0
100
AcDbSpline
210
0.0
220
0.0
230
1.0
 70
     8
 71
     3
 72
     8
 73
     4
 74
     0
 42
0.0000000001
 43
0.0000000001
 40
0.0
 40
0.0
 40
0.0
 40
0.0
 40
11.86206080997351
 40
11.86206080997351
 40
11.86206080997351
 40
11.86206080997351
 10
-12.9105403762544
 20
-4.694727038674497
 30
0.0
 10
-17.40374522851712
 20
-4.694727038674487
 30
0.0
 10
-21.67693193586929
 20
-3.046232390752495
 30
0.0
 10
-26.34417705975887
 20
-0.9321938914196078
 30
0.0
  0
SPLINE
  5
1868
330
1F
100
AcDbEntity
  8
AM_0
100
AcDbSpline
210
0.0
220
0.0
230
1.0
 70
     8
 71
     3
 72
     8
 73
     4
 74
     0
 42
0.0000000001
 43
0.0000000001
 40
0.9774076760691542
 40
0.9774076760691542
 40
0.9774076760691542
 40
0.9774076760691542
 40
7.357693791159725
 40
7.357693791159725
 40
7.357693791159725
 40
7.357693791159725
 10
-26.80037052282234
 20
5.61902405586953
 30
0.0
 10
-22.16221684746841
 20
4.99905105159189
 30
0.0
 10
-17.82911243024991
 20
2.499525525795923
 30
0.0
 10
-13.49600801303141
 20
-0.0000000000000422
 30
0.0
  0
SPLINE
  5
1869
330
1F
100
AcDbEntity
  8
AM_0
100
AcDbSpline
210
0.0
220
0.0
230
1.0
 70
     8
 71
     3
 72
     8
 73
     4
 74
     0
 42
0.0000000001
 43
0.0000000001
 40
0.3443266157452782
 40
0.3443266157452782
 40
0.3443266157452782
 40
0.3443266157452782
 40
7.320123087841765
 40
7.320123087841765
 40
7.320123087841765
 40
7.320123087841765
 10
-25.90465882152378
 20
5.475742211345193
 30
0.0
 10
-20.7608756747724
 20
5.235275233425745
 30
0.0
 10
-15.9857251235535
 20
2.617637616712781
 30
0.0
 10
-11.2105745723346
 20
-0.000000000000047
 30
0.0
  0
SPLINE
  5
186A
330
1F
100
AcDbEntity
  8
AM_0
100
AcDbSpline
210
0.0
220
0.0
230
1.0
 70
     8
 71
     3
 72
     8
 73
     4
 74
     0
 42
0.0000000001
 43
0.0000000001
 40
3.269815770496093
 40
3.269815770496093
 40
3.269815770496093
 40
3.269815770496093
 40
14.49327715076166
 40
14.49327715076166
 40
14.49327715076166
 40
14.49327715076166
 10
-27.27272727285726
 20
5.576354816571129
 30
0.0
 10
-23.17814072090764
 20
4.646345170283393
 30
0.0
 10
-19.31832901572482
 20
2.323172585141711
 30
0.0
 10
-15.45851731054199
 20
-0.0000000000000381
 30
0.0
  0
SPLINE
  5
186B
330
1F
100
AcDbEntity
  8
AM_0
100
AcDbSpline
210
0.0
220
0.0
230
1.0
 70
     8
 71
     3
 72
     8
 73
     4
 74
     0
 42
0.0000000001
 43
0.0000000001
 40
0.0122628573963528
 40
0.0122628573963528
 40
0.0122628573963528
 40
0.0122628573963528
 40
1.748655602797241
 40
1.748655602797241
 40
1.748655602797241
 40
1.748655602797241
 10
-26.6417718097768
 20
-5.493666282836866
 30
0.0
 10
-25.35245412759602
 20
-5.491485044854647
 30
0.0
 10
-24.08706400955074
 20
-5.33500409596788
 30
0.0
 10
-22.83991611855605
 20
-5.060886000892081
 30
0.0
  0
LINE
  5
186C
330
1F
100
AcDbEntity
  8
AM_11
 48
0.35
100
AcDbLine
 10
-25.00000000000081
 20
-6.000000000839989
 30
0.0
 11
-0.0000000000000416
 21
-6.000000000840102
 31
0.0
  0
LINE
  5
186D
330
1F
100
AcDbEntity
  8
AM_11
 48
0.35
100
AcDbLine
 10
0.0000000000000132
 20
6.000000000839961
 30
0.0
 11
-25.00000000000076
 21
6.000000000840014
 31
0.0
  0
DIMENSION
  5
18DB
330
1F
100
AcDbEntity
  8
AM_5
100
AcDbDimension
  2
*D8
 10
-80.86363636363641
 20
6.000000000840197
 30
0.0
 11
-82.4136363636364
 21
-0.0000000000002942
 31
0.0
 70
    32
  1
%%c<>
 51
0.0000000000001667
  3
AM_JIS
100
AcDbAlignedDimension
 13
-73.86363636363642
 23
-6.000000000840762
 33
0.0
 14
-73.86363636363636
 24
6.000000000840195
 34
0.0
 50
269.9999999999999
100
AcDbRotatedDimension
1001
GENIUS_GENDTOL_13
1000

1000
h7
1000

1040
0.0
  0
VIEWPORT
  5
110
330
101
100
AcDbEntity
 67
     1
  8
0
100
AcDbViewport
 10
420.5
 20
297.0
 30
0.0
 40
948.9782706766916
 41
628.452
 68
     1
 69
     1
1001
ACAD
1000
MVIEW
1002
{
1070
    16
1010
0.0
1020
0.0
1030
0.0
1010
0.0
1020
0.0
1030
1.0
1040
0.0
1040
628.452
1040
420.5
1040
297.0
1040
50.0
1040
0.0
1040
0.0
1070
     0
1070
   100
1070
     1
1070
     1
1070
     0
1070
     0
1070
     0
1070
     0
1040
0.0
1040
0.0
1040
0.0
1040
10.0
1040
10.0
1040
10.0
1040
10.0
1070
     0
1002
{
1002
}
1002
}
  0
ENDSEC
  0
SECTION
  2
OBJECTS
  0
DICTIONARY
  5
C
330
0
100
AcDbDictionary
  3
ACAD_GROUP
350
D
  3
ACAD_LAYOUT
350
1A
  3
ACAD_MLINESTYLE
350
17
  3
ACAD_PLOTSETTINGS
350
19
  3
ACAD_PLOTSTYLENAME
350
E
  3
ACDBVARIABLEDICTIONARY
350
34
  3
ACMDICTIONARY
350
43
  3
AMG
350
2B
  3
AMGSNAPSETTINGS
350
6E
  3
DWGPROPS
350
199F
  3
ACDBHEADERROUNDTRIPXREC
350
19AB
  0
DICTIONARY
  5
74
330
1F
100
AcDbDictionary
280
     1
  3
ACAD_INDEX
360
19A1
  3
ACAD_LAYOUTSELFREF
360
19CE
  0
DICTIONARY
  5
19D3
330
101
100
AcDbDictionary
280
     1
  3
ACAD_LAYOUTSELFREF
360
19D4
  0
DICTIONARY
  5
D
102
{ACAD_REACTORS
330
C
102
}
330
C
100
AcDbDictionary
  0
DICTIONARY
  5
1A
102
{ACAD_REACTORS
330
C
102
}
330
C
100
AcDbDictionary
  0
DICTIONARY
  5
17
102
{ACAD_REACTORS
330
C
102
}
330
C
100
AcDbDictionary
  3
STANDARD
350
18
  0
DICTIONARY
  5
19
102
{ACAD_REACTORS
330
C
102
}
330
C
100
AcDbDictionary
  0
ACDBDICTIONARYWDFLT
  5
E
102
{ACAD_REACTORS
330
C
102
}
330
C
100
AcDbDictionary
281
     1
  3
Normal
350
F
100
AcDbDictionaryWithDefault
340
F
  0
DICTIONARY
  5
34
102
{ACAD_REACTORS
330
C
102
}
330
C
100
AcDbDictionary
  3
INDEXCTL
350
35
  3
SORTENTS
350
B5E
  0
DICTIONARY
  5
43
102
{ACAD_REACTORS
330
C
102
}
330
C
100
AcDbDictionary
  3
ACMSTDDICTIONARY
350
260
  0
DICTIONARY
  5
2B
102
{ACAD_REACTORS
330
C
102
}
330
C
100
AcDbDictionary
  3
ACMGSETTINGS
350
2C
  0
DICTIONARY
  5
6E
102
{ACAD_REACTORS
330
C
102
}
330
C
100
AcDbDictionary
  0
XRECORD
  5
199F
102
{ACAD_REACTORS
330
C
102
}
330
C
100
AcDbXrecord
  1
DWGPROPS COOKIE
  2

  3

  4

  6

  7

  8

  9

300
AmdtFileType=82
301
=
302
=
303
=
304
=
305
=
306
=
307
=
308
=
309
=
 40
0.0660016898148148
 41
2452802.716478761
 42
2452900.385669479
  1

 90
        1
  0
DICTIONARY
  5
19AB
102
{ACAD_REACTORS
330
C
102
}
330
C
100
AcDbDictionary
  3
TSTACKALIGN
350
19AC
  3
TSTACKSIZE
350
19AD
  3
HYPERLINKBASE
350
19AE
  3
STYLESHEET
350
19AF
  3
LAYOUTDICT
350
19B0
  3
PLOTSETDICT
350
19B1
  3
PLOTSTYLNAMDICT
350
19B2
  3
LWETCUNION
350
19B3
  3
INSUNITS
350
19B4
  3
CEPSNTYPE
350
19B5
  3
FINGERPRINTGUID
350
19B6
  3
VERSIONGUID
350
19B7
  3
PSVPSCALE
350
19B8
  3
DIMSTYLEDATA
350
19B9
  3
PUCSORTHOREF
350
19BA
  3
PUCSORTHOVIEW
350
19BB
  3
PUCSBASE
350
19BC
  3
PUCSORGTOP
350
19BD
  3
PUCSORGBOTTOM
350
19BE
  3
PUCSORGLEFT
350
19BF
  3
PUCSORGRIGHT
350
19C0
  3
PUCSORGFRONT
350
19C1
  3
PUCSORGBACK
350
19C2
  3
UCSORTHOREF
350
19C3
  3
UCSORTHOVIEW
350
19C4
  3
UCSBASE
350
19C5
  3
UCSORGTOP
350
19C6
  3
UCSORGBOTTOM
350
19C7
  3
UCSORGLEFT
350
19C8
  3
UCSORGRIGHT
350
19C9
  3
UCSORGFRONT
350
19CA
  3
UCSORGBACK
350
19CB
  0
DICTIONARY
  5
19A1
102
{ACAD_REACTORS
330
74
102
}
330
74
100
AcDbDictionary
  3
*A1
350
19A2
  0
XRECORD
  5
19CE
102
{ACAD_REACTORS
330
74
102
}
330
74
100
AcDbXrecord
340
1F
  0
XRECORD
  5
19D4
102
{ACAD_REACTORS
330
19D3
102
}
330
19D3
100
AcDbXrecord
340
101
  0
MLINESTYLE
  5
18
102
{ACAD_REACTORS
330
17
102
}
330
17
100
AcDbMlineStyle
  2
STANDARD
 70
     0
  3

 62
   256
 51
90.0
 52
90.0
 71
     2
 49
0.5
 62
   256
  6
BYLAYER
 49
-0.5
 62
   256
  6
BYLAYER
  0
ACDBPLACEHOLDER
  5
F
102
{ACAD_REACTORS
330
E
102
}
330
E
100
AcDbPlaceHolder
280
     0
  0
DICTIONARYVAR
  5
35
102
{ACAD_REACTORS
330
34
102
}
330
34
100
DictionaryVariables
280
     0
  1
1
  0
DICTIONARYVAR
  5
B5E
102
{ACAD_REACTORS
330
34
102
}
330
34
100
DictionaryVariables
280
     0
  1
96
  0
DICTIONARY
  5
260
102
{ACAD_REACTORS
330
43
102
}
330
43
100
AcDbDictionary
  0
DICTIONARY
  5
2C
102
{ACAD_REACTORS
330
2B
102
}
330
2B
100
AcDbDictionary
  3
DWGSETTINGS
350
2D
  0
XRECORD
  5
19AC
102
{ACAD_REACTORS
330
19AB
102
}
330
19AB
100
AcDbXrecord
 90
        1
  0
XRECORD
  5
19AD
102
{ACAD_REACTORS
330
19AB
102
}
330
19AB
100
AcDbXrecord
 90
       70
  0
XRECORD
  5
19AE
102
{ACAD_REACTORS
330
19AB
102
}
330
19AB
100
AcDbXrecord
  1

  0
XRECORD
  5
19AF
102
{ACAD_REACTORS
330
19AB
102
}
330
19AB
100
AcDbXrecord
  1
ASAMI.ctb
  0
XRECORD
  5
19B0
102
{ACAD_REACTORS
330
19AB
102
}
330
19AB
100
AcDbXrecord
340
1A
  0
XRECORD
  5
19B1
102
{ACAD_REACTORS
330
19AB
102
}
330
19AB
100
AcDbXrecord
340
19
  0
XRECORD
  5
19B2
102
{ACAD_REACTORS
330
19AB
102
}
330
19AB
100
AcDbXrecord
340
E
  0
XRECORD
  5
19B3
102
{ACAD_REACTORS
330
19AB
102
}
330
19AB
100
AcDbXrecord
 90
    10781
  0
XRECORD
  5
19B4
102
{ACAD_REACTORS
330
19AB
102
}
330
19AB
100
AcDbXrecord
 90
        4
  0
XRECORD
  5
19B5
102
{ACAD_REACTORS
330
19AB
102
}
330
19AB
100
AcDbXrecord
 90
        0
  0
XRECORD
  5
19B6
102
{ACAD_REACTORS
330
19AB
102
}
330
19AB
100
AcDbXrecord
  1
{AFB28963-8C59-40AE-9337-C84526B81ACE}
  0
XRECORD
  5
19B7
102
{ACAD_REACTORS
330
19AB
102
}
330
19AB
100
AcDbXrecord
  1
{6741A75C-AE3D-4528-92A7-5EDD60192650}
  0
XRECORD
  5
19B8
102
{ACAD_REACTORS
330
19AB
102
}
330
19AB
100
AcDbXrecord
 40
0.0
  0
XRECORD
  5
19B9
102
{ACAD_REACTORS
330
19AB
102
}
330
19AB
100
AcDbXrecord
1000
DSTYLE
1002
{
1070
    79
 70
     2
1070
   341
340
59
1070
   342
340
59
1070
   371
 70
    -1
1070
   372
 70
    -1
1002
}
  0
XRECORD
  5
19BA
102
{ACAD_REACTORS
330
19AB
102
}
330
19AB
100
AcDbXrecord
340
0
  0
XRECORD
  5
19BB
102
{ACAD_REACTORS
330
19AB
102
}
330
19AB
100
AcDbXrecord
 70
     0
  0
XRECORD
  5
19BC
102
{ACAD_REACTORS
330
19AB
102
}
330
19AB
100
AcDbXrecord
340
0
  0
XRECORD
  5
19BD
102
{ACAD_REACTORS
330
19AB
102
}
330
19AB
100
AcDbXrecord
 10
0.0
 20
0.0
 30
0.0
  0
XRECORD
  5
19BE
102
{ACAD_REACTORS
330
19AB
102
}
330
19AB
100
AcDbXrecord
 10
0.0
 20
0.0
 30
0.0
  0
XRECORD
  5
19BF
102
{ACAD_REACTORS
330
19AB
102
}
330
19AB
100
AcDbXrecord
 10
0.0
 20
0.0
 30
0.0
  0
XRECORD
  5
19C0
102
{ACAD_REACTORS
330
19AB
102
}
330
19AB
100
AcDbXrecord
 10
0.0
 20
0.0
 30
0.0
  0
XRECORD
  5
19C1
102
{ACAD_REACTORS
330
19AB
102
}
330
19AB
100
AcDbXrecord
 10
0.0
 20
0.0
 30
0.0
  0
XRECORD
  5
19C2
102
{ACAD_REACTORS
330
19AB
102
}
330
19AB
100
AcDbXrecord
 10
0.0
 20
0.0
 30
0.0
  0
XRECORD
  5
19C3
102
{ACAD_REACTORS
330
19AB
102
}
330
19AB
100
AcDbXrecord
340
0
  0
XRECORD
  5
19C4
102
{ACAD_REACTORS
330
19AB
102
}
330
19AB
100
AcDbXrecord
 70
     0
  0
XRECORD
  5
19C5
102
{ACAD_REACTORS
330
19AB
102
}
330
19AB
100
AcDbXrecord
340
0
  0
XRECORD
  5
19C6
102
{ACAD_REACTORS
330
19AB
102
}
330
19AB
100
AcDbXrecord
 10
0.0
 20
0.0
 30
0.0
  0
XRECORD
  5
19C7
102
{ACAD_REACTORS
330
19AB
102
}
330
19AB
100
AcDbXrecord
 10
0.0
 20
0.0
 30
0.0
  0
XRECORD
  5
19C8
102
{ACAD_REACTORS
330
19AB
102
}
330
19AB
100
AcDbXrecord
 10
0.0
 20
0.0
 30
0.0
  0
XRECORD
  5
19C9
102
{ACAD_REACTORS
330
19AB
102
}
330
19AB
100
AcDbXrecord
 10
0.0
 20
0.0
 30
0.0
  0
XRECORD
  5
19CA
102
{ACAD_REACTORS
330
19AB
102
}
330
19AB
100
AcDbXrecord
 10
0.0
 20
0.0
 30
0.0
  0
XRECORD
  5
19CB
102
{ACAD_REACTORS
330
19AB
102
}
330
19AB
100
AcDbXrecord
 10
0.0
 20
0.0
 30
0.0
  0
LAYER_INDEX
  5
19A2
102
{ACAD_REACTORS
330
19A1
102
}
330
19A1
100
AcDbIndex
 40
2453152.361150335
100
AcDbLayerIndex
  8
0
360
19A3
 90
        0
  8
AM_0
360
19A4
 90
       38
  8
AM_5
360
19A5
 90
        4
  8
AM_11
360
19A6
 90
        3
  8
AM_7
360
19A7
 90
        1
  8
AM_6
360
19A8
 90
        1
  8
Defpoints
360
19A9
 90
        0
  0
XRECORD
  5
2D
102
{ACAD_REACTORS
330
2C
102
}
330
2C
100
AcDbXrecord
  1
VERSION
140
15.0
  1
PRODUCT
  2
AutoCAD Mechanical 2000
  0
IDBUFFER
  5
19A3
330
0
100
AcDbIdBuffer
  0
IDBUFFER
  5
19A4
330
0
100
AcDbIdBuffer
330
1848
330
1849
330
184A
330
184B
330
184C
330
184D
330
184E
330
184F
330
1850
330
1851
330
1852
330
1853
330
1854
330
1855
330
1856
330
1857
330
1865
330
1867
330
1868
330
1869
330
186A
330
186B
330
182A
330
182B
330
182C
330
182D
330
182E
330
1830
330
1831
330
1832
330
1833
330
1834
330
1835
330
1836
330
1837
330
1838
330
1839
330
183A
  0
IDBUFFER
  5
19A5
330
0
100
AcDbIdBuffer
330
1656
330
183B
330
1858
330
18DB
  0
IDBUFFER
  5
19A6
330
0
100
AcDbIdBuffer
330
182F
330
186C
330
186D
  0
IDBUFFER
  5
19A7
330
0
100
AcDbIdBuffer
330
1866
  0
IDBUFFER
  5
19A8
330
0
100
AcDbIdBuffer
330
E66
  0
IDBUFFER
  5
19A9
330
0
100
AcDbIdBuffer
  0
ENDSEC
  0
EOF
