  0
SECTION
  2
HEADER
  9
$ACADVER
  1
AC1014
  9
$ACADMAINTVER
 70
     9
  9
$DWGCODEPAGE
  3
ANSI_932
  9
$INSBASE
 10
0.0
 20
0.0
 30
0.0
  9
$EXTMIN
 10
-111.4882312597197
 20
-56.50000099999829
 30
-0.00000001
  9
$EXTMAX
 10
19.55776903085494
 20
9.643959415219725
 30
0.00000001
  9
$LIMMIN
 10
-117.7279675098121
 20
-67.41226537345045
  9
$LIMMAX
 10
29.03183742897738
 20
26.01953187710904
  9
$ORTHOMODE
 70
     0
  9
$REGENMODE
 70
     1
  9
$FILLMODE
 70
     1
  9
$QTEXTMODE
 70
     0
  9
$MIRRTEXT
 70
     0
  9
$DRAGMODE
 70
     2
  9
$LTSCALE
 40
1.0
  9
$OSMODE
 70
    55
  9
$ATTMODE
 70
     1
  9
$TEXTSIZE
 40
2.5
  9
$TRACEWID
 40
1.0
  9
$TEXTSTYLE
  7
STANDARD
  9
$CLAYER
  8
AM_0
  9
$CELTYPE
  6
BYLAYER
  9
$CECOLOR
 62
   256
  9
$CELTSCALE
 40
1.0
  9
$DELOBJ
 70
     1
  9
$DISPSILH
 70
     0
  9
$DIMSCALE
 40
1.0
  9
$DIMASZ
 40
2.5
  9
$DIMEXO
 40
1.0
  9
$DIMDLI
 40
12.0
  9
$DIMRND
 40
0.0
  9
$DIMDLE
 40
0.0
  9
$DIMEXE
 40
1.0
  9
$DIMTP
 40
0.1
  9
$DIMTM
 40
0.1
  9
$DIMTXT
 40
3.2
  9
$DIMCEN
 40
0.0
  9
$DIMTSZ
 40
0.0
  9
$DIMTOL
 70
     0
  9
$DIMLIM
 70
     0
  9
$DIMTIH
 70
     0
  9
$DIMTOH
 70
     0
  9
$DIMSE1
 70
     0
  9
$DIMSE2
 70
     0
  9
$DIMTAD
 70
     3
  9
$DIMZIN
 70
     8
  9
$DIMBLK
  1
OPEN30
  9
$DIMASO
 70
     1
  9
$DIMSHO
 70
     1
  9
$DIMPOST
  1

  9
$DIMAPOST
  1
"
  9
$DIMALT
 70
     0
  9
$DIMALTD
 70
     2
  9
$DIMALTF
 40
0.0393701
  9
$DIMLFAC
 40
1.0
  9
$DIMTOFL
 70
     1
  9
$DIMTVP
 40
0.0
  9
$DIMTIX
 70
     0
  9
$DIMSOXD
 70
     0
  9
$DIMSAH
 70
     0
  9
$DIMBLK1
  1

  9
$DIMBLK2
  1

  9
$DIMSTYLE
  2
AM_JIS
  9
$DIMCLRD
 70
   256
  9
$DIMCLRE
 70
   256
  9
$DIMCLRT
 70
     2
  9
$DIMTFAC
 40
0.71
  9
$DIMGAP
 40
1.5
  9
$DIMJUST
 70
     0
  9
$DIMSD1
 70
     0
  9
$DIMSD2
 70
     0
  9
$DIMTOLJ
 70
     0
  9
$DIMTZIN
 70
     0
  9
$DIMALTZ
 70
     0
  9
$DIMALTTZ
 70
     0
  9
$DIMFIT
 70
     3
  9
$DIMUPT
 70
     0
  9
$DIMUNIT
 70
     2
  9
$DIMDEC
 70
     3
  9
$DIMTDEC
 70
     3
  9
$DIMALTU
 70
     2
  9
$DIMALTTD
 70
     2
  9
$DIMTXSTY
  7
ASAMI
  9
$DIMAUNIT
 70
     0
  9
$LUNITS
 70
     2
  9
$LUPREC
 70
     2
  9
$SKETCHINC
 40
1.0
  9
$FILLETRAD
 40
2.5
  9
$AUNITS
 70
     0
  9
$AUPREC
 70
     0
  9
$MENU
  1
.
  9
$ELEVATION
 40
0.0
  9
$PELEVATION
 40
0.0
  9
$THICKNESS
 40
0.0
  9
$LIMCHECK
 70
     0
  9
$BLIPMODE
 70
     0
  9
$CHAMFERA
 40
1.0
  9
$CHAMFERB
 40
1.0
  9
$CHAMFERC
 40
20.0
  9
$CHAMFERD
 40
0.0
  9
$SKPOLY
 70
     0
  9
$TDCREATE
 40
2452836.771637361
  9
$TDUPDATE
 40
2453152.362094375
  9
$TDINDWG
 40
0.0430557639
  9
$TDUSRTIMER
 40
0.0430557639
  9
$USRTIMER
 70
     1
  9
$ANGBASE
 50
0.0
  9
$ANGDIR
 70
     0
  9
$PDMODE
 70
     0
  9
$PDSIZE
 40
0.0
  9
$PLINEWID
 40
0.0
  9
$COORDS
 70
     1
  9
$SPLFRAME
 70
     0
  9
$SPLINETYPE
 70
     6
  9
$SPLINESEGS
 70
     8
  9
$ATTDIA
 70
     1
  9
$ATTREQ
 70
     1
  9
$HANDLING
 70
 12289
  9
$HANDSEED
  5
1F8B
  9
$SURFTAB1
 70
     6
  9
$SURFTAB2
 70
     6
  9
$SURFTYPE
 70
     6
  9
$SURFU
 70
     6
  9
$SURFV
 70
     6
  9
$UCSNAME
  2

  9
$UCSORG
 10
0.0
 20
0.0
 30
0.0
  9
$UCSXDIR
 10
1.0
 20
0.0
 30
0.0
  9
$UCSYDIR
 10
0.0
 20
1.0
 30
0.0
  9
$PUCSNAME
  2

  9
$PUCSORG
 10
0.0
 20
0.0
 30
0.0
  9
$PUCSXDIR
 10
1.0
 20
0.0
 30
0.0
  9
$PUCSYDIR
 10
0.0
 20
1.0
 30
0.0
  9
$USERI1
 70
     0
  9
$USERI2
 70
     0
  9
$USERI3
 70
     0
  9
$USERI4
 70
     0
  9
$USERI5
 70
     0
  9
$USERR1
 40
0.0
  9
$USERR2
 40
0.0
  9
$USERR3
 40
0.0
  9
$USERR4
 40
0.0
  9
$USERR5
 40
0.0
  9
$WORLDVIEW
 70
     1
  9
$SHADEDGE
 70
     3
  9
$SHADEDIF
 70
    70
  9
$TILEMODE
 70
     1
  9
$MAXACTVP
 70
    64
  9
$PINSBASE
 10
0.0
 20
0.0
 30
0.0
  9
$PLIMCHECK
 70
     0
  9
$PEXTMIN
 10
1.000000000000000E+20
 20
1.000000000000000E+20
 30
1.000000000000000E+20
  9
$PEXTMAX
 10
-1.000000000000000E+20
 20
-1.000000000000000E+20
 30
-1.000000000000000E+20
  9
$PLIMMIN
 10
0.0
 20
0.0
  9
$PLIMMAX
 10
841.0
 20
594.0
  9
$UNITMODE
 70
     0
  9
$VISRETAIN
 70
     1
  9
$PLINEGEN
 70
     0
  9
$PSLTSCALE
 70
     0
  9
$TREEDEPTH
 70
  3020
  9
$PICKSTYLE
 70
     0
  9
$CMLSTYLE
  2
STANDARD
  9
$CMLJUST
 70
     0
  9
$CMLSCALE
 40
20.0
  9
$PROXYGRAPHICS
 70
     1
  9
$MEASUREMENT
 70
     1
  0
ENDSEC
  0
SECTION
  2
CLASSES
  0
CLASS
  1
ACDBDICTIONARYWDFLT
  2
AcDbDictionaryWithDefault
  3
AutoCAD 2000
 90
        0
280
     0
281
     0
  0
CLASS
  1
ACDBPLACEHOLDER
  2
AcDbPlaceHolder
  3
AutoCAD 2000
 90
        0
280
     0
281
     0
  0
CLASS
  1
LAYOUT
  2
AcDbLayout
  3
AutoCAD 2000
 90
        0
280
     0
281
     0
  0
CLASS
  1
AMGSETTINGSOBJ
  2
AmgSettingsObj
  3
"AcadM|Product Description: AutoCAD Mechanical 2000|Company: Autodesk"
 90
        0
280
     0
281
     0
  0
CLASS
  1
ACME_DOCUMENT
  2
AcMeDbDoc
  3
AcMeServices
 90
        0
280
     0
281
     0
  0
CLASS
  1
ACMESCOPE
  2
AcMeScope
  3
AcMeServices
 90
        0
280
     0
281
     0
  0
CLASS
  1
ACMECOMMANDHISTORY
  2
AcMeCommandHistory
  3
AcMeServices
 90
        0
280
     0
281
     0
  0
CLASS
  1
DICTIONARYVAR
  2
AcDbDictionaryVar
  3
AutoCAD 2000
 90
        0
280
     0
281
     0
  0
CLASS
  1
ACIMSYSVARMAN
  2
AcImSysVarManager
  3
AcMeServices
 90
        0
280
     0
281
     0
  0
CLASS
  1
ACIMREALSYSVAR
  2
AcImRealSysVar
  3
AcMeServices
 90
        0
280
     0
281
     0
  0
CLASS
  1
ACIMINTSYSVAR
  2
AcImIntSysVar
  3
AcMeServices
 90
        0
280
     0
281
     0
  0
CLASS
  1
ACMEDRAWINGMAN
  2
AcMeDrawingMan
  3
AcMeServices
 90
        0
280
     0
281
     0
  0
CLASS
  1
ACMEVIEW
  2
AcMeView
  3
AcMeServices
 90
        0
280
     0
281
     0
  0
CLASS
  1
ACDBENTITYCACHE
  2
AcMeEntityCache
  3
AcMeServices
 90
        0
280
     0
281
     0
  0
CLASS
  1
GSMANAGER
  2
AcMeGSManager
  3
AcMeServices
 90
        0
280
     0
281
     0
  0
CLASS
  1
AmdtInternalReactor
  2
AmdtInternalReactor
  3
AcMeServices
 90
        0
280
     0
281
     0
  0
CLASS
  1
ACMESTATEMGR
  2
AcMeStateMgr
  3
AcMeServices
 90
        0
280
     0
281
     0
  0
CLASS
  1
ACME_DATABASE
  2
AcMeDbDatabase
  3
AcMeServices
 90
        0
280
     0
281
     0
  0
CLASS
  1
ACRFINSADJUSTERMGR
  2
AcRfInsAdjusterMgr
  3
AcMeServices
 90
        0
280
     0
281
     0
  0
CLASS
  1
ACMDATADICTIONARY
  2
AcmDataDictionary
  3
"AcmSymBB|Product Description: AutoCAD Mechanical 2000|Company: Autodesk"
 90
        0
280
     0
281
     0
  0
CLASS
  1
ACMDATAENTRYBLOCK
  2
AcmDataEntryBlock
  3
"AcmSymBB|Product Description: AutoCAD Mechanical 2000|Company: Autodesk"
 90
        0
280
     0
281
     0
  0
CLASS
  1
AMGOBJPROPCFG
  2
AmgObjPropCfg
  3
"AmgLay|Product Description: AutoCAD Mechanical 2000|Company: Autodesk"
 90
        1
280
     0
281
     0
  0
CLASS
  1
ACAMGFILTERDAT
  2
AcAmgFilterDat
  3
"AcadM|Product Description: AutoCAD Mechanical 2000|Company: Autodesk"
 90
        0
280
     0
281
     0
  0
CLASS
  1
LAYER_INDEX
  2
AcDbLayerIndex
  3
AutoCAD 2000
 90
        0
280
     0
281
     0
  0
CLASS
  1
IDBUFFER
  2
AcDbIdBuffer
  3
AutoCAD 2000
 90
        0
280
     0
281
     0
  0
CLASS
  1
ACIMSTRSYSVAR
  2
AcImStrSysVar
  3
AcMeServices
 90
        0
280
     0
281
     0
  0
CLASS
  1
ACMSTANDARDJIS
  2
AcmStandardJIS
  3
"AcmSymBB|Product Description: AutoCAD Mechanical 2000|Company: Autodesk"
 90
        0
280
     0
281
     0
  0
CLASS
  1
ACMSURFSTANDARDJIS
  2
AcmSurfTextStdJIS
  3
"AcmSymBB|Product Description: AutoCAD Mechanical 2000|Company: Autodesk"
 90
        0
280
     0
281
     0
  0
CLASS
  1
ACMFCFSTANDARDJIS
  2
AcmFCFStdJIS
  3
"AcmSymBB|Product Description: AutoCAD Mechanical 2000|Company: Autodesk"
 90
        0
280
     0
281
     0
  0
CLASS
  1
ACMWELDSTANDARDJIS
  2
AcmWeldingStdJIS
  3
"AcmSymBB|Product Description: AutoCAD Mechanical 2000|Company: Autodesk"
 90
        0
280
     0
281
     0
  0
CLASS
  1
ACMIDSTANDARDJIS
  2
AcmIdStdJIS
  3
"AcmSymBB|Product Description: AutoCAD Mechanical 2000|Company: Autodesk"
 90
        0
280
     0
281
     0
  0
CLASS
  1
ACMDATUMSTANDARDJIS
  2
AcmDatumStdJIS
  3
"AcmSymBB|Product Description: AutoCAD Mechanical 2000|Company: Autodesk"
 90
        0
280
     0
281
     0
  0
CLASS
  1
ACMBOMSTANDARDJIS
  2
AcmBOMStdJIS
  3
"AcmSymBB|Product Description: AutoCAD Mechanical 2000|Company: Autodesk"
 90
        0
280
     0
281
     0
  0
CLASS
  1
ACMSTANDARDANSI
  2
AcmStandardANSI
  3
"AcmSymBB|Product Description: AutoCAD Mechanical 2000|Company: Autodesk"
 90
        0
280
     0
281
     0
  0
CLASS
  1
ACMSURFSTANDARDANSI
  2
AcmSurfTextStdANSI
  3
"AcmSymBB|Product Description: AutoCAD Mechanical 2000|Company: Autodesk"
 90
        0
280
     0
281
     0
  0
CLASS
  1
ACMFCFSTANDARDANSI
  2
AcmFCFStdANSI
  3
"AcmSymBB|Product Description: AutoCAD Mechanical 2000|Company: Autodesk"
 90
        0
280
     0
281
     0
  0
CLASS
  1
ACMWELDSTANDARDANSI
  2
AcmWeldingStdANSI
  3
"AcmSymBB|Product Description: AutoCAD Mechanical 2000|Company: Autodesk"
 90
        0
280
     0
281
     0
  0
CLASS
  1
ACMIDSTANDARDANSI
  2
AcmIdStdANSI
  3
"AcmSymBB|Product Description: AutoCAD Mechanical 2000|Company: Autodesk"
 90
        0
280
     0
281
     0
  0
CLASS
  1
ACMDATUMSTANDARDANSI
  2
AcmDatumStdANSI
  3
"AcmSymBB|Product Description: AutoCAD Mechanical 2000|Company: Autodesk"
 90
        0
280
     0
281
     0
  0
CLASS
  1
ACMBOMSTANDARDANSI
  2
AcmBOMStdANSI
  3
"AcmSymBB|Product Description: AutoCAD Mechanical 2000|Company: Autodesk"
 90
        0
280
     0
281
     0
  0
CLASS
  1
ACMSTANDARDBSI
  2
AcmStandardBSI
  3
"AcmSymBB|Product Description: AutoCAD Mechanical 2000|Company: Autodesk"
 90
        0
280
     0
281
     0
  0
CLASS
  1
ACMSURFSTANDARDBSI
  2
AcmSurfTextStdBSI
  3
"AcmSymBB|Product Description: AutoCAD Mechanical 2000|Company: Autodesk"
 90
        0
280
     0
281
     0
  0
CLASS
  1
ACMFCFSTANDARDBSI
  2
AcmFCFStdBSI
  3
"AcmSymBB|Product Description: AutoCAD Mechanical 2000|Company: Autodesk"
 90
        0
280
     0
281
     0
  0
CLASS
  1
ACMWELDSTANDARDBSI
  2
AcmWeldingStdBSI
  3
"AcmSymBB|Product Description: AutoCAD Mechanical 2000|Company: Autodesk"
 90
        0
280
     0
281
     0
  0
CLASS
  1
ACMIDSTANDARDBSI
  2
AcmIdStdBSI
  3
"AcmSymBB|Product Description: AutoCAD Mechanical 2000|Company: Autodesk"
 90
        0
280
     0
281
     0
  0
CLASS
  1
ACMDATUMSTANDARDBSI
  2
AcmDatumStdBSI
  3
"AcmSymBB|Product Description: AutoCAD Mechanical 2000|Company: Autodesk"
 90
        0
280
     0
281
     0
  0
CLASS
  1
ACMBOMSTANDARDBSI
  2
AcmBOMStdBSI
  3
"AcmSymBB|Product Description: AutoCAD Mechanical 2000|Company: Autodesk"
 90
        0
280
     0
281
     0
  0
CLASS
  1
LONG_TRANSACTION
  2
AcDbLongTransaction
  3
AutoCAD 2000
 90
        0
280
     0
281
     0
  0
CLASS
  1
LWPOLYLINE
  2
AcDbPolyline
  3
AutoCAD 2000
 90
        0
280
     0
281
     1
  0
CLASS
  1
HATCH
  2
AcDbHatch
  3
AutoCAD 2000
 90
        0
280
     0
281
     1
  0
CLASS
  1
XRECORD
  2
AcDbXrecord
  3
AutoCAD 2000
 90
        0
280
     0
281
     0
  0
ENDSEC
  0
SECTION
  2
TABLES
  0
TABLE
  2
VPORT
  5
8
330
0
100
AcDbSymbolTable
 70
     3
  0
VPORT
  5
1F60
330
8
100
AcDbSymbolTableRecord
100
AcDbViewportTableRecord
  2
*ACTIVE
 70
     0
 10
0.0
 20
0.0
 11
1.0
 21
1.0
 12
-45.96601451548372
 22
-23.42771040525085
 13
0.0
 23
0.0
 14
2.5
 24
2.5
 15
10.0
 25
10.0
 16
0.0
 26
0.0
 36
1.0
 17
0.0
 27
0.0
 37
0.0
 40
84.03521820688922
 41
1.56570841889117
 42
50.0
 43
0.0
 44
0.0
 50
0.0
 51
0.0
 71
     0
 72
   100
 73
     1
 74
     3
 75
     0
 76
     0
 77
     0
 78
     0
  0
ENDTAB
  0
TABLE
  2
LTYPE
  5
5
330
0
100
AcDbSymbolTable
 70
    10
  0
LTYPE
  5
14
330
5
100
AcDbSymbolTableRecord
100
AcDbLinetypeTableRecord
  2
BYBLOCK
 70
     0
  3

 72
    65
 73
     0
 40
0.0
  0
LTYPE
  5
15
330
5
100
AcDbSymbolTableRecord
100
AcDbLinetypeTableRecord
  2
BYLAYER
 70
     0
  3

 72
    65
 73
     0
 40
0.0
  0
LTYPE
  5
16
330
5
100
AcDbSymbolTableRecord
100
AcDbLinetypeTableRecord
  2
CONTINUOUS
 70
     0
  3
Solid line
 72
    65
 73
     0
 40
0.0
  0
LTYPE
  5
4B
330
5
100
AcDbSymbolTableRecord
100
AcDbLinetypeTableRecord
  2
AM_ISO02W050
 70
     0
  3
__ __ __ __ __ __ __ __ __ __ __ __ __ __ __
 72
    65
 73
     2
 40
7.5
 49
6.0
 74
     0
 49
-1.5
 74
     0
  0
LTYPE
  5
4C
330
5
100
AcDbSymbolTableRecord
100
AcDbLinetypeTableRecord
  2
AM_ISO08W050
 70
     0
  3
____ . ____ . ____ . ____ . ____ . ____ . ____
 72
    65
 73
     4
 40
18.0
 49
12.0
 74
     0
 49
-1.5
 74
     0
 49
3.0
 74
     0
 49
-1.5
 74
     0
  0
LTYPE
  5
4D
330
5
100
AcDbSymbolTableRecord
100
AcDbLinetypeTableRecord
  2
AM_ISO09W050
 70
     0
  3
_____ . . _____ . . _____ . . ____ .. ____
 72
    65
 73
     6
 40
22.5
 49
12.0
 74
     0
 49
-1.5
 74
     0
 49
3.0
 74
     0
 49
-1.5
 74
     0
 49
3.0
 74
     0
 49
-1.5
 74
     0
  0
LTYPE
  5
4E
330
5
100
AcDbSymbolTableRecord
100
AcDbLinetypeTableRecord
  2
AMCONSTR
 70
     0
  3
_______________________
 72
    65
 73
     2
 40
9999.0
 49
9999.0
 74
     0
 49
0.0
 74
     0
  0
LTYPE
  5
4F
330
5
100
AcDbSymbolTableRecord
100
AcDbLinetypeTableRecord
  2
AM_ISO02W050X2
 70
     0
  3
 _ _ _ _ _ _ _ _ _ _ _ _
 72
    65
 73
     2
 40
3.75
 49
3.0
 74
     0
 49
-0.75
 74
     0
  0
LTYPE
  5
50
330
5
100
AcDbSymbolTableRecord
100
AcDbLinetypeTableRecord
  2
AM_ISO08W050X2
 70
     0
  3
__ . __ . __ . __ . __ . __
 72
    65
 73
     4
 40
9.0
 49
6.0
 74
     0
 49
-0.75
 74
     0
 49
1.5
 74
     0
 49
-0.75
 74
     0
  0
LTYPE
  5
53
330
5
100
AcDbSymbolTableRecord
100
AcDbLinetypeTableRecord
  2
AMZIGZAG
 70
     0
  3
/\/-/\/-/\/-/\/-/\/-/\/
 72
    65
 73
     2
 40
11.00009999999999
 49
0.0001
 74
     4
 75
   135
340
52
 46
0.04
 50
0.0
 44
0.0
 45
0.0
 49
-11.0
 74
     0
  0
LTYPE
  5
166
330
5
100
AcDbSymbolTableRecord
100
AcDbLinetypeTableRecord
  2
ACJISTGL
 70
     0
  3
_ _ _ _ _
 72
    65
 73
     2
 40
3.0
 49
2.0
 74
     0
 49
-1.0
 74
     0
  0
LTYPE
  5
26A
330
5
100
AcDbSymbolTableRecord
100
AcDbLinetypeTableRecord
  2
ACJISTGB
 70
     0
  3
__ . . __ . .
 72
    65
 73
     6
 40
9.0
 49
4.0
 74
     0
 49
-1.0
 74
     0
 49
1.0
 74
     0
 49
-1.0
 74
     0
 49
1.0
 74
     0
 49
-1.0
 74
     0
  0
ENDTAB
  0
TABLE
  2
LAYER
  5
2
330
0
100
AcDbSymbolTable
 70
     7
  0
LAYER
  5
10
330
2
100
AcDbSymbolTableRecord
100
AcDbLayerTableRecord
  2
0
 70
     0
 62
     7
  6
CONTINUOUS
  0
LAYER
  5
3F9
330
2
100
AcDbSymbolTableRecord
100
AcDbLayerTableRecord
  2
AM_0
 70
     0
 62
     7
  6
CONTINUOUS
  0
LAYER
  5
BD4
330
2
100
AcDbSymbolTableRecord
100
AcDbLayerTableRecord
  2
AM_11
 70
     0
 62
     3
  6
AM_ISO09W050
  0
LAYER
  5
BD5
330
2
100
AcDbSymbolTableRecord
100
AcDbLayerTableRecord
  2
AM_7
 70
     0
 62
     4
  6
AM_ISO08W050
  0
LAYER
  5
BD6
330
2
100
AcDbSymbolTableRecord
100
AcDbLayerTableRecord
  2
AM_5
 70
     0
 62
     3
  6
CONTINUOUS
  0
LAYER
  5
BD7
330
2
100
AcDbSymbolTableRecord
100
AcDbLayerTableRecord
  2
DEFPOINTS
 70
     0
 62
     7
  6
CONTINUOUS
  0
LAYER
  5
E59
330
2
100
AcDbSymbolTableRecord
100
AcDbLayerTableRecord
  2
AM_6
 70
     0
 62
     2
  6
CONTINUOUS
  0
ENDTAB
  0
TABLE
  2
STYLE
  5
3
330
0
100
AcDbSymbolTable
 70
     5
  0
STYLE
  5
11
330
3
100
AcDbSymbolTableRecord
100
AcDbTextStyleTableRecord
  2
STANDARD
 70
     0
 40
0.0
 41
1.0
 50
0.0
 71
     0
 42
2.5
  3
simplex.shx
  4
EXTFONT.SHX
  0
STYLE
  5
52
330
3
100
AcDbSymbolTableRecord
100
AcDbTextStyleTableRecord
  2

 70
     1
 40
0.0
 41
1.0
 50
0.0
 71
     0
 42
2.5
  3
ltypeshp.shx
  4

  0
STYLE
  5
6B
330
3
100
AcDbSymbolTableRecord
100
AcDbTextStyleTableRecord
  2
ASAMI
 70
     0
 40
0.0
 41
1.0
 50
0.0
 71
     0
 42
2.5
  3
simplex.shx
  4
EXTFONT.SHX
  0
STYLE
  5
262
330
3
100
AcDbSymbolTableRecord
100
AcDbTextStyleTableRecord
  2
ACJISTS
 70
     0
 40
1.0
 41
1.0
 50
0.0
 71
     0
 42
2.5
  3
simplex.shx
  4
bigfont.shx
  0
STYLE
  5
269
330
3
100
AcDbSymbolTableRecord
100
AcDbTextStyleTableRecord
  2
ACJISGDT
 70
     0
 40
0.0
 41
1.0
 50
0.0
 71
     0
 42
2.5
  3
amgdtans.shx
  4

  0
ENDTAB
  0
TABLE
  2
VIEW
  5
6
330
0
100
AcDbSymbolTable
 70
     0
  0
ENDTAB
  0
TABLE
  2
UCS
  5
7
330
0
100
AcDbSymbolTable
 70
     0
  0
ENDTAB
  0
TABLE
  2
APPID
  5
9
330
0
100
AcDbSymbolTable
 70
    12
  0
APPID
  5
12
330
9
100
AcDbSymbolTableRecord
100
AcDbRegAppTableRecord
  2
ACAD
 70
     0
  0
APPID
  5
30
330
9
100
AcDbSymbolTableRecord
100
AcDbRegAppTableRecord
  2
MCAD_NO_VIS
 70
     0
  0
APPID
  5
31
330
9
100
AcDbSymbolTableRecord
100
AcDbRegAppTableRecord
  2
ACAD_TEMP_GRAPHIC
 70
     0
  0
APPID
  5
2C2
330
9
100
AcDbSymbolTableRecord
100
AcDbRegAppTableRecord
  2
GENIUS_GENDTOL_13
 70
     0
  0
APPID
  5
339
330
9
100
AcDbSymbolTableRecord
100
AcDbRegAppTableRecord
  2
GENIUS_GENODEF_13
 70
     0
  0
APPID
  5
33A
330
9
100
AcDbSymbolTableRecord
100
AcDbRegAppTableRecord
  2
GENIUS_GENOBJ-N-RSBK_13
 70
     0
  0
APPID
  5
33B
330
9
100
AcDbSymbolTableRecord
100
AcDbRegAppTableRecord
  2
GENIUS_GENOBJ-N-LIB_13
 70
     0
  0
APPID
  5
33C
330
9
100
AcDbSymbolTableRecord
100
AcDbRegAppTableRecord
  2
GENIUS_GENSCALE_13
 70
     0
  0
APPID
  5
378
330
9
100
AcDbSymbolTableRecord
100
AcDbRegAppTableRecord
  2
GENIUS_GENDIMSH_14
 70
     0
  0
APPID
  5
BD8
330
9
100
AcDbSymbolTableRecord
100
AcDbRegAppTableRecord
  2
GENIUS_GENOBJ-N-CEN_13
 70
     0
  0
APPID
  5
BD9
330
9
100
AcDbSymbolTableRecord
100
AcDbRegAppTableRecord
  2
GENIUS_GENFIL_13
 70
     0
  0
APPID
  5
BDA
330
9
100
AcDbSymbolTableRecord
100
AcDbRegAppTableRecord
  2
GENIUS_GENOBJ-N-CHA_13
 70
     0
  0
ENDTAB
  0
TABLE
  2
DIMSTYLE
  5
A
330
0
100
AcDbSymbolTable
 70
     8
  0
DIMSTYLE
105
58
102
{ACAD_REACTORS
330
105F
330
10EF
330
1180
330
184C
102
}
330
A
100
AcDbSymbolTableRecord
100
AcDbDimStyleTableRecord
  2
AM_JIS
 70
     0
  3

  4
"
  5
OPEN30
  6

  7

 40
1.0
 41
2.5
 42
1.0
 43
12.0
 44
1.0
 45
0.0
 46
0.0
 47
0.1
 48
0.1
140
3.2
141
0.0
142
0.0
143
0.0393701
144
1.0
145
0.0
146
0.71
147
1.5
 71
     0
 72
     0
 73
     0
 74
     0
 75
     0
 76
     0
 77
     3
 78
     8
170
     0
171
     2
172
     1
173
     0
174
     0
175
     0
176
   256
177
   256
178
     2
270
     2
271
     3
272
     3
273
     2
274
     2
340
6B
275
     0
280
     0
281
     0
282
     0
283
     0
284
     0
285
     0
286
     0
287
     3
288
     0
  0
DIMSTYLE
105
5F
330
A
100
AcDbSymbolTableRecord
100
AcDbDimStyleTableRecord
  2
AM_JIS$3
 70
     0
  3

  4
"
  5
OPEN30
  6

  7

 40
1.0
 41
2.5
 42
1.0
 43
10.0
 44
1.0
 45
0.0
 46
0.0
 47
0.1
 48
0.1
140
3.2
141
0.0
142
0.0
143
0.0393701
144
1.0
145
0.0
146
0.71
147
1.5
 71
     0
 72
     0
 73
     0
 74
     1
 75
     0
 76
     0
 77
     3
 78
     8
170
     0
171
     2
172
     0
173
     0
174
     0
175
     0
176
   256
177
   256
178
     2
270
     2
271
     2
272
     3
273
     2
274
     2
340
6B
275
     0
280
     0
281
     0
282
     0
283
     0
284
     0
285
     0
286
     0
287
     0
288
     1
  0
DIMSTYLE
105
60
330
A
100
AcDbSymbolTableRecord
100
AcDbDimStyleTableRecord
  2
AM_JIS$4
 70
     0
  3

  4
"
  5
OPEN30
  6

  7

 40
1.0
 41
2.5
 42
1.0
 43
10.0
 44
1.0
 45
0.0
 46
0.0
 47
0.1
 48
0.1
140
3.2
141
0.0
142
0.0
143
0.0393701
144
1.0
145
0.0
146
0.71
147
1.5
 71
     0
 72
     0
 73
     0
 74
     1
 75
     0
 76
     0
 77
     3
 78
     8
170
     0
171
     2
172
     0
173
     0
174
     0
175
     0
176
   256
177
   256
178
     2
270
     2
271
     2
272
     3
273
     2
274
     2
340
6B
275
     0
280
     0
281
     0
282
     0
283
     0
284
     0
285
     0
286
     0
287
     0
288
     1
  0
DIMSTYLE
105
61
330
A
100
AcDbSymbolTableRecord
100
AcDbDimStyleTableRecord
  2
AM_JIS$6
 70
     0
  3

  4
"
  5
OPEN30
  6

  7

 40
1.0
 41
2.5
 42
1.0
 43
10.0
 44
1.0
 45
0.0
 46
0.0
 47
0.1
 48
0.1
140
3.2
141
0.0
142
0.0
143
0.0393701
144
1.0
145
0.0
146
0.71
147
1.5
 71
     0
 72
     0
 73
     0
 74
     0
 75
     0
 76
     0
 77
     0
 78
     8
170
     0
171
     2
172
     1
173
     0
174
     0
175
     0
176
   256
177
   256
178
     2
270
     2
271
     2
272
     2
273
     2
274
     2
340
6B
275
     0
280
     0
281
     0
282
     0
283
     0
284
     0
285
     0
286
     0
287
     3
288
     0
  0
DIMSTYLE
105
62
330
A
100
AcDbSymbolTableRecord
100
AcDbDimStyleTableRecord
  2
AM_JIS$7
 70
     0
  3

  4
"
  5
OPEN30
  6

  7

 40
1.0
 41
2.5
 42
1.0
 43
10.0
 44
1.0
 45
0.0
 46
0.0
 47
0.1
 48
0.1
140
3.2
141
0.0
142
0.0
143
0.0393701
144
1.0
145
0.0
146
0.71
147
1.5
 71
     0
 72
     0
 73
     0
 74
     0
 75
     0
 76
     0
 77
     3
 78
     8
170
     0
171
     2
172
     1
173
     0
174
     0
175
     0
176
   256
177
   256
178
     2
270
     2
271
     2
272
     3
273
     2
274
     2
340
6B
275
     0
280
     0
281
     0
282
     0
283
     0
284
     0
285
     0
286
     0
287
     3
288
     0
  0
DIMSTYLE
105
63
330
A
100
AcDbSymbolTableRecord
100
AcDbDimStyleTableRecord
  2
AM_JIS$SF
 70
     0
  3

  4
"
  5
OPEN30
  6

  7

 40
1.0
 41
2.5
 42
1.0
 43
10.0
 44
1.0
 45
0.0
 46
0.0
 47
0.1
 48
0.1
140
3.2
141
0.0
142
0.0
143
0.0393701
144
1.0
145
0.0
146
0.71
147
1.5
 71
     0
 72
     0
 73
     0
 74
     0
 75
     1
 76
     1
 77
     3
 78
     8
170
     0
171
     2
172
     1
173
     0
174
     0
175
     0
176
   256
177
   256
178
     2
270
     2
271
     2
272
     2
273
     2
274
     2
340
6B
275
     0
280
     0
281
     0
282
     0
283
     0
284
     0
285
     0
286
     0
287
     3
288
     0
  0
DIMSTYLE
105
68
330
A
100
AcDbSymbolTableRecord
100
AcDbDimStyleTableRecord
  2
AM_JIS$SH
 70
     0
  3

  4
"
  5

  6
GENAXEH
  7
OPEN30
 40
1.0
 41
2.5
 42
1.0
 43
10.0
 44
1.0
 45
0.0
 46
0.0
 47
0.1
 48
0.1
140
3.2
141
0.0
142
0.0
143
0.0393701
144
2.0
145
0.0
146
0.71
147
1.5
 71
     0
 72
     0
 73
     0
 74
     0
 75
     1
 76
     1
 77
     3
 78
     8
170
     0
171
     2
172
     1
173
     1
174
     0
175
     0
176
   256
177
   256
178
     2
270
     2
271
     2
272
     2
273
     2
274
     2
340
6B
275
     0
280
     0
281
     0
282
     0
283
     0
284
     0
285
     0
286
     0
287
     3
288
     0
  0
DIMSTYLE
105
B34
330
A
100
AcDbSymbolTableRecord
100
AcDbDimStyleTableRecord
  2
AM_JIS$2
 70
     0
  3

  4
"
  5
OPEN30
  6

  7

 40
1.0
 41
2.5
 42
1.0
 43
12.0
 44
1.0
 45
0.0
 46
0.0
 47
0.1
 48
0.1
140
3.2
141
0.0
142
0.0
143
0.0393701
144
1.0
145
0.0
146
0.71
147
1.5
 71
     0
 72
     0
 73
     0
 74
     0
 75
     0
 76
     0
 77
     3
 78
     8
170
     0
171
     2
172
     1
173
     0
174
     0
175
     0
176
   256
177
   256
178
     2
270
     2
271
     3
272
     3
273
     2
274
     2
340
6B
275
     0
280
     0
281
     0
282
     0
283
     0
284
     0
285
     0
286
     0
287
     3
288
     0
  0
ENDTAB
  0
TABLE
  2
BLOCK_RECORD
  5
1
330
0
100
AcDbSymbolTable
 70
     9
  0
BLOCK_RECORD
  5
1F
102
{ACAD_XDICTIONARY
360
74
102
}
330
1
100
AcDbSymbolTableRecord
100
AcDbBlockTableRecord
  2
*MODEL_SPACE
  0
BLOCK_RECORD
  5
101
102
{ACAD_XDICTIONARY
360
1F89
102
}
330
1
100
AcDbSymbolTableRecord
100
AcDbBlockTableRecord
  2
*PAPER_SPACE
  0
BLOCK_RECORD
  5
59
330
1
100
AcDbSymbolTableRecord
100
AcDbBlockTableRecord
  2
_OPEN30
  0
BLOCK_RECORD
  5
64
330
1
100
AcDbSymbolTableRecord
100
AcDbBlockTableRecord
  2
GENAXEH
  0
BLOCK_RECORD
  5
1060
330
1
100
AcDbSymbolTableRecord
100
AcDbBlockTableRecord
  2
*D5
  0
BLOCK_RECORD
  5
10F0
330
1
100
AcDbSymbolTableRecord
100
AcDbBlockTableRecord
  2
*D6
  0
BLOCK_RECORD
  5
1181
330
1
100
AcDbSymbolTableRecord
100
AcDbBlockTableRecord
  2
*D7
  0
BLOCK_RECORD
  5
184D
330
1
100
AcDbSymbolTableRecord
100
AcDbBlockTableRecord
  2
*D8
  0
ENDTAB
  0
ENDSEC
  0
SECTION
  2
BLOCKS
  0
BLOCK
  5
20
330
1F
100
AcDbEntity
  8
0
100
AcDbBlockBegin
  2
*MODEL_SPACE
 70
     0
 10
0.0
 20
0.0
 30
0.0
  3
*MODEL_SPACE
  1

  0
ENDBLK
  5
21
330
1F
100
AcDbEntity
  8
0
100
AcDbBlockEnd
  0
BLOCK
  5
103
330
101
100
AcDbEntity
 67
     1
  8
0
100
AcDbBlockBegin
  2
*PAPER_SPACE
 70
     0
 10
0.0
 20
0.0
 30
0.0
  3
*PAPER_SPACE
  1

  0
ENDBLK
  5
104
330
101
100
AcDbEntity
 67
     1
  8
0
100
AcDbBlockEnd
  0
BLOCK
  5
5D
330
59
100
AcDbEntity
  8
0
100
AcDbBlockBegin
  2
_OPEN30
 70
     0
 10
0.0
 20
0.0
 30
0.0
  3
_OPEN30
  1

  0
LINE
  5
5A
330
59
100
AcDbEntity
  8
0
 62
     0
100
AcDbLine
 10
-1.0
 20
0.26794919
 30
0.0
 11
0.0
 21
0.0
 31
0.0
  0
LINE
  5
5B
330
59
100
AcDbEntity
  8
0
 62
     0
100
AcDbLine
 10
0.0
 20
0.0
 30
0.0
 11
-1.0
 21
-0.26794919
 31
0.0
  0
LINE
  5
5C
330
59
100
AcDbEntity
  8
0
 62
     0
100
AcDbLine
 10
0.0
 20
0.0
 30
0.0
 11
-1.0
 21
0.0
 31
0.0
  0
ENDBLK
  5
5E
330
59
100
AcDbEntity
  8
0
100
AcDbBlockEnd
  0
BLOCK
  5
66
330
64
100
AcDbEntity
  8
0
100
AcDbBlockBegin
  2
GENAXEH
 70
     0
 10
0.0
 20
0.0
 30
0.0
  3
GENAXEH
  1

  0
LINE
  5
65
330
64
100
AcDbEntity
  8
0
100
AcDbLine
 10
-1.0
 20
0.0
 30
0.0
 11
1.0
 21
0.0
 31
0.0
  0
ENDBLK
  5
67
330
64
100
AcDbEntity
  8
0
100
AcDbBlockEnd
  0
BLOCK
  5
106A
330
1060
100
AcDbEntity
  8
0
100
AcDbBlockBegin
  2
*D5
 70
     1
 10
0.0
 20
0.0
 30
0.0
  3
*D5
  1

  0
LINE
  5
1F0D
330
1060
100
AcDbEntity
  8
AM_5
100
AcDbLine
 10
-32.00000000142755
 20
-8.999999999999989
 30
0.0
 11
-32.00000000142755
 21
-23.00000099999827
 31
0.0
  0
LINE
  5
1F0E
330
1060
100
AcDbEntity
  8
AM_5
100
AcDbLine
 10
-0.0000000013540494
 20
-8.5
 30
0.0
 11
-0.0000000013540503
 21
-23.00000099999827
 31
0.0
  0
LINE
  5
1F0F
330
1060
100
AcDbEntity
  8
AM_5
100
AcDbLine
 10
-29.50000000142755
 20
-22.00000099999827
 30
0.0
 11
-2.50000000135405
 21
-22.00000099999827
 31
0.0
  0
INSERT
  5
1F10
330
1060
100
AcDbEntity
  8
AM_5
100
AcDbBlockReference
  2
_OPEN30
 10
-32.00000000142755
 20
-22.00000099999827
 30
0.0
 41
2.5
 42
2.5
 43
2.5
 50
180.0
  0
INSERT
  5
1F11
330
1060
100
AcDbEntity
  8
AM_5
100
AcDbBlockReference
  2
_OPEN30
 10
-0.0000000013540502
 20
-22.00000099999827
 30
0.0
 41
2.5
 42
2.5
 43
2.5
  0
MTEXT
  5
1F12
330
1060
100
AcDbEntity
  8
AM_5
 62
     2
100
AcDbMText
 10
-16.0000000013908
 20
-18.90000099999827
 30
0.0
 40
3.2
 41
0.0
 71
     5
 72
     1
  1
32
  7
ASAMI
1001
ACAD
1000
MTEXTBEGIN
1070
    73
1070
     1
1070
    44
1040
1.0
1070
    74
1070
     0
1000
MTEXTEND
  0
POINT
  5
1F13
330
1060
100
AcDbEntity
  8
DEFPOINTS
 62
     0
100
AcDbPoint
 10
-32.00000000142755
 20
-7.999999999999989
 30
0.0
  0
POINT
  5
1F14
330
1060
100
AcDbEntity
  8
DEFPOINTS
 62
     0
100
AcDbPoint
 10
-0.0000000013540493
 20
-7.5
 30
0.0
  0
POINT
  5
1F15
330
1060
100
AcDbEntity
  8
DEFPOINTS
 62
     0
100
AcDbPoint
 10
-0.0000000013540502
 20
-22.00000099999827
 30
0.0
  0
ENDBLK
  5
106B
330
1060
100
AcDbEntity
  8
0
100
AcDbBlockEnd
  0
BLOCK
  5
10FA
330
10F0
100
AcDbEntity
  8
0
100
AcDbBlockBegin
  2
*D6
 70
     1
 10
0.0
 20
0.0
 30
0.0
  3
*D6
  1

  0
LINE
  5
1BED
330
10F0
100
AcDbEntity
  8
AM_5
100
AcDbLine
 10
-90.00000000000001
 20
-7.999999999998411
 30
0.0
 11
-90.00000000000001
 21
-35.00000099999827
 31
0.0
  0
LINE
  5
1BEE
330
10F0
100
AcDbEntity
  8
AM_5
100
AcDbLine
 10
-0.0000000013532713
 20
-8.5
 30
0.0
 11
-0.000000001353273
 21
-35.00000099999827
 31
0.0
  0
LINE
  5
1BEF
330
10F0
100
AcDbEntity
  8
AM_5
100
AcDbLine
 10
-87.50000000000001
 20
-34.00000099999827
 30
0.0
 11
-2.500000001353273
 21
-34.00000099999827
 31
0.0
  0
INSERT
  5
1BF0
330
10F0
100
AcDbEntity
  8
AM_5
100
AcDbBlockReference
  2
_OPEN30
 10
-90.00000000000001
 20
-34.00000099999827
 30
0.0
 41
2.5
 42
2.5
 43
2.5
 50
180.0
  0
INSERT
  5
1BF1
330
10F0
100
AcDbEntity
  8
AM_5
100
AcDbBlockReference
  2
_OPEN30
 10
-0.0000000013532729
 20
-34.00000099999827
 30
0.0
 41
2.5
 42
2.5
 43
2.5
  0
MTEXT
  5
1BF2
330
10F0
100
AcDbEntity
  8
AM_5
 62
     2
100
AcDbMText
 10
-45.00000000067664
 20
-30.90000099999827
 30
0.0
 40
3.2
 41
0.0
 71
     5
 72
     1
  1
90
  7
ASAMI
1001
ACAD
1000
MTEXTBEGIN
1070
    73
1070
     1
1070
    44
1040
1.0
1070
    74
1070
     0
1000
MTEXTEND
  0
POINT
  5
1BF3
330
10F0
100
AcDbEntity
  8
DEFPOINTS
 62
     0
100
AcDbPoint
 10
-90.00000000000001
 20
-6.999999999998411
 30
0.0
  0
POINT
  5
1BF4
330
10F0
100
AcDbEntity
  8
DEFPOINTS
 62
     0
100
AcDbPoint
 10
-0.0000000013532713
 20
-7.5
 30
0.0
  0
POINT
  5
1BF5
330
10F0
100
AcDbEntity
  8
DEFPOINTS
 62
     0
100
AcDbPoint
 10
-0.0000000013532729
 20
-34.00000099999827
 30
0.0
  0
ENDBLK
  5
10FB
330
10F0
100
AcDbEntity
  8
0
100
AcDbBlockEnd
  0
BLOCK
  5
118B
330
1181
100
AcDbEntity
  8
0
100
AcDbBlockBegin
  2
*D7
 70
     1
 10
0.0
 20
0.0
 30
0.0
  3
*D7
  1

  0
LINE
  5
1F1F
330
1181
100
AcDbEntity
  8
AM_5
100
AcDbLine
 10
0.9999999986124468
 20
8.0
 30
0.0
 11
19.55776903085494
 21
7.999999999999994
 31
0.0
  0
LINE
  5
1F20
330
1181
100
AcDbEntity
  8
AM_5
100
AcDbLine
 10
0.9999999986124468
 20
-8.0
 30
0.0
 11
19.55776903085493
 21
-8.000000000000005
 31
0.0
  0
LINE
  5
1F21
330
1181
100
AcDbEntity
  8
AM_5
100
AcDbLine
 10
18.55776903085494
 20
5.499999999999994
 30
0.0
 11
18.55776903085494
 21
-5.500000000000006
 31
0.0
  0
INSERT
  5
1F22
330
1181
100
AcDbEntity
  8
AM_5
100
AcDbBlockReference
  2
_OPEN30
 10
18.55776903085494
 20
7.999999999999994
 30
0.0
 41
2.5
 42
2.5
 43
2.5
 50
90.0
  0
INSERT
  5
1F23
330
1181
100
AcDbEntity
  8
AM_5
100
AcDbBlockReference
  2
_OPEN30
 10
18.55776903085494
 20
-8.000000000000005
 30
0.0
 41
2.5
 42
2.5
 43
2.5
 50
270.0
  0
MTEXT
  5
1F24
330
1181
100
AcDbEntity
  8
AM_5
 62
     2
100
AcDbMText
 10
15.45776903085494
 20
-0.0000000000000021
 30
0.0
 40
3.2
 41
0.0
 71
     5
 72
     1
  1
%%c16
  7
ASAMI
 11
0.0000000000000001
 21
1.0
 31
0.0
1001
ACAD
1000
MTEXTBEGIN
1070
    73
1070
     1
1070
    44
1040
1.0
1070
    74
1070
     0
1000
MTEXTEND
  0
POINT
  5
1F25
330
1181
100
AcDbEntity
  8
DEFPOINTS
 62
     0
100
AcDbPoint
 10
-0.0000000013875532
 20
8.0
 30
0.0
  0
POINT
  5
1F26
330
1181
100
AcDbEntity
  8
DEFPOINTS
 62
     0
100
AcDbPoint
 10
-0.0000000013875532
 20
-8.0
 30
0.0
  0
POINT
  5
1F27
330
1181
100
AcDbEntity
  8
DEFPOINTS
 62
     0
100
AcDbPoint
 10
18.55776903085494
 20
-8.000000000000005
 30
0.0
  0
ENDBLK
  5
118C
330
1181
100
AcDbEntity
  8
0
100
AcDbBlockEnd
  0
BLOCK
  5
1857
330
184D
100
AcDbEntity
  8
0
100
AcDbBlockBegin
  2
*D8
 70
     1
 10
0.0
 20
0.0
 30
0.0
  3
*D8
  1

  0
LINE
  5
18BC
330
184D
100
AcDbEntity
  8
AM_5
100
AcDbLine
 10
-90.0
 20
7.999999999999554
 30
0.0
 11
-107.7882312597197
 21
7.999999999999559
 31
0.0
  0
LINE
  5
18BD
330
184D
100
AcDbEntity
  8
AM_5
100
AcDbLine
 10
-90.00000000000001
 20
-7.999999999998407
 30
0.0
 11
-107.7882312597197
 21
-7.999999999998403
 31
0.0
  0
LINE
  5
18BE
330
184D
100
AcDbEntity
  8
AM_5
100
AcDbLine
 10
-106.7882312597197
 20
5.499999999999559
 30
0.0
 11
-106.7882312597197
 21
-5.499999999998403
 31
0.0
  0
INSERT
  5
18BF
330
184D
100
AcDbEntity
  8
AM_5
100
AcDbBlockReference
  2
_OPEN30
 10
-106.7882312597197
 20
7.999999999999559
 30
0.0
 41
2.5
 42
2.5
 43
2.5
 50
90.0
  0
INSERT
  5
18C0
330
184D
100
AcDbEntity
  8
AM_5
100
AcDbBlockReference
  2
_OPEN30
 10
-106.7882312597197
 20
-7.999999999998403
 30
0.0
 41
2.5
 42
2.5
 43
2.5
 50
270.0
  0
MTEXT
  5
18C1
330
184D
100
AcDbEntity
  8
AM_5
 62
     2
100
AcDbMText
 10
-109.8882312597197
 20
0.0000000000005611
 30
0.0
 40
3.2
 41
0.0
 71
     5
 72
     1
  1
%%c16
  7
ASAMI
 11
0.0000000000000001
 21
1.0
 31
0.0
1001
ACAD
1000
MTEXTBEGIN
1070
    73
1070
     1
1070
    44
1040
1.0
1070
    74
1070
     0
1000
MTEXTEND
  0
POINT
  5
18C2
330
184D
100
AcDbEntity
  8
DEFPOINTS
 62
     0
100
AcDbPoint
 10
-89.0
 20
7.999999999999554
 30
0.0
  0
POINT
  5
18C3
330
184D
100
AcDbEntity
  8
DEFPOINTS
 62
     0
100
AcDbPoint
 10
-89.00000000000002
 20
-7.999999999998408
 30
0.0
  0
POINT
  5
18C4
330
184D
100
AcDbEntity
  8
DEFPOINTS
 62
     0
100
AcDbPoint
 10
-106.7882312597197
 20
-7.999999999998403
 30
0.0
  0
ENDBLK
  5
1858
330
184D
100
AcDbEntity
  8
0
100
AcDbBlockEnd
  0
ENDSEC
  0
SECTION
  2
ENTITIES
  0
TEXT
  5
E5A
330
1F
100
AcDbEntity
  8
AM_6
100
AcDbText
 10
-61.19047619115282
 20
-56.50000099999828
 30
0.0
 40
5.0
  1
ASM2160
 72
     4
 11
-45.00000000067664
 21
-54.00000099999828
 31
0.0
100
AcDbText
  0
LINE
  5
F47
330
1F
100
AcDbEntity
  8
AM_7
  6
AM_ISO08W050X2
100
AcDbLine
 10
4.557768030854958
 20
0.0
 30
0.0
 11
-92.78823025971979
 21
-0.0000000000000137
 31
0.0
1001
GENIUS_GENODEF_13
1002
{
1000
HIER
1070
     0
1002
}
1002
{
1000
MANEDIT
1070
     0
1002
}
1002
{
1000
NOSEL
1070
     0
1002
}
1002
{
1000
BEHIND
1070
     0
1002
}
1002
{
1000
REACTOR
1002
}
1001
GENIUS_GENOBJ-N-CEN_13
1002
{
1000
OWNER
1000
GEN
1002
}
  0
DIMENSION
  5
105F
330
1F
100
AcDbEntity
  8
AM_5
100
AcDbDimension
  2
*D5
 10
-0.0000000013540502
 20
-22.00000099999827
 30
0.0
 11
-16.0000000013908
 21
-18.90000099999827
 31
0.0
 70
    32
  1
<>
  3
AM_JIS
100
AcDbAlignedDimension
 13
-32.00000000142755
 23
-7.999999999999989
 33
0.0
 14
-0.0000000013540493
 24
-7.5
 34
0.0
 50
0.0000000000001132
100
AcDbRotatedDimension
1001
GENIUS_GENDTOL_13
1000

1000
h7
1000

1040
0.0
  0
DIMENSION
  5
10EF
330
1F
100
AcDbEntity
  8
AM_5
100
AcDbDimension
  2
*D6
 10
-0.0000000013532729
 20
-34.00000099999827
 30
0.0
 11
-45.00000000067664
 21
-30.90000099999827
 31
0.0
 70
    32
  1
<>
  3
AM_JIS
100
AcDbAlignedDimension
 13
-90.00000000000001
 23
-6.999999999998411
 33
0.0
 14
-0.0000000013532713
 24
-7.5
 34
0.0
 50
0.0000000000001132
100
AcDbRotatedDimension
1001
GENIUS_GENDTOL_13
1000

1000
h7
1000

1040
0.0
  0
DIMENSION
  5
1180
330
1F
100
AcDbEntity
  8
AM_5
100
AcDbDimension
  2
*D7
 10
18.55776903085494
 20
-8.000000000000005
 30
0.0
 11
15.45776903085494
 21
-0.0000000000000021
 31
0.0
 70
    32
  1
%%c<>
  3
AM_JIS
100
AcDbAlignedDimension
 13
-0.0000000013875532
 23
8.0
 33
0.0
 14
-0.0000000013875532
 24
-8.0
 34
0.0
 50
90.0
100
AcDbRotatedDimension
1001
GENIUS_GENDTOL_13
1000

1000
h7
1000

1040
0.0
  0
LINE
  5
1847
330
1F
100
AcDbEntity
  8
AM_0
100
AcDbLine
 10
-32.00000000142755
 20
-7.999999999999992
 30
0.0
 11
-89.0
 21
-7.999999999998423
 31
0.0
  0
LINE
  5
184A
330
1F
100
AcDbEntity
  8
AM_0
100
AcDbLine
 10
-90.0
 20
6.999999999999552
 30
0.0
 11
-90.0
 21
-6.999999999998425
 31
0.0
  0
LINE
  5
184B
330
1F
100
AcDbEntity
  8
AM_0
100
AcDbLine
 10
-89.0
 20
7.999999999999554
 30
0.0
 11
-89.00000000000002
 21
-7.999999999998424
 31
0.0
  0
DIMENSION
  5
184C
330
1F
100
AcDbEntity
  8
AM_5
100
AcDbDimension
  2
*D8
 10
-106.7882312597197
 20
-7.999999999998403
 30
0.0
 11
-109.8882312597197
 21
0.0000000000005611
 31
0.0
 70
    32
  1
%%c<>
  3
AM_JIS
100
AcDbAlignedDimension
 13
-89.0
 23
7.999999999999554
 33
0.0
 14
-89.00000000000002
 24
-7.999999999998408
 34
0.0
 50
270.0
100
AcDbRotatedDimension
1001
GENIUS_GENDTOL_13
1000

1000
h7
1000

1040
0.0
  0
LINE
  5
1859
330
1F
100
AcDbEntity
  8
AM_0
100
AcDbLine
 10
-40.49572629558936
 20
7.999999999999657
 30
0.0
 11
-89.0
 21
7.999999999999554
 31
0.0
  0
LINE
  5
186E
330
1F
100
AcDbEntity
  8
AM_0
100
AcDbLine
 10
-89.0
 20
7.999999999999554
 30
0.0
 11
-90.0
 21
6.999999999999552
 31
0.0
1001
GENIUS_GENFIL_13
1070
     0
1040
1.0
1040
1.0
1040
20.0
1040
0.0
1002
{
1002
}
1001
GENIUS_GENODEF_13
1002
{
1000
HIER
1070
     0
1002
}
1002
{
1000
MANEDIT
1070
     0
1002
}
1002
{
1000
NOSEL
1070
     0
1002
}
1002
{
1000
BEHIND
1070
     0
1002
}
1002
{
1000
REACTOR
1002
}
1001
GENIUS_GENOBJ-N-CHA_13
1002
{
1000
OWNER
1000
GEN
1002
}
  0
LINE
  5
1871
330
1F
100
AcDbEntity
  8
AM_0
100
AcDbLine
 10
-90.0
 20
-6.999999999998425
 30
0.0
 11
-89.0
 21
-7.999999999998423
 31
0.0
1001
GENIUS_GENFIL_13
1070
     0
1040
1.0
1040
1.0
1040
20.0
1040
0.0
1002
{
1002
}
1001
GENIUS_GENODEF_13
1002
{
1000
HIER
1070
     0
1002
}
1002
{
1000
MANEDIT
1070
     0
1002
}
1002
{
1000
NOSEL
1070
     0
1002
}
1002
{
1000
BEHIND
1070
     0
1002
}
1002
{
1000
REACTOR
1002
}
1001
GENIUS_GENOBJ-N-CHA_13
1002
{
1000
OWNER
1000
GEN
1002
}
  0
LINE
  5
1EDB
330
1F
100
AcDbEntity
  8
AM_0
100
AcDbLine
 10
-14.95677602103742
 20
6.19171687964954
 30
0.0
 11
-29.94002923279917
 21
6.747848000069289
 31
0.0
  0
LINE
  5
1EDC
330
1F
100
AcDbEntity
  8
AM_11
100
AcDbLine
 10
-0.0000000013889165
 20
8.0
 30
0.0
 11
-32.00000000142756
 21
8.0
 31
0.0
  0
LINE
  5
1EDD
330
1F
100
AcDbEntity
  8
AM_0
100
AcDbLine
 10
-0.0000000013882344
 20
-0.0000000011201351
 30
0.0
 11
-1.387483511337604
 21
-1.11952853045441
 31
0.0
  0
LINE
  5
1EDE
330
1F
100
AcDbEntity
  8
AM_0
100
AcDbLine
 10
-0.2023413465888906
 20
-0.1632645783145605
 30
0.0
 11
-0.2023413465888906
 21
-7.581891151050587
 31
0.0
  0
LINE
  5
1EDF
330
1F
100
AcDbEntity
  8
AM_0
100
AcDbLine
 10
-32.00000000142755
 20
-4.115111340781275
 30
0.0
 11
-32.00000000142755
 21
-6.479766317316801
 31
0.0
  0
LINE
  5
1EE0
330
1F
100
AcDbEntity
  8
AM_0
100
AcDbLine
 10
-30.55470467856302
 20
-6.299594389811584
 30
0.0
 11
-30.55470467856302
 21
-7.746871775186342
 31
0.0
  0
LINE
  5
1EE1
330
1F
100
AcDbEntity
  8
AM_11
100
AcDbLine
 10
-32.00000000142755
 20
-7.999999999999992
 30
0.0
 11
-0.0000000013882344
 21
-8.0
 31
0.0
  0
LINE
  5
1EE2
330
1F
100
AcDbEntity
  8
AM_0
100
AcDbLine
 10
-14.95677602103742
 20
-6.191716881889806
 30
0.0
 11
-18.3437196766229
 21
-7.300989616230786
 31
0.0
  0
LINE
  5
1EE3
330
1F
100
AcDbEntity
  8
AM_0
100
AcDbLine
 10
-0.0000000013882344
 20
-8.000000002240263
 30
0.0
 11
-0.0000000013882344
 21
8.0
 31
0.0
  0
LINE
  5
1EE4
330
1F
100
AcDbEntity
  8
AM_0
100
AcDbLine
 10
-0.0000000013882344
 20
-0.0000000011201351
 30
0.0
 11
-3.398748226801401
 21
2.582908308448899
 31
0.0
  0
LINE
  5
1EE5
330
1F
100
AcDbEntity
  8
AM_11
100
AcDbLine
 10
-0.0000000013875532
 20
8.0
 30
0.0
 11
-0.0000000013875532
 21
-8.0
 31
0.0
  0
ELLIPSE
  5
1EE7
330
1F
100
AcDbEntity
  8
AM_0
100
AcDbEllipse
 10
-3.307465814170944
 20
4.326315764435278
 30
0.0
 11
0.0000000000000218
 21
1.746220144013751
 31
0.0
210
0.0
220
0.0
230
1.0
 40
0.9213757681970459
 41
1.976627693805611
 42
3.084827136967445
  0
ELLIPSE
  5
1EE8
330
1F
100
AcDbEntity
  8
AM_0
100
AcDbEllipse
 10
10.05978584475096
 20
-2.005375395629371
 30
0.0
 11
-0.0015207127207386
 21
12.4573898962018
 31
0.0
210
0.0
220
0.0
230
1.0
 40
0.9212447884115418
 41
1.499513651237047
 42
2.072718746477893
  0
SPLINE
  5
1EEA
330
1F
100
AcDbEntity
  8
AM_0
100
AcDbSpline
210
0.0
220
0.0
230
1.0
 70
     8
 71
     3
 72
     8
 73
     4
 74
     0
 42
0.0000000001
 43
0.0000000001
 40
0.0
 40
0.0
 40
0.0
 40
0.0
 40
17.39193258091397
 40
17.39193258091397
 40
17.39193258091397
 40
17.39193258091397
 10
-0.0000000013875727
 20
-8.000000002239897
 30
0.0
 10
-7.122002331241287
 20
-8.000000002239897
 30
0.0
 10
-13.5881458628948
 20
-4.000000001680007
 30
0.0
 10
-20.05428939454835
 20
-0.0000000011201138
 30
0.0
  0
SPLINE
  5
1EEB
330
1F
100
AcDbEntity
  8
AM_0
100
AcDbSpline
210
0.0
220
0.0
230
1.0
 70
     8
 71
     3
 72
     8
 73
     4
 74
     0
 42
0.0000000001
 43
0.0000000001
 40
0.3443266157452782
 40
0.3443266157452782
 40
0.3443266157452782
 40
0.3443266157452782
 40
7.320123087841765
 40
7.320123087841765
 40
7.320123087841765
 40
7.320123087841765
 10
-34.21425161112658
 20
7.300989614006923
 30
0.0
 10
-26.93302342617567
 20
6.980366976781098
 30
0.0
 10
-20.73823455177655
 20
3.490183487830293
 30
0.0
 10
-14.54344567737673
 20
-0.0000000011201422
 30
0.0
  0
SPLINE
  5
1EEC
330
1F
100
AcDbEntity
  8
AM_0
100
AcDbSpline
210
0.0
220
0.0
230
1.0
 70
     8
 71
     3
 72
     8
 73
     4
 74
     0
 42
0.0000000001
 43
0.0000000001
 40
0.5908530260974862
 40
0.5908530260974862
 40
0.5908530260974862
 40
0.5908530260974862
 40
7.357693791159725
 40
7.357693791159725
 40
7.357693791159725
 40
7.357693791159725
 10
-36.75279811224939
 20
7.614124335956219
 30
0.0
 10
-29.43212387249724
 20
7.069229984774757
 30
0.0
 10
-23.47022784136517
 20
3.534614991827318
 30
0.0
 10
-17.5083318102331
 20
-0.0000000011201422
 30
0.0
  0
SPLINE
  5
1EED
330
1F
100
AcDbEntity
  8
AM_0
100
AcDbSpline
210
0.0
220
0.0
230
1.0
 70
     8
 71
     3
 72
     8
 73
     4
 74
     0
 42
0.0000000001
 43
0.0000000001
 40
0.0
 40
0.0
 40
0.0
 40
0.0
 40
13.88295150092614
 40
13.88295150092614
 40
13.88295150092614
 40
13.88295150092614
 10
-16.74880635365863
 20
-6.259636052685888
 30
0.0
 10
-22.43387973321783
 20
-6.259636052685888
 30
0.0
 10
-27.85435373874658
 20
-3.971978593180125
 30
0.0
 10
-33.27482774427533
 20
-1.684321133674373
 30
0.0
  0
SPLINE
  5
1EEF
330
1F
100
AcDbEntity
  8
AM_0
100
AcDbSpline
210
0.0
220
0.0
230
1.0
 70
     8
 71
     3
 72
     8
 73
     4
 74
     0
 42
0.0000000001
 43
0.0000000001
 40
0.0
 40
0.0
 40
0.0
 40
0.0
 40
2.86670689287766
 40
2.86670689287766
 40
2.86670689287766
 40
2.86670689287766
 10
-24.84626017372081
 20
-8.000000002240252
 30
0.0
 10
-27.60841888325397
 20
-8.000000002240252
 30
0.0
 10
-30.27192616304335
 20
-7.39833738810665
 30
0.0
 10
-32.00000000142755
 20
-7.999999999999989
 30
0.0
  0
SPLINE
  5
1EF0
330
1F
100
AcDbEntity
  8
AM_0
100
AcDbSpline
210
0.0
220
0.0
230
1.0
 70
     8
 71
     3
 72
     8
 73
     4
 74
     0
 42
0.0000000001
 43
0.0000000001
 40
0.0
 40
0.0
 40
0.0
 40
0.0
 40
3.101397527050138
 40
3.101397527050138
 40
3.101397527050138
 40
3.101397527050138
 10
-22.30030258940555
 20
-7.686486410560231
 30
0.0
 10
-25.28859281619787
 20
-7.686486410560231
 30
0.0
 10
-28.16905157120309
 20
-7.003630109443459
 30
0.0
 10
-30.55470467856302
 20
-6.299594389811584
 30
0.0
  0
SPLINE
  5
1EF1
330
1F
100
AcDbEntity
  8
AM_0
100
AcDbSpline
210
0.0
220
0.0
230
1.0
 70
     8
 71
     3
 72
     8
 73
     4
 74
     0
 42
0.0000000001
 43
0.0000000001
 40
0.0
 40
0.0
 40
0.0
 40
0.0
 40
4.222430451311394
 40
4.222430451311394
 40
4.222430451311394
 40
4.222430451311394
 10
-18.47088328697153
 20
-7.324919195785678
 30
0.0
 10
-23.31305212310009
 20
-7.324919195785678
 30
0.0
 10
-27.27889446071146
 20
-6.106319445643219
 30
0.0
 10
-32.00000000142756
 20
-4.115111340781268
 30
0.0
  0
SPLINE
  5
1EF2
330
1F
100
AcDbEntity
  8
AM_0
100
AcDbSpline
210
0.0
220
0.0
230
1.0
 70
     8
 71
     3
 72
     8
 73
     4
 74
     0
 42
0.0000000001
 43
0.0000000001
 40
2.641391316682392
 40
2.641391316682392
 40
2.641391316682392
 40
2.641391316682392
 40
3.172260675542282
 40
3.172260675542282
 40
3.172260675542282
 40
3.172260675542282
 10
-30.5547046785637
 20
-7.023972968002905
 30
0.0
 10
-31.03856292379473
 20
-6.855336533106214
 30
0.0
 10
-31.52024703948519
 20
-6.673440356651457
 30
0.0
 10
-32.00000000142755
 20
-6.479766317316805
 30
0.0
  0
SPLINE
  5
1EF3
330
1F
100
AcDbEntity
  8
AM_0
100
AcDbSpline
210
0.0
220
0.0
230
1.0
 70
     8
 71
     3
 72
     8
 73
     4
 74
     0
 42
0.0000000001
 43
0.0000000001
 40
0.0
 40
0.0
 40
0.0
 40
0.0
 40
1.293721832890842
 40
1.293721832890842
 40
1.293721832890842
 40
1.293721832890842
 10
-24.84626017372081
 20
-8.00000000223989
 30
0.0
 10
-23.5997200976113
 20
-8.00000000223989
 30
0.0
 10
-22.37327181089824
 20
-7.877462715525677
 30
0.0
 10
-21.16339871536718
 20
-7.653835430602686
 30
0.0
  0
SPLINE
  5
1EF4
330
1F
100
AcDbEntity
  8
AM_0
100
AcDbSpline
210
0.0
220
0.0
230
1.0
 70
     8
 71
     3
 72
     8
 73
     4
 74
     0
 42
0.0000000001
 43
0.0000000001
 40
0.0
 40
0.0
 40
0.0
 40
0.0
 40
1.389839699216864
 40
1.389839699216864
 40
1.389839699216864
 40
1.389839699216864
 10
-22.30030258940555
 20
-7.686486410560231
 30
0.0
 10
-20.96115004486616
 20
-7.686486410560231
 30
0.0
 10
-19.64365259494802
 20
-7.549352811542103
 30
0.0
 10
-18.34371967662291
 20
-7.30098961623079
 30
0.0
  0
SPLINE
  5
1EF5
330
1F
100
AcDbEntity
  8
AM_0
100
AcDbSpline
210
0.0
220
0.0
230
1.0
 70
     8
 71
     3
 72
     8
 73
     4
 74
     0
 42
0.0000000001
 43
0.0000000001
 40
0.0
 40
0.0
 40
0.0
 40
0.0
 40
3.337373195344228
 40
3.337373195344228
 40
3.337373195344228
 40
3.337373195344228
 10
-3.398748226818161
 20
2.582908308461256
 30
0.0
 10
-2.047921148238175
 20
2.80800281125586
 30
0.0
 10
-0.6737485763219678
 20
3.781167206488419
 30
0.0
 10
-0.0000000013875727
 20
5.071669379409286
 30
0.0
  0
SPLINE
  5
1EF6
330
1F
100
AcDbEntity
  8
AM_0
100
AcDbSpline
210
0.0
220
0.0
230
1.0
 70
     8
 71
     3
 72
     8
 73
     4
 74
     0
 42
0.0000000001
 43
0.0000000001
 40
0.0
 40
0.0
 40
0.0
 40
0.0
 40
4.513226090912397
 40
4.513226090912397
 40
4.513226090912397
 40
4.513226090912397
 10
-4.785705017824231
 20
3.636938199147337
 30
0.0
 10
-6.633415972615869
 20
3.68152676124032
 30
0.0
 10
-3.182198465954176
 20
-0.4168880732990346
 30
0.0
 10
-1.477722731232558
 20
-1.192340481308562
 30
0.0
  0
SPLINE
  5
1EF7
330
1F
100
AcDbEntity
  8
AM_0
100
AcDbSpline
210
0.0
220
0.0
230
1.0
 70
     8
 71
     3
 72
     8
 73
     4
 74
     0
 42
0.0000000001
 43
0.0000000001
 40
0.0
 40
0.0
 40
0.0
 40
0.0
 40
2.238610194515266
 40
2.238610194515266
 40
2.238610194515266
 40
2.238610194515266
 10
-16.74880635365863
 20
-6.259636052685888
 30
0.0
 10
-14.59183779109193
 20
-6.259636052685888
 30
0.0
 10
-12.4739528006251
 20
-5.958666482387702
 30
0.0
 10
-10.38303156699251
 20
-5.450058002130386
 30
0.0
  0
SPLINE
  5
1EF8
330
1F
100
AcDbEntity
  8
AM_0
100
AcDbSpline
210
0.0
220
0.0
230
1.0
 70
     8
 71
     3
 72
     8
 73
     4
 74
     0
 42
0.0000000001
 43
0.0000000001
 40
0.0
 40
0.0
 40
0.0
 40
0.0
 40
4.256459477032852
 40
4.256459477032852
 40
4.256459477032852
 40
4.256459477032852
 10
-16.74880635365863
 20
6.25963605044599
 30
0.0
 10
-12.64757903758048
 20
6.25963605044599
 30
0.0
 10
-8.687649164181859
 20
5.171551509467462
 30
0.0
 10
-4.785705017824231
 20
3.636938199147706
 30
0.0
  0
SPLINE
  5
1EF9
330
1F
100
AcDbEntity
  8
AM_0
100
AcDbSpline
210
0.0
220
0.0
230
1.0
 70
     8
 71
     3
 72
     8
 73
     4
 74
     0
 42
0.0000000001
 43
0.0000000001
 40
0.0
 40
0.0
 40
0.0
 40
0.0
 40
3.736652249739376
 40
3.736652249739376
 40
3.736652249739376
 40
3.736652249739376
 10
-0.0000000013875727
 20
8.0
 30
0.0
 10
-3.600377347867116
 20
8.0
 30
0.0
 10
-7.033143829496529
 20
6.977762498067022
 30
0.0
 10
-10.38303156694693
 20
5.450057999772624
 30
0.0
  0
SPLINE
  5
1EFA
330
1F
100
AcDbEntity
  8
AM_0
100
AcDbSpline
210
0.0
220
0.0
230
1.0
 70
     8
 71
     3
 72
     8
 73
     4
 74
     0
 42
0.0000000001
 43
0.0000000001
 40
2.181517009851762
 40
2.181517009851762
 40
2.181517009851762
 40
2.181517009851762
 40
7.320123087841765
 40
7.320123087841765
 40
7.320123087841765
 40
7.320123087841765
 10
-0.6624208423390412
 20
-6.446026237881955
 30
0.0
 10
-5.416866400247782
 20
-5.141972867261205
 30
0.0
 10
-9.98015603881225
 20
-2.570986434190487
 30
0.0
 10
-14.54344567737673
 20
-0.0000000011201422
 30
0.0
  0
SPLINE
  5
1EFB
330
1F
100
AcDbEntity
  8
AM_0
100
AcDbSpline
210
0.0
220
0.0
230
1.0
 70
     8
 71
     3
 72
     8
 73
     4
 74
     0
 42
0.0000000001
 43
0.0000000001
 40
0.9753439196676739
 40
0.9753439196676739
 40
0.9753439196676739
 40
0.9753439196676739
 40
7.357693791159725
 40
7.357693791159725
 40
7.357693791159725
 40
7.357693791159725
 10
-0.2427822223735738
 20
-7.492833430551034
 30
0.0
 10
-6.262047853145379
 20
-6.667557382545776
 30
0.0
 10
-11.88518983168924
 20
-3.333778691832776
 30
0.0
 10
-17.5083318102331
 20
-0.0000000011201422
 30
0.0
  0
ELLIPSE
  5
1EFC
330
1F
100
AcDbEntity
  8
AM_0
100
AcDbEllipse
 10
37.92213848256698
 20
135.867898555145
 30
0.0
 11
69.68248367233943
 21
138.3532206262474
 31
0.0
210
0.0
220
0.0
230
1.0
 40
0.526737157934821
 41
3.002411226971358
 42
3.120598703839808
  0
SPLINE
  5
1EFD
330
1F
100
AcDbEntity
  8
AM_0
100
AcDbSpline
210
0.0
220
0.0
230
1.0
 70
     8
 71
     3
 72
     8
 73
     4
 74
     0
 42
0.0000000001
 43
0.0000000001
 40
0.0
 40
0.0
 40
0.0
 40
0.0
 40
18.28108742897074
 40
18.28108742897074
 40
18.28108742897074
 40
18.28108742897074
 10
-40.49572629558944
 20
8.000000000000014
 30
0.0
 10
-33.78244340000085
 20
8.000000000000014
 30
0.0
 10
-26.9183663972746
 20
3.999999999439936
 30
0.0
 10
-20.05428939454835
 20
-0.0000000011201138
 30
0.0
  0
SPLINE
  5
1EFE
330
1F
100
AcDbEntity
  8
AM_0
100
AcDbSpline
210
0.0
220
0.0
230
1.0
 70
     8
 71
     3
 72
     8
 73
     4
 74
     0
 42
0.0000000001
 43
0.0000000001
 40
4.228769350668233
 40
4.228769350668233
 40
4.228769350668233
 40
4.228769350668233
 40
6.91280490763674
 40
6.91280490763674
 40
6.91280490763674
 40
6.91280490763674
 10
-32.00000000142755
 20
-5.519790990626681
 30
0.0
 10
-36.08762588119565
 20
-3.634795142733196
 30
0.0
 10
-38.44221967624277
 20
-2.222567001269851
 30
0.0
 10
-40.79121202394837
 20
-0.7761763397203936
 30
0.0
  0
LINE
  5
1EFF
330
1F
100
AcDbEntity
  8
AM_0
100
AcDbLine
 10
-40.79121202394837
 20
-0.7761763397200312
 30
0.0
 11
-36.60949735157214
 21
0.412441061569929
 31
0.0
  0
LINE
  5
1F01
330
1F
100
AcDbEntity
  8
AM_0
100
AcDbLine
 10
-41.19674767256177
 20
3.944655529326716
 30
0.0
 11
-32.00000000142755
 21
6.191861483290415
 31
0.0
  0
LINE
  5
1F03
330
1F
100
AcDbEntity
  8
AM_11
100
AcDbLine
 10
-32.00000000142755
 20
8.000000000000007
 30
0.0
 11
-32.00000000142755
 21
-7.999999999999989
 31
0.0
  0
VIEWPORT
  5
110
330
101
100
AcDbEntity
 67
     1
  8
0
100
AcDbViewport
 10
420.5
 20
297.0
 30
0.0
 40
948.9782706766916
 41
628.452
 68
     1
 69
     1
1001
ACAD
1000
MVIEW
1002
{
1070
    16
1010
0.0
1020
0.0
1030
0.0
1010
0.0
1020
0.0
1030
1.0
1040
0.0
1040
628.452
1040
420.5
1040
297.0
1040
50.0
1040
0.0
1040
0.0
1070
     0
1070
   100
1070
     1
1070
     1
1070
     0
1070
     0
1070
     0
1070
     0
1040
0.0
1040
0.0
1040
0.0
1040
10.0
1040
10.0
1040
10.0
1040
10.0
1070
     0
1002
{
1002
}
1002
}
  0
ENDSEC
  0
SECTION
  2
OBJECTS
  0
DICTIONARY
  5
C
330
0
100
AcDbDictionary
  3
ACAD_GROUP
350
D
  3
ACAD_LAYOUT
350
1A
  3
ACAD_MLINESTYLE
350
17
  3
ACAD_PLOTSETTINGS
350
19
  3
ACAD_PLOTSTYLENAME
350
E
  3
ACDBVARIABLEDICTIONARY
350
34
  3
ACMDICTIONARY
350
43
  3
AMG
350
2B
  3
AMGSNAPSETTINGS
350
6E
  3
DWGPROPS
350
1F55
  3
ACDBHEADERROUNDTRIPXREC
350
1F61
  0
DICTIONARY
  5
74
330
1F
100
AcDbDictionary
280
     1
  3
ACAD_INDEX
360
1F57
  3
ACAD_LAYOUTSELFREF
360
1F84
  0
DICTIONARY
  5
1F89
330
101
100
AcDbDictionary
280
     1
  3
ACAD_LAYOUTSELFREF
360
1F8A
  0
DICTIONARY
  5
D
102
{ACAD_REACTORS
330
C
102
}
330
C
100
AcDbDictionary
  0
DICTIONARY
  5
1A
102
{ACAD_REACTORS
330
C
102
}
330
C
100
AcDbDictionary
  0
DICTIONARY
  5
17
102
{ACAD_REACTORS
330
C
102
}
330
C
100
AcDbDictionary
  3
STANDARD
350
18
  0
DICTIONARY
  5
19
102
{ACAD_REACTORS
330
C
102
}
330
C
100
AcDbDictionary
  0
ACDBDICTIONARYWDFLT
  5
E
102
{ACAD_REACTORS
330
C
102
}
330
C
100
AcDbDictionary
281
     1
  3
Normal
350
F
100
AcDbDictionaryWithDefault
340
F
  0
DICTIONARY
  5
34
102
{ACAD_REACTORS
330
C
102
}
330
C
100
AcDbDictionary
  3
INDEXCTL
350
35
  3
SORTENTS
350
B5E
  0
DICTIONARY
  5
43
102
{ACAD_REACTORS
330
C
102
}
330
C
100
AcDbDictionary
  3
ACMSTDDICTIONARY
350
260
  0
DICTIONARY
  5
2B
102
{ACAD_REACTORS
330
C
102
}
330
C
100
AcDbDictionary
  3
ACMGSETTINGS
350
2C
  0
DICTIONARY
  5
6E
102
{ACAD_REACTORS
330
C
102
}
330
C
100
AcDbDictionary
  0
XRECORD
  5
1F55
102
{ACAD_REACTORS
330
C
102
}
330
C
100
AcDbXrecord
  1
DWGPROPS COOKIE
  2

  3

  4

  6

  7

  8

  9

300
AmdtFileType=82
301
=
302
=
303
=
304
=
305
=
306
=
307
=
308
=
309
=
 40
0.0430056712962963
 41
2452836.771637361
 42
2452857.446434641
  1

 90
        1
  0
DICTIONARY
  5
1F61
102
{ACAD_REACTORS
330
C
102
}
330
C
100
AcDbDictionary
  3
TSTACKALIGN
350
1F62
  3
TSTACKSIZE
350
1F63
  3
HYPERLINKBASE
350
1F64
  3
STYLESHEET
350
1F65
  3
LAYOUTDICT
350
1F66
  3
PLOTSETDICT
350
1F67
  3
PLOTSTYLNAMDICT
350
1F68
  3
LWETCUNION
350
1F69
  3
INSUNITS
350
1F6A
  3
CEPSNTYPE
350
1F6B
  3
FINGERPRINTGUID
350
1F6C
  3
VERSIONGUID
350
1F6D
  3
PSVPSCALE
350
1F6E
  3
DIMSTYLEDATA
350
1F6F
  3
PUCSORTHOREF
350
1F70
  3
PUCSORTHOVIEW
350
1F71
  3
PUCSBASE
350
1F72
  3
PUCSORGTOP
350
1F73
  3
PUCSORGBOTTOM
350
1F74
  3
PUCSORGLEFT
350
1F75
  3
PUCSORGRIGHT
350
1F76
  3
PUCSORGFRONT
350
1F77
  3
PUCSORGBACK
350
1F78
  3
UCSORTHOREF
350
1F79
  3
UCSORTHOVIEW
350
1F7A
  3
UCSBASE
350
1F7B
  3
UCSORGTOP
350
1F7C
  3
UCSORGBOTTOM
350
1F7D
  3
UCSORGLEFT
350
1F7E
  3
UCSORGRIGHT
350
1F7F
  3
UCSORGFRONT
350
1F80
  3
UCSORGBACK
350
1F81
  0
DICTIONARY
  5
1F57
102
{ACAD_REACTORS
330
74
102
}
330
74
100
AcDbDictionary
  3
*A1
350
1F58
  0
XRECORD
  5
1F84
102
{ACAD_REACTORS
330
74
102
}
330
74
100
AcDbXrecord
340
1F
  0
XRECORD
  5
1F8A
102
{ACAD_REACTORS
330
1F89
102
}
330
1F89
100
AcDbXrecord
340
101
  0
MLINESTYLE
  5
18
102
{ACAD_REACTORS
330
17
102
}
330
17
100
AcDbMlineStyle
  2
STANDARD
 70
     0
  3

 62
   256
 51
90.0
 52
90.0
 71
     2
 49
0.5
 62
   256
  6
BYLAYER
 49
-0.5
 62
   256
  6
BYLAYER
  0
ACDBPLACEHOLDER
  5
F
102
{ACAD_REACTORS
330
E
102
}
330
E
100
AcDbPlaceHolder
280
     0
  0
DICTIONARYVAR
  5
35
102
{ACAD_REACTORS
330
34
102
}
330
34
100
DictionaryVariables
280
     0
  1
1
  0
DICTIONARYVAR
  5
B5E
102
{ACAD_REACTORS
330
34
102
}
330
34
100
DictionaryVariables
280
     0
  1
96
  0
DICTIONARY
  5
260
102
{ACAD_REACTORS
330
43
102
}
330
43
100
AcDbDictionary
  0
DICTIONARY
  5
2C
102
{ACAD_REACTORS
330
2B
102
}
330
2B
100
AcDbDictionary
  3
DWGSETTINGS
350
2D
  0
XRECORD
  5
1F62
102
{ACAD_REACTORS
330
1F61
102
}
330
1F61
100
AcDbXrecord
 90
        1
  0
XRECORD
  5
1F63
102
{ACAD_REACTORS
330
1F61
102
}
330
1F61
100
AcDbXrecord
 90
       70
  0
XRECORD
  5
1F64
102
{ACAD_REACTORS
330
1F61
102
}
330
1F61
100
AcDbXrecord
  1

  0
XRECORD
  5
1F65
102
{ACAD_REACTORS
330
1F61
102
}
330
1F61
100
AcDbXrecord
  1
ASAMI.ctb
  0
XRECORD
  5
1F66
102
{ACAD_REACTORS
330
1F61
102
}
330
1F61
100
AcDbXrecord
340
1A
  0
XRECORD
  5
1F67
102
{ACAD_REACTORS
330
1F61
102
}
330
1F61
100
AcDbXrecord
340
19
  0
XRECORD
  5
1F68
102
{ACAD_REACTORS
330
1F61
102
}
330
1F61
100
AcDbXrecord
340
E
  0
XRECORD
  5
1F69
102
{ACAD_REACTORS
330
1F61
102
}
330
1F61
100
AcDbXrecord
 90
    10781
  0
XRECORD
  5
1F6A
102
{ACAD_REACTORS
330
1F61
102
}
330
1F61
100
AcDbXrecord
 90
        4
  0
XRECORD
  5
1F6B
102
{ACAD_REACTORS
330
1F61
102
}
330
1F61
100
AcDbXrecord
 90
        0
  0
XRECORD
  5
1F6C
102
{ACAD_REACTORS
330
1F61
102
}
330
1F61
100
AcDbXrecord
  1
{AFB28963-8C59-40AE-9337-C84526B81ACE}
  0
XRECORD
  5
1F6D
102
{ACAD_REACTORS
330
1F61
102
}
330
1F61
100
AcDbXrecord
  1
{8706A979-DDD1-4D06-AE47-CB48360083CF}
  0
XRECORD
  5
1F6E
102
{ACAD_REACTORS
330
1F61
102
}
330
1F61
100
AcDbXrecord
 40
0.0
  0
XRECORD
  5
1F6F
102
{ACAD_REACTORS
330
1F61
102
}
330
1F61
100
AcDbXrecord
1000
DSTYLE
1002
{
1070
    79
 70
     2
1070
   341
340
59
1070
   342
340
59
1070
   371
 70
    -1
1070
   372
 70
    -1
1002
}
  0
XRECORD
  5
1F70
102
{ACAD_REACTORS
330
1F61
102
}
330
1F61
100
AcDbXrecord
340
0
  0
XRECORD
  5
1F71
102
{ACAD_REACTORS
330
1F61
102
}
330
1F61
100
AcDbXrecord
 70
     0
  0
XRECORD
  5
1F72
102
{ACAD_REACTORS
330
1F61
102
}
330
1F61
100
AcDbXrecord
340
0
  0
XRECORD
  5
1F73
102
{ACAD_REACTORS
330
1F61
102
}
330
1F61
100
AcDbXrecord
 10
0.0
 20
0.0
 30
0.0
  0
XRECORD
  5
1F74
102
{ACAD_REACTORS
330
1F61
102
}
330
1F61
100
AcDbXrecord
 10
0.0
 20
0.0
 30
0.0
  0
XRECORD
  5
1F75
102
{ACAD_REACTORS
330
1F61
102
}
330
1F61
100
AcDbXrecord
 10
0.0
 20
0.0
 30
0.0
  0
XRECORD
  5
1F76
102
{ACAD_REACTORS
330
1F61
102
}
330
1F61
100
AcDbXrecord
 10
0.0
 20
0.0
 30
0.0
  0
XRECORD
  5
1F77
102
{ACAD_REACTORS
330
1F61
102
}
330
1F61
100
AcDbXrecord
 10
0.0
 20
0.0
 30
0.0
  0
XRECORD
  5
1F78
102
{ACAD_REACTORS
330
1F61
102
}
330
1F61
100
AcDbXrecord
 10
0.0
 20
0.0
 30
0.0
  0
XRECORD
  5
1F79
102
{ACAD_REACTORS
330
1F61
102
}
330
1F61
100
AcDbXrecord
340
0
  0
XRECORD
  5
1F7A
102
{ACAD_REACTORS
330
1F61
102
}
330
1F61
100
AcDbXrecord
 70
     0
  0
XRECORD
  5
1F7B
102
{ACAD_REACTORS
330
1F61
102
}
330
1F61
100
AcDbXrecord
340
0
  0
XRECORD
  5
1F7C
102
{ACAD_REACTORS
330
1F61
102
}
330
1F61
100
AcDbXrecord
 10
0.0
 20
0.0
 30
0.0
  0
XRECORD
  5
1F7D
102
{ACAD_REACTORS
330
1F61
102
}
330
1F61
100
AcDbXrecord
 10
0.0
 20
0.0
 30
0.0
  0
XRECORD
  5
1F7E
102
{ACAD_REACTORS
330
1F61
102
}
330
1F61
100
AcDbXrecord
 10
0.0
 20
0.0
 30
0.0
  0
XRECORD
  5
1F7F
102
{ACAD_REACTORS
330
1F61
102
}
330
1F61
100
AcDbXrecord
 10
0.0
 20
0.0
 30
0.0
  0
XRECORD
  5
1F80
102
{ACAD_REACTORS
330
1F61
102
}
330
1F61
100
AcDbXrecord
 10
0.0
 20
0.0
 30
0.0
  0
XRECORD
  5
1F81
102
{ACAD_REACTORS
330
1F61
102
}
330
1F61
100
AcDbXrecord
 10
0.0
 20
0.0
 30
0.0
  0
LAYER_INDEX
  5
1F58
102
{ACAD_REACTORS
330
1F57
102
}
330
1F57
100
AcDbIndex
 40
2453152.362094375
100
AcDbLayerIndex
  8
0
360
1F59
 90
        0
  8
AM_0
360
1F5A
 90
       38
  8
AM_11
360
1F5B
 90
        4
  8
AM_7
360
1F5C
 90
        1
  8
AM_5
360
1F5D
 90
        4
  8
Defpoints
360
1F5E
 90
        0
  8
AM_6
360
1F5F
 90
        1
  0
XRECORD
  5
2D
102
{ACAD_REACTORS
330
2C
102
}
330
2C
100
AcDbXrecord
  1
VERSION
140
15.0
  1
PRODUCT
  2
AutoCAD Mechanical 2000
  0
IDBUFFER
  5
1F59
330
0
100
AcDbIdBuffer
  0
IDBUFFER
  5
1F5A
330
0
100
AcDbIdBuffer
330
1EEA
330
1EEB
330
1EEC
330
1EED
330
1EEF
330
1EF0
330
1EF1
330
1EF2
330
1EF3
330
1EF4
330
1EF5
330
1EF6
330
1EF7
330
1EF8
330
1EF9
330
1EFA
330
1EFB
330
1EFC
330
1EFD
330
1EFE
330
1EFF
330
1F01
330
1847
330
184A
330
184B
330
1859
330
186E
330
1871
330
1EDB
330
1EDD
330
1EDE
330
1EDF
330
1EE0
330
1EE2
330
1EE3
330
1EE4
330
1EE7
330
1EE8
  0
IDBUFFER
  5
1F5B
330
0
100
AcDbIdBuffer
330
1EDC
330
1EE1
330
1EE5
330
1F03
  0
IDBUFFER
  5
1F5C
330
0
100
AcDbIdBuffer
330
F47
  0
IDBUFFER
  5
1F5D
330
0
100
AcDbIdBuffer
330
105F
330
10EF
330
1180
330
184C
  0
IDBUFFER
  5
1F5E
330
0
100
AcDbIdBuffer
  0
IDBUFFER
  5
1F5F
330
0
100
AcDbIdBuffer
330
E5A
  0
ENDSEC
  0
EOF
