  0
SECTION
  2
HEADER
  9
$ACADVER
  1
AC1014
  9
$ACADMAINTVER
 70
     9
  9
$DWGCODEPAGE
  3
ANSI_932
  9
$INSBASE
 10
0.0
 20
0.0
 30
0.0
  9
$EXTMIN
 10
-49.35000000000048
 20
-26.25000000023346
 30
-0.00000001
  9
$EXTMAX
 10
7.500000000000001
 20
7.514285714425818
 30
0.00000001
  9
$LIMMIN
 10
-51.06854874022281
 20
-31.83117992797335
  9
$LIMMAX
 10
10.03442878849478
 20
12.48365537480407
  9
$ORTHOMODE
 70
     0
  9
$REGENMODE
 70
     1
  9
$FILLMODE
 70
     1
  9
$QTEXTMODE
 70
     0
  9
$MIRRTEXT
 70
     0
  9
$DRAGMODE
 70
     2
  9
$LTSCALE
 40
1.0
  9
$OSMODE
 70
    55
  9
$ATTMODE
 70
     1
  9
$TEXTSIZE
 40
2.5
  9
$TRACEWID
 40
1.0
  9
$TEXTSTYLE
  7
STANDARD
  9
$CLAYER
  8
AM_0
  9
$CELTYPE
  6
BYLAYER
  9
$CECOLOR
 62
   256
  9
$CELTSCALE
 40
1.0
  9
$DELOBJ
 70
     1
  9
$DISPSILH
 70
     0
  9
$DIMSCALE
 40
0.5
  9
$DIMASZ
 40
2.5
  9
$DIMEXO
 40
1.0
  9
$DIMDLI
 40
12.0
  9
$DIMRND
 40
0.0
  9
$DIMDLE
 40
0.0
  9
$DIMEXE
 40
1.0
  9
$DIMTP
 40
0.1
  9
$DIMTM
 40
0.1
  9
$DIMTXT
 40
3.2
  9
$DIMCEN
 40
0.0
  9
$DIMTSZ
 40
0.0
  9
$DIMTOL
 70
     0
  9
$DIMLIM
 70
     0
  9
$DIMTIH
 70
     0
  9
$DIMTOH
 70
     0
  9
$DIMSE1
 70
     0
  9
$DIMSE2
 70
     0
  9
$DIMTAD
 70
     3
  9
$DIMZIN
 70
     8
  9
$DIMBLK
  1
OPEN30
  9
$DIMASO
 70
     1
  9
$DIMSHO
 70
     1
  9
$DIMPOST
  1

  9
$DIMAPOST
  1
"
  9
$DIMALT
 70
     0
  9
$DIMALTD
 70
     2
  9
$DIMALTF
 40
0.0393701
  9
$DIMLFAC
 40
1.0
  9
$DIMTOFL
 70
     1
  9
$DIMTVP
 40
0.0
  9
$DIMTIX
 70
     0
  9
$DIMSOXD
 70
     0
  9
$DIMSAH
 70
     0
  9
$DIMBLK1
  1

  9
$DIMBLK2
  1

  9
$DIMSTYLE
  2
AM_JIS
  9
$DIMCLRD
 70
   256
  9
$DIMCLRE
 70
   256
  9
$DIMCLRT
 70
     2
  9
$DIMTFAC
 40
0.71
  9
$DIMGAP
 40
1.5
  9
$DIMJUST
 70
     0
  9
$DIMSD1
 70
     0
  9
$DIMSD2
 70
     0
  9
$DIMTOLJ
 70
     0
  9
$DIMTZIN
 70
     0
  9
$DIMALTZ
 70
     0
  9
$DIMALTTZ
 70
     0
  9
$DIMFIT
 70
     3
  9
$DIMUPT
 70
     0
  9
$DIMUNIT
 70
     2
  9
$DIMDEC
 70
     3
  9
$DIMTDEC
 70
     3
  9
$DIMALTU
 70
     2
  9
$DIMALTTD
 70
     2
  9
$DIMTXSTY
  7
ASAMI
  9
$DIMAUNIT
 70
     0
  9
$LUNITS
 70
     2
  9
$LUPREC
 70
     2
  9
$SKETCHINC
 40
1.0
  9
$FILLETRAD
 40
2.5
  9
$AUNITS
 70
     0
  9
$AUPREC
 70
     0
  9
$MENU
  1
.
  9
$ELEVATION
 40
0.0
  9
$PELEVATION
 40
0.0
  9
$THICKNESS
 40
0.0
  9
$LIMCHECK
 70
     0
  9
$BLIPMODE
 70
     0
  9
$CHAMFERA
 40
2.5
  9
$CHAMFERB
 40
2.5
  9
$CHAMFERC
 40
20.0
  9
$CHAMFERD
 40
0.0
  9
$SKPOLY
 70
     0
  9
$TDCREATE
 40
2452802.716478761
  9
$TDUPDATE
 40
2453152.359911701
  9
$TDINDWG
 40
0.1006018171
  9
$TDUSRTIMER
 40
0.1006018171
  9
$USRTIMER
 70
     1
  9
$ANGBASE
 50
0.0
  9
$ANGDIR
 70
     0
  9
$PDMODE
 70
     0
  9
$PDSIZE
 40
0.0
  9
$PLINEWID
 40
0.0
  9
$COORDS
 70
     1
  9
$SPLFRAME
 70
     0
  9
$SPLINETYPE
 70
     6
  9
$SPLINESEGS
 70
     8
  9
$ATTDIA
 70
     1
  9
$ATTREQ
 70
     1
  9
$HANDLING
 70
 12289
  9
$HANDSEED
  5
1CAD
  9
$SURFTAB1
 70
     6
  9
$SURFTAB2
 70
     6
  9
$SURFTYPE
 70
     6
  9
$SURFU
 70
     6
  9
$SURFV
 70
     6
  9
$UCSNAME
  2

  9
$UCSORG
 10
0.0
 20
0.0
 30
0.0
  9
$UCSXDIR
 10
1.0
 20
0.000000000000002
 30
0.0
  9
$UCSYDIR
 10
-0.000000000000002
 20
1.0
 30
0.0
  9
$PUCSNAME
  2

  9
$PUCSORG
 10
0.0
 20
0.0
 30
0.0
  9
$PUCSXDIR
 10
1.0
 20
0.0
 30
0.0
  9
$PUCSYDIR
 10
0.0
 20
1.0
 30
0.0
  9
$USERI1
 70
     0
  9
$USERI2
 70
     0
  9
$USERI3
 70
     0
  9
$USERI4
 70
     0
  9
$USERI5
 70
     0
  9
$USERR1
 40
0.0
  9
$USERR2
 40
0.0
  9
$USERR3
 40
0.0
  9
$USERR4
 40
0.0
  9
$USERR5
 40
0.0
  9
$WORLDVIEW
 70
     1
  9
$SHADEDGE
 70
     3
  9
$SHADEDIF
 70
    70
  9
$TILEMODE
 70
     1
  9
$MAXACTVP
 70
    64
  9
$PINSBASE
 10
0.0
 20
0.0
 30
0.0
  9
$PLIMCHECK
 70
     0
  9
$PEXTMIN
 10
1.000000000000000E+20
 20
1.000000000000000E+20
 30
1.000000000000000E+20
  9
$PEXTMAX
 10
-1.000000000000000E+20
 20
-1.000000000000000E+20
 30
-1.000000000000000E+20
  9
$PLIMMIN
 10
0.0
 20
0.0
  9
$PLIMMAX
 10
841.0
 20
594.0
  9
$UNITMODE
 70
     0
  9
$VISRETAIN
 70
     1
  9
$PLINEGEN
 70
     0
  9
$PSLTSCALE
 70
     0
  9
$TREEDEPTH
 70
  3020
  9
$PICKSTYLE
 70
     0
  9
$CMLSTYLE
  2
STANDARD
  9
$CMLJUST
 70
     0
  9
$CMLSCALE
 40
20.0
  9
$PROXYGRAPHICS
 70
     1
  9
$MEASUREMENT
 70
     1
  0
ENDSEC
  0
SECTION
  2
CLASSES
  0
CLASS
  1
ACDBDICTIONARYWDFLT
  2
AcDbDictionaryWithDefault
  3
AutoCAD 2000
 90
        0
280
     0
281
     0
  0
CLASS
  1
ACDBPLACEHOLDER
  2
AcDbPlaceHolder
  3
AutoCAD 2000
 90
        0
280
     0
281
     0
  0
CLASS
  1
LAYOUT
  2
AcDbLayout
  3
AutoCAD 2000
 90
        0
280
     0
281
     0
  0
CLASS
  1
AMGSETTINGSOBJ
  2
AmgSettingsObj
  3
"AcadM|Product Description: AutoCAD Mechanical 2000|Company: Autodesk"
 90
        0
280
     0
281
     0
  0
CLASS
  1
ACME_DOCUMENT
  2
AcMeDbDoc
  3
AcMeServices
 90
        0
280
     0
281
     0
  0
CLASS
  1
ACMESCOPE
  2
AcMeScope
  3
AcMeServices
 90
        0
280
     0
281
     0
  0
CLASS
  1
ACMECOMMANDHISTORY
  2
AcMeCommandHistory
  3
AcMeServices
 90
        0
280
     0
281
     0
  0
CLASS
  1
DICTIONARYVAR
  2
AcDbDictionaryVar
  3
AutoCAD 2000
 90
        0
280
     0
281
     0
  0
CLASS
  1
ACIMSYSVARMAN
  2
AcImSysVarManager
  3
AcMeServices
 90
        0
280
     0
281
     0
  0
CLASS
  1
ACIMREALSYSVAR
  2
AcImRealSysVar
  3
AcMeServices
 90
        0
280
     0
281
     0
  0
CLASS
  1
ACIMINTSYSVAR
  2
AcImIntSysVar
  3
AcMeServices
 90
        0
280
     0
281
     0
  0
CLASS
  1
ACMEDRAWINGMAN
  2
AcMeDrawingMan
  3
AcMeServices
 90
        0
280
     0
281
     0
  0
CLASS
  1
ACMEVIEW
  2
AcMeView
  3
AcMeServices
 90
        0
280
     0
281
     0
  0
CLASS
  1
ACDBENTITYCACHE
  2
AcMeEntityCache
  3
AcMeServices
 90
        0
280
     0
281
     0
  0
CLASS
  1
GSMANAGER
  2
AcMeGSManager
  3
AcMeServices
 90
        0
280
     0
281
     0
  0
CLASS
  1
AmdtInternalReactor
  2
AmdtInternalReactor
  3
AcMeServices
 90
        0
280
     0
281
     0
  0
CLASS
  1
ACMESTATEMGR
  2
AcMeStateMgr
  3
AcMeServices
 90
        0
280
     0
281
     0
  0
CLASS
  1
ACME_DATABASE
  2
AcMeDbDatabase
  3
AcMeServices
 90
        0
280
     0
281
     0
  0
CLASS
  1
ACRFINSADJUSTERMGR
  2
AcRfInsAdjusterMgr
  3
AcMeServices
 90
        0
280
     0
281
     0
  0
CLASS
  1
ACMDATADICTIONARY
  2
AcmDataDictionary
  3
"AcmSymBB|Product Description: AutoCAD Mechanical 2000|Company: Autodesk"
 90
        0
280
     0
281
     0
  0
CLASS
  1
ACMDATAENTRYBLOCK
  2
AcmDataEntryBlock
  3
"AcmSymBB|Product Description: AutoCAD Mechanical 2000|Company: Autodesk"
 90
        0
280
     0
281
     0
  0
CLASS
  1
AMGOBJPROPCFG
  2
AmgObjPropCfg
  3
"AmgLay|Product Description: AutoCAD Mechanical 2000|Company: Autodesk"
 90
        1
280
     0
281
     0
  0
CLASS
  1
ACAMGFILTERDAT
  2
AcAmgFilterDat
  3
"AcadM|Product Description: AutoCAD Mechanical 2000|Company: Autodesk"
 90
        0
280
     0
281
     0
  0
CLASS
  1
LAYER_INDEX
  2
AcDbLayerIndex
  3
AutoCAD 2000
 90
        0
280
     0
281
     0
  0
CLASS
  1
IDBUFFER
  2
AcDbIdBuffer
  3
AutoCAD 2000
 90
        0
280
     0
281
     0
  0
CLASS
  1
ACIMSTRSYSVAR
  2
AcImStrSysVar
  3
AcMeServices
 90
        0
280
     0
281
     0
  0
CLASS
  1
ACMSTANDARDJIS
  2
AcmStandardJIS
  3
"AcmSymBB|Product Description: AutoCAD Mechanical 2000|Company: Autodesk"
 90
        0
280
     0
281
     0
  0
CLASS
  1
ACMSURFSTANDARDJIS
  2
AcmSurfTextStdJIS
  3
"AcmSymBB|Product Description: AutoCAD Mechanical 2000|Company: Autodesk"
 90
        0
280
     0
281
     0
  0
CLASS
  1
ACMFCFSTANDARDJIS
  2
AcmFCFStdJIS
  3
"AcmSymBB|Product Description: AutoCAD Mechanical 2000|Company: Autodesk"
 90
        0
280
     0
281
     0
  0
CLASS
  1
ACMWELDSTANDARDJIS
  2
AcmWeldingStdJIS
  3
"AcmSymBB|Product Description: AutoCAD Mechanical 2000|Company: Autodesk"
 90
        0
280
     0
281
     0
  0
CLASS
  1
ACMIDSTANDARDJIS
  2
AcmIdStdJIS
  3
"AcmSymBB|Product Description: AutoCAD Mechanical 2000|Company: Autodesk"
 90
        0
280
     0
281
     0
  0
CLASS
  1
ACMDATUMSTANDARDJIS
  2
AcmDatumStdJIS
  3
"AcmSymBB|Product Description: AutoCAD Mechanical 2000|Company: Autodesk"
 90
        0
280
     0
281
     0
  0
CLASS
  1
ACMBOMSTANDARDJIS
  2
AcmBOMStdJIS
  3
"AcmSymBB|Product Description: AutoCAD Mechanical 2000|Company: Autodesk"
 90
        0
280
     0
281
     0
  0
CLASS
  1
ACMSTANDARDANSI
  2
AcmStandardANSI
  3
"AcmSymBB|Product Description: AutoCAD Mechanical 2000|Company: Autodesk"
 90
        0
280
     0
281
     0
  0
CLASS
  1
ACMSURFSTANDARDANSI
  2
AcmSurfTextStdANSI
  3
"AcmSymBB|Product Description: AutoCAD Mechanical 2000|Company: Autodesk"
 90
        0
280
     0
281
     0
  0
CLASS
  1
ACMFCFSTANDARDANSI
  2
AcmFCFStdANSI
  3
"AcmSymBB|Product Description: AutoCAD Mechanical 2000|Company: Autodesk"
 90
        0
280
     0
281
     0
  0
CLASS
  1
ACMWELDSTANDARDANSI
  2
AcmWeldingStdANSI
  3
"AcmSymBB|Product Description: AutoCAD Mechanical 2000|Company: Autodesk"
 90
        0
280
     0
281
     0
  0
CLASS
  1
ACMIDSTANDARDANSI
  2
AcmIdStdANSI
  3
"AcmSymBB|Product Description: AutoCAD Mechanical 2000|Company: Autodesk"
 90
        0
280
     0
281
     0
  0
CLASS
  1
ACMDATUMSTANDARDANSI
  2
AcmDatumStdANSI
  3
"AcmSymBB|Product Description: AutoCAD Mechanical 2000|Company: Autodesk"
 90
        0
280
     0
281
     0
  0
CLASS
  1
ACMBOMSTANDARDANSI
  2
AcmBOMStdANSI
  3
"AcmSymBB|Product Description: AutoCAD Mechanical 2000|Company: Autodesk"
 90
        0
280
     0
281
     0
  0
CLASS
  1
ACMSTANDARDBSI
  2
AcmStandardBSI
  3
"AcmSymBB|Product Description: AutoCAD Mechanical 2000|Company: Autodesk"
 90
        0
280
     0
281
     0
  0
CLASS
  1
ACMSURFSTANDARDBSI
  2
AcmSurfTextStdBSI
  3
"AcmSymBB|Product Description: AutoCAD Mechanical 2000|Company: Autodesk"
 90
        0
280
     0
281
     0
  0
CLASS
  1
ACMFCFSTANDARDBSI
  2
AcmFCFStdBSI
  3
"AcmSymBB|Product Description: AutoCAD Mechanical 2000|Company: Autodesk"
 90
        0
280
     0
281
     0
  0
CLASS
  1
ACMWELDSTANDARDBSI
  2
AcmWeldingStdBSI
  3
"AcmSymBB|Product Description: AutoCAD Mechanical 2000|Company: Autodesk"
 90
        0
280
     0
281
     0
  0
CLASS
  1
ACMIDSTANDARDBSI
  2
AcmIdStdBSI
  3
"AcmSymBB|Product Description: AutoCAD Mechanical 2000|Company: Autodesk"
 90
        0
280
     0
281
     0
  0
CLASS
  1
ACMDATUMSTANDARDBSI
  2
AcmDatumStdBSI
  3
"AcmSymBB|Product Description: AutoCAD Mechanical 2000|Company: Autodesk"
 90
        0
280
     0
281
     0
  0
CLASS
  1
ACMBOMSTANDARDBSI
  2
AcmBOMStdBSI
  3
"AcmSymBB|Product Description: AutoCAD Mechanical 2000|Company: Autodesk"
 90
        0
280
     0
281
     0
  0
CLASS
  1
LONG_TRANSACTION
  2
AcDbLongTransaction
  3
AutoCAD 2000
 90
        0
280
     0
281
     0
  0
CLASS
  1
LWPOLYLINE
  2
AcDbPolyline
  3
AutoCAD 2000
 90
        0
280
     0
281
     1
  0
CLASS
  1
HATCH
  2
AcDbHatch
  3
AutoCAD 2000
 90
        0
280
     0
281
     1
  0
CLASS
  1
XRECORD
  2
AcDbXrecord
  3
AutoCAD 2000
 90
        0
280
     0
281
     0
  0
ENDSEC
  0
SECTION
  2
TABLES
  0
TABLE
  2
VPORT
  5
8
330
0
100
AcDbSymbolTable
 70
     3
  0
VPORT
  5
1C82
330
8
100
AcDbSymbolTableRecord
100
AcDbViewportTableRecord
  2
*ACTIVE
 70
     0
 10
0.0
 20
0.0
 11
1.0
 21
1.0
 12
-4.56437898973121
 22
-0.1962030940364698
 13
0.0
 23
0.0
 14
2.5
 24
2.5
 15
10.0
 25
10.0
 16
0.0
 26
0.0
 36
1.0
 17
0.0
 27
0.0
 37
0.0
 40
68.84103587540089
 41
1.56570841889117
 42
50.0
 43
0.0
 44
0.0
 50
0.0
 51
0.0
 71
     0
 72
   100
 73
     1
 74
     3
 75
     0
 76
     0
 77
     0
 78
     0
  0
ENDTAB
  0
TABLE
  2
LTYPE
  5
5
330
0
100
AcDbSymbolTable
 70
    10
  0
LTYPE
  5
14
330
5
100
AcDbSymbolTableRecord
100
AcDbLinetypeTableRecord
  2
BYBLOCK
 70
     0
  3

 72
    65
 73
     0
 40
0.0
  0
LTYPE
  5
15
330
5
100
AcDbSymbolTableRecord
100
AcDbLinetypeTableRecord
  2
BYLAYER
 70
     0
  3

 72
    65
 73
     0
 40
0.0
  0
LTYPE
  5
16
330
5
100
AcDbSymbolTableRecord
100
AcDbLinetypeTableRecord
  2
CONTINUOUS
 70
     0
  3
Solid line
 72
    65
 73
     0
 40
0.0
  0
LTYPE
  5
4B
330
5
100
AcDbSymbolTableRecord
100
AcDbLinetypeTableRecord
  2
AM_ISO02W050
 70
     0
  3
__ __ __ __ __ __ __ __ __ __ __ __ __ __ __
 72
    65
 73
     2
 40
7.5
 49
6.0
 74
     0
 49
-1.5
 74
     0
  0
LTYPE
  5
4C
330
5
100
AcDbSymbolTableRecord
100
AcDbLinetypeTableRecord
  2
AM_ISO08W050
 70
     0
  3
____ . ____ . ____ . ____ . ____ . ____ . ____
 72
    65
 73
     4
 40
18.0
 49
12.0
 74
     0
 49
-1.5
 74
     0
 49
3.0
 74
     0
 49
-1.5
 74
     0
  0
LTYPE
  5
4D
330
5
100
AcDbSymbolTableRecord
100
AcDbLinetypeTableRecord
  2
AM_ISO09W050
 70
     0
  3
_____ . . _____ . . _____ . . ____ .. ____
 72
    65
 73
     6
 40
22.5
 49
12.0
 74
     0
 49
-1.5
 74
     0
 49
3.0
 74
     0
 49
-1.5
 74
     0
 49
3.0
 74
     0
 49
-1.5
 74
     0
  0
LTYPE
  5
4E
330
5
100
AcDbSymbolTableRecord
100
AcDbLinetypeTableRecord
  2
AMCONSTR
 70
     0
  3
_______________________
 72
    65
 73
     2
 40
9999.0
 49
9999.0
 74
     0
 49
0.0
 74
     0
  0
LTYPE
  5
4F
330
5
100
AcDbSymbolTableRecord
100
AcDbLinetypeTableRecord
  2
AM_ISO02W050X2
 70
     0
  3
 _ _ _ _ _ _ _ _ _ _ _ _
 72
    65
 73
     2
 40
3.75
 49
3.0
 74
     0
 49
-0.75
 74
     0
  0
LTYPE
  5
50
330
5
100
AcDbSymbolTableRecord
100
AcDbLinetypeTableRecord
  2
AM_ISO08W050X2
 70
     0
  3
__ . __ . __ . __ . __ . __
 72
    65
 73
     4
 40
9.0
 49
6.0
 74
     0
 49
-0.75
 74
     0
 49
1.5
 74
     0
 49
-0.75
 74
     0
  0
LTYPE
  5
53
330
5
100
AcDbSymbolTableRecord
100
AcDbLinetypeTableRecord
  2
AMZIGZAG
 70
     0
  3
/\/-/\/-/\/-/\/-/\/-/\/
 72
    65
 73
     2
 40
11.00009999999999
 49
0.0001
 74
     4
 75
   135
340
52
 46
0.04
 50
0.0
 44
0.0
 45
0.0
 49
-11.0
 74
     0
  0
LTYPE
  5
166
330
5
100
AcDbSymbolTableRecord
100
AcDbLinetypeTableRecord
  2
ACJISTGL
 70
     0
  3
_ _ _ _ _
 72
    65
 73
     2
 40
3.0
 49
2.0
 74
     0
 49
-1.0
 74
     0
  0
LTYPE
  5
26A
330
5
100
AcDbSymbolTableRecord
100
AcDbLinetypeTableRecord
  2
ACJISTGB
 70
     0
  3
__ . . __ . .
 72
    65
 73
     6
 40
9.0
 49
4.0
 74
     0
 49
-1.0
 74
     0
 49
1.0
 74
     0
 49
-1.0
 74
     0
 49
1.0
 74
     0
 49
-1.0
 74
     0
  0
ENDTAB
  0
TABLE
  2
LAYER
  5
2
330
0
100
AcDbSymbolTable
 70
     8
  0
LAYER
  5
10
330
2
100
AcDbSymbolTableRecord
100
AcDbLayerTableRecord
  2
0
 70
     0
 62
     7
  6
CONTINUOUS
  0
LAYER
  5
3F9
330
2
100
AcDbSymbolTableRecord
100
AcDbLayerTableRecord
  2
AM_0
 70
     0
 62
     7
  6
CONTINUOUS
  0
LAYER
  5
BA4
330
2
100
AcDbSymbolTableRecord
100
AcDbLayerTableRecord
  2
AM_5
 70
     0
 62
     3
  6
CONTINUOUS
  0
LAYER
  5
BA5
330
2
100
AcDbSymbolTableRecord
100
AcDbLayerTableRecord
  2
AM_11
 70
     0
 62
     3
  6
AM_ISO09W050
  0
LAYER
  5
BA6
330
2
100
AcDbSymbolTableRecord
100
AcDbLayerTableRecord
  2
AM_7
 70
     0
 62
     4
  6
AM_ISO08W050
  0
LAYER
  5
E64
330
2
100
AcDbSymbolTableRecord
100
AcDbLayerTableRecord
  2
AM_6
 70
     0
 62
     2
  6
CONTINUOUS
  0
LAYER
  5
F4D
330
2
100
AcDbSymbolTableRecord
100
AcDbLayerTableRecord
  2
DEFPOINTS
 70
     0
 62
     7
  6
CONTINUOUS
  0
LAYER
  5
19A7
330
2
100
AcDbSymbolTableRecord
100
AcDbLayerTableRecord
  2
AM_CL
 70
     0
 62
     1
  6
AMCONSTR
  0
ENDTAB
  0
TABLE
  2
STYLE
  5
3
330
0
100
AcDbSymbolTable
 70
     5
  0
STYLE
  5
11
330
3
100
AcDbSymbolTableRecord
100
AcDbTextStyleTableRecord
  2
STANDARD
 70
     0
 40
0.0
 41
1.0
 50
0.0
 71
     0
 42
2.5
  3
simplex.shx
  4
EXTFONT.SHX
  0
STYLE
  5
52
330
3
100
AcDbSymbolTableRecord
100
AcDbTextStyleTableRecord
  2

 70
     1
 40
0.0
 41
1.0
 50
0.0
 71
     0
 42
2.5
  3
ltypeshp.shx
  4

  0
STYLE
  5
6B
330
3
100
AcDbSymbolTableRecord
100
AcDbTextStyleTableRecord
  2
ASAMI
 70
     0
 40
0.0
 41
1.0
 50
0.0
 71
     0
 42
2.5
  3
simplex.shx
  4
EXTFONT.SHX
  0
STYLE
  5
262
330
3
100
AcDbSymbolTableRecord
100
AcDbTextStyleTableRecord
  2
ACJISTS
 70
     0
 40
1.0
 41
1.0
 50
0.0
 71
     0
 42
2.5
  3
simplex.shx
  4
bigfont.shx
  0
STYLE
  5
269
330
3
100
AcDbSymbolTableRecord
100
AcDbTextStyleTableRecord
  2
ACJISGDT
 70
     0
 40
0.0
 41
1.0
 50
0.0
 71
     0
 42
2.5
  3
amgdtans.shx
  4

  0
ENDTAB
  0
TABLE
  2
VIEW
  5
6
330
0
100
AcDbSymbolTable
 70
     0
  0
ENDTAB
  0
TABLE
  2
UCS
  5
7
330
0
100
AcDbSymbolTable
 70
     0
  0
ENDTAB
  0
TABLE
  2
APPID
  5
9
330
0
100
AcDbSymbolTable
 70
    12
  0
APPID
  5
12
330
9
100
AcDbSymbolTableRecord
100
AcDbRegAppTableRecord
  2
ACAD
 70
     0
  0
APPID
  5
30
330
9
100
AcDbSymbolTableRecord
100
AcDbRegAppTableRecord
  2
MCAD_NO_VIS
 70
     0
  0
APPID
  5
31
330
9
100
AcDbSymbolTableRecord
100
AcDbRegAppTableRecord
  2
ACAD_TEMP_GRAPHIC
 70
     0
  0
APPID
  5
2C2
330
9
100
AcDbSymbolTableRecord
100
AcDbRegAppTableRecord
  2
GENIUS_GENDTOL_13
 70
     0
  0
APPID
  5
339
330
9
100
AcDbSymbolTableRecord
100
AcDbRegAppTableRecord
  2
GENIUS_GENODEF_13
 70
     0
  0
APPID
  5
33A
330
9
100
AcDbSymbolTableRecord
100
AcDbRegAppTableRecord
  2
GENIUS_GENOBJ-N-RSBK_13
 70
     0
  0
APPID
  5
33B
330
9
100
AcDbSymbolTableRecord
100
AcDbRegAppTableRecord
  2
GENIUS_GENOBJ-N-LIB_13
 70
     0
  0
APPID
  5
33C
330
9
100
AcDbSymbolTableRecord
100
AcDbRegAppTableRecord
  2
GENIUS_GENSCALE_13
 70
     0
  0
APPID
  5
378
330
9
100
AcDbSymbolTableRecord
100
AcDbRegAppTableRecord
  2
GENIUS_GENDIMSH_14
 70
     0
  0
APPID
  5
BB0
330
9
100
AcDbSymbolTableRecord
100
AcDbRegAppTableRecord
  2
GENIUS_GENOBJ-N-CEN_13
 70
     0
  0
APPID
  5
BB1
330
9
100
AcDbSymbolTableRecord
100
AcDbRegAppTableRecord
  2
GENIUS_GENFIL_13
 70
     0
  0
APPID
  5
BB2
330
9
100
AcDbSymbolTableRecord
100
AcDbRegAppTableRecord
  2
GENIUS_GENOBJ-N-CHA_13
 70
     0
  0
ENDTAB
  0
TABLE
  2
DIMSTYLE
  5
A
330
0
100
AcDbSymbolTable
 70
    17
  0
DIMSTYLE
105
58
102
{ACAD_REACTORS
330
F4C
330
10E0
330
155D
330
1606
102
}
330
A
100
AcDbSymbolTableRecord
100
AcDbDimStyleTableRecord
  2
AM_JIS
 70
     0
  3

  4
"
  5
OPEN30
  6

  7

 40
0.5
 41
2.5
 42
1.0
 43
12.0
 44
1.0
 45
0.0
 46
0.0
 47
0.1
 48
0.1
140
3.2
141
0.0
142
0.0
143
0.0393701
144
1.0
145
0.0
146
0.71
147
1.5
 71
     0
 72
     0
 73
     0
 74
     0
 75
     0
 76
     0
 77
     3
 78
     8
170
     0
171
     2
172
     1
173
     0
174
     0
175
     0
176
   256
177
   256
178
     2
270
     2
271
     3
272
     3
273
     2
274
     2
340
6B
275
     0
280
     0
281
     0
282
     0
283
     0
284
     0
285
     0
286
     0
287
     3
288
     0
  0
DIMSTYLE
105
5F
330
A
100
AcDbSymbolTableRecord
100
AcDbDimStyleTableRecord
  2
AM_JIS$3
 70
     0
  3

  4
"
  5
OPEN30
  6

  7

 40
0.5
 41
2.5
 42
1.0
 43
10.0
 44
1.0
 45
0.0
 46
0.0
 47
0.1
 48
0.1
140
3.2
141
0.0
142
0.0
143
0.0393701
144
1.0
145
0.0
146
0.71
147
1.5
 71
     0
 72
     0
 73
     0
 74
     1
 75
     0
 76
     0
 77
     3
 78
     8
170
     0
171
     2
172
     0
173
     0
174
     0
175
     0
176
   256
177
   256
178
     2
270
     2
271
     2
272
     3
273
     2
274
     2
340
6B
275
     0
280
     0
281
     0
282
     0
283
     0
284
     0
285
     0
286
     0
287
     0
288
     1
  0
DIMSTYLE
105
60
330
A
100
AcDbSymbolTableRecord
100
AcDbDimStyleTableRecord
  2
AM_JIS$4
 70
     0
  3

  4
"
  5
OPEN30
  6

  7

 40
0.5
 41
2.5
 42
1.0
 43
10.0
 44
1.0
 45
0.0
 46
0.0
 47
0.1
 48
0.1
140
3.2
141
0.0
142
0.0
143
0.0393701
144
1.0
145
0.0
146
0.71
147
1.5
 71
     0
 72
     0
 73
     0
 74
     1
 75
     0
 76
     0
 77
     3
 78
     8
170
     0
171
     2
172
     0
173
     0
174
     0
175
     0
176
   256
177
   256
178
     2
270
     2
271
     2
272
     3
273
     2
274
     2
340
6B
275
     0
280
     0
281
     0
282
     0
283
     0
284
     0
285
     0
286
     0
287
     0
288
     1
  0
DIMSTYLE
105
61
330
A
100
AcDbSymbolTableRecord
100
AcDbDimStyleTableRecord
  2
AM_JIS$6
 70
     0
  3

  4
"
  5
OPEN30
  6

  7

 40
0.5
 41
2.5
 42
1.0
 43
10.0
 44
1.0
 45
0.0
 46
0.0
 47
0.1
 48
0.1
140
3.2
141
0.0
142
0.0
143
0.0393701
144
1.0
145
0.0
146
0.71
147
1.5
 71
     0
 72
     0
 73
     0
 74
     0
 75
     0
 76
     0
 77
     0
 78
     8
170
     0
171
     2
172
     1
173
     0
174
     0
175
     0
176
   256
177
   256
178
     2
270
     2
271
     2
272
     2
273
     2
274
     2
340
6B
275
     0
280
     0
281
     0
282
     0
283
     0
284
     0
285
     0
286
     0
287
     3
288
     0
  0
DIMSTYLE
105
62
330
A
100
AcDbSymbolTableRecord
100
AcDbDimStyleTableRecord
  2
AM_JIS$7
 70
     0
  3

  4
"
  5
OPEN30
  6

  7

 40
0.5
 41
2.5
 42
1.0
 43
10.0
 44
1.0
 45
0.0
 46
0.0
 47
0.1
 48
0.1
140
3.2
141
0.0
142
0.0
143
0.0393701
144
1.0
145
0.0
146
0.71
147
1.5
 71
     0
 72
     0
 73
     0
 74
     0
 75
     0
 76
     0
 77
     3
 78
     8
170
     0
171
     2
172
     1
173
     0
174
     0
175
     0
176
   256
177
   256
178
     2
270
     2
271
     2
272
     3
273
     2
274
     2
340
6B
275
     0
280
     0
281
     0
282
     0
283
     0
284
     0
285
     0
286
     0
287
     3
288
     0
  0
DIMSTYLE
105
63
330
A
100
AcDbSymbolTableRecord
100
AcDbDimStyleTableRecord
  2
AM_JIS$SF
 70
     0
  3

  4
"
  5
OPEN30
  6

  7

 40
0.5
 41
2.5
 42
1.0
 43
10.0
 44
1.0
 45
0.0
 46
0.0
 47
0.1
 48
0.1
140
3.2
141
0.0
142
0.0
143
0.0393701
144
1.0
145
0.0
146
0.71
147
1.5
 71
     0
 72
     0
 73
     0
 74
     0
 75
     1
 76
     1
 77
     3
 78
     8
170
     0
171
     2
172
     1
173
     0
174
     0
175
     0
176
   256
177
   256
178
     2
270
     2
271
     2
272
     2
273
     2
274
     2
340
6B
275
     0
280
     0
281
     0
282
     0
283
     0
284
     0
285
     0
286
     0
287
     3
288
     0
  0
DIMSTYLE
105
68
330
A
100
AcDbSymbolTableRecord
100
AcDbDimStyleTableRecord
  2
AM_JIS$SH
 70
     0
  3

  4
"
  5

  6
GENAXEH
  7
OPEN30
 40
0.5
 41
2.5
 42
1.0
 43
10.0
 44
1.0
 45
0.0
 46
0.0
 47
0.1
 48
0.1
140
3.2
141
0.0
142
0.0
143
0.0393701
144
2.0
145
0.0
146
0.71
147
1.5
 71
     0
 72
     0
 73
     0
 74
     0
 75
     1
 76
     1
 77
     3
 78
     8
170
     0
171
     2
172
     1
173
     1
174
     0
175
     0
176
   256
177
   256
178
     2
270
     2
271
     2
272
     2
273
     2
274
     2
340
6B
275
     0
280
     0
281
     0
282
     0
283
     0
284
     0
285
     0
286
     0
287
     3
288
     0
  0
DIMSTYLE
105
B34
330
A
100
AcDbSymbolTableRecord
100
AcDbDimStyleTableRecord
  2
AM_JIS$2
 70
     0
  3

  4
"
  5
OPEN30
  6

  7

 40
0.5
 41
2.5
 42
1.0
 43
12.0
 44
1.0
 45
0.0
 46
0.0
 47
0.1
 48
0.1
140
3.2
141
0.0
142
0.0
143
0.0393701
144
1.0
145
0.0
146
0.71
147
1.5
 71
     0
 72
     0
 73
     0
 74
     0
 75
     0
 76
     0
 77
     3
 78
     8
170
     0
171
     2
172
     1
173
     0
174
     0
175
     0
176
   256
177
   256
178
     2
270
     2
271
     3
272
     3
273
     2
274
     2
340
6B
275
     0
280
     0
281
     0
282
     0
283
     0
284
     0
285
     0
286
     0
287
     3
288
     0
  0
DIMSTYLE
105
18ED
330
A
100
AcDbSymbolTableRecord
100
AcDbDimStyleTableRecord
  2
AM_ISO
 70
     0
  3

  4
"
  5
OPEN30
  6

  7

 40
1.0
 41
2.5
 42
0.2
 43
10.0
 44
1.0
 45
0.0
 46
0.0
 47
0.1
 48
0.1000000001
140
3.5
141
0.0
142
0.0
143
0.0393701
144
1.0
145
0.0
146
0.71
147
0.9999999999999996
 71
     0
 72
     0
 73
     0
 74
     0
 75
     0
 76
     0
 77
     3
 78
     1
170
     0
171
     2
172
     1
173
     0
174
     0
175
     0
176
     3
177
     3
178
     2
270
     2
271
     3
272
     3
273
     2
274
     2
340
11
275
     1
280
     0
281
     0
282
     0
283
     0
284
     1
285
     0
286
     0
287
     3
288
     0
  0
DIMSTYLE
105
18EE
330
A
100
AcDbSymbolTableRecord
100
AcDbDimStyleTableRecord
  2
AM_ISO$3
 70
     0
  3

  4
"
  5

  6

  7

 40
1.0
 41
2.5
 42
1.0
 43
10.0
 44
1.0
 45
0.0
 46
0.0
 47
0.1
 48
0.1
140
3.5
141
0.0
142
0.0
143
0.0393701
144
1.0
145
0.0
146
0.71
147
1.5
 71
     0
 72
     0
 73
     0
 74
     1
 75
     0
 76
     0
 77
     1
 78
     8
170
     0
171
     2
172
     0
173
     0
174
     0
175
     0
176
   256
177
   256
178
     2
270
     2
271
     2
272
     3
273
     2
274
     4
340
11
275
     0
280
     0
281
     0
282
     0
283
     0
284
     8
285
     0
286
     0
287
     0
288
     1
  0
DIMSTYLE
105
18EF
330
A
100
AcDbSymbolTableRecord
100
AcDbDimStyleTableRecord
  2
AM_ISO$4
 70
     0
  3

  4
"
  5

  6

  7
OPEN30
 40
1.0
 41
2.5
 42
1.0
 43
10.0
 44
1.0
 45
0.0
 46
0.0
 47
0.1
 48
0.1
140
3.5
141
0.0
142
0.0
143
0.0393701
144
1.0
145
0.0
146
0.71
147
0.9999999999999996
 71
     0
 72
     0
 73
     0
 74
     1
 75
     0
 76
     0
 77
     1
 78
     1
170
     0
171
     2
172
     0
173
     1
174
     0
175
     0
176
     3
177
     3
178
     2
270
     2
271
     2
272
     2
273
     2
274
     2
340
11
275
     0
280
     0
281
     0
282
     0
283
     0
284
     8
285
     0
286
     0
287
     0
288
     1
  0
DIMSTYLE
105
18F0
330
A
100
AcDbSymbolTableRecord
100
AcDbDimStyleTableRecord
  2
AM_ISO$6
 70
     0
  3

  4
"
  5

  6

  7

 40
1.0
 41
2.5
 42
1.0
 43
10.0
 44
1.0
 45
0.0
 46
0.0
 47
0.1
 48
0.1
140
3.5
141
0.0
142
0.0
143
0.0393701
144
1.0
145
0.0
146
0.71
147
0.9999999999999996
 71
     0
 72
     0
 73
     0
 74
     0
 75
     0
 76
     0
 77
     0
 78
     8
170
     0
171
     2
172
     1
173
     0
174
     0
175
     0
176
     3
177
   256
178
     2
270
     2
271
     2
272
     2
273
     2
274
     2
340
11
275
     0
280
     0
281
     0
282
     0
283
     0
284
     8
285
     0
286
     0
287
     3
288
     0
  0
DIMSTYLE
105
18F1
330
A
100
AcDbSymbolTableRecord
100
AcDbDimStyleTableRecord
  2
AM_ISO$7
 70
     0
  3

  4
"
  5
OPEN30
  6

  7

 40
1.0
 41
2.5
 42
0.1999999999999997
 43
10.0
 44
1.0
 45
0.0
 46
0.0
 47
0.1
 48
0.1
140
5.0
141
0.0
142
0.0
143
0.0393701
144
1.0
145
0.0
146
0.71
147
0.9999999999999996
 71
     0
 72
     0
 73
     0
 74
     0
 75
     0
 76
     0
 77
     1
 78
     1
170
     0
171
     2
172
     1
173
     0
174
     0
175
     0
176
     3
177
     3
178
     2
270
     2
271
     2
272
     2
273
     2
274
     2
340
11
275
     0
280
     0
281
     0
282
     0
283
     0
284
     1
285
     0
286
     0
287
     3
288
     0
  0
DIMSTYLE
105
18F2
330
A
100
AcDbSymbolTableRecord
100
AcDbDimStyleTableRecord
  2
AM_ISO$SF
 70
     0
  3

  4
"
  5
OPEN30
  6

  7

 40
1.0
 41
2.5
 42
1.0
 43
10.0
 44
1.0
 45
0.0
 46
0.0
 47
0.1
 48
0.1
140
3.5
141
0.0
142
0.0
143
0.0393701
144
1.0
145
0.0
146
0.71
147
0.9999999999999996
 71
     0
 72
     0
 73
     0
 74
     0
 75
     1
 76
     1
 77
     1
 78
     1
170
     0
171
     2
172
     1
173
     0
174
     0
175
     0
176
     3
177
   256
178
     2
270
     2
271
     2
272
     2
273
     2
274
     2
340
11
275
     0
280
     0
281
     0
282
     0
283
     0
284
     8
285
     0
286
     0
287
     3
288
     0
  0
DIMSTYLE
105
18F3
330
A
100
AcDbSymbolTableRecord
100
AcDbDimStyleTableRecord
  2
AM_ISO$SH
 70
     0
  3

  4
"
  5

  6
GENAXEH
  7
OPEN30
 40
1.0
 41
2.5
 42
1.0
 43
10.0
 44
1.0
 45
0.0
 46
0.0
 47
0.1
 48
0.1
140
3.5
141
0.0
142
0.0
143
0.0393701
144
2.0
145
0.0
146
0.71
147
0.9999999999999996
 71
     0
 72
     0
 73
     0
 74
     0
 75
     1
 76
     1
 77
     1
 78
     1
170
     0
171
     2
172
     1
173
     1
174
     0
175
     0
176
     3
177
   256
178
     2
270
     2
271
     2
272
     2
273
     2
274
     2
340
11
275
     0
280
     0
281
     0
282
     0
283
     0
284
     8
285
     0
286
     0
287
     3
288
     0
  0
DIMSTYLE
105
18F4
330
A
100
AcDbSymbolTableRecord
100
AcDbDimStyleTableRecord
  2
AM_ISO$2
 70
     0
  3

  4
"
  5
OPEN30
  6

  7

 40
1.0
 41
2.5
 42
0.2
 43
10.0
 44
1.0
 45
0.0
 46
0.0
 47
0.1
 48
0.1000000001
140
3.5
141
0.0
142
0.0
143
0.0393701
144
1.0
145
0.0
146
0.71
147
0.9999999999999996
 71
     0
 72
     0
 73
     0
 74
     0
 75
     0
 76
     0
 77
     3
 78
     1
170
     0
171
     2
172
     1
173
     0
174
     0
175
     0
176
     3
177
     3
178
     2
270
     2
271
     3
272
     3
273
     2
274
     2
340
11
275
     1
280
     0
281
     0
282
     0
283
     0
284
     1
285
     0
286
     0
287
     3
288
     0
  0
DIMSTYLE
105
18F5
330
A
100
AcDbSymbolTableRecord
100
AcDbDimStyleTableRecord
  2
AM_ISO$0
 70
     0
  3

  4
"
  5
OPEN30
  6

  7

 40
1.0
 41
2.5
 42
0.2
 43
10.0
 44
1.0
 45
0.0
 46
0.0
 47
0.1
 48
0.1000000001
140
3.5
141
0.0
142
0.0
143
0.0393701
144
1.0
145
0.0
146
0.71
147
0.9999999999999996
 71
     0
 72
     0
 73
     0
 74
     0
 75
     0
 76
     0
 77
     3
 78
     1
170
     0
171
     2
172
     1
173
     0
174
     0
175
     0
176
     3
177
     3
178
     2
270
     2
271
     3
272
     3
273
     2
274
     2
340
11
275
     1
280
     0
281
     0
282
     0
283
     0
284
     1
285
     0
286
     0
287
     3
288
     0
  0
ENDTAB
  0
TABLE
  2
BLOCK_RECORD
  5
1
330
0
100
AcDbSymbolTable
 70
    10
  0
BLOCK_RECORD
  5
1F
102
{ACAD_XDICTIONARY
360
74
102
}
330
1
100
AcDbSymbolTableRecord
100
AcDbBlockTableRecord
  2
*MODEL_SPACE
  0
BLOCK_RECORD
  5
101
102
{ACAD_XDICTIONARY
360
1CAB
102
}
330
1
100
AcDbSymbolTableRecord
100
AcDbBlockTableRecord
  2
*PAPER_SPACE
  0
BLOCK_RECORD
  5
59
330
1
100
AcDbSymbolTableRecord
100
AcDbBlockTableRecord
  2
_OPEN30
  0
BLOCK_RECORD
  5
64
330
1
100
AcDbSymbolTableRecord
100
AcDbBlockTableRecord
  2
GENAXEH
  0
BLOCK_RECORD
  5
F4E
330
1
100
AcDbSymbolTableRecord
100
AcDbBlockTableRecord
  2
*D5
  0
BLOCK_RECORD
  5
10E1
330
1
100
AcDbSymbolTableRecord
100
AcDbBlockTableRecord
  2
*D6
  0
BLOCK_RECORD
  5
155E
330
1
100
AcDbSymbolTableRecord
100
AcDbBlockTableRecord
  2
*D7
  0
BLOCK_RECORD
  5
1607
330
1
100
AcDbSymbolTableRecord
100
AcDbBlockTableRecord
  2
*D8
  0
BLOCK_RECORD
  5
18F6
330
1
100
AcDbSymbolTableRecord
100
AcDbBlockTableRecord
  2
A$C016D54FE
  0
ENDTAB
  0
ENDSEC
  0
SECTION
  2
BLOCKS
  0
BLOCK
  5
20
330
1F
100
AcDbEntity
  8
0
100
AcDbBlockBegin
  2
*MODEL_SPACE
 70
     0
 10
0.0
 20
0.0
 30
0.0
  3
*MODEL_SPACE
  1

  0
ENDBLK
  5
21
330
1F
100
AcDbEntity
  8
0
100
AcDbBlockEnd
  0
BLOCK
  5
103
330
101
100
AcDbEntity
 67
     1
  8
0
100
AcDbBlockBegin
  2
*PAPER_SPACE
 70
     0
 10
0.0
 20
0.0
 30
0.0
  3
*PAPER_SPACE
  1

  0
ENDBLK
  5
104
330
101
100
AcDbEntity
 67
     1
  8
0
100
AcDbBlockEnd
  0
BLOCK
  5
5D
330
59
100
AcDbEntity
  8
0
100
AcDbBlockBegin
  2
_OPEN30
 70
     0
 10
0.0
 20
0.0
 30
0.0
  3
_OPEN30
  1

  0
LINE
  5
5A
330
59
100
AcDbEntity
  8
0
 62
     0
100
AcDbLine
 10
-1.0
 20
0.26794919
 30
0.0
 11
0.0
 21
0.0
 31
0.0
  0
LINE
  5
5B
330
59
100
AcDbEntity
  8
0
 62
     0
100
AcDbLine
 10
0.0
 20
0.0
 30
0.0
 11
-1.0
 21
-0.26794919
 31
0.0
  0
LINE
  5
5C
330
59
100
AcDbEntity
  8
0
 62
     0
100
AcDbLine
 10
0.0
 20
0.0
 30
0.0
 11
-1.0
 21
0.0
 31
0.0
  0
ENDBLK
  5
5E
330
59
100
AcDbEntity
  8
0
100
AcDbBlockEnd
  0
BLOCK
  5
66
330
64
100
AcDbEntity
  8
0
100
AcDbBlockBegin
  2
GENAXEH
 70
     0
 10
0.0
 20
0.0
 30
0.0
  3
GENAXEH
  1

  0
LINE
  5
65
330
64
100
AcDbEntity
  8
0
100
AcDbLine
 10
-1.0
 20
0.0
 30
0.0
 11
1.0
 21
0.0
 31
0.0
  0
ENDBLK
  5
67
330
64
100
AcDbEntity
  8
0
100
AcDbBlockEnd
  0
BLOCK
  5
F59
330
F4E
100
AcDbEntity
  8
0
100
AcDbBlockBegin
  2
*D5
 70
     1
 10
0.0
 20
0.0
 30
0.0
  3
*D5
  1

  0
LINE
  5
1932
330
F4E
100
AcDbEntity
  8
AM_5
100
AcDbLine
 10
-40.00000000000016
 20
-2.166666666900141
 30
0.0
 11
-40.00000000000016
 21
-15.50000000023345
 31
0.0
  0
LINE
  5
1933
330
F4E
100
AcDbEntity
  8
AM_5
100
AcDbLine
 10
-0.0000000000001706
 20
-1.500000000069917
 30
0.0
 11
-0.0000000000001714
 21
-15.50000000023345
 31
0.0
  0
LINE
  5
1934
330
F4E
100
AcDbEntity
  8
AM_5
100
AcDbLine
 10
-38.75000000000017
 20
-15.00000000023345
 30
0.0
 11
-1.250000000000171
 21
-15.00000000023345
 31
0.0
  0
INSERT
  5
1935
330
F4E
100
AcDbEntity
  8
AM_5
100
AcDbBlockReference
  2
_OPEN30
 10
-40.00000000000016
 20
-15.00000000023345
 30
0.0
 41
1.25
 42
1.25
 43
1.25
 50
180.0
  0
INSERT
  5
1936
330
F4E
100
AcDbEntity
  8
AM_5
100
AcDbBlockReference
  2
_OPEN30
 10
-0.0000000000001714
 20
-15.00000000023345
 30
0.0
 41
1.25
 42
1.25
 43
1.25
  0
MTEXT
  5
1937
330
F4E
100
AcDbEntity
  8
AM_5
 62
     2
100
AcDbMText
 10
-20.00000000000017
 20
-13.45000000023345
 30
0.0
 40
1.6
 41
0.0
 71
     5
 72
     1
  1
40
  7
ASAMI
1001
ACAD
1000
MTEXTBEGIN
1070
    73
1070
     1
1070
    44
1040
1.0
1070
    74
1070
     0
1000
MTEXTEND
  0
POINT
  5
1938
330
F4E
100
AcDbEntity
  8
DEFPOINTS
 62
     0
100
AcDbPoint
 10
-40.00000000000016
 20
-1.666666666900141
 30
0.0
  0
POINT
  5
1939
330
F4E
100
AcDbEntity
  8
DEFPOINTS
 62
     0
100
AcDbPoint
 10
-0.0000000000001706
 20
-1.000000000069917
 30
0.0
  0
POINT
  5
193A
330
F4E
100
AcDbEntity
  8
DEFPOINTS
 62
     0
100
AcDbPoint
 10
-0.0000000000001714
 20
-15.00000000023345
 30
0.0
  0
ENDBLK
  5
F5A
330
F4E
100
AcDbEntity
  8
0
100
AcDbBlockEnd
  0
BLOCK
  5
10ED
330
10E1
100
AcDbEntity
  8
0
100
AcDbBlockBegin
  2
*D6
 70
     1
 10
0.0
 20
0.0
 30
0.0
  3
*D6
  1

  0
LINE
  5
1BCD
330
10E1
100
AcDbEntity
  8
AM_5
100
AcDbLine
 10
-6.000000000000348
 20
-1.500000000140056
 30
0.0
 11
-6.000000000000332
 21
-9.500000000233468
 31
0.0
  0
LINE
  5
1BCE
330
10E1
100
AcDbEntity
  8
AM_5
100
AcDbLine
 10
-0.0000000000004518
 20
-1.500000000069917
 30
0.0
 11
-0.0000000000004361
 21
-9.500000000233455
 31
0.0
  0
LINE
  5
1BCF
330
10E1
100
AcDbEntity
  8
AM_5
100
AcDbLine
 10
-4.750000000000333
 20
-9.000000000233464
 30
0.0
 11
-1.250000000000436
 21
-9.000000000233457
 31
0.0
  0
INSERT
  5
1BD0
330
10E1
100
AcDbEntity
  8
AM_5
100
AcDbBlockReference
  2
_OPEN30
 10
-6.000000000000333
 20
-9.000000000233468
 30
0.0
 41
1.25
 42
1.25
 43
1.25
 50
180.0000000000001
  0
INSERT
  5
1BD1
330
10E1
100
AcDbEntity
  8
AM_5
100
AcDbBlockReference
  2
_OPEN30
 10
-0.0000000000004371
 20
-9.000000000233455
 30
0.0
 41
1.25
 42
1.25
 43
1.25
 50
0.0000000000001018
  0
MTEXT
  5
1BD2
330
10E1
100
AcDbEntity
  8
AM_5
 62
     2
100
AcDbMText
 10
-3.000000000000388
 20
-7.450000000233462
 30
0.0
 40
1.6
 41
0.0
 71
     5
 72
     1
  1
6
  7
ASAMI
1001
ACAD
1000
MTEXTBEGIN
1070
    73
1070
     1
1070
    44
1040
1.0
1070
    74
1070
     0
1000
MTEXTEND
  0
POINT
  5
1BD3
330
10E1
100
AcDbEntity
  8
DEFPOINTS
 62
     0
100
AcDbPoint
 10
-6.00000000000035
 20
-1.000000000140044
 30
0.0
  0
POINT
  5
1BD4
330
10E1
100
AcDbEntity
  8
DEFPOINTS
 62
     0
100
AcDbPoint
 10
-0.0000000000004548
 20
-1.000000000069917
 30
0.0
  0
POINT
  5
1BD5
330
10E1
100
AcDbEntity
  8
DEFPOINTS
 62
     0
100
AcDbPoint
 10
-0.0000000000004553
 20
-9.000000000233455
 30
0.0
  0
ENDBLK
  5
10EE
330
10E1
100
AcDbEntity
  8
0
100
AcDbBlockEnd
  0
BLOCK
  5
156A
330
155E
100
AcDbEntity
  8
0
100
AcDbBlockBegin
  2
*D7
 70
     1
 10
0.0
 20
0.0
 30
0.0
  3
*D7
  1

  0
LINE
  5
187B
330
155E
100
AcDbEntity
  8
AM_5
100
AcDbLine
 10
0.4999999999998317
 20
-1.000000000139919
 30
0.0
 11
7.500000000000001
 21
-1.000000000139905
 31
0.0
  0
LINE
  5
187C
330
155E
100
AcDbEntity
  8
AM_5
100
AcDbLine
 10
0.4999999999998273
 20
1.000000000140091
 30
0.0
 11
7.499999999999998
 21
1.000000000140105
 31
0.0
  0
LINE
  5
187D
330
155E
100
AcDbEntity
  8
AM_5
100
AcDbLine
 10
7.000000000000004
 20
-2.250000000139906
 30
0.0
 11
7.000000000000007
 21
-3.500000000139906
 31
0.0
  0
LINE
  5
187E
330
155E
100
AcDbEntity
  8
AM_5
100
AcDbLine
 10
6.999999999999995
 20
2.250000000140103
 30
0.0
 11
6.999999999999984
 21
7.514285714425818
 31
0.0
  0
LINE
  5
187F
330
155E
100
AcDbEntity
  8
AM_5
100
AcDbLine
 10
7.000000000000001
 20
-1.000000000139906
 30
0.0
 11
6.999999999999998
 21
1.000000000140104
 31
0.0
  0
INSERT
  5
1880
330
155E
100
AcDbEntity
  8
AM_5
100
AcDbBlockReference
  2
_OPEN30
 10
7.000000000000001
 20
-1.000000000139906
 30
0.0
 41
1.25
 42
1.25
 43
1.25
 50
90.0000000000001
  0
INSERT
  5
1881
330
155E
100
AcDbEntity
  8
AM_5
100
AcDbBlockReference
  2
_OPEN30
 10
6.999999999999998
 20
1.000000000140104
 30
0.0
 41
1.25
 42
1.25
 43
1.25
 50
270.0000000000001
  0
MTEXT
  5
1882
330
155E
100
AcDbEntity
  8
AM_5
 62
     2
100
AcDbMText
 10
5.449999999999987
 20
5.507142857282957
 30
0.0
 40
1.6
 41
0.0
 71
     5
 72
     1
  1
%%c2
  7
ASAMI
 11
-0.000000000000002
 21
1.0
 31
0.0
1001
ACAD
1000
MTEXTBEGIN
1070
    73
1070
     1
1070
    44
1040
1.0
1070
    74
1070
     0
1000
MTEXTEND
  0
POINT
  5
1883
330
155E
100
AcDbEntity
  8
DEFPOINTS
 62
     0
100
AcDbPoint
 10
-0.0000000000001705
 20
-1.00000000013992
 30
0.0
  0
POINT
  5
1884
330
155E
100
AcDbEntity
  8
DEFPOINTS
 62
     0
100
AcDbPoint
 10
-0.0000000000001705
 20
1.00000000014009
 30
0.0
  0
POINT
  5
1885
330
155E
100
AcDbEntity
  8
DEFPOINTS
 62
     0
100
AcDbPoint
 10
7.0
 20
1.000000000140088
 30
0.0
  0
ENDBLK
  5
156B
330
155E
100
AcDbEntity
  8
0
100
AcDbBlockEnd
  0
BLOCK
  5
1613
330
1607
100
AcDbEntity
  8
0
100
AcDbBlockBegin
  2
*D8
 70
     1
 10
0.0
 20
0.0
 30
0.0
  3
*D8
  1

  0
LINE
  5
18A5
330
1607
100
AcDbEntity
  8
AM_5
100
AcDbLine
 10
-40.16666666666676
 20
-2.000000000233545
 30
0.0
 11
-47.50000000000047
 21
-2.000000000233559
 31
0.0
  0
LINE
  5
18A6
330
1607
100
AcDbEntity
  8
AM_5
100
AcDbLine
 10
-40.1666666666668
 20
2.00000000023348
 30
0.0
 11
-47.50000000000048
 21
2.000000000233466
 31
0.0
  0
LINE
  5
18A7
330
1607
100
AcDbEntity
  8
AM_5
100
AcDbLine
 10
-47.00000000000048
 20
-0.7500000002335583
 30
0.0
 11
-47.00000000000048
 21
0.7500000002334673
 31
0.0
  0
INSERT
  5
18A8
330
1607
100
AcDbEntity
  8
AM_5
100
AcDbBlockReference
  2
_OPEN30
 10
-47.00000000000048
 20
-2.000000000233558
 30
0.0
 41
1.25
 42
1.25
 43
1.25
 50
270.0000000000001
  0
INSERT
  5
18A9
330
1607
100
AcDbEntity
  8
AM_5
100
AcDbBlockReference
  2
_OPEN30
 10
-47.00000000000049
 20
2.000000000233467
 30
0.0
 41
1.25
 42
1.25
 43
1.25
 50
90.0000000000001
  0
MTEXT
  5
18AA
330
1607
100
AcDbEntity
  8
AM_5
 62
     2
100
AcDbMText
 10
-48.55000000000048
 20
-0.0000000000000467
 30
0.0
 40
1.6
 41
0.0
 71
     5
 72
     1
  1
%%c4
  7
ASAMI
 11
-0.000000000000002
 21
1.0
 31
0.0
1001
ACAD
1000
MTEXTBEGIN
1070
    73
1070
     1
1070
    44
1040
1.0
1070
    74
1070
     0
1000
MTEXTEND
  0
POINT
  5
18AB
330
1607
100
AcDbEntity
  8
DEFPOINTS
 62
     0
100
AcDbPoint
 10
-39.66666666666677
 20
-2.000000000233455
 30
0.0
  0
POINT
  5
18AC
330
1607
100
AcDbEntity
  8
DEFPOINTS
 62
     0
100
AcDbPoint
 10
-39.6666666666668
 20
2.000000000233569
 30
0.0
  0
POINT
  5
18AD
330
1607
100
AcDbEntity
  8
DEFPOINTS
 62
     0
100
AcDbPoint
 10
-47.00000000000048
 20
2.000000000233571
 30
0.0
  0
ENDBLK
  5
1614
330
1607
100
AcDbEntity
  8
0
100
AcDbBlockEnd
  0
BLOCK
  5
1925
330
18F6
100
AcDbEntity
  8
0
100
AcDbBlockBegin
  2
A$C016D54FE
 70
     0
 10
0.0
 20
0.0
 30
0.0
  3
A$C016D54FE
  1

  0
SPLINE
  5
18F7
330
18F6
100
AcDbEntity
  8
AM_0
100
AcDbSpline
210
0.0
220
0.0
230
1.0
 70
     8
 71
     3
 72
     9
 73
     5
 74
     3
 42
0.0000000001
 43
0.0000000001
 44
0.0000000001
 12
0.9155773884406151
 22
0.4021418229633208
 32
0.0
 13
-0.9454392485960068
 23
0.3257984456903036
 33
0.0
 40
0.0
 40
0.0
 40
0.0
 40
0.0
 40
0.9752106842987998
 40
1.864322173097649
 40
1.864322173097649
 40
1.864322173097649
 40
1.864322173097649
 10
25.8637746678819
 20
3.231931043786516
 30
0.0
 10
26.16140161838512
 20
3.362655377905592
 30
0.0
 10
26.81733671272644
 20
3.971614407929638
 30
0.0
 10
26.14397496717792
 20
4.525173497693077
 30
0.0
 10
25.8637746678819
 20
4.621730544725096
 30
0.0
 11
25.8637746678819
 21
3.231931043786516
 31
0.0
 11
26.48390130788357
 21
3.984578922366381
 31
0.0
 11
25.8637746678819
 21
4.621730544725096
 31
0.0
  0
SPLINE
  5
18F8
330
18F6
100
AcDbEntity
  8
AM_0
100
AcDbSpline
210
0.0
220
0.0
230
1.0
 70
     8
 71
     3
 72
     8
 73
     4
 74
     0
 42
0.0000000001
 43
0.0000000001
 40
0.5019518501107764
 40
0.5019518501107764
 40
0.5019518501107764
 40
0.5019518501107764
 40
4.378535384430282
 40
4.378535384430282
 40
4.378535384430282
 40
4.378535384430282
 10
25.65379557440246
 20
4.993796730141184
 30
0.0
 10
24.58263073767921
 20
4.962013414878128
 30
0.0
 10
23.53301652976324
 20
4.809297935546737
 30
0.0
 10
22.49999999775127
 20
4.563443973645235
 30
0.0
  0
SPLINE
  5
18F9
330
18F6
100
AcDbEntity
  8
AM_0
100
AcDbSpline
210
0.0
220
0.0
230
1.0
 70
     8
 71
     3
 72
     8
 73
     4
 74
     0
 42
0.0000000001
 43
0.0000000001
 40
0.0
 40
0.0
 40
0.0
 40
0.0
 40
4.378535384430282
 40
4.378535384430282
 40
4.378535384430282
 40
4.378535384430282
 10
26.0709833336582
 20
-4.999999999500005
 30
0.0
 10
24.8547235047713
 20
-4.999999999500005
 30
0.0
 10
23.66677465849897
 20
-4.841131855786329
 30
0.0
 10
22.49999999775127
 20
-4.563443973645348
 30
0.0
  0
SPLINE
  5
18FA
330
18F6
100
AcDbEntity
  8
AM_0
100
AcDbSpline
210
0.0
220
0.0
230
1.0
 70
     8
 71
     3
 72
     8
 73
     4
 74
     0
 42
0.0000000001
 43
0.0000000001
 40
4.930123281734562
 40
4.930123281734562
 40
4.930123281734562
 40
4.930123281734562
 40
5.98150379192352
 40
5.98150379192352
 40
5.98150379192352
 40
5.98150379192352
 10
22.49999999774991
 20
-4.452921543834918
 30
0.0
 10
22.22108612636657
 20
-4.379206868955634
 30
0.0
 10
21.94334128495165
 20
-4.298932138443092
 30
0.0
 10
21.6666666645001
 20
-4.212651822742941
 30
0.0
  0
SPLINE
  5
18FB
330
18F6
100
AcDbEntity
  8
AM_0
100
AcDbSpline
210
0.0
220
0.0
230
1.0
 70
     8
 71
     3
 72
     8
 73
     4
 74
     0
 42
0.0000000001
 43
0.0000000001
 40
15.33627168782457
 40
15.33627168782457
 40
15.33627168782457
 40
15.33627168782457
 40
17.36922565919391
 40
17.36922565919391
 40
17.36922565919391
 40
17.36922565919391
 10
25.88249920175212
 20
-0.8738173272090534
 30
0.0
 10
25.36921953963474
 20
-0.5852172143581811
 30
0.0
 10
24.85665420834948
 20
-0.2926086071790905
 30
0.0
 10
24.34408887706377
 20
0.0
 30
0.0
  0
SPLINE
  5
18FC
330
18F6
100
AcDbEntity
  8
AM_0
100
AcDbSpline
210
0.0
220
0.0
230
1.0
 70
     8
 71
     3
 72
     8
 73
     4
 74
     0
 42
0.0000000001
 43
0.0000000001
 40
14.93282203845248
 40
14.93282203845248
 40
14.93282203845248
 40
14.93282203845248
 40
17.36922565919391
 40
17.36922565919391
 40
17.36922565919391
 40
17.36922565919391
 10
22.49999999774991
 20
1.045134688824873
 30
0.0
 10
23.11551602534336
 20
0.7013564301319093
 30
0.0
 10
23.72980245120379
 20
0.3506782150659546
 30
0.0
 10
24.34408887706377
 20
0.0
 30
0.0
  0
SPLINE
  5
18FD
330
18F6
100
AcDbEntity
  8
AM_0
100
AcDbSpline
210
0.0
220
0.0
230
1.0
 70
     8
 71
     3
 72
     8
 73
     4
 74
     0
 42
0.0000000001
 43
0.0000000001
 40
11.62226891672235
 40
11.62226891672235
 40
11.62226891672235
 40
11.62226891672235
 40
12.71400530831269
 40
12.71400530831269
 40
12.71400530831269
 40
12.71400530831269
 10
21.6666666645001
 20
2.390970455507613
 30
0.0
 10
21.94498992410854
 20
2.251036388707689
 30
0.0
 10
22.22273082542869
 20
2.107834396472412
 30
0.0
 10
22.49999999774991
 20
1.961985279215127
 30
0.0
  0
SPLINE
  5
18FE
330
18F6
100
AcDbEntity
  8
AM_0
100
AcDbSpline
210
0.0
220
0.0
230
1.0
 70
     8
 71
     3
 72
     8
 73
     4
 74
     0
 42
0.0000000001
 43
0.0000000001
 40
2.18207306934647
 40
2.18207306934647
 40
2.18207306934647
 40
2.18207306934647
 40
4.062334410270949
 40
4.062334410270949
 40
4.062334410270949
 40
4.062334410270949
 10
24.34408887706377
 20
4.886587599303879
 30
0.0
 10
24.8550273025944
 20
4.822860782183056
 30
0.0
 10
25.36140084620365
 20
4.733517958477477
 30
0.0
 10
25.8637746678819
 20
4.621730544725096
 30
0.0
  0
SPLINE
  5
18FF
330
18F6
100
AcDbEntity
  8
AM_0
100
AcDbSpline
210
0.0
220
0.0
230
1.0
 70
     8
 71
     3
 72
     8
 73
     4
 74
     0
 42
0.0000000001
 43
0.0000000001
 40
0.3741227999429456
 40
0.3741227999429456
 40
0.3741227999429456
 40
0.3741227999429456
 40
4.843639605544031
 40
4.843639605544031
 40
4.843639605544031
 40
4.843639605544031
 10
22.49999999775127
 20
4.563443973640232
 30
0.0
 10
21.26264607551092
 20
4.537902709123386
 30
0.0
 10
20.04997735376855
 20
4.361472927392469
 30
0.0
 10
18.8554352601518
 20
4.074243962962555
 30
0.0
  0
SPLINE
  5
1900
330
18F6
100
AcDbEntity
  8
AM_0
100
AcDbSpline
210
0.0
220
0.0
230
1.0
 70
     8
 71
     3
 72
     8
 73
     4
 74
     0
 42
0.0000000001
 43
0.0000000001
 40
0.0
 40
0.0
 40
0.0
 40
0.0
 40
6.52449073614872
 40
6.52449073614872
 40
6.52449073614872
 40
6.52449073614872
 10
13.58333333197515
 20
-4.999999999500118
 30
0.0
 10
15.39569186961307
 20
-4.999999999500118
 30
0.0
 10
17.14518808027696
 20
-4.647245687442705
 30
0.0
 10
18.8554352601518
 20
-4.074243962962668
 30
0.0
  0
SPLINE
  5
1901
330
18F6
100
AcDbEntity
  8
AM_0
100
AcDbSpline
210
0.0
220
0.0
230
1.0
 70
     8
 71
     3
 72
     8
 73
     4
 74
     0
 42
0.0000000001
 43
0.0000000001
 40
0.3741227999429939
 40
0.3741227999429939
 40
0.3741227999429939
 40
0.3741227999429939
 40
17.19652136594934
 40
17.19652136594934
 40
17.19652136594934
 40
17.19652136594934
 10
22.49999999775127
 20
-4.56344397364046
 30
0.0
 10
17.84283866410305
 20
-4.467311583883429
 30
0.0
 10
13.53537387944561
 20
-2.233655791941714
 30
0.0
 10
9.227909094788174
 20
0.0
 30
0.0
  0
SPLINE
  5
1902
330
18F6
100
AcDbEntity
  8
AM_0
100
AcDbSpline
210
0.0
220
0.0
230
1.0
 70
     8
 71
     3
 72
     8
 73
     4
 74
     0
 42
0.0000000001
 43
0.0000000001
 40
4.707151308654438
 40
4.707151308654438
 40
4.707151308654438
 40
4.707151308654438
 40
17.36922565919391
 40
17.36922565919391
 40
17.36922565919391
 40
17.36922565919391
 10
23.33333333100245
 20
-4.498930334150941
 30
0.0
 10
19.96826916982354
 20
-3.644973759256572
 30
0.0
 10
16.77580125089934
 20
-1.822486879628286
 30
0.0
 10
13.58333333197515
 20
0.0
 30
0.0
  0
SPLINE
  5
1903
330
18F6
100
AcDbEntity
  8
AM_0
100
AcDbSpline
210
0.0
220
0.0
230
1.0
 70
     8
 71
     3
 72
     8
 73
     4
 74
     0
 42
0.0000000001
 43
0.0000000001
 40
4.979980140472286
 40
4.979980140472286
 40
4.979980140472286
 40
4.979980140472286
 40
17.31342149474397
 40
17.31342149474397
 40
17.31342149474397
 40
17.31342149474397
 10
21.6666666645001
 20
-4.318008506125579
 30
0.0
 10
18.38886726105602
 20
-3.464747111354199
 30
0.0
 10
15.26371299805987
 20
-1.732373555677213
 30
0.0
 10
12.13855873506372
 20
0.0
 30
0.0
  0
SPLINE
  5
1904
330
18F6
100
AcDbEntity
  8
AM_0
100
AcDbSpline
210
0.0
220
0.0
230
1.0
 70
     8
 71
     3
 72
     8
 73
     4
 74
     0
 42
0.0000000001
 43
0.0000000001
 40
0.0
 40
0.0
 40
0.0
 40
0.0
 40
16.79135171574957
 40
16.79135171574957
 40
16.79135171574957
 40
16.79135171574957
 10
9.227909094788174
 20
4.566662643211884
 30
0.0
 10
13.89217345980751
 20
4.566662643211884
 30
0.0
 10
18.20028244222339
 20
2.389659560604286
 30
0.0
 10
22.49999999774991
 20
0.1613638032345079
 30
0.0
  0
SPLINE
  5
1905
330
18F6
100
AcDbEntity
  8
AM_0
100
AcDbSpline
210
0.0
220
0.0
230
1.0
 70
     8
 71
     3
 72
     8
 73
     4
 74
     0
 42
0.0000000001
 43
0.0000000001
 40
0.0
 40
0.0
 40
0.0
 40
0.0
 40
11.99486664936919
 40
11.99486664936919
 40
11.99486664936919
 40
11.99486664936919
 10
12.13855873506372
 20
4.863737977786399
 30
0.0
 10
15.470466137333
 20
4.863737977786399
 30
0.0
 10
18.59969679785217
 20
3.696484386330894
 30
0.0
 10
21.6666666645001
 20
2.170659137245593
 30
0.0
  0
SPLINE
  5
1906
330
18F6
100
AcDbEntity
  8
AM_0
100
AcDbSpline
210
0.0
220
0.0
230
1.0
 70
     8
 71
     3
 72
     8
 73
     4
 74
     0
 42
0.0000000001
 43
0.0000000001
 40
0.0
 40
0.0
 40
0.0
 40
0.0
 40
12.31576592654833
 40
12.31576592654833
 40
12.31576592654833
 40
12.31576592654833
 10
13.58333333197515
 20
4.999999999500005
 30
0.0
 10
17.00437942234066
 20
4.999999999500005
 30
0.0
 10
20.20143992853673
 20
3.743096469863871
 30
0.0
 10
23.33333333099972
 20
2.120505286703973
 30
0.0
  0
SPLINE
  5
1907
330
18F6
100
AcDbEntity
  8
AM_0
100
AcDbSpline
210
0.0
220
0.0
230
1.0
 70
     8
 71
     3
 72
     8
 73
     4
 74
     0
 42
0.0000000001
 43
0.0000000001
 40
0.0
 40
0.0
 40
0.0
 40
0.0
 40
6.52449073614872
 40
6.52449073614872
 40
6.52449073614872
 40
6.52449073614872
 10
0.0
 20
-4.999999999500118
 30
0.0
 10
1.812358537637919
 20
-4.999999999500118
 30
0.0
 10
3.561854748301811
 20
-4.647245687442705
 30
0.0
 10
5.272101928176653
 20
-4.074243962962668
 30
0.0
  0
SPLINE
  5
1908
330
18F6
100
AcDbEntity
  8
AM_0
100
AcDbSpline
210
0.0
220
0.0
230
1.0
 70
     8
 71
     3
 72
     8
 73
     4
 74
     0
 42
0.0000000001
 43
0.0000000001
 40
0.0
 40
0.0
 40
0.0
 40
0.0
 40
2.517158218102851
 40
2.517158218102851
 40
2.517158218102851
 40
2.517158218102851
 10
13.5833333319747
 20
4.999999999499891
 30
0.0
 10
12.88412271590505
 20
4.999999999499891
 30
0.0
 10
12.19426870372944
 20
4.947495064845725
 30
0.0
 10
11.51241533100619
 20
4.850094241003716
 30
0.0
  0
SPLINE
  5
1909
330
18F6
100
AcDbEntity
  8
AM_0
100
AcDbSpline
210
0.0
220
0.0
230
1.0
 70
     8
 71
     3
 72
     8
 73
     4
 74
     0
 42
0.0000000001
 43
0.0000000001
 40
0.0
 40
0.0
 40
0.0
 40
0.0
 40
3.622973205791074
 40
3.622973205791074
 40
3.622973205791074
 40
3.622973205791074
 10
12.13855873506372
 20
4.863737977786286
 30
0.0
 10
11.13217728911104
 20
4.863737977786286
 30
0.0
 10
10.14428611558787
 20
4.757249010608802
 30
0.0
 10
9.171015975730369
 20
4.566554752239426
 30
0.0
  0
SPLINE
  5
190A
330
18F6
100
AcDbEntity
  8
AM_0
100
AcDbSpline
210
0.0
220
0.0
230
1.0
 70
     8
 71
     3
 72
     8
 73
     4
 74
     0
 42
0.0000000001
 43
0.0000000001
 40
0.0
 40
0.0
 40
0.0
 40
0.0
 40
4.843639605544031
 40
4.843639605544031
 40
4.843639605544031
 40
4.843639605544031
 10
9.227909094788174
 20
4.56666264321177
 30
0.0
 10
7.882453648937826
 20
4.56666264321177
 30
0.0
 10
6.566633674400691
 20
4.38551554968717
 30
0.0
 10
5.272101928176653
 20
4.074243962962555
 30
0.0
  0
SPLINE
  5
190B
330
18F6
100
AcDbEntity
  8
AM_0
100
AcDbSpline
210
0.0
220
0.0
230
1.0
 70
     8
 71
     3
 72
     8
 73
     4
 74
     0
 42
0.0000000001
 43
0.0000000001
 40
0.0682929238941095
 40
0.0682929238941095
 40
0.0682929238941095
 40
0.0682929238941095
 40
10.03206597849779
 40
10.03206597849779
 40
10.03206597849779
 40
10.03206597849779
 10
9.171015975729915
 20
-4.566554752239653
 30
0.0
 10
6.405016911573966
 20
-4.556067685360403
 30
0.0
 10
3.763925110434229
 20
-3.782083813692906
 30
0.0
 10
1.175079956779427
 20
-2.688741824233602
 30
0.0
  0
SPLINE
  5
190C
330
18F6
100
AcDbEntity
  8
AM_0
100
AcDbSpline
210
0.0
220
0.0
230
1.0
 70
     8
 71
     3
 72
     8
 73
     4
 74
     0
 42
0.0000000001
 43
0.0000000001
 40
0.7542149290734848
 40
0.7542149290734848
 40
0.7542149290734848
 40
0.7542149290734848
 40
15.25407255263387
 40
15.25407255263387
 40
15.25407255263387
 40
15.25407255263387
 10
11.51241533222491
 20
-4.850094241056694
 30
0.0
 10
7.514816734064424
 20
-4.67651442476324
 30
0.0
 10
3.800485905504046
 20
-2.871542083833219
 30
0.0
 10
0.1213830438969126
 20
-0.8636852353363337
 30
0.0
  0
SPLINE
  5
190D
330
18F6
100
AcDbEntity
  8
AM_0
100
AcDbSpline
210
0.0
220
0.0
230
1.0
 70
     8
 71
     3
 72
     8
 73
     4
 74
     2
 42
0.0000000001
 43
0.0000000001
 44
0.0000000001
 12
-1.0
 22
0.0000000000000001
 32
0.0
 40
0.0
 40
0.0
 40
0.0
 40
0.0
 40
14.4743547145472
 40
14.4743547145472
 40
14.4743547145472
 40
14.4743547145472
 10
13.5833333319747
 20
-4.999999999500005
 30
0.0
 10
8.758548427125631
 20
-4.999999999500004
 30
0.0
 10
4.379274213562815
 20
-2.499999999750002
 30
0.0
 10
0.0
 20
0.0
 30
0.0
 11
13.5833333319747
 21
-4.999999999500005
 31
0.0
 11
0.0
 21
0.0
 31
0.0
  0
SPLINE
  5
190E
330
18F6
100
AcDbEntity
  8
AM_0
100
AcDbSpline
210
0.0
220
0.0
230
1.0
 70
     8
 71
     3
 72
     8
 73
     4
 74
     2
 42
0.0000000001
 43
0.0000000001
 44
0.0000000001
 12
1.0
 22
0.0
 32
0.0
 40
0.0
 40
0.0
 40
0.0
 40
0.0
 40
14.4743547145472
 40
14.4743547145472
 40
14.4743547145472
 40
14.4743547145472
 10
0.0
 20
4.999999999500005
 30
0.0
 10
4.824784904849068
 20
4.999999999500005
 30
0.0
 10
9.204059118411883
 20
2.499999999750002
 30
0.0
 10
13.5833333319747
 20
0.0
 30
0.0
 11
0.0
 21
4.999999999500005
 31
0.0
 11
13.5833333319747
 21
0.0
 31
0.0
  0
SPLINE
  5
190F
330
18F6
100
AcDbEntity
  8
AM_0
100
AcDbSpline
210
0.0
220
0.0
230
1.0
 70
     8
 71
     3
 72
     8
 73
     4
 74
     0
 42
0.0000000001
 43
0.0000000001
 40
1.896971601180474
 40
1.896971601180474
 40
1.896971601180474
 40
1.896971601180474
 40
17.313421494744
 40
17.313421494744
 40
17.313421494744
 40
17.313421494744
 10
0.1213830438946388
 20
4.779354191941251
 30
0.0
 10
4.325851361472359
 20
4.33083506069147
 30
0.0
 10
8.232205048268042
 20
2.165417530345621
 30
0.0
 10
12.13855873506372
 20
0.0
 30
0.0
  0
SPLINE
  5
1910
330
18F6
100
AcDbEntity
  8
AM_0
100
AcDbSpline
210
0.0
220
0.0
230
1.0
 70
     8
 71
     3
 72
     8
 73
     4
 74
     0
 42
0.0000000001
 43
0.0000000001
 40
6.770904418548216
 40
6.770904418548216
 40
6.770904418548216
 40
6.770904418548216
 40
17.19652136594934
 40
17.19652136594934
 40
17.19652136594934
 40
17.19652136594934
 10
1.136064633913065
 20
3.644092588076773
 30
0.0
 10
3.888839558056588
 20
2.768599208698333
 30
0.0
 10
6.558374326422381
 20
1.384299604349166
 30
0.0
 10
9.227909094788174
 20
0.0
 30
0.0
  0
ARC
  5
1911
330
18F6
100
AcDbEntity
  8
AM_0
100
AcDbCircle
 10
4.827020552988869
 20
-10.62863345564017
 30
0.0
 40
9.310886663391057
100
AcDbArc
 50
115.0260963887055
 51
121.2268364670326
  0
LINE
  5
1912
330
18F6
100
AcDbEntity
  8
AM_0
100
AcDbLine
 10
0.1213830438946388
 20
-0.8636852353399717
 30
0.0
 11
1.175079956778972
 21
-2.688741824234284
 31
0.0
  0
LINE
  5
1913
330
18F6
100
AcDbEntity
  8
AM_0
100
AcDbLine
 10
0.0
 20
4.999999999500005
 30
0.0
 11
0.0
 21
-4.999999999500005
 31
0.0
  0
LINE
  5
1914
330
18F6
100
AcDbEntity
  8
AM_0
100
AcDbLine
 10
0.1213830438946388
 20
4.779354191941251
 30
0.0
 11
1.136064633913065
 21
3.644092588076659
 31
0.0
  0
LINE
  5
1915
330
18F6
100
AcDbEntity
  8
AM_0
100
AcDbLine
 10
0.6360646339630876
 20
0.058146913055225
 30
0.0
 11
0.0
 21
0.1249999999874944
 31
0.0
  0
LINE
  5
1916
330
18F6
100
AcDbEntity
  8
AM_0
100
AcDbLine
 10
0.6482315003368058
 20
1.431142366223753
 30
0.0
 11
0.0
 21
0.7643720051387391
 31
0.0
  0
LINE
  5
1917
330
18F6
100
AcDbEntity
  8
AM_0
100
AcDbLine
 10
0.1213830438946388
 20
4.779354191941251
 30
0.0
 11
0.0000000000004547
 21
4.999999999500005
 31
0.0
  0
LINE
  5
1918
330
18F6
100
AcDbEntity
  8
AM_0
100
AcDbLine
 10
0.1213830438946388
 20
4.779354191941251
 30
0.0
 11
0.1213830438946388
 21
0.8892264991973206
 31
0.0
  0
LINE
  5
1919
330
18F6
100
AcDbEntity
  8
AM_0
100
AcDbLine
 10
0.0
 20
-0.0000000000001137
 30
0.0
 11
0.1213830438946388
 21
-0.8636852353399717
 31
0.0
  0
LINE
  5
191A
330
18F6
100
AcDbEntity
  8
AM_0
100
AcDbLine
 10
1.050470832895825
 20
0.8455573847090818
 30
0.0
 11
0.6360646339630876
 21
1.418627537985571
 31
0.0
  0
ARC
  5
191B
330
18F6
100
AcDbEntity
  8
AM_0
100
AcDbCircle
 10
0.6360646339630876
 20
0.5609010527866758
 30
0.0
 40
0.5027541397314784
100
AcDbArc
 50
258.0000000000369
 51
37.25866108397333
  0
ARC
  5
191C
330
18F6
100
AcDbEntity
  8
AM_0
100
AcDbCircle
 10
6.61274024100021
 20
1.276543288252923
 30
0.0
 40
5.966511995492683
100
AcDbArc
 50
156.6213265251321
 51
178.5152353389686
  0
LINE
  5
191D
330
18F6
100
AcDbEntity
  8
AM_0
100
AcDbLine
 10
2.168628754782275
 20
-1.705317731889181
 30
0.0
 11
1.136064633913065
 21
-0.416666666629908
 31
0.0
  0
LINE
  5
191E
330
18F6
100
AcDbEntity
  8
AM_0
100
AcDbLine
 10
23.33333333099972
 20
2.120505286703973
 30
0.0
 11
25.8637746678819
 21
3.23193104378663
 31
0.0
  0
LINE
  5
191F
330
18F6
100
AcDbEntity
  8
AM_0
100
AcDbLine
 10
23.33333333100245
 20
-4.498930334150941
 30
0.0
 11
25.8637746678819
 21
-3.037979347135205
 31
0.0
  0
LINE
  5
1920
330
18F6
100
AcDbEntity
  8
AM_0
100
AcDbLine
 10
22.49999999774991
 20
-4.452921543835032
 30
0.0
 11
22.49999999774991
 21
-4.563443973640346
 31
0.0
  0
LINE
  5
1921
330
18F6
100
AcDbEntity
  8
AM_0
100
AcDbLine
 10
21.6666666645001
 20
-3.996517009940816
 30
0.0
 11
21.6666666645001
 21
-4.318008506126375
 31
0.0
  0
LINE
  5
1922
330
18F6
100
AcDbEntity
  8
AM_0
100
AcDbLine
 10
22.49999999774991
 20
0.1613638032345079
 30
0.0
 11
22.49999999774991
 21
1.961985279215014
 31
0.0
  0
LINE
  5
1923
330
18F6
100
AcDbEntity
  8
AM_0
100
AcDbLine
 10
21.6666666645001
 20
2.941224502165368
 30
0.0
 11
21.6666666645001
 21
2.170659137245593
 31
0.0
  0
ARC
  5
1924
330
18F6
100
AcDbEntity
  8
AM_0
100
AcDbCircle
 10
25.23396341570105
 20
-1.947114259181262
 30
0.0
 40
1.249999999874976
100
AcDbArc
 50
300.0000000000312
 51
58.85768175258352
  0
ENDBLK
  5
1926
330
18F6
100
AcDbEntity
  8
0
100
AcDbBlockEnd
  0
ENDSEC
  0
SECTION
  2
ENTITIES
  0
TEXT
  5
E65
330
1F
100
AcDbEntity
  8
AM_6
100
AcDbText
 10
-30.65476190476207
 20
-26.25000000023345
 30
0.0
 40
2.5
  1
ASM4020DL
 72
     4
 11
-20.00000000000017
 21
-25.00000000023345
 31
0.0
100
AcDbText
  0
DIMENSION
  5
F4C
330
1F
100
AcDbEntity
  8
AM_5
100
AcDbDimension
  2
*D5
 10
-0.0000000000001714
 20
-15.00000000023345
 30
0.0
 11
-20.00000000000017
 21
-13.45000000023345
 31
0.0
 70
    32
  1
<>
  3
AM_JIS
100
AcDbAlignedDimension
 13
-40.00000000000016
 23
-1.666666666900141
 33
0.0
 14
-0.0000000000001706
 24
-1.000000000069917
 34
0.0
100
AcDbRotatedDimension
1001
GENIUS_GENDTOL_13
1000

1000
h7
1000

1040
0.0
  0
DIMENSION
  5
10E0
330
1F
100
AcDbEntity
  8
AM_5
100
AcDbDimension
  2
*D6
 10
-0.0000000000004553
 20
-9.000000000233455
 30
0.0
 11
-3.000000000000403
 21
-7.450000000233456
 31
0.0
 70
    32
  1
<>
 51
359.9999999999998
  3
AM_JIS
100
AcDbAlignedDimension
 13
-6.00000000000035
 23
-1.000000000140044
 33
0.0
 14
-0.0000000000004548
 24
-1.000000000069917
 34
0.0
100
AcDbRotatedDimension
1001
GENIUS_GENDTOL_13
1000

1000
h7
1000

1040
0.0
  0
LINE
  5
1421
330
1F
100
AcDbEntity
  8
AM_0
100
AcDbLine
 10
-12.50000000000017
 20
-2.000000000233455
 30
0.0
 11
-39.6666666666668
 21
-2.000000000233455
 31
0.0
  0
LINE
  5
1422
330
1F
100
AcDbEntity
  8
AM_0
100
AcDbLine
 10
-39.66666666666691
 20
2.000000000233455
 30
0.0
 11
-12.50000000000017
 21
2.000000000233484
 31
0.0
  0
LINE
  5
1423
330
1F
100
AcDbEntity
  8
AM_0
100
AcDbLine
 10
-40.00000000000011
 20
-1.666666666900113
 30
0.0
 11
-39.6666666666668
 21
-2.000000000233455
 31
0.0
1001
GENIUS_GENFIL_13
1070
     0
1040
1.0
1040
1.0
1040
20.0
1040
0.0
1002
{
1002
}
1001
GENIUS_GENODEF_13
1002
{
1000
HIER
1070
     0
1002
}
1002
{
1000
MANEDIT
1070
     0
1002
}
1002
{
1000
NOSEL
1070
     0
1002
}
1002
{
1000
BEHIND
1070
     0
1002
}
1002
{
1000
OTHER
1070
     0
1002
}
1002
{
1000
REACTOR
1002
}
1001
GENIUS_GENOBJ-N-CHA_13
1002
{
1000
OWNER
1000
GEN
1002
}
  0
LINE
  5
1424
330
1F
100
AcDbEntity
  8
AM_0
100
AcDbLine
 10
-39.6666666666668
 20
-2.000000000233455
 30
0.0
 11
-39.6666666666668
 21
2.000000000233455
 31
0.0
  0
LINE
  5
1425
330
1F
100
AcDbEntity
  8
AM_0
100
AcDbLine
 10
-39.66666666666691
 20
2.000000000233455
 30
0.0
 11
-40.00000000000023
 21
1.666666666900141
 31
0.0
1001
GENIUS_GENFIL_13
1070
     0
1040
1.0
1040
1.0
1040
20.0
1040
0.0
1002
{
1002
}
1001
GENIUS_GENOBJ-N-CHA_13
1002
{
1000
OWNER
1000
GEN
1002
}
1001
GENIUS_GENODEF_13
1002
{
1000
HIER
1070
     0
1002
}
1002
{
1000
MANEDIT
1070
     0
1002
}
1002
{
1000
NOSEL
1070
     0
1002
}
1002
{
1000
BEHIND
1070
     0
1002
}
1002
{
1000
OTHER
1070
     0
1002
}
1002
{
1000
REACTOR
1002
}
  0
LINE
  5
1426
330
1F
100
AcDbEntity
  8
AM_0
100
AcDbLine
 10
-40.00000000000023
 20
1.666666666900141
 30
0.0
 11
-40.00000000000011
 21
-1.666666666900113
 31
0.0
  0
LINE
  5
1427
330
1F
100
AcDbEntity
  8
AM_0
100
AcDbLine
 10
-6.828718179852444
 20
-1.00000000013992
 30
0.0
 11
-12.50000000000017
 21
-2.000000000233455
 31
0.0
  0
LINE
  5
1428
330
1F
100
AcDbEntity
  8
AM_0
100
AcDbLine
 10
-12.50000000000017
 20
2.000000000233484
 30
0.0
 11
-6.828718179851676
 21
1.000000000140062
 31
0.0
  0
LINE
  5
1429
330
1F
100
AcDbEntity
  8
AM_0
100
AcDbLine
 10
-12.50000000000017
 20
-2.000000000233455
 30
0.0
 11
-12.50000000000017
 21
2.000000000233484
 31
0.0
  0
LINE
  5
1554
330
1F
100
AcDbEntity
  8
AM_7
100
AcDbLine
 10
-43.00000000000017
 20
0.0
 30
0.0
 11
2.999999999999829
 21
0.0
 31
0.0
1001
GENIUS_GENODEF_13
1002
{
1000
HIER
1070
     0
1002
}
1002
{
1000
MANEDIT
1070
     0
1002
}
1002
{
1000
NOSEL
1070
     0
1002
}
1002
{
1000
BEHIND
1070
     0
1002
}
1002
{
1000
REACTOR
1002
}
1001
GENIUS_GENOBJ-N-CEN_13
1002
{
1000
OWNER
1000
GEN
1002
}
  0
DIMENSION
  5
155D
330
1F
100
AcDbEntity
  8
AM_5
100
AcDbDimension
  2
*D7
 10
7.0
 20
1.000000000140088
 30
0.0
 11
5.449999999999999
 21
5.507142857282946
 31
0.0
 70
    32
  1
%%c<>
 51
359.9999999999998
  3
AM_JIS
100
AcDbAlignedDimension
 13
-0.0000000000001705
 23
-1.00000000013992
 33
0.0
 14
-0.0000000000001705
 24
1.00000000014009
 34
0.0
 50
90.00000000000161
100
AcDbRotatedDimension
1001
GENIUS_GENDTOL_13
1000

1000
h7
1000

1040
0.0
  0
DIMENSION
  5
1606
330
1F
100
AcDbEntity
  8
AM_5
100
AcDbDimension
  2
*D8
 10
-47.00000000000048
 20
2.000000000233571
 30
0.0
 11
-47.00000000000048
 21
0.0000000000000513
 31
0.0
 70
   160
  1
%%c<>
 51
359.9999999999998
  3
AM_JIS
100
AcDbAlignedDimension
 13
-39.66666666666677
 23
-2.000000000233455
 33
0.0
 14
-39.6666666666668
 24
2.000000000233569
 34
0.0
 50
270.0
100
AcDbRotatedDimension
1001
GENIUS_GENDTOL_13
1000

1000
h7
1000

1040
0.0
  0
SPLINE
  5
1944
330
1F
100
AcDbEntity
  8
AM_0
100
AcDbSpline
210
0.0
220
0.0
230
1.0
 70
     8
 71
     3
 72
     8
 73
     4
 74
     0
 42
0.0000000001
 43
0.0000000001
 40
0.0
 40
0.0
 40
0.0
 40
0.0
 40
6.52449073614872
 40
6.52449073614872
 40
6.52449073614872
 40
6.52449073614872
 10
-2.71666666704699
 20
1.000000000139896
 30
0.0
 10
-3.079138374661538
 20
1.000000000139895
 30
0.0
 10
-3.429037616878264
 20
0.9294491377114848
 30
0.0
 10
-3.796520968189038
 20
0.8001645149696877
 30
0.0
  0
SPLINE
  5
1948
330
1F
100
AcDbEntity
  8
AM_0
100
AcDbSpline
210
0.0
220
0.0
230
1.0
 70
     8
 71
     3
 72
     8
 73
     4
 74
     0
 42
0.0000000001
 43
0.0000000001
 40
0.0
 40
0.0
 40
0.0
 40
0.0
 40
16.79135171574957
 40
16.79135171574957
 40
16.79135171574957
 40
16.79135171574957
 10
-1.845581819400599
 20
-0.9133325288615488
 30
0.0
 10
-2.778434692628275
 20
-0.9133325288615512
 30
0.0
 10
-3.640056489318174
 20
-0.4779319122355725
 30
0.0
 10
-4.562248486447435
 20
-0.0000000000000526
 30
0.0
  0
SPLINE
  5
194A
330
1F
100
AcDbEntity
  8
AM_0
100
AcDbSpline
210
0.0
220
0.0
230
1.0
 70
     8
 71
     3
 72
     8
 73
     4
 74
     0
 42
0.0000000001
 43
0.0000000001
 40
0.0
 40
0.0
 40
0.0
 40
0.0
 40
12.31576592654833
 40
12.31576592654833
 40
12.31576592654833
 40
12.31576592654833
 10
-2.716666667046984
 20
-1.000000000139968
 30
0.0
 10
-3.400875885284241
 20
-1.00000000013997
 30
0.0
 10
-4.040287986676863
 20
-0.7486192941524339
 30
0.0
 10
-5.633333334093778
 20
0.0474926112269418
 30
0.0
  0
SPLINE
  5
194B
330
1F
100
AcDbEntity
  8
AM_0
100
AcDbSpline
210
0.0
220
0.0
230
1.0
 70
     8
 71
     3
 72
     8
 73
     4
 74
     0
 42
0.0000000001
 43
0.0000000001
 40
0.0
 40
0.0
 40
0.0
 40
0.0
 40
6.52449073614872
 40
6.52449073614872
 40
6.52449073614872
 40
6.52449073614872
 10
-0.0000000000001772
 20
1.000000000139902
 30
0.0
 10
-0.3624717076147253
 20
1.000000000139902
 30
0.0
 10
-0.7123709498314513
 20
0.9294491377114917
 30
0.0
 10
-1.054420385888483
 20
0.8148487927879887
 30
0.0
  0
SPLINE
  5
194C
330
1F
100
AcDbEntity
  8
AM_0
100
AcDbSpline
210
0.0
220
0.0
230
1.0
 70
     8
 71
     3
 72
     8
 73
     4
 74
     0
 42
0.0000000001
 43
0.0000000001
 40
0.0
 40
0.0
 40
0.0
 40
0.0
 40
2.517158218102851
 40
2.517158218102851
 40
2.517158218102851
 40
2.517158218102851
 10
-2.716666667046894
 20
-1.000000000139945
 30
0.0
 10
-2.576824543799413
 20
-1.000000000139945
 30
0.0
 10
-2.438853741331191
 20
-0.9894990132065922
 30
0.0
 10
-2.302483066753822
 20
-0.9700188484335166
 30
0.0
  0
SPLINE
  5
194D
330
1F
100
AcDbEntity
  8
AM_0
100
AcDbSpline
210
0.0
220
0.0
230
1.0
 70
     8
 71
     3
 72
     8
 73
     4
 74
     0
 42
0.0000000001
 43
0.0000000001
 40
0.0
 40
0.0
 40
0.0
 40
0.0
 40
3.622973205791074
 40
3.622973205791074
 40
3.622973205791074
 40
3.622973205791074
 10
-2.427711747595373
 20
-0.9727475957906854
 30
0.0
 10
-2.226435458356545
 20
-0.9727475957906849
 30
0.0
 10
-2.02885722360451
 20
-0.9514498023500779
 30
0.0
 10
-1.834203195586308
 20
-0.9133109506670519
 30
0.0
  0
SPLINE
  5
194E
330
1F
100
AcDbEntity
  8
AM_0
100
AcDbSpline
210
0.0
220
0.0
230
1.0
 70
     8
 71
     3
 72
     8
 73
     4
 74
     0
 42
0.0000000001
 43
0.0000000001
 40
0.0
 40
0.0
 40
0.0
 40
0.0
 40
4.843639605544031
 40
4.843639605544031
 40
4.843639605544031
 40
4.843639605544031
 10
-1.845581819400599
 20
-0.913332528861526
 30
0.0
 10
-1.576490730165969
 20
-0.9133325288615253
 30
0.0
 10
-1.313326735195403
 20
-0.8771031101479124
 30
0.0
 10
-1.054420385888479
 20
-0.8148487927880527
 30
0.0
  0
SPLINE
  5
194F
330
1F
100
AcDbEntity
  8
AM_0
100
AcDbSpline
210
0.0
220
0.0
230
1.0
 70
     8
 71
     3
 72
     8
 73
     4
 74
     0
 42
0.0000000001
 43
0.0000000001
 40
0.0682929238941095
 40
0.0682929238941095
 40
0.0682929238941095
 40
0.0682929238941095
 40
10.03206597849779
 40
10.03206597849779
 40
10.03206597849779
 40
10.03206597849779
 10
-2.144245958274689
 20
0.9433370989492132
 30
0.0
 10
-1.281003382622308
 20
0.911213537290655
 30
0.0
 10
-0.7527850222676305
 20
0.7564167629200183
 30
0.0
 10
-0.2350159914124465
 20
0.5377483649756958
 30
0.0
  0
SPLINE
  5
1951
330
1F
100
AcDbEntity
  8
AM_0
100
AcDbSpline
210
0.0
220
0.0
230
1.0
 70
     8
 71
     3
 72
     8
 73
     4
 74
     2
 42
0.0000000001
 43
0.0000000001
 44
0.0000000001
 12
1.0
 22
0.0000000000000024
 32
0.0
 40
0.0
 40
0.0
 40
0.0
 40
0.0
 40
2.894870943603978
 40
2.894870943603978
 40
2.894870943603978
 40
2.894870943603978
 10
-2.716666667046899
 20
1.000000000139873
 30
0.0
 10
-1.751709685845573
 20
1.000000000139875
 30
0.0
 10
-0.875854842922874
 20
0.5000000000699176
 30
0.0
 10
-0.0000000000001747
 20
-0.0000000000000406
 30
0.0
 11
-2.716666667046899
 21
1.000000000139873
 31
0.0
 11
-0.0000000000001747
 21
-0.0000000000000406
 31
0.0
  0
SPLINE
  5
1952
330
1F
100
AcDbEntity
  8
AM_0
100
AcDbSpline
210
0.0
220
0.0
230
1.0
 70
     8
 71
     3
 72
     8
 73
     4
 74
     2
 42
0.0000000001
 43
0.0000000001
 44
0.0000000001
 12
-1.0
 22
-0.0000000000000025
 32
0.0
 40
0.0
 40
0.0
 40
0.0
 40
0.0
 40
2.894870943603978
 40
2.894870943603978
 40
2.894870943603978
 40
2.894870943603978
 10
-0.0000000000001722
 20
-1.000000000139961
 30
0.0
 10
-0.9649569812014981
 20
-1.000000000139964
 30
0.0
 10
-1.840811824124197
 20
-0.5000000000700058
 30
0.0
 10
-2.716666667046896
 20
-0.0000000000000475
 30
0.0
 11
-0.0000000000001722
 21
-1.000000000139961
 31
0.0
 11
-2.716666667046896
 21
-0.0000000000000475
 31
0.0
  0
SPLINE
  5
1954
330
1F
100
AcDbEntity
  8
AM_0
100
AcDbSpline
210
0.0
220
0.0
230
1.0
 70
     8
 71
     3
 72
     8
 73
     4
 74
     0
 42
0.0000000001
 43
0.0000000001
 40
6.770904418548216
 40
6.770904418548216
 40
6.770904418548216
 40
6.770904418548216
 40
17.19652136594934
 40
17.19652136594934
 40
17.19652136594934
 40
17.19652136594934
 10
-0.2272129268372988
 20
-0.7288185177902539
 30
0.0
 10
-0.7777679117980929
 20
-0.5537198418725576
 30
0.0
 10
-1.311674865599347
 20
-0.2768599209363014
 30
0.0
 10
-1.845581819400601
 20
-0.0000000000000453
 30
0.0
  0
ARC
  5
1955
330
1F
100
AcDbEntity
  8
AM_0
100
AcDbCircle
 10
-0.9284514562435976
 20
2.060880404284892
 30
0.0
 40
1.787569741207196
100
AcDbArc
 50
294.4227518146734
 51
301.2915531548935
  0
LINE
  5
1956
330
1F
100
AcDbEntity
  8
AM_0
100
AcDbLine
 10
-0.0000000000001706
 20
0.0
 30
0.0
 11
-0.2350159914123556
 21
0.5377483649758323
 31
0.0
  0
LINE
  5
1957
330
1F
100
AcDbEntity
  8
AM_0
100
AcDbLine
 10
-0.0000000000001722
 20
-1.000000000139961
 30
0.0
 11
-0.0000000000001772
 21
1.00000000013988
 31
0.0
  0
LINE
  5
1958
330
1F
100
AcDbEntity
  8
AM_0
100
AcDbLine
 10
-0.0242766087849245
 20
-0.9558708386176235
 30
0.0
 11
-0.2272129268372988
 21
-0.7288185177902312
 31
0.0
  0
LINE
  5
1959
330
1F
100
AcDbEntity
  8
AM_0
100
AcDbLine
 10
-0.1272129268233131
 20
-0.0116293826138761
 30
0.0
 11
-0.0000000000001746
 21
-0.0250000000035375
 31
0.0
  0
LINE
  5
195A
330
1F
100
AcDbEntity
  8
AM_0
100
AcDbLine
 10
-0.1296463000986398
 20
-0.2862284733134634
 30
0.0
 11
-0.0000000000001743
 21
-0.152874401064466
 31
0.0
  0
LINE
  5
195B
330
1F
100
AcDbEntity
  8
AM_0
100
AcDbLine
 10
-0.0242766087849245
 20
-0.9558708386176235
 30
0.0
 11
-0.0000000000002631
 21
-1.000000000139961
 31
0.0
  0
LINE
  5
195E
330
1F
100
AcDbEntity
  8
AM_0
100
AcDbLine
 10
-0.2100941666297452
 20
-0.1691114769824307
 30
0.0
 11
-0.1272129268233124
 21
-0.2837255076652267
 31
0.0
  0
ARC
  5
195F
330
1F
100
AcDbEntity
  8
AM_0
100
AcDbCircle
 10
-0.1272129268233128
 20
-0.1121802105842904
 30
0.0
 40
0.1005508279704198
100
AcDbArc
 50
78.00000000003712
 51
217.2586610839735
  0
ARC
  5
1960
330
1F
100
AcDbEntity
  8
AM_0
100
AcDbCircle
 10
-1.322548048517521
 20
-0.2553086577118824
 30
0.0
 40
1.193302399384833
100
AcDbArc
 50
336.6213265251323
 51
358.5152353389688
  0
SPLINE
  5
199F
330
1F
100
AcDbEntity
  8
AM_0
100
AcDbSpline
210
0.0
220
0.0
230
1.0
 70
     8
 71
     3
 72
     8
 73
     4
 74
     0
 42
0.0000000001
 43
0.0000000001
 40
13.62921832018185
 40
13.62921832018185
 40
13.62921832018185
 40
13.62921832018185
 40
17.36922565919391
 40
17.36922565919391
 40
17.36922565919391
 40
17.36922565919391
 10
-6.200000000005398
 20
0.3654866110359586
 30
0.0
 10
-6.010518086565019
 20
0.2628163920862088
 30
0.0
 10
-5.821925710329399
 20
0.1551545016565753
 30
0.0
 10
-5.633333334093778
 20
0.0474926112269418
 30
0.0
  0
SPLINE
  5
19A0
330
1F
100
AcDbEntity
  8
AM_0
100
AcDbSpline
210
0.0
220
0.0
230
1.0
 70
     8
 71
     3
 72
     8
 73
     4
 74
     0
 42
0.0000000001
 43
0.0000000001
 40
6.954916728164883
 40
6.954916728164883
 40
6.954916728164883
 40
6.954916728164883
 40
17.19652136594934
 40
17.19652136594934
 40
17.19652136594934
 40
17.19652136594934
 10
-6.151480932746967
 20
0.7194524909040779
 30
0.0
 10
-5.611215461118232
 20
0.5439466776082061
 30
0.0
 10
-5.086731973782834
 20
0.2719733388040766
 30
0.0
 10
-4.562248486447435
 20
-0.0000000000000528
 30
0.0
  0
SPLINE
  5
1A14
330
1F
100
AcDbEntity
  8
AM_0
100
AcDbSpline
210
0.0
220
0.0
230
1.0
 70
     8
 71
     3
 72
     8
 73
     4
 74
     0
 42
0.0000000001
 43
0.0000000001
 40
0.0
 40
0.0
 40
0.0
 40
0.0
 40
4.149936909600219
 40
4.149936909600219
 40
4.149936909600219
 40
4.149936909600219
 10
-5.088149083997912
 20
-0.9727475957907156
 30
0.0
 10
-5.31870113456351
 20
-0.9727475957907161
 30
0.0
 10
-5.544401126387913
 20
-0.9448036741413494
 30
0.0
 10
-6.000000000000352
 20
-0.8301424677959801
 30
0.0
  0
SPLINE
  5
1A15
330
1F
100
AcDbEntity
  8
AM_0
100
AcDbSpline
210
0.0
220
0.0
230
1.0
 70
     8
 71
     3
 72
     8
 73
     4
 74
     0
 42
0.0000000001
 43
0.0000000001
 40
0.0
 40
0.0
 40
0.0
 40
0.0
 40
7.968103257081267
 40
7.968103257081267
 40
7.968103257081267
 40
7.968103257081267
 10
-4.506019155803138
 20
-0.913332528861556
 30
0.0
 10
-4.948691559036236
 20
-0.9133325288615573
 30
0.0
 10
-5.375323824369018
 20
-0.8152870370338508
 30
0.0
 10
-6.000000000000352
 20
-0.6136847535606799
 30
0.0
  0
SPLINE
  5
1A16
330
1F
100
AcDbEntity
  8
AM_0
100
AcDbSpline
210
0.0
220
0.0
230
1.0
 70
     8
 71
     3
 72
     8
 73
     4
 74
     0
 42
0.0000000001
 43
0.0000000001
 40
0.0
 40
0.0
 40
0.0
 40
0.0
 40
4.843639605544031
 40
4.843639605544031
 40
4.843639605544031
 40
4.843639605544031
 10
-4.506019155803138
 20
-0.9133325288615333
 30
0.0
 10
-4.236928066568508
 20
-0.9133325288615326
 30
0.0
 10
-3.973764071597943
 20
-0.8771031101479197
 30
0.0
 10
-3.714857722291019
 20
-0.81484879278806
 30
0.0
  0
SPLINE
  5
1A17
330
1F
100
AcDbEntity
  8
AM_0
100
AcDbSpline
210
0.0
220
0.0
230
1.0
 70
     8
 71
     3
 72
     8
 73
     4
 74
     0
 42
0.0000000001
 43
0.0000000001
 40
0.0
 40
0.0
 40
0.0
 40
0.0
 40
3.622973205791074
 40
3.622973205791074
 40
3.622973205791074
 40
3.622973205791074
 10
-5.088149083997912
 20
-0.9727475957906928
 30
0.0
 10
-4.886872794759085
 20
-0.9727475957906921
 30
0.0
 10
-4.689294560007049
 20
-0.9514498023500852
 30
0.0
 10
-4.494640531988848
 20
-0.9133109506670592
 30
0.0
  0
SPLINE
  5
1A18
330
1F
100
AcDbEntity
  8
AM_0
100
AcDbSpline
210
0.0
220
0.0
230
1.0
 70
     8
 71
     3
 72
     8
 73
     4
 74
     0
 42
0.0000000001
 43
0.0000000001
 40
0.0
 40
0.0
 40
0.0
 40
0.0
 40
2.517158218102851
 40
2.517158218102851
 40
2.517158218102851
 40
2.517158218102851
 10
-5.377104003449433
 20
-1.000000000139952
 30
0.0
 10
-5.237261880201952
 20
-1.000000000139952
 30
0.0
 10
-5.09929107773373
 20
-0.9894990132065995
 30
0.0
 10
-4.962920403156362
 20
-0.9700188484335239
 30
0.0
  0
LINE
  5
1A33
330
1F
100
AcDbEntity
  8
AM_0
100
AcDbLine
 10
-6.828718179853694
 20
-1.00000000014014
 30
0.0
 11
-6.828718179853701
 21
1.000000000139866
 31
0.0
  0
SPLINE
  5
1A35
330
1F
100
AcDbEntity
  8
AM_0
100
AcDbSpline
210
0.0
220
0.0
230
1.0
 70
     8
 71
     3
 72
     8
 73
     4
 74
     2
 42
0.0000000001
 43
0.0000000001
 44
0.0000000001
 12
1.0
 22
0.0000000000000024
 32
0.0
 40
0.0
 40
0.0
 40
0.0
 40
0.0
 40
2.894870943603978
 40
2.894870943603978
 40
2.894870943603978
 40
2.894870943603978
 10
-5.433333334055681
 20
1.000000000139867
 30
0.0
 10
-4.468376352854354
 20
1.000000000139869
 30
0.0
 10
-3.592521509931655
 20
0.5000000000699114
 30
0.0
 10
-2.716666667008956
 20
-0.0000000000000468
 30
0.0
 11
-5.433333334055681
 21
1.000000000139867
 31
0.0
 11
-2.716666667008956
 21
-0.0000000000000468
 31
0.0
  0
SPLINE
  5
1A37
330
1F
100
AcDbEntity
  8
AM_0
100
AcDbSpline
210
0.0
220
0.0
230
1.0
 70
     8
 71
     3
 72
     8
 73
     4
 74
     0
 42
0.0000000001
 43
0.0000000001
 40
0.0682929238941095
 40
0.0682929238941095
 40
0.0682929238941095
 40
0.0682929238941095
 40
10.03206597849779
 40
10.03206597849779
 40
10.03206597849779
 40
10.03206597849779
 10
-4.795277560217245
 20
0.9299237509550762
 30
0.0
 10
-3.997670049631089
 20
0.9112135372906488
 30
0.0
 10
-3.469451689276412
 20
0.7564167629200121
 30
0.0
 10
-1.845581819400692
 20
0.0
 30
0.0
  0
LINE
  5
1AAE
330
1F
100
AcDbEntity
  8
AM_0
100
AcDbLine
 10
-5.377104003449088
 20
-1.000000000140137
 30
0.0
 11
-6.828718179852444
 21
-1.00000000013992
 31
0.0
  0
LINE
  5
1ACC
330
1F
100
AcDbEntity
  8
AM_0
100
AcDbLine
 10
-6.000000000000352
 20
-0.6136847535606799
 30
0.0
 11
-6.000000000000352
 21
-0.8301424677959801
 31
0.0
  0
LINE
  5
1AEB
330
1F
100
AcDbEntity
  8
AM_0
100
AcDbLine
 10
-5.433333334055031
 20
1.000000000139866
 30
0.0
 11
-6.828718179853701
 21
1.000000000140419
 31
0.0
  0
LINE
  5
1AEF
330
1F
100
AcDbEntity
  8
AM_0
100
AcDbLine
 10
-6.000000000000355
 20
0.2553179560908751
 30
0.0
 11
-6.000000000000355
 21
0.664399104006537
 31
0.0
  0
POLYLINE
  5
1B0D
330
1F
100
AcDbEntity
  8
AM_0
100
AcDb2dPolyline
 66
     1
 10
0.0
 20
0.0
 30
0.0
 70
     2
  0
VERTEX
  5
1B10
330
1B0D
100
AcDbEntity
  8
AM_0
100
AcDbVertex
100
AcDb2dVertex
 10
-6.000000000000399
 20
1.00000000014009
 30
0.0
 42
0.0087757283119431
  0
VERTEX
  5
1B18
330
1B0D
100
AcDbEntity
  8
AM_0
100
AcDbVertex
100
AcDb2dVertex
 10
-6.1204659651865
 20
0.9948026825842088
 30
0.0
 42
0.0157211758004039
 70
     1
  0
VERTEX
  5
1B11
330
1B0D
100
AcDbEntity
  8
AM_0
100
AcDbVertex
100
AcDb2dVertex
 10
-6.1875000000004
 20
0.9886108264651694
 30
0.0
 42
0.0048571629815296
  0
VERTEX
  5
1B19
330
1B0D
100
AcDbEntity
  8
AM_0
100
AcDbVertex
100
AcDb2dVertex
 10
-6.375289502529341
 20
0.9634365200943859
 30
0.0
 42
0.0145772086183442
 70
     1
  0
VERTEX
  5
1B12
330
1B0D
100
AcDbEntity
  8
AM_0
100
AcDbVertex
100
AcDb2dVertex
 10
-6.437500000000401
 20
0.95262132298856
 30
0.0
 42
0.0434525950080959
  0
VERTEX
  5
1B1A
330
1B0D
100
AcDbEntity
  8
AM_0
100
AcDbVertex
100
AcDb2dVertex
 10
-6.48807353518595
 20
0.9376324151731809
 30
0.0
 42
0.152844159263678
 70
     1
  0
VERTEX
  5
1B13
330
1B0D
100
AcDbEntity
  8
AM_0
100
AcDbVertex
100
AcDb2dVertex
 10
-6.500000000000401
 20
0.9280209931866497
 30
0.0
 42
0.3578296156730169
  0
VERTEX
  5
1B1B
330
1B0D
100
AcDbEntity
  8
AM_0
100
AcDbVertex
100
AcDb2dVertex
 10
-6.498730660916005
 20
0.9151275774952241
 30
0.0
 42
0.0522941923721376
 70
     1
  0
VERTEX
  5
1B14
330
1B0D
100
AcDbEntity
  8
AM_0
100
AcDbVertex
100
AcDb2dVertex
 10
-6.4375000000004
 20
0.865520993186649
 30
0.0
 42
0.0240821622538027
  0
VERTEX
  5
1B1D
330
1B0D
100
AcDbEntity
  8
AM_0
100
AcDbVertex
100
AcDb2dVertex
 10
-6.366221084189064
 20
0.8239242086034632
 30
0.0
 42
0.0099588537818533
 70
     1
  0
VERTEX
  5
1B15
330
1B0D
100
AcDbEntity
  8
AM_0
100
AcDbVertex
100
AcDb2dVertex
 10
-6.187500000000399
 20
0.7353359562533211
 30
0.0
 42
0.0234639750755333
  0
VERTEX
  5
1B1C
330
1B0D
100
AcDbEntity
  8
AM_0
100
AcDbVertex
100
AcDb2dVertex
 10
-6.119129746172681
 20
0.7069640540868419
 30
0.0
 42
0.0138403749736028
 70
     1
  0
VERTEX
  5
1B16
330
1B0D
100
AcDbEntity
  8
AM_0
100
AcDbVertex
100
AcDb2dVertex
 10
-6.000000037237962
 20
0.6676509327622649
 30
0.0
  0
SEQEND
  5
1B17
330
1B0D
100
AcDbEntity
  8
AM_0
  0
LINE
  5
1B23
330
1F
100
AcDbEntity
  8
AM_11
100
AcDbLine
 10
-6.000000000000357
 20
0.9995964981401161
 30
0.0
 11
-6.000000000000352
 21
-1.0
 31
0.0
  0
LINE
  5
1BC0
330
1F
100
AcDbEntity
  8
AM_11
100
AcDbLine
 10
-6.000000000000357
 20
1.0
 30
0.0
 11
-0.0000000000001725
 21
1.0
 31
0.0
1001
GENIUS_GENODEF_13
1002
{
1000
HIER
1070
     0
1002
}
1002
{
1000
MANEDIT
1070
     0
1002
}
1002
{
1000
NOSEL
1070
     0
1002
}
1002
{
1000
BEHIND
1070
     0
1002
}
1002
{
1000
REACTOR
1002
}
1001
GENIUS_GENOBJ-N-CEN_13
1002
{
1000
OWNER
1000
GEN
1002
}
  0
LINE
  5
1BC4
330
1F
100
AcDbEntity
  8
AM_11
100
AcDbLine
 10
-6.000000000000352
 20
-1.0
 30
0.0
 11
-0.0000000000001688
 21
-1.0
 31
0.0
1001
GENIUS_GENODEF_13
1002
{
1000
HIER
1070
     0
1002
}
1002
{
1000
MANEDIT
1070
     0
1002
}
1002
{
1000
NOSEL
1070
     0
1002
}
1002
{
1000
BEHIND
1070
     0
1002
}
1002
{
1000
REACTOR
1002
}
1001
GENIUS_GENOBJ-N-CEN_13
1002
{
1000
OWNER
1000
GEN
1002
}
  0
LINE
  5
1BC8
330
1F
100
AcDbEntity
  8
AM_11
100
AcDbLine
 10
-0.0000000000001688
 20
-1.0
 30
0.0
 11
-0.0000000000001725
 21
1.0
 31
0.0
  0
POLYLINE
  5
1C5A
330
1F
100
AcDbEntity
  8
AM_0
100
AcDb2dPolyline
 66
     1
 10
0.0
 20
0.0
 30
0.0
  0
VERTEX
  5
1C5B
330
1C5A
100
AcDbEntity
  8
AM_0
100
AcDbVertex
100
AcDb2dVertex
 10
-6.693955707067002
 20
0.1076509016929643
 30
0.0
 42
-0.0389537230206109
  0
VERTEX
  5
1C5C
330
1C5A
100
AcDbEntity
  8
AM_0
100
AcDbVertex
100
AcDb2dVertex
 10
-6.700000000000354
 20
0.1520260071188805
 30
0.0
 42
-0.1174641487817119
  0
VERTEX
  5
1C5D
330
1C5A
100
AcDbEntity
  8
AM_0
100
AcDbVertex
100
AcDb2dVertex
 10
-6.688722494084633
 20
0.2153117259983692
 30
0.0
 42
-0.0785888843657125
  0
VERTEX
  5
1C5E
330
1C5A
100
AcDbEntity
  8
AM_0
100
AcDbVertex
100
AcDb2dVertex
 10
-6.637500000000985
 20
0.2957453266040124
 30
0.0
 42
-0.1113020671939917
  0
VERTEX
  5
1C5F
330
1C5A
100
AcDbEntity
  8
AM_0
100
AcDbVertex
100
AcDb2dVertex
 10
-6.547635099097822
 20
0.3606072138830485
 30
0.0
 42
-0.0740170494428857
  0
VERTEX
  5
1C60
330
1C5A
100
AcDbEntity
  8
AM_0
100
AcDbVertex
100
AcDb2dVertex
 10
-6.387500000003507
 20
0.4024756285625517
 30
0.0
 42
-0.0758301658171769
  0
VERTEX
  5
1C61
330
1C5A
100
AcDbEntity
  8
AM_0
100
AcDbVertex
100
AcDb2dVertex
 10
-6.301153851204367
 20
0.3987255801926233
 30
0.0
 42
-0.0614316488375583
  0
VERTEX
  5
1C62
330
1C5A
100
AcDbEntity
  8
AM_0
100
AcDbVertex
100
AcDb2dVertex
 10
-6.200000000005398
 20
0.3654866110359585
 30
0.0
  0
SEQEND
  5
1C63
330
1C5A
100
AcDbEntity
  8
AM_0
  0
ARC
  5
1C64
330
1F
100
AcDbEntity
  8
AM_0
100
AcDbCircle
 10
-5.432546407588414
 20
0.6267051860515866
 30
0.0
 40
1.364027412419756
100
AcDbArc
 50
202.3665593285109
 51
245.4168527842934
  0
VIEWPORT
  5
110
330
101
100
AcDbEntity
 67
     1
  8
0
100
AcDbViewport
 10
420.5
 20
297.0
 30
0.0
 40
948.9782706766916
 41
628.452
 68
     1
 69
     1
1001
ACAD
1000
MVIEW
1002
{
1070
    16
1010
0.0
1020
0.0
1030
0.0
1010
0.0
1020
0.0
1030
1.0
1040
0.0
1040
628.452
1040
420.5
1040
297.0
1040
50.0
1040
0.0
1040
0.0
1070
     0
1070
   100
1070
     1
1070
     1
1070
     0
1070
     0
1070
     0
1070
     0
1040
0.0
1040
0.0
1040
0.0
1040
10.0
1040
10.0
1040
10.0
1040
10.0
1070
     0
1002
{
1002
}
1002
}
  0
ENDSEC
  0
SECTION
  2
OBJECTS
  0
DICTIONARY
  5
C
330
0
100
AcDbDictionary
  3
ACAD_GROUP
350
D
  3
ACAD_LAYOUT
350
1A
  3
ACAD_MLINESTYLE
350
17
  3
ACAD_PLOTSETTINGS
350
19
  3
ACAD_PLOTSTYLENAME
350
E
  3
ACDBVARIABLEDICTIONARY
350
34
  3
ACMDICTIONARY
350
43
  3
AMG
350
2B
  3
AMGSNAPSETTINGS
350
6E
  3
DWGPROPS
350
1C76
  3
ACDBHEADERROUNDTRIPXREC
350
1C83
  0
DICTIONARY
  5
74
330
1F
100
AcDbDictionary
280
     1
  3
ACAD_INDEX
360
1C78
  3
ACAD_LAYOUTSELFREF
360
1CA6
  0
DICTIONARY
  5
1CAB
330
101
100
AcDbDictionary
280
     1
  3
ACAD_LAYOUTSELFREF
360
1CAC
  0
DICTIONARY
  5
D
102
{ACAD_REACTORS
330
C
102
}
330
C
100
AcDbDictionary
  0
DICTIONARY
  5
1A
102
{ACAD_REACTORS
330
C
102
}
330
C
100
AcDbDictionary
  0
DICTIONARY
  5
17
102
{ACAD_REACTORS
330
C
102
}
330
C
100
AcDbDictionary
  3
STANDARD
350
18
  0
DICTIONARY
  5
19
102
{ACAD_REACTORS
330
C
102
}
330
C
100
AcDbDictionary
  0
ACDBDICTIONARYWDFLT
  5
E
102
{ACAD_REACTORS
330
C
102
}
330
C
100
AcDbDictionary
281
     1
  3
Normal
350
F
100
AcDbDictionaryWithDefault
340
F
  0
DICTIONARY
  5
34
102
{ACAD_REACTORS
330
C
102
}
330
C
100
AcDbDictionary
  3
INDEXCTL
350
35
  3
SORTENTS
350
B5E
  0
DICTIONARY
  5
43
102
{ACAD_REACTORS
330
C
102
}
330
C
100
AcDbDictionary
  3
ACMSTDDICTIONARY
350
260
  0
DICTIONARY
  5
2B
102
{ACAD_REACTORS
330
C
102
}
330
C
100
AcDbDictionary
  3
ACMGSETTINGS
350
2C
  0
DICTIONARY
  5
6E
102
{ACAD_REACTORS
330
C
102
}
330
C
100
AcDbDictionary
  0
XRECORD
  5
1C76
102
{ACAD_REACTORS
330
C
102
}
330
C
100
AcDbXrecord
  1
DWGPROPS COOKIE
  2

  3

  4

  6

  7

  8

  9

300
AmdtFileType=82
301
=
302
=
303
=
304
=
305
=
306
=
307
=
308
=
309
=
 40
0.1005540740740741
 41
2452802.716478761
 42
2453045.668029479
  1

 90
        1
  0
DICTIONARY
  5
1C83
102
{ACAD_REACTORS
330
C
102
}
330
C
100
AcDbDictionary
  3
TSTACKALIGN
350
1C84
  3
TSTACKSIZE
350
1C85
  3
HYPERLINKBASE
350
1C86
  3
STYLESHEET
350
1C87
  3
LAYOUTDICT
350
1C88
  3
PLOTSETDICT
350
1C89
  3
PLOTSTYLNAMDICT
350
1C8A
  3
LWETCUNION
350
1C8B
  3
INSUNITS
350
1C8C
  3
CEPSNTYPE
350
1C8D
  3
FINGERPRINTGUID
350
1C8E
  3
VERSIONGUID
350
1C8F
  3
PSVPSCALE
350
1C90
  3
DIMSTYLEDATA
350
1C91
  3
PUCSORTHOREF
350
1C92
  3
PUCSORTHOVIEW
350
1C93
  3
PUCSBASE
350
1C94
  3
PUCSORGTOP
350
1C95
  3
PUCSORGBOTTOM
350
1C96
  3
PUCSORGLEFT
350
1C97
  3
PUCSORGRIGHT
350
1C98
  3
PUCSORGFRONT
350
1C99
  3
PUCSORGBACK
350
1C9A
  3
UCSORTHOREF
350
1C9B
  3
UCSORTHOVIEW
350
1C9C
  3
UCSBASE
350
1C9D
  3
UCSORGTOP
350
1C9E
  3
UCSORGBOTTOM
350
1C9F
  3
UCSORGLEFT
350
1CA0
  3
UCSORGRIGHT
350
1CA1
  3
UCSORGFRONT
350
1CA2
  3
UCSORGBACK
350
1CA3
  0
DICTIONARY
  5
1C78
102
{ACAD_REACTORS
330
74
102
}
330
74
100
AcDbDictionary
  3
*A1
350
1C79
  0
XRECORD
  5
1CA6
102
{ACAD_REACTORS
330
74
102
}
330
74
100
AcDbXrecord
340
1F
  0
XRECORD
  5
1CAC
102
{ACAD_REACTORS
330
1CAB
102
}
330
1CAB
100
AcDbXrecord
340
101
  0
MLINESTYLE
  5
18
102
{ACAD_REACTORS
330
17
102
}
330
17
100
AcDbMlineStyle
  2
STANDARD
 70
     0
  3

 62
   256
 51
90.0
 52
90.0
 71
     2
 49
0.5
 62
   256
  6
BYLAYER
 49
-0.5
 62
   256
  6
BYLAYER
  0
ACDBPLACEHOLDER
  5
F
102
{ACAD_REACTORS
330
E
102
}
330
E
100
AcDbPlaceHolder
280
     0
  0
DICTIONARYVAR
  5
35
102
{ACAD_REACTORS
330
34
102
}
330
34
100
DictionaryVariables
280
     0
  1
1
  0
DICTIONARYVAR
  5
B5E
102
{ACAD_REACTORS
330
34
102
}
330
34
100
DictionaryVariables
280
     0
  1
96
  0
DICTIONARY
  5
260
102
{ACAD_REACTORS
330
43
102
}
330
43
100
AcDbDictionary
  0
DICTIONARY
  5
2C
102
{ACAD_REACTORS
330
2B
102
}
330
2B
100
AcDbDictionary
  3
DWGSETTINGS
350
2D
  0
XRECORD
  5
1C84
102
{ACAD_REACTORS
330
1C83
102
}
330
1C83
100
AcDbXrecord
 90
        1
  0
XRECORD
  5
1C85
102
{ACAD_REACTORS
330
1C83
102
}
330
1C83
100
AcDbXrecord
 90
       70
  0
XRECORD
  5
1C86
102
{ACAD_REACTORS
330
1C83
102
}
330
1C83
100
AcDbXrecord
  1

  0
XRECORD
  5
1C87
102
{ACAD_REACTORS
330
1C83
102
}
330
1C83
100
AcDbXrecord
  1
ASAMI.ctb
  0
XRECORD
  5
1C88
102
{ACAD_REACTORS
330
1C83
102
}
330
1C83
100
AcDbXrecord
340
1A
  0
XRECORD
  5
1C89
102
{ACAD_REACTORS
330
1C83
102
}
330
1C83
100
AcDbXrecord
340
19
  0
XRECORD
  5
1C8A
102
{ACAD_REACTORS
330
1C83
102
}
330
1C83
100
AcDbXrecord
340
E
  0
XRECORD
  5
1C8B
102
{ACAD_REACTORS
330
1C83
102
}
330
1C83
100
AcDbXrecord
 90
    10781
  0
XRECORD
  5
1C8C
102
{ACAD_REACTORS
330
1C83
102
}
330
1C83
100
AcDbXrecord
 90
        4
  0
XRECORD
  5
1C8D
102
{ACAD_REACTORS
330
1C83
102
}
330
1C83
100
AcDbXrecord
 90
        0
  0
XRECORD
  5
1C8E
102
{ACAD_REACTORS
330
1C83
102
}
330
1C83
100
AcDbXrecord
  1
{AFB28963-8C59-40AE-9337-C84526B81ACE}
  0
XRECORD
  5
1C8F
102
{ACAD_REACTORS
330
1C83
102
}
330
1C83
100
AcDbXrecord
  1
{2FD58C78-7FBE-4199-B103-843761F64E3A}
  0
XRECORD
  5
1C90
102
{ACAD_REACTORS
330
1C83
102
}
330
1C83
100
AcDbXrecord
 40
0.0
  0
XRECORD
  5
1C91
102
{ACAD_REACTORS
330
1C83
102
}
330
1C83
100
AcDbXrecord
1000
DSTYLE
1002
{
1070
    79
 70
     2
1070
   341
340
59
1070
   342
340
59
1070
   371
 70
    -1
1070
   372
 70
    -1
1002
}
  0
XRECORD
  5
1C92
102
{ACAD_REACTORS
330
1C83
102
}
330
1C83
100
AcDbXrecord
340
0
  0
XRECORD
  5
1C93
102
{ACAD_REACTORS
330
1C83
102
}
330
1C83
100
AcDbXrecord
 70
     0
  0
XRECORD
  5
1C94
102
{ACAD_REACTORS
330
1C83
102
}
330
1C83
100
AcDbXrecord
340
0
  0
XRECORD
  5
1C95
102
{ACAD_REACTORS
330
1C83
102
}
330
1C83
100
AcDbXrecord
 10
0.0
 20
0.0
 30
0.0
  0
XRECORD
  5
1C96
102
{ACAD_REACTORS
330
1C83
102
}
330
1C83
100
AcDbXrecord
 10
0.0
 20
0.0
 30
0.0
  0
XRECORD
  5
1C97
102
{ACAD_REACTORS
330
1C83
102
}
330
1C83
100
AcDbXrecord
 10
0.0
 20
0.0
 30
0.0
  0
XRECORD
  5
1C98
102
{ACAD_REACTORS
330
1C83
102
}
330
1C83
100
AcDbXrecord
 10
0.0
 20
0.0
 30
0.0
  0
XRECORD
  5
1C99
102
{ACAD_REACTORS
330
1C83
102
}
330
1C83
100
AcDbXrecord
 10
0.0
 20
0.0
 30
0.0
  0
XRECORD
  5
1C9A
102
{ACAD_REACTORS
330
1C83
102
}
330
1C83
100
AcDbXrecord
 10
0.0
 20
0.0
 30
0.0
  0
XRECORD
  5
1C9B
102
{ACAD_REACTORS
330
1C83
102
}
330
1C83
100
AcDbXrecord
340
0
  0
XRECORD
  5
1C9C
102
{ACAD_REACTORS
330
1C83
102
}
330
1C83
100
AcDbXrecord
 70
     0
  0
XRECORD
  5
1C9D
102
{ACAD_REACTORS
330
1C83
102
}
330
1C83
100
AcDbXrecord
340
0
  0
XRECORD
  5
1C9E
102
{ACAD_REACTORS
330
1C83
102
}
330
1C83
100
AcDbXrecord
 10
0.0
 20
0.0
 30
0.0
  0
XRECORD
  5
1C9F
102
{ACAD_REACTORS
330
1C83
102
}
330
1C83
100
AcDbXrecord
 10
0.0
 20
0.0
 30
0.0
  0
XRECORD
  5
1CA0
102
{ACAD_REACTORS
330
1C83
102
}
330
1C83
100
AcDbXrecord
 10
0.0
 20
0.0
 30
0.0
  0
XRECORD
  5
1CA1
102
{ACAD_REACTORS
330
1C83
102
}
330
1C83
100
AcDbXrecord
 10
0.0
 20
0.0
 30
0.0
  0
XRECORD
  5
1CA2
102
{ACAD_REACTORS
330
1C83
102
}
330
1C83
100
AcDbXrecord
 10
0.0
 20
0.0
 30
0.0
  0
XRECORD
  5
1CA3
102
{ACAD_REACTORS
330
1C83
102
}
330
1C83
100
AcDbXrecord
 10
0.0
 20
0.0
 30
0.0
  0
LAYER_INDEX
  5
1C79
102
{ACAD_REACTORS
330
1C78
102
}
330
1C78
100
AcDbIndex
 40
2453152.359911701
100
AcDbLayerIndex
  8
0
360
1C7A
 90
        0
  8
AM_0
360
1C7B
 90
       47
  8
AM_5
360
1C7C
 90
        4
  8
AM_11
360
1C7D
 90
        4
  8
AM_7
360
1C7E
 90
        1
  8
AM_6
360
1C7F
 90
        1
  8
Defpoints
360
1C80
 90
        0
  8
AM_CL
360
1C81
 90
        0
  0
XRECORD
  5
2D
102
{ACAD_REACTORS
330
2C
102
}
330
2C
100
AcDbXrecord
  1
VERSION
140
15.0
  1
PRODUCT
  2
AutoCAD Mechanical 2000
  0
IDBUFFER
  5
1C7A
330
0
100
AcDbIdBuffer
  0
IDBUFFER
  5
1C7B
330
0
100
AcDbIdBuffer
330
194F
330
1951
330
1952
330
1954
330
1955
330
1956
330
1957
330
1958
330
1959
330
195A
330
195B
330
195E
330
195F
330
1960
330
199F
330
19A0
330
1A14
330
1A15
330
1A16
330
1A17
330
1A18
330
1A33
330
1A35
330
1A37
330
1AAE
330
1ACC
330
1AEB
330
1AEF
330
1B0D
330
1C5A
330
1C64
330
1421
330
1422
330
1423
330
1424
330
1425
330
1426
330
1427
330
1428
330
1429
330
1944
330
1948
330
194A
330
194B
330
194C
330
194D
330
194E
  0
IDBUFFER
  5
1C7C
330
0
100
AcDbIdBuffer
330
F4C
330
10E0
330
155D
330
1606
  0
IDBUFFER
  5
1C7D
330
0
100
AcDbIdBuffer
330
1B23
330
1BC0
330
1BC4
330
1BC8
  0
IDBUFFER
  5
1C7E
330
0
100
AcDbIdBuffer
330
1554
  0
IDBUFFER
  5
1C7F
330
0
100
AcDbIdBuffer
330
E65
  0
IDBUFFER
  5
1C80
330
0
100
AcDbIdBuffer
  0
IDBUFFER
  5
1C81
330
0
100
AcDbIdBuffer
  0
ENDSEC
  0
EOF
