  0
SECTION
  2
HEADER
  9
$ACADVER
  1
AC1014
  9
$ACADMAINTVER
 70
     9
  9
$DWGCODEPAGE
  3
ANSI_932
  9
$INSBASE
 10
0.0
 20
0.0
 30
0.0
  9
$EXTMIN
 10
-54.34999999999958
 20
-27.25000000023349
 30
-0.00000001
  9
$EXTMAX
 10
7.500000000000525
 20
7.340476190756375
 30
0.00000001
  9
$LIMMIN
 10
-55.46951629884147
 20
-30.84653262735921
  9
$LIMMAX
 10
9.604673651699727
 20
10.78185576390529
  9
$ORTHOMODE
 70
     0
  9
$REGENMODE
 70
     1
  9
$FILLMODE
 70
     1
  9
$QTEXTMODE
 70
     0
  9
$MIRRTEXT
 70
     0
  9
$DRAGMODE
 70
     2
  9
$LTSCALE
 40
1.0
  9
$OSMODE
 70
    55
  9
$ATTMODE
 70
     1
  9
$TEXTSIZE
 40
2.5
  9
$TRACEWID
 40
1.0
  9
$TEXTSTYLE
  7
STANDARD
  9
$CLAYER
  8
AM_0
  9
$CELTYPE
  6
BYLAYER
  9
$CECOLOR
 62
   256
  9
$CELTSCALE
 40
1.0
  9
$DELOBJ
 70
     1
  9
$DISPSILH
 70
     0
  9
$DIMSCALE
 40
0.5
  9
$DIMASZ
 40
2.5
  9
$DIMEXO
 40
1.0
  9
$DIMDLI
 40
12.0
  9
$DIMRND
 40
0.0
  9
$DIMDLE
 40
0.0
  9
$DIMEXE
 40
1.0
  9
$DIMTP
 40
0.1
  9
$DIMTM
 40
0.1
  9
$DIMTXT
 40
3.2
  9
$DIMCEN
 40
0.0
  9
$DIMTSZ
 40
0.0
  9
$DIMTOL
 70
     0
  9
$DIMLIM
 70
     0
  9
$DIMTIH
 70
     0
  9
$DIMTOH
 70
     0
  9
$DIMSE1
 70
     0
  9
$DIMSE2
 70
     0
  9
$DIMTAD
 70
     3
  9
$DIMZIN
 70
     8
  9
$DIMBLK
  1
OPEN30
  9
$DIMASO
 70
     1
  9
$DIMSHO
 70
     1
  9
$DIMPOST
  1

  9
$DIMAPOST
  1
"
  9
$DIMALT
 70
     0
  9
$DIMALTD
 70
     2
  9
$DIMALTF
 40
0.0393701
  9
$DIMLFAC
 40
1.0
  9
$DIMTOFL
 70
     1
  9
$DIMTVP
 40
0.0
  9
$DIMTIX
 70
     0
  9
$DIMSOXD
 70
     0
  9
$DIMSAH
 70
     0
  9
$DIMBLK1
  1

  9
$DIMBLK2
  1

  9
$DIMSTYLE
  2
AM_JIS
  9
$DIMCLRD
 70
   256
  9
$DIMCLRE
 70
   256
  9
$DIMCLRT
 70
     2
  9
$DIMTFAC
 40
0.71
  9
$DIMGAP
 40
1.5
  9
$DIMJUST
 70
     0
  9
$DIMSD1
 70
     0
  9
$DIMSD2
 70
     0
  9
$DIMTOLJ
 70
     0
  9
$DIMTZIN
 70
     0
  9
$DIMALTZ
 70
     0
  9
$DIMALTTZ
 70
     0
  9
$DIMFIT
 70
     3
  9
$DIMUPT
 70
     0
  9
$DIMUNIT
 70
     2
  9
$DIMDEC
 70
     3
  9
$DIMTDEC
 70
     3
  9
$DIMALTU
 70
     2
  9
$DIMALTTD
 70
     2
  9
$DIMTXSTY
  7
ASAMI
  9
$DIMAUNIT
 70
     0
  9
$LUNITS
 70
     2
  9
$LUPREC
 70
     2
  9
$SKETCHINC
 40
1.0
  9
$FILLETRAD
 40
2.5
  9
$AUNITS
 70
     0
  9
$AUPREC
 70
     0
  9
$MENU
  1
.
  9
$ELEVATION
 40
0.0
  9
$PELEVATION
 40
0.0
  9
$THICKNESS
 40
0.0
  9
$LIMCHECK
 70
     0
  9
$BLIPMODE
 70
     0
  9
$CHAMFERA
 40
2.5
  9
$CHAMFERB
 40
2.5
  9
$CHAMFERC
 40
20.0
  9
$CHAMFERD
 40
0.0
  9
$SKPOLY
 70
     0
  9
$TDCREATE
 40
2452802.716478761
  9
$TDUPDATE
 40
2453152.360065417
  9
$TDINDWG
 40
0.0939517361
  9
$TDUSRTIMER
 40
0.0939517361
  9
$USRTIMER
 70
     1
  9
$ANGBASE
 50
0.0
  9
$ANGDIR
 70
     0
  9
$PDMODE
 70
     0
  9
$PDSIZE
 40
0.0
  9
$PLINEWID
 40
0.0
  9
$COORDS
 70
     1
  9
$SPLFRAME
 70
     0
  9
$SPLINETYPE
 70
     6
  9
$SPLINESEGS
 70
     8
  9
$ATTDIA
 70
     1
  9
$ATTREQ
 70
     1
  9
$HANDLING
 70
 12289
  9
$HANDSEED
  5
23C7
  9
$SURFTAB1
 70
     6
  9
$SURFTAB2
 70
     6
  9
$SURFTYPE
 70
     6
  9
$SURFU
 70
     6
  9
$SURFV
 70
     6
  9
$UCSNAME
  2

  9
$UCSORG
 10
0.0
 20
0.0
 30
0.0
  9
$UCSXDIR
 10
1.0
 20
0.0
 30
0.0
  9
$UCSYDIR
 10
0.0
 20
1.0
 30
0.0
  9
$PUCSNAME
  2

  9
$PUCSORG
 10
0.0
 20
0.0
 30
0.0
  9
$PUCSXDIR
 10
1.0
 20
0.0
 30
0.0
  9
$PUCSYDIR
 10
0.0
 20
1.0
 30
0.0
  9
$USERI1
 70
     0
  9
$USERI2
 70
     0
  9
$USERI3
 70
     0
  9
$USERI4
 70
     0
  9
$USERI5
 70
     0
  9
$USERR1
 40
0.0
  9
$USERR2
 40
0.0
  9
$USERR3
 40
0.0
  9
$USERR4
 40
0.0
  9
$USERR5
 40
0.0
  9
$WORLDVIEW
 70
     1
  9
$SHADEDGE
 70
     3
  9
$SHADEDIF
 70
    70
  9
$TILEMODE
 70
     1
  9
$MAXACTVP
 70
    64
  9
$PINSBASE
 10
0.0
 20
0.0
 30
0.0
  9
$PLIMCHECK
 70
     0
  9
$PEXTMIN
 10
1.000000000000000E+20
 20
1.000000000000000E+20
 30
1.000000000000000E+20
  9
$PEXTMAX
 10
-1.000000000000000E+20
 20
-1.000000000000000E+20
 30
-1.000000000000000E+20
  9
$PLIMMIN
 10
0.0
 20
0.0
  9
$PLIMMAX
 10
841.0
 20
594.0
  9
$UNITMODE
 70
     0
  9
$VISRETAIN
 70
     1
  9
$PLINEGEN
 70
     0
  9
$PSLTSCALE
 70
     0
  9
$TREEDEPTH
 70
  3020
  9
$PICKSTYLE
 70
     0
  9
$CMLSTYLE
  2
STANDARD
  9
$CMLJUST
 70
     0
  9
$CMLSCALE
 40
20.0
  9
$PROXYGRAPHICS
 70
     1
  9
$MEASUREMENT
 70
     1
  0
ENDSEC
  0
SECTION
  2
CLASSES
  0
CLASS
  1
ACDBDICTIONARYWDFLT
  2
AcDbDictionaryWithDefault
  3
AutoCAD 2000
 90
        0
280
     0
281
     0
  0
CLASS
  1
ACDBPLACEHOLDER
  2
AcDbPlaceHolder
  3
AutoCAD 2000
 90
        0
280
     0
281
     0
  0
CLASS
  1
LAYOUT
  2
AcDbLayout
  3
AutoCAD 2000
 90
        0
280
     0
281
     0
  0
CLASS
  1
AMGSETTINGSOBJ
  2
AmgSettingsObj
  3
"AcadM|Product Description: AutoCAD Mechanical 2000|Company: Autodesk"
 90
        0
280
     0
281
     0
  0
CLASS
  1
ACME_DOCUMENT
  2
AcMeDbDoc
  3
AcMeServices
 90
        0
280
     0
281
     0
  0
CLASS
  1
ACMESCOPE
  2
AcMeScope
  3
AcMeServices
 90
        0
280
     0
281
     0
  0
CLASS
  1
ACMECOMMANDHISTORY
  2
AcMeCommandHistory
  3
AcMeServices
 90
        0
280
     0
281
     0
  0
CLASS
  1
DICTIONARYVAR
  2
AcDbDictionaryVar
  3
AutoCAD 2000
 90
        0
280
     0
281
     0
  0
CLASS
  1
ACIMSYSVARMAN
  2
AcImSysVarManager
  3
AcMeServices
 90
        0
280
     0
281
     0
  0
CLASS
  1
ACIMREALSYSVAR
  2
AcImRealSysVar
  3
AcMeServices
 90
        0
280
     0
281
     0
  0
CLASS
  1
ACIMINTSYSVAR
  2
AcImIntSysVar
  3
AcMeServices
 90
        0
280
     0
281
     0
  0
CLASS
  1
ACMEDRAWINGMAN
  2
AcMeDrawingMan
  3
AcMeServices
 90
        0
280
     0
281
     0
  0
CLASS
  1
ACMEVIEW
  2
AcMeView
  3
AcMeServices
 90
        0
280
     0
281
     0
  0
CLASS
  1
ACDBENTITYCACHE
  2
AcMeEntityCache
  3
AcMeServices
 90
        0
280
     0
281
     0
  0
CLASS
  1
GSMANAGER
  2
AcMeGSManager
  3
AcMeServices
 90
        0
280
     0
281
     0
  0
CLASS
  1
AmdtInternalReactor
  2
AmdtInternalReactor
  3
AcMeServices
 90
        0
280
     0
281
     0
  0
CLASS
  1
ACMESTATEMGR
  2
AcMeStateMgr
  3
AcMeServices
 90
        0
280
     0
281
     0
  0
CLASS
  1
ACME_DATABASE
  2
AcMeDbDatabase
  3
AcMeServices
 90
        0
280
     0
281
     0
  0
CLASS
  1
ACRFINSADJUSTERMGR
  2
AcRfInsAdjusterMgr
  3
AcMeServices
 90
        0
280
     0
281
     0
  0
CLASS
  1
ACMDATADICTIONARY
  2
AcmDataDictionary
  3
"AcmSymBB|Product Description: AutoCAD Mechanical 2000|Company: Autodesk"
 90
        0
280
     0
281
     0
  0
CLASS
  1
ACMDATAENTRYBLOCK
  2
AcmDataEntryBlock
  3
"AcmSymBB|Product Description: AutoCAD Mechanical 2000|Company: Autodesk"
 90
        0
280
     0
281
     0
  0
CLASS
  1
AMGOBJPROPCFG
  2
AmgObjPropCfg
  3
"AmgLay|Product Description: AutoCAD Mechanical 2000|Company: Autodesk"
 90
        1
280
     0
281
     0
  0
CLASS
  1
ACAMGFILTERDAT
  2
AcAmgFilterDat
  3
"AcadM|Product Description: AutoCAD Mechanical 2000|Company: Autodesk"
 90
        0
280
     0
281
     0
  0
CLASS
  1
LAYER_INDEX
  2
AcDbLayerIndex
  3
AutoCAD 2000
 90
        0
280
     0
281
     0
  0
CLASS
  1
IDBUFFER
  2
AcDbIdBuffer
  3
AutoCAD 2000
 90
        0
280
     0
281
     0
  0
CLASS
  1
ACIMSTRSYSVAR
  2
AcImStrSysVar
  3
AcMeServices
 90
        0
280
     0
281
     0
  0
CLASS
  1
ACMSTANDARDJIS
  2
AcmStandardJIS
  3
"AcmSymBB|Product Description: AutoCAD Mechanical 2000|Company: Autodesk"
 90
        0
280
     0
281
     0
  0
CLASS
  1
ACMSURFSTANDARDJIS
  2
AcmSurfTextStdJIS
  3
"AcmSymBB|Product Description: AutoCAD Mechanical 2000|Company: Autodesk"
 90
        0
280
     0
281
     0
  0
CLASS
  1
ACMFCFSTANDARDJIS
  2
AcmFCFStdJIS
  3
"AcmSymBB|Product Description: AutoCAD Mechanical 2000|Company: Autodesk"
 90
        0
280
     0
281
     0
  0
CLASS
  1
ACMWELDSTANDARDJIS
  2
AcmWeldingStdJIS
  3
"AcmSymBB|Product Description: AutoCAD Mechanical 2000|Company: Autodesk"
 90
        0
280
     0
281
     0
  0
CLASS
  1
ACMIDSTANDARDJIS
  2
AcmIdStdJIS
  3
"AcmSymBB|Product Description: AutoCAD Mechanical 2000|Company: Autodesk"
 90
        0
280
     0
281
     0
  0
CLASS
  1
ACMDATUMSTANDARDJIS
  2
AcmDatumStdJIS
  3
"AcmSymBB|Product Description: AutoCAD Mechanical 2000|Company: Autodesk"
 90
        0
280
     0
281
     0
  0
CLASS
  1
ACMBOMSTANDARDJIS
  2
AcmBOMStdJIS
  3
"AcmSymBB|Product Description: AutoCAD Mechanical 2000|Company: Autodesk"
 90
        0
280
     0
281
     0
  0
CLASS
  1
ACMSTANDARDANSI
  2
AcmStandardANSI
  3
"AcmSymBB|Product Description: AutoCAD Mechanical 2000|Company: Autodesk"
 90
        0
280
     0
281
     0
  0
CLASS
  1
ACMSURFSTANDARDANSI
  2
AcmSurfTextStdANSI
  3
"AcmSymBB|Product Description: AutoCAD Mechanical 2000|Company: Autodesk"
 90
        0
280
     0
281
     0
  0
CLASS
  1
ACMFCFSTANDARDANSI
  2
AcmFCFStdANSI
  3
"AcmSymBB|Product Description: AutoCAD Mechanical 2000|Company: Autodesk"
 90
        0
280
     0
281
     0
  0
CLASS
  1
ACMWELDSTANDARDANSI
  2
AcmWeldingStdANSI
  3
"AcmSymBB|Product Description: AutoCAD Mechanical 2000|Company: Autodesk"
 90
        0
280
     0
281
     0
  0
CLASS
  1
ACMIDSTANDARDANSI
  2
AcmIdStdANSI
  3
"AcmSymBB|Product Description: AutoCAD Mechanical 2000|Company: Autodesk"
 90
        0
280
     0
281
     0
  0
CLASS
  1
ACMDATUMSTANDARDANSI
  2
AcmDatumStdANSI
  3
"AcmSymBB|Product Description: AutoCAD Mechanical 2000|Company: Autodesk"
 90
        0
280
     0
281
     0
  0
CLASS
  1
ACMBOMSTANDARDANSI
  2
AcmBOMStdANSI
  3
"AcmSymBB|Product Description: AutoCAD Mechanical 2000|Company: Autodesk"
 90
        0
280
     0
281
     0
  0
CLASS
  1
ACMSTANDARDBSI
  2
AcmStandardBSI
  3
"AcmSymBB|Product Description: AutoCAD Mechanical 2000|Company: Autodesk"
 90
        0
280
     0
281
     0
  0
CLASS
  1
ACMSURFSTANDARDBSI
  2
AcmSurfTextStdBSI
  3
"AcmSymBB|Product Description: AutoCAD Mechanical 2000|Company: Autodesk"
 90
        0
280
     0
281
     0
  0
CLASS
  1
ACMFCFSTANDARDBSI
  2
AcmFCFStdBSI
  3
"AcmSymBB|Product Description: AutoCAD Mechanical 2000|Company: Autodesk"
 90
        0
280
     0
281
     0
  0
CLASS
  1
ACMWELDSTANDARDBSI
  2
AcmWeldingStdBSI
  3
"AcmSymBB|Product Description: AutoCAD Mechanical 2000|Company: Autodesk"
 90
        0
280
     0
281
     0
  0
CLASS
  1
ACMIDSTANDARDBSI
  2
AcmIdStdBSI
  3
"AcmSymBB|Product Description: AutoCAD Mechanical 2000|Company: Autodesk"
 90
        0
280
     0
281
     0
  0
CLASS
  1
ACMDATUMSTANDARDBSI
  2
AcmDatumStdBSI
  3
"AcmSymBB|Product Description: AutoCAD Mechanical 2000|Company: Autodesk"
 90
        0
280
     0
281
     0
  0
CLASS
  1
ACMBOMSTANDARDBSI
  2
AcmBOMStdBSI
  3
"AcmSymBB|Product Description: AutoCAD Mechanical 2000|Company: Autodesk"
 90
        0
280
     0
281
     0
  0
CLASS
  1
LONG_TRANSACTION
  2
AcDbLongTransaction
  3
AutoCAD 2000
 90
        0
280
     0
281
     0
  0
CLASS
  1
LWPOLYLINE
  2
AcDbPolyline
  3
AutoCAD 2000
 90
        0
280
     0
281
     1
  0
CLASS
  1
HATCH
  2
AcDbHatch
  3
AutoCAD 2000
 90
        0
280
     0
281
     1
  0
CLASS
  1
XRECORD
  2
AcDbXrecord
  3
AutoCAD 2000
 90
        0
280
     0
281
     0
  0
ENDSEC
  0
SECTION
  2
TABLES
  0
TABLE
  2
VPORT
  5
8
330
0
100
AcDbSymbolTable
 70
     3
  0
VPORT
  5
239C
330
8
100
AcDbSymbolTableRecord
100
AcDbViewportTableRecord
  2
*ACTIVE
 70
     0
 10
0.0
 20
0.0
 11
1.0
 21
1.0
 12
-18.79106524602607
 22
-5.724006504812113
 13
0.0
 23
0.0
 14
2.5
 24
2.5
 15
10.0
 25
10.0
 16
0.0
 26
0.0
 36
1.0
 17
0.0
 27
0.0
 37
0.0
 40
56.49088374411181
 41
1.56570841889117
 42
50.0
 43
0.0
 44
0.0
 50
0.0
 51
0.0
 71
     0
 72
   100
 73
     1
 74
     3
 75
     0
 76
     0
 77
     0
 78
     0
  0
ENDTAB
  0
TABLE
  2
LTYPE
  5
5
330
0
100
AcDbSymbolTable
 70
    10
  0
LTYPE
  5
14
330
5
100
AcDbSymbolTableRecord
100
AcDbLinetypeTableRecord
  2
BYBLOCK
 70
     0
  3

 72
    65
 73
     0
 40
0.0
  0
LTYPE
  5
15
330
5
100
AcDbSymbolTableRecord
100
AcDbLinetypeTableRecord
  2
BYLAYER
 70
     0
  3

 72
    65
 73
     0
 40
0.0
  0
LTYPE
  5
16
330
5
100
AcDbSymbolTableRecord
100
AcDbLinetypeTableRecord
  2
CONTINUOUS
 70
     0
  3
Solid line
 72
    65
 73
     0
 40
0.0
  0
LTYPE
  5
4B
330
5
100
AcDbSymbolTableRecord
100
AcDbLinetypeTableRecord
  2
AM_ISO02W050
 70
     0
  3
__ __ __ __ __ __ __ __ __ __ __ __ __ __ __
 72
    65
 73
     2
 40
7.5
 49
6.0
 74
     0
 49
-1.5
 74
     0
  0
LTYPE
  5
4C
330
5
100
AcDbSymbolTableRecord
100
AcDbLinetypeTableRecord
  2
AM_ISO08W050
 70
     0
  3
____ . ____ . ____ . ____ . ____ . ____ . ____
 72
    65
 73
     4
 40
18.0
 49
12.0
 74
     0
 49
-1.5
 74
     0
 49
3.0
 74
     0
 49
-1.5
 74
     0
  0
LTYPE
  5
4D
330
5
100
AcDbSymbolTableRecord
100
AcDbLinetypeTableRecord
  2
AM_ISO09W050
 70
     0
  3
_____ . . _____ . . _____ . . ____ .. ____
 72
    65
 73
     6
 40
22.5
 49
12.0
 74
     0
 49
-1.5
 74
     0
 49
3.0
 74
     0
 49
-1.5
 74
     0
 49
3.0
 74
     0
 49
-1.5
 74
     0
  0
LTYPE
  5
4E
330
5
100
AcDbSymbolTableRecord
100
AcDbLinetypeTableRecord
  2
AMCONSTR
 70
     0
  3
_______________________
 72
    65
 73
     2
 40
9999.0
 49
9999.0
 74
     0
 49
0.0
 74
     0
  0
LTYPE
  5
4F
330
5
100
AcDbSymbolTableRecord
100
AcDbLinetypeTableRecord
  2
AM_ISO02W050X2
 70
     0
  3
 _ _ _ _ _ _ _ _ _ _ _ _
 72
    65
 73
     2
 40
3.75
 49
3.0
 74
     0
 49
-0.75
 74
     0
  0
LTYPE
  5
50
330
5
100
AcDbSymbolTableRecord
100
AcDbLinetypeTableRecord
  2
AM_ISO08W050X2
 70
     0
  3
__ . __ . __ . __ . __ . __
 72
    65
 73
     4
 40
9.0
 49
6.0
 74
     0
 49
-0.75
 74
     0
 49
1.5
 74
     0
 49
-0.75
 74
     0
  0
LTYPE
  5
53
330
5
100
AcDbSymbolTableRecord
100
AcDbLinetypeTableRecord
  2
AMZIGZAG
 70
     0
  3
/\/-/\/-/\/-/\/-/\/-/\/
 72
    65
 73
     2
 40
11.00009999999999
 49
0.0001
 74
     4
 75
   135
340
52
 46
0.04
 50
0.0
 44
0.0
 45
0.0
 49
-11.0
 74
     0
  0
LTYPE
  5
166
330
5
100
AcDbSymbolTableRecord
100
AcDbLinetypeTableRecord
  2
ACJISTGL
 70
     0
  3
_ _ _ _ _
 72
    65
 73
     2
 40
3.0
 49
2.0
 74
     0
 49
-1.0
 74
     0
  0
LTYPE
  5
26A
330
5
100
AcDbSymbolTableRecord
100
AcDbLinetypeTableRecord
  2
ACJISTGB
 70
     0
  3
__ . . __ . .
 72
    65
 73
     6
 40
9.0
 49
4.0
 74
     0
 49
-1.0
 74
     0
 49
1.0
 74
     0
 49
-1.0
 74
     0
 49
1.0
 74
     0
 49
-1.0
 74
     0
  0
ENDTAB
  0
TABLE
  2
LAYER
  5
2
330
0
100
AcDbSymbolTable
 70
     7
  0
LAYER
  5
10
330
2
100
AcDbSymbolTableRecord
100
AcDbLayerTableRecord
  2
0
 70
     0
 62
     7
  6
CONTINUOUS
  0
LAYER
  5
3F9
330
2
100
AcDbSymbolTableRecord
100
AcDbLayerTableRecord
  2
AM_0
 70
     0
 62
     7
  6
CONTINUOUS
  0
LAYER
  5
BA4
330
2
100
AcDbSymbolTableRecord
100
AcDbLayerTableRecord
  2
AM_5
 70
     0
 62
     3
  6
CONTINUOUS
  0
LAYER
  5
BA5
330
2
100
AcDbSymbolTableRecord
100
AcDbLayerTableRecord
  2
AM_11
 70
     0
 62
     3
  6
AM_ISO09W050
  0
LAYER
  5
BA6
330
2
100
AcDbSymbolTableRecord
100
AcDbLayerTableRecord
  2
AM_7
 70
     0
 62
     4
  6
AM_ISO08W050
  0
LAYER
  5
E64
330
2
100
AcDbSymbolTableRecord
100
AcDbLayerTableRecord
  2
AM_6
 70
     0
 62
     2
  6
CONTINUOUS
  0
LAYER
  5
F4D
330
2
100
AcDbSymbolTableRecord
100
AcDbLayerTableRecord
  2
DEFPOINTS
 70
     0
 62
     7
  6
CONTINUOUS
  0
ENDTAB
  0
TABLE
  2
STYLE
  5
3
330
0
100
AcDbSymbolTable
 70
     5
  0
STYLE
  5
11
330
3
100
AcDbSymbolTableRecord
100
AcDbTextStyleTableRecord
  2
STANDARD
 70
     0
 40
0.0
 41
1.0
 50
0.0
 71
     0
 42
2.5
  3
simplex.shx
  4
EXTFONT.SHX
  0
STYLE
  5
52
330
3
100
AcDbSymbolTableRecord
100
AcDbTextStyleTableRecord
  2

 70
     1
 40
0.0
 41
1.0
 50
0.0
 71
     0
 42
2.5
  3
ltypeshp.shx
  4

  0
STYLE
  5
6B
330
3
100
AcDbSymbolTableRecord
100
AcDbTextStyleTableRecord
  2
ASAMI
 70
     0
 40
0.0
 41
1.0
 50
0.0
 71
     0
 42
2.5
  3
simplex.shx
  4
EXTFONT.SHX
  0
STYLE
  5
262
330
3
100
AcDbSymbolTableRecord
100
AcDbTextStyleTableRecord
  2
ACJISTS
 70
     0
 40
1.0
 41
1.0
 50
0.0
 71
     0
 42
2.5
  3
simplex.shx
  4
bigfont.shx
  0
STYLE
  5
269
330
3
100
AcDbSymbolTableRecord
100
AcDbTextStyleTableRecord
  2
ACJISGDT
 70
     0
 40
0.0
 41
1.0
 50
0.0
 71
     0
 42
2.5
  3
amgdtans.shx
  4

  0
ENDTAB
  0
TABLE
  2
VIEW
  5
6
330
0
100
AcDbSymbolTable
 70
     0
  0
ENDTAB
  0
TABLE
  2
UCS
  5
7
330
0
100
AcDbSymbolTable
 70
     0
  0
ENDTAB
  0
TABLE
  2
APPID
  5
9
330
0
100
AcDbSymbolTable
 70
    12
  0
APPID
  5
12
330
9
100
AcDbSymbolTableRecord
100
AcDbRegAppTableRecord
  2
ACAD
 70
     0
  0
APPID
  5
30
330
9
100
AcDbSymbolTableRecord
100
AcDbRegAppTableRecord
  2
MCAD_NO_VIS
 70
     0
  0
APPID
  5
31
330
9
100
AcDbSymbolTableRecord
100
AcDbRegAppTableRecord
  2
ACAD_TEMP_GRAPHIC
 70
     0
  0
APPID
  5
2C2
330
9
100
AcDbSymbolTableRecord
100
AcDbRegAppTableRecord
  2
GENIUS_GENDTOL_13
 70
     0
  0
APPID
  5
339
330
9
100
AcDbSymbolTableRecord
100
AcDbRegAppTableRecord
  2
GENIUS_GENODEF_13
 70
     0
  0
APPID
  5
33A
330
9
100
AcDbSymbolTableRecord
100
AcDbRegAppTableRecord
  2
GENIUS_GENOBJ-N-RSBK_13
 70
     0
  0
APPID
  5
33B
330
9
100
AcDbSymbolTableRecord
100
AcDbRegAppTableRecord
  2
GENIUS_GENOBJ-N-LIB_13
 70
     0
  0
APPID
  5
33C
330
9
100
AcDbSymbolTableRecord
100
AcDbRegAppTableRecord
  2
GENIUS_GENSCALE_13
 70
     0
  0
APPID
  5
378
330
9
100
AcDbSymbolTableRecord
100
AcDbRegAppTableRecord
  2
GENIUS_GENDIMSH_14
 70
     0
  0
APPID
  5
BB0
330
9
100
AcDbSymbolTableRecord
100
AcDbRegAppTableRecord
  2
GENIUS_GENOBJ-N-CEN_13
 70
     0
  0
APPID
  5
BB1
330
9
100
AcDbSymbolTableRecord
100
AcDbRegAppTableRecord
  2
GENIUS_GENFIL_13
 70
     0
  0
APPID
  5
BB2
330
9
100
AcDbSymbolTableRecord
100
AcDbRegAppTableRecord
  2
GENIUS_GENOBJ-N-CHA_13
 70
     0
  0
ENDTAB
  0
TABLE
  2
DIMSTYLE
  5
A
330
0
100
AcDbSymbolTable
 70
     8
  0
DIMSTYLE
105
58
102
{ACAD_REACTORS
330
2031
330
2036
330
2039
330
2069
102
}
330
A
100
AcDbSymbolTableRecord
100
AcDbDimStyleTableRecord
  2
AM_JIS
 70
     0
  3

  4
"
  5
OPEN30
  6

  7

 40
0.5
 41
2.5
 42
1.0
 43
12.0
 44
1.0
 45
0.0
 46
0.0
 47
0.1
 48
0.1
140
3.2
141
0.0
142
0.0
143
0.0393701
144
1.0
145
0.0
146
0.71
147
1.5
 71
     0
 72
     0
 73
     0
 74
     0
 75
     0
 76
     0
 77
     3
 78
     8
170
     0
171
     2
172
     1
173
     0
174
     0
175
     0
176
   256
177
   256
178
     2
270
     2
271
     3
272
     3
273
     2
274
     2
340
6B
275
     0
280
     0
281
     0
282
     0
283
     0
284
     0
285
     0
286
     0
287
     3
288
     0
  0
DIMSTYLE
105
5F
330
A
100
AcDbSymbolTableRecord
100
AcDbDimStyleTableRecord
  2
AM_JIS$3
 70
     0
  3

  4
"
  5
OPEN30
  6

  7

 40
0.5
 41
2.5
 42
1.0
 43
10.0
 44
1.0
 45
0.0
 46
0.0
 47
0.1
 48
0.1
140
3.2
141
0.0
142
0.0
143
0.0393701
144
1.0
145
0.0
146
0.71
147
1.5
 71
     0
 72
     0
 73
     0
 74
     1
 75
     0
 76
     0
 77
     3
 78
     8
170
     0
171
     2
172
     0
173
     0
174
     0
175
     0
176
   256
177
   256
178
     2
270
     2
271
     2
272
     3
273
     2
274
     2
340
6B
275
     0
280
     0
281
     0
282
     0
283
     0
284
     0
285
     0
286
     0
287
     0
288
     1
  0
DIMSTYLE
105
60
330
A
100
AcDbSymbolTableRecord
100
AcDbDimStyleTableRecord
  2
AM_JIS$4
 70
     0
  3

  4
"
  5
OPEN30
  6

  7

 40
0.5
 41
2.5
 42
1.0
 43
10.0
 44
1.0
 45
0.0
 46
0.0
 47
0.1
 48
0.1
140
3.2
141
0.0
142
0.0
143
0.0393701
144
1.0
145
0.0
146
0.71
147
1.5
 71
     0
 72
     0
 73
     0
 74
     1
 75
     0
 76
     0
 77
     3
 78
     8
170
     0
171
     2
172
     0
173
     0
174
     0
175
     0
176
   256
177
   256
178
     2
270
     2
271
     2
272
     3
273
     2
274
     2
340
6B
275
     0
280
     0
281
     0
282
     0
283
     0
284
     0
285
     0
286
     0
287
     0
288
     1
  0
DIMSTYLE
105
61
330
A
100
AcDbSymbolTableRecord
100
AcDbDimStyleTableRecord
  2
AM_JIS$6
 70
     0
  3

  4
"
  5
OPEN30
  6

  7

 40
0.5
 41
2.5
 42
1.0
 43
10.0
 44
1.0
 45
0.0
 46
0.0
 47
0.1
 48
0.1
140
3.2
141
0.0
142
0.0
143
0.0393701
144
1.0
145
0.0
146
0.71
147
1.5
 71
     0
 72
     0
 73
     0
 74
     0
 75
     0
 76
     0
 77
     0
 78
     8
170
     0
171
     2
172
     1
173
     0
174
     0
175
     0
176
   256
177
   256
178
     2
270
     2
271
     2
272
     2
273
     2
274
     2
340
6B
275
     0
280
     0
281
     0
282
     0
283
     0
284
     0
285
     0
286
     0
287
     3
288
     0
  0
DIMSTYLE
105
62
330
A
100
AcDbSymbolTableRecord
100
AcDbDimStyleTableRecord
  2
AM_JIS$7
 70
     0
  3

  4
"
  5
OPEN30
  6

  7

 40
0.5
 41
2.5
 42
1.0
 43
10.0
 44
1.0
 45
0.0
 46
0.0
 47
0.1
 48
0.1
140
3.2
141
0.0
142
0.0
143
0.0393701
144
1.0
145
0.0
146
0.71
147
1.5
 71
     0
 72
     0
 73
     0
 74
     0
 75
     0
 76
     0
 77
     3
 78
     8
170
     0
171
     2
172
     1
173
     0
174
     0
175
     0
176
   256
177
   256
178
     2
270
     2
271
     2
272
     3
273
     2
274
     2
340
6B
275
     0
280
     0
281
     0
282
     0
283
     0
284
     0
285
     0
286
     0
287
     3
288
     0
  0
DIMSTYLE
105
63
330
A
100
AcDbSymbolTableRecord
100
AcDbDimStyleTableRecord
  2
AM_JIS$SF
 70
     0
  3

  4
"
  5
OPEN30
  6

  7

 40
0.5
 41
2.5
 42
1.0
 43
10.0
 44
1.0
 45
0.0
 46
0.0
 47
0.1
 48
0.1
140
3.2
141
0.0
142
0.0
143
0.0393701
144
1.0
145
0.0
146
0.71
147
1.5
 71
     0
 72
     0
 73
     0
 74
     0
 75
     1
 76
     1
 77
     3
 78
     8
170
     0
171
     2
172
     1
173
     0
174
     0
175
     0
176
   256
177
   256
178
     2
270
     2
271
     2
272
     2
273
     2
274
     2
340
6B
275
     0
280
     0
281
     0
282
     0
283
     0
284
     0
285
     0
286
     0
287
     3
288
     0
  0
DIMSTYLE
105
68
330
A
100
AcDbSymbolTableRecord
100
AcDbDimStyleTableRecord
  2
AM_JIS$SH
 70
     0
  3

  4
"
  5

  6
GENAXEH
  7
OPEN30
 40
0.5
 41
2.5
 42
1.0
 43
10.0
 44
1.0
 45
0.0
 46
0.0
 47
0.1
 48
0.1
140
3.2
141
0.0
142
0.0
143
0.0393701
144
2.0
145
0.0
146
0.71
147
1.5
 71
     0
 72
     0
 73
     0
 74
     0
 75
     1
 76
     1
 77
     3
 78
     8
170
     0
171
     2
172
     1
173
     1
174
     0
175
     0
176
   256
177
   256
178
     2
270
     2
271
     2
272
     2
273
     2
274
     2
340
6B
275
     0
280
     0
281
     0
282
     0
283
     0
284
     0
285
     0
286
     0
287
     3
288
     0
  0
DIMSTYLE
105
B34
330
A
100
AcDbSymbolTableRecord
100
AcDbDimStyleTableRecord
  2
AM_JIS$2
 70
     0
  3

  4
"
  5
OPEN30
  6

  7

 40
0.5
 41
2.5
 42
1.0
 43
12.0
 44
1.0
 45
0.0
 46
0.0
 47
0.1
 48
0.1
140
3.2
141
0.0
142
0.0
143
0.0393701
144
1.0
145
0.0
146
0.71
147
1.5
 71
     0
 72
     0
 73
     0
 74
     0
 75
     0
 76
     0
 77
     3
 78
     8
170
     0
171
     2
172
     1
173
     0
174
     0
175
     0
176
   256
177
   256
178
     2
270
     2
271
     3
272
     3
273
     2
274
     2
340
6B
275
     0
280
     0
281
     0
282
     0
283
     0
284
     0
285
     0
286
     0
287
     3
288
     0
  0
ENDTAB
  0
TABLE
  2
BLOCK_RECORD
  5
1
330
0
100
AcDbSymbolTable
 70
     9
  0
BLOCK_RECORD
  5
1F
102
{ACAD_XDICTIONARY
360
74
102
}
330
1
100
AcDbSymbolTableRecord
100
AcDbBlockTableRecord
  2
*MODEL_SPACE
  0
BLOCK_RECORD
  5
101
102
{ACAD_XDICTIONARY
360
23C5
102
}
330
1
100
AcDbSymbolTableRecord
100
AcDbBlockTableRecord
  2
*PAPER_SPACE
  0
BLOCK_RECORD
  5
59
330
1
100
AcDbSymbolTableRecord
100
AcDbBlockTableRecord
  2
_OPEN30
  0
BLOCK_RECORD
  5
64
330
1
100
AcDbSymbolTableRecord
100
AcDbBlockTableRecord
  2
GENAXEH
  0
BLOCK_RECORD
  5
207A
330
1
100
AcDbSymbolTableRecord
100
AcDbBlockTableRecord
  2
*D5
  0
BLOCK_RECORD
  5
2094
330
1
100
AcDbSymbolTableRecord
100
AcDbBlockTableRecord
  2
*D6
  0
BLOCK_RECORD
  5
20A2
330
1
100
AcDbSymbolTableRecord
100
AcDbBlockTableRecord
  2
*D7
  0
BLOCK_RECORD
  5
20AE
330
1
100
AcDbSymbolTableRecord
100
AcDbBlockTableRecord
  2
*D8
  0
ENDTAB
  0
ENDSEC
  0
SECTION
  2
BLOCKS
  0
BLOCK
  5
20
330
1F
100
AcDbEntity
  8
0
100
AcDbBlockBegin
  2
*MODEL_SPACE
 70
     0
 10
0.0
 20
0.0
 30
0.0
  3
*MODEL_SPACE
  1

  0
ENDBLK
  5
21
330
1F
100
AcDbEntity
  8
0
100
AcDbBlockEnd
  0
BLOCK
  5
103
330
101
100
AcDbEntity
 67
     1
  8
0
100
AcDbBlockBegin
  2
*PAPER_SPACE
 70
     0
 10
0.0
 20
0.0
 30
0.0
  3
*PAPER_SPACE
  1

  0
ENDBLK
  5
104
330
101
100
AcDbEntity
 67
     1
  8
0
100
AcDbBlockEnd
  0
BLOCK
  5
5D
330
59
100
AcDbEntity
  8
0
100
AcDbBlockBegin
  2
_OPEN30
 70
     0
 10
0.0
 20
0.0
 30
0.0
  3
_OPEN30
  1

  0
LINE
  5
5A
330
59
100
AcDbEntity
  8
0
 62
     0
100
AcDbLine
 10
-1.0
 20
0.26794919
 30
0.0
 11
0.0
 21
0.0
 31
0.0
  0
LINE
  5
5B
330
59
100
AcDbEntity
  8
0
 62
     0
100
AcDbLine
 10
0.0
 20
0.0
 30
0.0
 11
-1.0
 21
-0.26794919
 31
0.0
  0
LINE
  5
5C
330
59
100
AcDbEntity
  8
0
 62
     0
100
AcDbLine
 10
0.0
 20
0.0
 30
0.0
 11
-1.0
 21
0.0
 31
0.0
  0
ENDBLK
  5
5E
330
59
100
AcDbEntity
  8
0
100
AcDbBlockEnd
  0
BLOCK
  5
66
330
64
100
AcDbEntity
  8
0
100
AcDbBlockBegin
  2
GENAXEH
 70
     0
 10
0.0
 20
0.0
 30
0.0
  3
GENAXEH
  1

  0
LINE
  5
65
330
64
100
AcDbEntity
  8
0
100
AcDbLine
 10
-1.0
 20
0.0
 30
0.0
 11
1.0
 21
0.0
 31
0.0
  0
ENDBLK
  5
67
330
64
100
AcDbEntity
  8
0
100
AcDbBlockEnd
  0
BLOCK
  5
2084
330
207A
100
AcDbEntity
  8
0
100
AcDbBlockBegin
  2
*D5
 70
     1
 10
0.0
 20
0.0
 30
0.0
  3
*D5
  1

  0
LINE
  5
21F4
330
207A
100
AcDbEntity
  8
AM_5
100
AcDbLine
 10
-44.99999999999958
 20
-3.166666666900155
 30
0.0
 11
-44.99999999999958
 21
-16.50000000023348
 31
0.0
  0
LINE
  5
21F5
330
207A
100
AcDbEntity
  8
AM_5
100
AcDbLine
 10
0.0000000000004191
 20
-2.500000000281641
 30
0.0
 11
0.0000000000004182
 21
-16.50000000023348
 31
0.0
  0
LINE
  5
21F6
330
207A
100
AcDbEntity
  8
AM_5
100
AcDbLine
 10
-43.74999999999958
 20
-16.00000000023348
 30
0.0
 11
-1.249999999999581
 21
-16.00000000023348
 31
0.0
  0
INSERT
  5
21F7
330
207A
100
AcDbEntity
  8
AM_5
100
AcDbBlockReference
  2
_OPEN30
 10
-44.99999999999958
 20
-16.00000000023348
 30
0.0
 41
1.25
 42
1.25
 43
1.25
 50
180.0
  0
INSERT
  5
21F8
330
207A
100
AcDbEntity
  8
AM_5
100
AcDbBlockReference
  2
_OPEN30
 10
0.0000000000004183
 20
-16.00000000023348
 30
0.0
 41
1.25
 42
1.25
 43
1.25
  0
MTEXT
  5
21F9
330
207A
100
AcDbEntity
  8
AM_5
 62
     2
100
AcDbMText
 10
-22.49999999999958
 20
-14.45000000023348
 30
0.0
 40
1.6
 41
0.0
 71
     5
 72
     1
  1
45
  7
ASAMI
1001
ACAD
1000
MTEXTBEGIN
1070
    73
1070
     1
1070
    44
1040
1.0
1070
    74
1070
     0
1000
MTEXTEND
  0
POINT
  5
21FA
330
207A
100
AcDbEntity
  8
DEFPOINTS
 62
     0
100
AcDbPoint
 10
-44.99999999999958
 20
-2.666666666900155
 30
0.0
  0
POINT
  5
21FB
330
207A
100
AcDbEntity
  8
DEFPOINTS
 62
     0
100
AcDbPoint
 10
0.0000000000004191
 20
-2.000000000281641
 30
0.0
  0
POINT
  5
21FC
330
207A
100
AcDbEntity
  8
DEFPOINTS
 62
     0
100
AcDbPoint
 10
0.0000000000004183
 20
-16.00000000023348
 30
0.0
  0
ENDBLK
  5
2085
330
207A
100
AcDbEntity
  8
0
100
AcDbBlockEnd
  0
BLOCK
  5
20A0
330
2094
100
AcDbEntity
  8
0
100
AcDbBlockBegin
  2
*D6
 70
     1
 10
0.0
 20
0.0
 30
0.0
  3
*D6
  1

  0
LINE
  5
2114
330
2094
100
AcDbEntity
  8
AM_5
100
AcDbLine
 10
-45.16666666666621
 20
-3.000000000233512
 30
0.0
 11
-52.49999999999958
 21
-3.00000000023351
 31
0.0
  0
LINE
  5
2115
330
2094
100
AcDbEntity
  8
AM_5
100
AcDbLine
 10
-45.16666666666621
 20
3.000000000233527
 30
0.0
 11
-52.49999999999958
 21
3.000000000233529
 31
0.0
  0
LINE
  5
2116
330
2094
100
AcDbEntity
  8
AM_5
100
AcDbLine
 10
-51.99999999999958
 20
-4.25000000023351
 30
0.0
 11
-51.99999999999958
 21
-5.50000000023351
 31
0.0
  0
LINE
  5
2117
330
2094
100
AcDbEntity
  8
AM_5
100
AcDbLine
 10
-51.99999999999958
 20
4.250000000233529
 30
0.0
 11
-51.99999999999958
 21
5.500000000233529
 31
0.0
  0
LINE
  5
2118
330
2094
100
AcDbEntity
  8
AM_5
100
AcDbLine
 10
-51.99999999999958
 20
-3.00000000023351
 30
0.0
 11
-51.99999999999958
 21
3.000000000233529
 31
0.0
  0
INSERT
  5
2119
330
2094
100
AcDbEntity
  8
AM_5
100
AcDbBlockReference
  2
_OPEN30
 10
-51.99999999999958
 20
-3.00000000023351
 30
0.0
 41
1.25
 42
1.25
 43
1.25
 50
90.0
  0
INSERT
  5
211A
330
2094
100
AcDbEntity
  8
AM_5
100
AcDbBlockReference
  2
_OPEN30
 10
-51.99999999999958
 20
3.000000000233529
 30
0.0
 41
1.25
 42
1.25
 43
1.25
 50
270.0
  0
MTEXT
  5
211B
330
2094
100
AcDbEntity
  8
AM_5
 62
     2
100
AcDbMText
 10
-53.54999999999957
 20
0.0000000000000002
 30
0.0
 40
1.6
 41
0.0
 71
     5
 72
     1
  1
%%c6
  7
ASAMI
 11
0.0000000000000001
 21
1.0
 31
0.0
1001
ACAD
1000
MTEXTBEGIN
1070
    73
1070
     1
1070
    44
1040
1.0
1070
    74
1070
     0
1000
MTEXTEND
  0
POINT
  5
211C
330
2094
100
AcDbEntity
  8
DEFPOINTS
 62
     0
100
AcDbPoint
 10
-44.66666666666621
 20
-3.000000000233512
 30
0.0
  0
POINT
  5
211D
330
2094
100
AcDbEntity
  8
DEFPOINTS
 62
     0
100
AcDbPoint
 10
-44.66666666666621
 20
3.000000000233526
 30
0.0
  0
POINT
  5
211E
330
2094
100
AcDbEntity
  8
DEFPOINTS
 62
     0
100
AcDbPoint
 10
-51.99999999999958
 20
3.000000000233529
 30
0.0
  0
ENDBLK
  5
20A1
330
2094
100
AcDbEntity
  8
0
100
AcDbBlockEnd
  0
BLOCK
  5
20AC
330
20A2
100
AcDbEntity
  8
0
100
AcDbBlockBegin
  2
*D7
 70
     1
 10
0.0
 20
0.0
 30
0.0
  3
*D7
  1

  0
LINE
  5
225F
330
20A2
100
AcDbEntity
  8
AM_5
100
AcDbLine
 10
-12.0000000000007
 20
-2.50000000028014
 30
0.0
 11
-12.0000000000007
 21
-10.50000000023349
 31
0.0
  0
LINE
  5
2260
330
20A2
100
AcDbEntity
  8
AM_5
100
AcDbLine
 10
0.0000000000004191
 20
-2.500000000281641
 30
0.0
 11
0.0000000000004186
 21
-10.50000000023349
 31
0.0
  0
LINE
  5
2261
330
20A2
100
AcDbEntity
  8
AM_5
100
AcDbLine
 10
-10.7500000000007
 20
-10.00000000023349
 30
0.0
 11
-1.249999999999581
 21
-10.00000000023349
 31
0.0
  0
INSERT
  5
2262
330
20A2
100
AcDbEntity
  8
AM_5
100
AcDbBlockReference
  2
_OPEN30
 10
-12.0000000000007
 20
-10.00000000023349
 30
0.0
 41
1.25
 42
1.25
 43
1.25
 50
180.0
  0
INSERT
  5
2263
330
20A2
100
AcDbEntity
  8
AM_5
100
AcDbBlockReference
  2
_OPEN30
 10
0.0000000000004186
 20
-10.00000000023349
 30
0.0
 41
1.25
 42
1.25
 43
1.25
  0
MTEXT
  5
2264
330
20A2
100
AcDbEntity
  8
AM_5
 62
     2
100
AcDbMText
 10
-6.000000000000142
 20
-8.450000000233497
 30
0.0
 40
1.6
 41
0.0
 71
     5
 72
     1
  1
12
  7
ASAMI
1001
ACAD
1000
MTEXTBEGIN
1070
    73
1070
     1
1070
    44
1040
1.0
1070
    74
1070
     0
1000
MTEXTEND
  0
POINT
  5
2265
330
20A2
100
AcDbEntity
  8
DEFPOINTS
 62
     0
100
AcDbPoint
 10
-12.0000000000007
 20
-2.00000000028014
 30
0.0
  0
POINT
  5
2266
330
20A2
100
AcDbEntity
  8
DEFPOINTS
 62
     0
100
AcDbPoint
 10
0.0000000000004191
 20
-2.000000000281641
 30
0.0
  0
POINT
  5
2267
330
20A2
100
AcDbEntity
  8
DEFPOINTS
 62
     0
100
AcDbPoint
 10
0.0000000000004186
 20
-10.00000000023349
 30
0.0
  0
ENDBLK
  5
20AD
330
20A2
100
AcDbEntity
  8
0
100
AcDbBlockEnd
  0
BLOCK
  5
20B9
330
20AE
100
AcDbEntity
  8
0
100
AcDbBlockBegin
  2
*D8
 70
     1
 10
0.0
 20
0.0
 30
0.0
  3
*D8
  1

  0
LINE
  5
211F
330
20AE
100
AcDbEntity
  8
AM_5
100
AcDbLine
 10
0.5000000000001912
 20
-2.000000000279833
 30
0.0
 11
7.500000000000524
 21
-2.000000000279835
 31
0.0
  0
LINE
  5
2120
330
20AE
100
AcDbEntity
  8
AM_5
100
AcDbLine
 10
0.5000000000000775
 20
2.000000000280188
 30
0.0
 11
7.500000000000525
 21
2.000000000280186
 31
0.0
  0
LINE
  5
2121
330
20AE
100
AcDbEntity
  8
AM_5
100
AcDbLine
 10
7.000000000000524
 20
-0.750000000279835
 30
0.0
 11
7.000000000000524
 21
0.7500000002801864
 31
0.0
  0
LINE
  5
2122
330
20AE
100
AcDbEntity
  8
AM_5
100
AcDbLine
 10
7.000000000000525
 20
2.000000000280186
 30
0.0
 11
7.000000000000526
 21
7.340476190756375
 31
0.0
  0
INSERT
  5
2123
330
20AE
100
AcDbEntity
  8
AM_5
100
AcDbBlockReference
  2
_OPEN30
 10
7.000000000000524
 20
-2.000000000279835
 30
0.0
 41
1.25
 42
1.25
 43
1.25
 50
270.0
  0
INSERT
  5
2124
330
20AE
100
AcDbEntity
  8
AM_5
100
AcDbBlockReference
  2
_OPEN30
 10
7.000000000000525
 20
2.000000000280186
 30
0.0
 41
1.25
 42
1.25
 43
1.25
 50
90.0
  0
MTEXT
  5
2125
330
20AE
100
AcDbEntity
  8
AM_5
 62
     2
100
AcDbMText
 10
5.450000000000525
 20
5.295238095518282
 30
0.0
 40
1.6
 41
0.0
 71
     5
 72
     1
  1
%%c4
  7
ASAMI
 11
0.0000000000000001
 21
1.0
 31
0.0
1001
ACAD
1000
MTEXTBEGIN
1070
    73
1070
     1
1070
    44
1040
1.0
1070
    74
1070
     0
1000
MTEXTEND
  0
POINT
  5
2126
330
20AE
100
AcDbEntity
  8
DEFPOINTS
 62
     0
100
AcDbPoint
 10
0.0000000000001912
 20
-2.000000000279833
 30
0.0
  0
POINT
  5
2127
330
20AE
100
AcDbEntity
  8
DEFPOINTS
 62
     0
100
AcDbPoint
 10
0.0000000000000775
 20
2.000000000280188
 30
0.0
  0
POINT
  5
2128
330
20AE
100
AcDbEntity
  8
DEFPOINTS
 62
     0
100
AcDbPoint
 10
7.000000000000525
 20
2.000000000280186
 30
0.0
  0
ENDBLK
  5
20BA
330
20AE
100
AcDbEntity
  8
0
100
AcDbBlockEnd
  0
ENDSEC
  0
SECTION
  2
ENTITIES
  0
TEXT
  5
E65
330
1F
100
AcDbEntity
  8
AM_6
100
AcDbText
 10
-33.15476190476197
 20
-27.25000000023348
 30
0.0
 40
2.5
  1
ASM4040DL
 72
     4
 11
-22.50000000000007
 21
-26.00000000023348
 31
0.0
100
AcDbText
  0
LINE
  5
202D
330
1F
100
AcDbEntity
  8
AM_7
100
AcDbLine
 10
-46.49999999999958
 20
-0.0000000000000284
 30
0.0
 11
1.500000000000419
 21
0.0
 31
0.0
1001
GENIUS_GENODEF_13
1002
{
1000
HIER
1070
     0
1002
}
1002
{
1000
MANEDIT
1070
     0
1002
}
1002
{
1000
NOSEL
1070
     0
1002
}
1002
{
1000
BEHIND
1070
     0
1002
}
1002
{
1000
REACTOR
1002
}
1001
GENIUS_GENOBJ-N-CEN_13
1002
{
1000
OWNER
1000
GEN
1002
}
  0
LINE
  5
202E
330
1F
100
AcDbEntity
  8
AM_0
100
AcDbLine
 10
-18.49999999999958
 20
-3.000000000233484
 30
0.0
 11
-44.66666666666621
 21
-3.000000000233512
 31
0.0
  0
LINE
  5
202F
330
1F
100
AcDbEntity
  8
AM_0
100
AcDbLine
 10
-44.66666666666632
 20
3.000000000233413
 30
0.0
 11
-18.49999999999958
 21
3.000000000233441
 31
0.0
  0
DIMENSION
  5
2031
330
1F
100
AcDbEntity
  8
AM_5
100
AcDbDimension
  2
*D5
 10
0.0000000000004183
 20
-16.00000000023348
 30
0.0
 11
-22.49999999999958
 21
-14.45000000023348
 31
0.0
 70
    32
  1
<>
  3
AM_JIS
100
AcDbAlignedDimension
 13
-44.99999999999958
 23
-2.666666666900155
 33
0.0
 14
0.0000000000004191
 24
-2.000000000281641
 34
0.0
100
AcDbRotatedDimension
1001
GENIUS_GENDTOL_13
1000

1000
h7
1000

1040
0.0
  0
LINE
  5
2034
330
1F
100
AcDbEntity
  8
AM_0
100
AcDbLine
 10
-44.66666666666632
 20
3.000000000233413
 30
0.0
 11
-44.99999999999963
 21
2.666666666900098
 31
0.0
1001
GENIUS_GENFIL_13
1070
     0
1040
1.0
1040
1.0
1040
20.0
1040
0.0
1002
{
1002
}
1001
GENIUS_GENOBJ-N-CHA_13
1002
{
1000
OWNER
1000
GEN
1002
}
1001
GENIUS_GENODEF_13
1002
{
1000
HIER
1070
     0
1002
}
1002
{
1000
MANEDIT
1070
     0
1002
}
1002
{
1000
NOSEL
1070
     0
1002
}
1002
{
1000
BEHIND
1070
     0
1002
}
1002
{
1000
OTHER
1070
     0
1002
}
1002
{
1000
REACTOR
1002
}
  0
LINE
  5
2035
330
1F
100
AcDbEntity
  8
AM_0
100
AcDbLine
 10
-44.66666666666621
 20
-3.000000000233512
 30
0.0
 11
-44.66666666666621
 21
3.000000000233413
 31
0.0
  0
DIMENSION
  5
2036
330
1F
100
AcDbEntity
  8
AM_5
100
AcDbDimension
  2
*D6
 10
-51.99999999999958
 20
3.000000000233529
 30
0.0
 11
-51.99999999999958
 21
0.0
 31
0.0
 70
   160
  1
%%c<>
  3
AM_JIS
100
AcDbAlignedDimension
 13
-44.66666666666621
 23
-3.000000000233512
 33
0.0
 14
-44.66666666666621
 24
3.000000000233526
 34
0.0
 50
270.0
100
AcDbRotatedDimension
1001
GENIUS_GENDTOL_13
1000

1000
h7
1000

1040
0.0
  0
LINE
  5
2037
330
1F
100
AcDbEntity
  8
AM_0
100
AcDbLine
 10
-44.99999999999963
 20
2.666666666900098
 30
0.0
 11
-44.99999999999952
 21
-2.666666666900155
 31
0.0
  0
LINE
  5
2038
330
1F
100
AcDbEntity
  8
AM_0
100
AcDbLine
 10
-44.99999999999952
 20
-2.666666666900155
 30
0.0
 11
-44.66666666666621
 21
-3.000000000233512
 31
0.0
1001
GENIUS_GENFIL_13
1070
     0
1040
1.0
1040
1.0
1040
20.0
1040
0.0
1002
{
1002
}
1001
GENIUS_GENODEF_13
1002
{
1000
HIER
1070
     0
1002
}
1002
{
1000
MANEDIT
1070
     0
1002
}
1002
{
1000
NOSEL
1070
     0
1002
}
1002
{
1000
BEHIND
1070
     0
1002
}
1002
{
1000
OTHER
1070
     0
1002
}
1002
{
1000
REACTOR
1002
}
1001
GENIUS_GENOBJ-N-CHA_13
1002
{
1000
OWNER
1000
GEN
1002
}
  0
DIMENSION
  5
2039
330
1F
100
AcDbEntity
  8
AM_5
100
AcDbDimension
  2
*D7
 10
0.0000000000004186
 20
-10.00000000023349
 30
0.0
 11
-6.000000000000142
 21
-8.450000000233497
 31
0.0
 70
    32
  1
<>
  3
AM_JIS
100
AcDbAlignedDimension
 13
-12.0000000000007
 23
-2.00000000028014
 33
0.0
 14
0.0000000000004191
 24
-2.000000000281641
 34
0.0
100
AcDbRotatedDimension
1001
GENIUS_GENDTOL_13
1000

1000
h7
1000

1040
0.0
  0
LINE
  5
204E
330
1F
100
AcDbEntity
  8
AM_0
100
AcDbLine
 10
-18.49999999999958
 20
-3.000000000233484
 30
0.0
 11
-18.49999999999958
 21
3.000000000233441
 31
0.0
  0
LINE
  5
204F
330
1F
100
AcDbEntity
  8
AM_0
100
AcDbLine
 10
-18.49999999999958
 20
3.000000000233441
 30
0.0
 11
-14.76794919260504
 21
2.000000000280167
 31
0.0
  0
LINE
  5
2054
330
1F
100
AcDbEntity
  8
AM_0
100
AcDbLine
 10
-18.49999999999956
 20
-3.000000000233484
 30
0.0
 11
-14.76794919260483
 21
-2.000000000280138
 31
0.0
  0
DIMENSION
  5
2069
330
1F
100
AcDbEntity
  8
AM_5
100
AcDbDimension
  2
*D8
 10
7.000000000000525
 20
2.000000000280186
 30
0.0
 11
5.450000000000525
 21
5.295238095518282
 31
0.0
 70
    32
  1
%%c<>
  3
AM_JIS
100
AcDbAlignedDimension
 13
0.0000000000001912
 23
-2.000000000279833
 33
0.0
 14
0.0000000000000775
 24
2.000000000280188
 34
0.0
 50
90.0
100
AcDbRotatedDimension
1001
GENIUS_GENDTOL_13
1000

1000
h7
1000

1040
0.0
  0
SPLINE
  5
219F
330
1F
100
AcDbEntity
  8
AM_0
100
AcDbSpline
210
0.0
220
0.0
230
1.0
 70
     8
 71
     3
 72
     8
 73
     4
 74
     0
 42
0.0000000001
 43
0.0000000001
 40
6.954916728164883
 40
6.954916728164883
 40
6.954916728164883
 40
6.954916728164883
 40
17.19652136594934
 40
17.19652136594934
 40
17.19652136594934
 40
17.19652136594934
 10
-12.70296186550444
 20
1.438904981808154
 30
0.0
 10
-11.62243092224697
 20
1.08789335521641
 30
0.0
 10
-10.57346394757617
 20
0.5439466776081522
 30
0.0
 10
-9.52449697290538
 20
-0.0000000000001067
 30
0.0
  0
SPLINE
  5
21A2
330
1F
100
AcDbEntity
  8
AM_0
100
AcDbSpline
210
0.0
220
0.0
230
1.0
 70
     8
 71
     3
 72
     8
 73
     4
 74
     0
 42
0.0000000001
 43
0.0000000001
 40
0.0
 40
0.0
 40
0.0
 40
0.0
 40
4.149936909600219
 40
4.149936909600219
 40
4.149936909600219
 40
4.149936909600219
 10
-10.57629816800633
 20
-1.945495191581432
 30
0.0
 10
-11.03740226913753
 20
-1.945495191581433
 30
0.0
 10
-11.48880225278633
 20
-1.8896073482827
 30
0.0
 10
-12.00000000001129
 20
-1.755270158045954
 30
0.0
  0
SPLINE
  5
21A3
330
1F
100
AcDbEntity
  8
AM_0
100
AcDbSpline
210
0.0
220
0.0
230
1.0
 70
     8
 71
     3
 72
     8
 73
     4
 74
     0
 42
0.0000000001
 43
0.0000000001
 40
0.0
 40
0.0
 40
0.0
 40
0.0
 40
7.968103257081267
 40
7.968103257081267
 40
7.968103257081267
 40
7.968103257081267
 10
-9.012038311606277
 20
-1.826665057723112
 30
0.0
 10
-10.29738311808298
 20
-1.826665057723115
 30
0.0
 10
-11.15064764874854
 20
-1.630574074067702
 30
0.0
 10
-12.0000000000007
 20
-1.322354729546145
 30
0.0
  0
SPLINE
  5
21A4
330
1F
100
AcDbEntity
  8
AM_0
100
AcDbSpline
210
0.0
220
0.0
230
1.0
 70
     8
 71
     3
 72
     8
 73
     4
 74
     0
 42
0.0000000001
 43
0.0000000001
 40
13.62921832018185
 40
13.62921832018185
 40
13.62921832018185
 40
13.62921832018185
 40
17.36922565919391
 40
17.36922565919391
 40
17.36922565919391
 40
17.36922565919391
 10
-12.40000000002139
 20
0.6359879996179226
 30
0.0
 10
-12.02103617314063
 20
0.430647561718423
 30
0.0
 10
-11.64385142066939
 20
0.2153237808591559
 30
0.0
 10
-11.26666666819815
 20
-0.0000000000001112
 30
0.0
  0
SPLINE
  5
21A5
330
1F
100
AcDbEntity
  8
AM_0
100
AcDbSpline
210
0.0
220
0.0
230
1.0
 70
     8
 71
     3
 72
     8
 73
     4
 74
     0
 42
0.0000000001
 43
0.0000000001
 40
0.0
 40
0.0
 40
0.0
 40
0.0
 40
6.52449073614872
 40
6.52449073614872
 40
6.52449073614872
 40
6.52449073614872
 10
-5.43333333409398
 20
2.000000000279792
 30
0.0
 10
-6.158276749323076
 20
2.00000000027979
 30
0.0
 10
-6.858075233756528
 20
1.858898275422969
 30
0.0
 10
-7.593041936378077
 20
1.600329029939375
 30
0.0
  0
SPLINE
  5
21A6
330
1F
100
AcDbEntity
  8
AM_0
100
AcDbSpline
210
0.0
220
0.0
230
1.0
 70
     8
 71
     3
 72
     8
 73
     4
 74
     0
 42
0.0000000001
 43
0.0000000001
 40
0.0682929238941095
 40
0.0682929238941095
 40
0.0682929238941095
 40
0.0682929238941095
 40
10.03206597849779
 40
10.03206597849779
 40
10.03206597849779
 40
10.03206597849779
 10
-9.472388905968047
 20
1.833408559331388
 30
0.0
 10
-7.995340099262179
 20
1.822427074581297
 30
0.0
 10
-6.938903378552824
 20
1.512833525840024
 30
0.0
 10
-3.691163638801384
 20
0.0
 30
0.0
  0
SPLINE
  5
21A8
330
1F
100
AcDbEntity
  8
AM_0
100
AcDbSpline
210
0.0
220
0.0
230
1.0
 70
     8
 71
     3
 72
     8
 73
     4
 74
     2
 42
0.0000000001
 43
0.0000000001
 44
0.0000000001
 12
1.0
 22
0.0000000000000024
 32
0.0
 40
0.0
 40
0.0
 40
0.0
 40
0.0
 40
5.789741887207957
 40
5.789741887207957
 40
5.789741887207957
 40
5.789741887207957
 10
-10.86666666811136
 20
2.000000000279734
 30
0.0
 10
-8.936752705708709
 20
2.000000000279739
 30
0.0
 10
-7.18504301986331
 20
1.000000000139822
 30
0.0
 10
-5.433333334017912
 20
-0.0000000000000937
 30
0.0
 11
-10.86666666811136
 21
2.000000000279734
 31
0.0
 11
-5.433333334017912
 21
-0.0000000000000937
 31
0.0
  0
SPLINE
  5
21A9
330
1F
100
AcDbEntity
  8
AM_0
100
AcDbSpline
210
0.0
220
0.0
230
1.0
 70
     8
 71
     3
 72
     8
 73
     4
 74
     0
 42
0.0000000001
 43
0.0000000001
 40
0.0
 40
0.0
 40
0.0
 40
0.0
 40
2.517158218102851
 40
2.517158218102851
 40
2.517158218102851
 40
2.517158218102851
 10
-11.15420800690937
 20
-2.000000000279906
 30
0.0
 10
-10.87452376041441
 20
-2.000000000279906
 30
0.0
 10
-10.59858215547797
 20
-1.9789980264132
 30
0.0
 10
-10.32584080632323
 20
-1.940037696867048
 30
0.0
  0
SPLINE
  5
21AA
330
1F
100
AcDbEntity
  8
AM_0
100
AcDbSpline
210
0.0
220
0.0
230
1.0
 70
     8
 71
     3
 72
     8
 73
     4
 74
     0
 42
0.0000000001
 43
0.0000000001
 40
0.0
 40
0.0
 40
0.0
 40
0.0
 40
3.622973205791074
 40
3.622973205791074
 40
3.622973205791074
 40
3.622973205791074
 10
-10.57629816800633
 20
-1.945495191581386
 30
0.0
 10
-10.17374558952867
 20
-1.945495191581385
 30
0.0
 10
-9.778589120024609
 20
-1.902899604700171
 30
0.0
 10
-8.989281063977696
 20
-1.826621901334118
 30
0.0
  0
SPLINE
  5
21AB
330
1F
100
AcDbEntity
  8
AM_0
100
AcDbSpline
210
0.0
220
0.0
230
1.0
 70
     8
 71
     3
 72
     8
 73
     4
 74
     0
 42
0.0000000001
 43
0.0000000001
 40
0.0
 40
0.0
 40
0.0
 40
0.0
 40
4.843639605544031
 40
4.843639605544031
 40
4.843639605544031
 40
4.843639605544031
 10
-9.012038311606277
 20
-1.826665057723066
 30
0.0
 10
-8.473856133137017
 20
-1.826665057723065
 30
0.0
 10
-7.947528143195887
 20
-1.754206220295839
 30
0.0
 10
-7.670781563465594
 20
-1.683695522673809
 30
0.0
  0
SPLINE
  5
21AC
330
1F
100
AcDbEntity
  8
AM_0
100
AcDbSpline
210
0.0
220
0.0
230
1.0
 70
     8
 71
     3
 72
     8
 73
     4
 74
     0
 42
0.0000000001
 43
0.0000000001
 40
0.0
 40
0.0
 40
0.0
 40
0.0
 40
12.31576592654833
 40
12.31576592654833
 40
12.31576592654833
 40
12.31576592654833
 10
-5.833333334104478
 20
-2.000000000279938
 30
0.0
 10
-7.201751770578992
 20
-2.000000000279941
 30
0.0
 10
-8.480575973364237
 20
-1.497238588304868
 30
0.0
 10
-11.26666666819835
 20
-0.0000000000000012
 30
0.0
  0
SPLINE
  5
21AE
330
1F
100
AcDbEntity
  8
AM_0
100
AcDbSpline
210
0.0
220
0.0
230
1.0
 70
     8
 71
     3
 72
     8
 73
     4
 74
     0
 42
0.0000000001
 43
0.0000000001
 40
0.0
 40
0.0
 40
0.0
 40
0.0
 40
16.79135171574957
 40
16.79135171574957
 40
16.79135171574957
 40
16.79135171574957
 10
-4.091163638811707
 20
-1.826665057723098
 30
0.0
 10
-5.95686938526706
 20
-1.826665057723103
 30
0.0
 10
-7.680112978646858
 20
-0.9558638244711461
 30
0.0
 10
-9.52449697290538
 20
-0.0000000000001065
 30
0.0
  0
SPLINE
  5
21AF
330
1F
100
AcDbEntity
  8
AM_0
100
AcDbSpline
210
0.0
220
0.0
230
1.0
 70
     8
 71
     3
 72
     8
 73
     4
 74
     0
 42
0.0000000001
 43
0.0000000001
 40
6.770904418548216
 40
6.770904418548216
 40
6.770904418548216
 40
6.770904418548216
 40
17.19652136594934
 40
17.19652136594934
 40
17.19652136594934
 40
17.19652136594934
 10
-0.4544258536745976
 20
-1.457637035580507
 30
0.0
 10
-1.555535823596185
 20
-1.107439683745115
 30
0.0
 10
-2.623349731198694
 20
-0.5537198418726029
 30
0.0
 10
-3.691163638801202
 20
-0.0000000000000906
 30
0.0
  0
SPLINE
  5
21B1
330
1F
100
AcDbEntity
  8
AM_0
100
AcDbSpline
210
0.0
220
0.0
230
1.0
 70
     8
 71
     3
 72
     8
 73
     4
 74
     2
 42
0.0000000001
 43
0.0000000001
 44
0.0000000001
 12
-1.0
 22
-0.0000000000000025
 32
0.0
 40
0.0
 40
0.0
 40
0.0
 40
0.0
 40
5.789741887207956
 40
5.789741887207956
 40
5.789741887207956
 40
5.789741887207956
 10
-0.0000000000003443
 20
-2.000000000279923
 30
0.0
 10
-1.929913962402996
 20
-2.000000000279928
 30
0.0
 10
-3.681623648248395
 20
-1.000000000140011
 30
0.0
 10
-5.433333334093793
 20
-0.0000000000000951
 30
0.0
 11
-0.0000000000003443
 21
-2.000000000279923
 31
0.0
 11
-5.433333334093793
 21
-0.0000000000000951
 31
0.0
  0
SPLINE
  5
21B2
330
1F
100
AcDbEntity
  8
AM_0
100
AcDbSpline
210
0.0
220
0.0
230
1.0
 70
     8
 71
     3
 72
     8
 73
     4
 74
     2
 42
0.0000000001
 43
0.0000000001
 44
0.0000000001
 12
1.0
 22
0.0000000000000024
 32
0.0
 40
0.0
 40
0.0
 40
0.0
 40
0.0
 40
5.789741887207957
 40
5.789741887207957
 40
5.789741887207957
 40
5.789741887207957
 10
-5.433333334093799
 20
2.000000000279746
 30
0.0
 10
-3.503419371691146
 20
2.000000000279751
 30
0.0
 10
-1.751709685845748
 20
1.000000000139835
 30
0.0
 10
-0.0000000000003494
 20
-0.0000000000000813
 30
0.0
 11
-5.433333334093799
 21
2.000000000279746
 31
0.0
 11
-0.0000000000003494
 21
-0.0000000000000813
 31
0.0
  0
SPLINE
  5
21B4
330
1F
100
AcDbEntity
  8
AM_0
100
AcDbSpline
210
0.0
220
0.0
230
1.0
 70
     8
 71
     3
 72
     8
 73
     4
 74
     0
 42
0.0000000001
 43
0.0000000001
 40
0.0682929238941095
 40
0.0682929238941095
 40
0.0682929238941095
 40
0.0682929238941095
 40
10.03206597849779
 40
10.03206597849779
 40
10.03206597849779
 40
10.03206597849779
 10
-4.02617411060263
 20
1.830397001920541
 30
0.0
 10
-2.562006765244616
 20
1.82242707458131
 30
0.0
 10
-1.50557004453526
 20
1.512833525840036
 30
0.0
 10
-0.4700319828248931
 20
1.075496729951391
 30
0.0
  0
SPLINE
  5
21B5
330
1F
100
AcDbEntity
  8
AM_0
100
AcDbSpline
210
0.0
220
0.0
230
1.0
 70
     8
 71
     3
 72
     8
 73
     4
 74
     0
 42
0.0000000001
 43
0.0000000001
 40
0.0
 40
0.0
 40
0.0
 40
0.0
 40
4.843639605544031
 40
4.843639605544031
 40
4.843639605544031
 40
4.843639605544031
 10
-4.091163638811707
 20
-1.826665057723098
 30
0.0
 10
-3.152981460331938
 20
-1.82666505772305
 30
0.0
 10
-2.626653470390807
 20
-1.754206220295824
 30
0.0
 10
-2.108840771776959
 20
-1.629697585576105
 30
0.0
  0
SPLINE
  5
21B6
330
1F
100
AcDbEntity
  8
AM_0
100
AcDbSpline
210
0.0
220
0.0
230
1.0
 70
     8
 71
     3
 72
     8
 73
     4
 74
     0
 42
0.0000000001
 43
0.0000000001
 40
0.0
 40
0.0
 40
0.0
 40
0.0
 40
3.622973205791074
 40
3.622973205791074
 40
3.622973205791074
 40
3.622973205791074
 10
-5.255423495201255
 20
-1.945495191581372
 30
0.0
 10
-4.852870916723601
 20
-1.94549519158137
 30
0.0
 10
-4.45771444721953
 20
-1.902899604700156
 30
0.0
 10
-4.068406391183126
 20
-1.826621901334105
 30
0.0
  0
SPLINE
  5
21B7
330
1F
100
AcDbEntity
  8
AM_0
100
AcDbSpline
210
0.0
220
0.0
230
1.0
 70
     8
 71
     3
 72
     8
 73
     4
 74
     0
 42
0.0000000001
 43
0.0000000001
 40
0.0
 40
0.0
 40
0.0
 40
0.0
 40
2.517158218102851
 40
2.517158218102851
 40
2.517158218102851
 40
2.517158218102851
 10
-5.833333334104297
 20
-2.000000000279892
 30
0.0
 10
-5.553649087609335
 20
-2.000000000279892
 30
0.0
 10
-5.277707482672891
 20
-1.978998026413185
 30
0.0
 10
-5.004966133518153
 20
-1.940037696867034
 30
0.0
  0
SPLINE
  5
21B8
330
1F
100
AcDbEntity
  8
AM_0
100
AcDbSpline
210
0.0
220
0.0
230
1.0
 70
     8
 71
     3
 72
     8
 73
     4
 74
     0
 42
0.0000000001
 43
0.0000000001
 40
0.0
 40
0.0
 40
0.0
 40
0.0
 40
6.52449073614872
 40
6.52449073614872
 40
6.52449073614872
 40
6.52449073614872
 10
-0.0000000000003545
 20
2.000000000279805
 30
0.0
 10
-0.7249434152294506
 20
2.000000000279804
 30
0.0
 10
-1.424741899662902
 20
1.858898275422983
 30
0.0
 10
-2.108840771776967
 20
1.629697585575977
 30
0.0
  0
POLYLINE
  5
21B9
330
1F
100
AcDbEntity
  8
AM_0
100
AcDb2dPolyline
 66
     1
 10
0.0
 20
0.0
 30
0.0
 70
     2
  0
VERTEX
  5
21BA
330
21B9
100
AcDbEntity
  8
AM_0
100
AcDbVertex
100
AcDb2dVertex
 10
-12.4000000000113
 20
2.00000000028018
 30
0.0
 42
0.0087757283119431
  0
VERTEX
  5
21BB
330
21B9
100
AcDbEntity
  8
AM_0
100
AcDbVertex
100
AcDb2dVertex
 10
-12.64093193038351
 20
1.989605365168416
 30
0.0
 42
0.0157211758004039
 70
     1
  0
VERTEX
  5
21BC
330
21B9
100
AcDbEntity
  8
AM_0
100
AcDbVertex
100
AcDb2dVertex
 10
-12.77500000001131
 20
1.977221652930337
 30
0.0
 42
0.0048571629815296
  0
VERTEX
  5
21BD
330
21B9
100
AcDbEntity
  8
AM_0
100
AcDbVertex
100
AcDb2dVertex
 10
-13.15057900506919
 20
1.92687304018877
 30
0.0
 42
0.0145772086183442
 70
     1
  0
VERTEX
  5
21BE
330
21B9
100
AcDbEntity
  8
AM_0
100
AcDbVertex
100
AcDb2dVertex
 10
-13.27500000001131
 20
1.905242645977119
 30
0.0
 42
0.0434525950080959
  0
VERTEX
  5
21BF
330
21B9
100
AcDbEntity
  8
AM_0
100
AcDbVertex
100
AcDb2dVertex
 10
-13.37614707038241
 20
1.87526483034636
 30
0.0
 42
0.152844159263678
 70
     1
  0
VERTEX
  5
21C0
330
21B9
100
AcDbEntity
  8
AM_0
100
AcDbVertex
100
AcDb2dVertex
 10
-13.40000000001131
 20
1.856041986373298
 30
0.0
 42
0.3578296156730169
  0
VERTEX
  5
21C1
330
21B9
100
AcDbEntity
  8
AM_0
100
AcDbVertex
100
AcDb2dVertex
 10
-13.39746132184252
 20
1.830255154990447
 30
0.0
 42
0.0522941923721376
 70
     1
  0
VERTEX
  5
21C2
330
21B9
100
AcDbEntity
  8
AM_0
100
AcDbVertex
100
AcDb2dVertex
 10
-13.27500000001131
 20
1.731041986373296
 30
0.0
 42
0.0240821622538027
  0
VERTEX
  5
21C3
330
21B9
100
AcDbEntity
  8
AM_0
100
AcDbVertex
100
AcDb2dVertex
 10
-13.13244216838863
 20
1.647848417206925
 30
0.0
 42
0.0099588537818533
 70
     1
  0
VERTEX
  5
21C4
330
21B9
100
AcDbEntity
  8
AM_0
100
AcDbVertex
100
AcDb2dVertex
 10
-12.7750000000113
 20
1.470671912506641
 30
0.0
 42
0.0234639750755333
  0
VERTEX
  5
21C5
330
21B9
100
AcDbEntity
  8
AM_0
100
AcDbVertex
100
AcDb2dVertex
 10
-12.63825949235587
 20
1.413928108173682
 30
0.0
 42
0.0138403749736028
 70
     1
  0
VERTEX
  5
21C6
330
21B9
100
AcDbEntity
  8
AM_0
100
AcDbVertex
100
AcDb2dVertex
 10
-12.40000007448643
 20
1.335301865524528
 30
0.0
  0
SEQEND
  5
21C7
330
21B9
100
AcDbEntity
  8
AM_0
  0
LINE
  5
21C8
330
1F
100
AcDbEntity
  8
AM_0
100
AcDbLine
 10
-10.86660164783197
 20
1.999999999999992
 30
0.0
 11
-14.76794919260755
 21
2.000000000280837
 31
0.0
  0
POLYLINE
  5
21C9
330
1F
100
AcDbEntity
  8
AM_0
100
AcDb2dPolyline
 66
     1
 10
0.0
 20
0.0
 30
0.0
 70
     2
  0
VERTEX
  5
21CA
330
21C9
100
AcDbEntity
  8
AM_0
100
AcDbVertex
100
AcDb2dVertex
 10
-12.0000000000113
 20
-1.538812443810654
 30
0.0
 42
-0.0205457210294632
  0
VERTEX
  5
21CB
330
21C9
100
AcDbEntity
  8
AM_0
100
AcDbVertex
100
AcDb2dVertex
 10
-12.34721300162643
 20
-1.282847672250882
 30
0.0
 42
-0.0365293940764011
 70
     1
  0
VERTEX
  5
21CC
330
21C9
100
AcDbEntity
  8
AM_0
100
AcDbVertex
100
AcDb2dVertex
 10
-12.5250000000113
 20
-1.117431218453741
 30
0.0
 42
-0.0182690478130868
  0
VERTEX
  5
21CD
330
21C9
100
AcDbEntity
  8
AM_0
100
AcDbVertex
100
AcDb2dVertex
 10
-12.99031979447576
 20
-0.5781047476669709
 30
0.0
 42
-0.0318620532325556
 70
     1
  0
VERTEX
  5
21CE
330
21C9
100
AcDbEntity
  8
AM_0
100
AcDbVertex
100
AcDb2dVertex
 10
-13.2250000000113
 20
-0.2434916006565309
 30
0.0
 42
-0.0447666696025247
  0
VERTEX
  5
21CF
330
21C9
100
AcDbEntity
  8
AM_0
100
AcDbVertex
100
AcDb2dVertex
 10
-13.36220331586451
 20
0.0345154881806014
 30
0.0
 42
-0.0780258418713821
 70
     1
  0
VERTEX
  5
21D0
330
21C9
100
AcDbEntity
  8
AM_0
100
AcDbVertex
100
AcDb2dVertex
 10
-13.4000000000113
 20
0.2090667917837663
 30
0.0
 42
-0.1174641487817119
  0
VERTEX
  5
21D1
330
21C9
100
AcDbEntity
  8
AM_0
100
AcDbVertex
100
AcDb2dVertex
 10
-13.37744498817986
 20
0.335638229542744
 30
0.0
 42
-0.0785888843657125
 70
     1
  0
VERTEX
  5
21D2
330
21C9
100
AcDbEntity
  8
AM_0
100
AcDbVertex
100
AcDb2dVertex
 10
-13.27500000001256
 20
0.4965054307540305
 30
0.0
 42
-0.1113020671939917
  0
VERTEX
  5
21D3
330
21C9
100
AcDbEntity
  8
AM_0
100
AcDbVertex
100
AcDb2dVertex
 10
-13.09527019820624
 20
0.6262292053121027
 30
0.0
 42
-0.0740170494428857
 70
     1
  0
VERTEX
  5
21D4
330
21C9
100
AcDbEntity
  8
AM_0
100
AcDbVertex
100
AcDb2dVertex
 10
-12.77500000001761
 20
0.7099660346711085
 30
0.0
 42
-0.0758301658171769
  0
VERTEX
  5
21D5
330
21C9
100
AcDbEntity
  8
AM_0
100
AcDbVertex
100
AcDb2dVertex
 10
-12.60230770241933
 20
0.7024659379312518
 30
0.0
 42
-0.0614316488375583
 70
     1
  0
VERTEX
  5
21D6
330
21C9
100
AcDbEntity
  8
AM_0
100
AcDbVertex
100
AcDb2dVertex
 10
-12.40000000002139
 20
0.6359879996179226
 30
0.0
  0
SEQEND
  5
21D7
330
21C9
100
AcDbEntity
  8
AM_0
  0
LINE
  5
21D8
330
1F
100
AcDbEntity
  8
AM_0
100
AcDbLine
 10
-11.15420800690868
 20
-2.000000000280276
 30
0.0
 11
-14.76794919260372
 21
-2.000000000279841
 31
0.0
  0
LINE
  5
21DA
330
1F
100
AcDbEntity
  8
AM_11
100
AcDbLine
 10
-12.00000000001131
 20
1.999999999999992
 30
0.0
 11
-12.0000000000113
 21
-2.000000000000007
 31
0.0
  0
LINE
  5
21DB
330
1F
100
AcDbEntity
  8
AM_0
100
AcDbLine
 10
-12.0000000000113
 20
-1.322354729575354
 30
0.0
 11
-12.0000000000113
 21
-1.755270158045954
 31
0.0
  0
LINE
  5
21DD
330
1F
100
AcDbEntity
  8
AM_0
100
AcDbLine
 10
-12.0000000000113
 20
0.6076173322037438
 30
0.0
 11
-12.0000000000113
 21
1.183648569956523
 31
0.0
  0
LINE
  5
21DE
330
1F
100
AcDbEntity
  8
AM_0
100
AcDbLine
 10
-0.0000000000003443
 20
-2.0
 30
0.0
 11
-0.0000000000003545
 21
1.999999999999999
 31
0.0
  0
ARC
  5
21E0
330
1F
100
AcDbEntity
  8
AM_0
100
AcDbCircle
 10
-0.2544258536466257
 20
-0.2243604211685807
 30
0.0
 40
0.2011016559408397
100
AcDbArc
 50
78.00000000003712
 51
217.2586610839735
  0
LINE
  5
21E2
330
1F
100
AcDbEntity
  8
AM_0
100
AcDbLine
 10
-0.2592926001972797
 20
-0.572456946626927
 30
0.0
 11
-0.0000000000003486
 21
-0.3057488021289321
 31
0.0
  0
ARC
  5
21E3
330
1F
100
AcDbEntity
  8
AM_0
100
AcDbCircle
 10
-2.645096097035043
 20
-0.5106173154237649
 30
0.0
 40
2.386604798769667
100
AcDbArc
 50
336.6213265251323
 51
358.5152353389688
  0
LINE
  5
21E4
330
1F
100
AcDbEntity
  8
AM_0
100
AcDbLine
 10
-0.4201883332594904
 20
-0.3382229539648614
 30
0.0
 11
-0.2544258536466248
 21
-0.5674510153304534
 31
0.0
  0
LINE
  5
21E6
330
1F
100
AcDbEntity
  8
AM_0
100
AcDbLine
 10
-0.048553217569849
 20
-1.911741677235246
 30
0.0
 11
-0.0000000000005262
 21
-2.000000000279923
 31
0.0
  0
LINE
  5
21E7
330
1F
100
AcDbEntity
  8
AM_0
100
AcDbLine
 10
-0.048553217569849
 20
-1.911741677235246
 30
0.0
 11
-0.4544258536745976
 21
-1.457637035580462
 31
0.0
  0
LINE
  5
21E9
330
1F
100
AcDbEntity
  8
AM_0
100
AcDbLine
 10
-0.2544258536466262
 20
-0.0232587652277522
 30
0.0
 11
-0.0000000000003493
 21
-0.050000000007075
 31
0.0
  0
ARC
  5
21EA
330
1F
100
AcDbEntity
  8
AM_0
100
AcDbCircle
 10
-1.856831504275065
 20
4.121635498020514
 30
0.0
 40
3.574995311179634
100
AcDbArc
 50
294.4224706322694
 51
301.2916182973703
  0
LINE
  5
2207
330
1F
100
AcDbEntity
  8
AM_0
100
AcDbLine
 10
-14.76794919260483
 20
-2.000000000280138
 30
0.0
 11
-14.76794919260755
 21
2.000000000280837
 31
0.0
  0
LINE
  5
2250
330
1F
100
AcDbEntity
  8
AM_11
100
AcDbLine
 10
-12.0000000000007
 20
-2.000000000000007
 30
0.0
 11
-0.0000000000003443
 21
-2.0
 31
0.0
1001
GENIUS_GENODEF_13
1002
{
1000
HIER
1070
     0
1002
}
1002
{
1000
MANEDIT
1070
     0
1002
}
1002
{
1000
NOSEL
1070
     0
1002
}
1002
{
1000
BEHIND
1070
     0
1002
}
1002
{
1000
REACTOR
1002
}
1001
GENIUS_GENOBJ-N-CEN_13
1002
{
1000
OWNER
1000
GEN
1002
}
  0
LINE
  5
2254
330
1F
100
AcDbEntity
  8
AM_11
100
AcDbLine
 10
-12.00000000000071
 20
1.999999999999992
 30
0.0
 11
-0.0000000000003545
 21
1.999999999999999
 31
0.0
1001
GENIUS_GENODEF_13
1002
{
1000
HIER
1070
     0
1002
}
1002
{
1000
MANEDIT
1070
     0
1002
}
1002
{
1000
NOSEL
1070
     0
1002
}
1002
{
1000
BEHIND
1070
     0
1002
}
1002
{
1000
REACTOR
1002
}
1001
GENIUS_GENOBJ-N-CEN_13
1002
{
1000
OWNER
1000
GEN
1002
}
  0
LINE
  5
2259
330
1F
100
AcDbEntity
  8
AM_11
100
AcDbLine
 10
-0.0000000000003545
 20
1.999999999999999
 30
0.0
 11
-0.0000650330371705
 21
-2.0
 31
0.0
  0
LINE
  5
2381
330
1F
100
AcDbEntity
  8
AM_0
100
AcDbLine
 10
-0.4700319828248932
 20
1.075496729951391
 30
0.0
 11
-0.0000325162169676
 21
0.0000185625601912
 31
0.0
  0
VIEWPORT
  5
110
330
101
100
AcDbEntity
 67
     1
  8
0
100
AcDbViewport
 10
420.5
 20
297.0
 30
0.0
 40
948.9782706766916
 41
628.452
 68
     1
 69
     1
1001
ACAD
1000
MVIEW
1002
{
1070
    16
1010
0.0
1020
0.0
1030
0.0
1010
0.0
1020
0.0
1030
1.0
1040
0.0
1040
628.452
1040
420.5
1040
297.0
1040
50.0
1040
0.0
1040
0.0
1070
     0
1070
   100
1070
     1
1070
     1
1070
     0
1070
     0
1070
     0
1070
     0
1040
0.0
1040
0.0
1040
0.0
1040
10.0
1040
10.0
1040
10.0
1040
10.0
1070
     0
1002
{
1002
}
1002
}
  0
ENDSEC
  0
SECTION
  2
OBJECTS
  0
DICTIONARY
  5
C
330
0
100
AcDbDictionary
  3
ACAD_GROUP
350
D
  3
ACAD_LAYOUT
350
1A
  3
ACAD_MLINESTYLE
350
17
  3
ACAD_PLOTSETTINGS
350
19
  3
ACAD_PLOTSTYLENAME
350
E
  3
ACDBVARIABLEDICTIONARY
350
34
  3
ACMDICTIONARY
350
43
  3
AMG
350
2B
  3
AMGSNAPSETTINGS
350
6E
  3
DWGPROPS
350
2391
  3
ACDBHEADERROUNDTRIPXREC
350
239D
  0
DICTIONARY
  5
74
330
1F
100
AcDbDictionary
280
     1
  3
ACAD_INDEX
360
2393
  3
ACAD_LAYOUTSELFREF
360
23C0
  0
DICTIONARY
  5
23C5
330
101
100
AcDbDictionary
280
     1
  3
ACAD_LAYOUTSELFREF
360
23C6
  0
DICTIONARY
  5
D
102
{ACAD_REACTORS
330
C
102
}
330
C
100
AcDbDictionary
  0
DICTIONARY
  5
1A
102
{ACAD_REACTORS
330
C
102
}
330
C
100
AcDbDictionary
  0
DICTIONARY
  5
17
102
{ACAD_REACTORS
330
C
102
}
330
C
100
AcDbDictionary
  3
STANDARD
350
18
  0
DICTIONARY
  5
19
102
{ACAD_REACTORS
330
C
102
}
330
C
100
AcDbDictionary
  0
ACDBDICTIONARYWDFLT
  5
E
102
{ACAD_REACTORS
330
C
102
}
330
C
100
AcDbDictionary
281
     1
  3
Normal
350
F
100
AcDbDictionaryWithDefault
340
F
  0
DICTIONARY
  5
34
102
{ACAD_REACTORS
330
C
102
}
330
C
100
AcDbDictionary
  3
INDEXCTL
350
35
  3
SORTENTS
350
B5E
  0
DICTIONARY
  5
43
102
{ACAD_REACTORS
330
C
102
}
330
C
100
AcDbDictionary
  3
ACMSTDDICTIONARY
350
260
  0
DICTIONARY
  5
2B
102
{ACAD_REACTORS
330
C
102
}
330
C
100
AcDbDictionary
  3
ACMGSETTINGS
350
2C
  0
DICTIONARY
  5
6E
102
{ACAD_REACTORS
330
C
102
}
330
C
100
AcDbDictionary
  0
XRECORD
  5
2391
102
{ACAD_REACTORS
330
C
102
}
330
C
100
AcDbXrecord
  1
DWGPROPS COOKIE
  2

  3

  4

  6

  7

  8

  9

300
AmdtFileType=82
301
=
302
=
303
=
304
=
305
=
306
=
307
=
308
=
309
=
 40
0.0939039930555556
 41
2452802.716478761
 42
2453043.667259305
  1

 90
        1
  0
DICTIONARY
  5
239D
102
{ACAD_REACTORS
330
C
102
}
330
C
100
AcDbDictionary
  3
TSTACKALIGN
350
239E
  3
TSTACKSIZE
350
239F
  3
HYPERLINKBASE
350
23A0
  3
STYLESHEET
350
23A1
  3
LAYOUTDICT
350
23A2
  3
PLOTSETDICT
350
23A3
  3
PLOTSTYLNAMDICT
350
23A4
  3
LWETCUNION
350
23A5
  3
INSUNITS
350
23A6
  3
CEPSNTYPE
350
23A7
  3
FINGERPRINTGUID
350
23A8
  3
VERSIONGUID
350
23A9
  3
PSVPSCALE
350
23AA
  3
DIMSTYLEDATA
350
23AB
  3
PUCSORTHOREF
350
23AC
  3
PUCSORTHOVIEW
350
23AD
  3
PUCSBASE
350
23AE
  3
PUCSORGTOP
350
23AF
  3
PUCSORGBOTTOM
350
23B0
  3
PUCSORGLEFT
350
23B1
  3
PUCSORGRIGHT
350
23B2
  3
PUCSORGFRONT
350
23B3
  3
PUCSORGBACK
350
23B4
  3
UCSORTHOREF
350
23B5
  3
UCSORTHOVIEW
350
23B6
  3
UCSBASE
350
23B7
  3
UCSORGTOP
350
23B8
  3
UCSORGBOTTOM
350
23B9
  3
UCSORGLEFT
350
23BA
  3
UCSORGRIGHT
350
23BB
  3
UCSORGFRONT
350
23BC
  3
UCSORGBACK
350
23BD
  0
DICTIONARY
  5
2393
102
{ACAD_REACTORS
330
74
102
}
330
74
100
AcDbDictionary
  3
*A1
350
2394
  0
XRECORD
  5
23C0
102
{ACAD_REACTORS
330
74
102
}
330
74
100
AcDbXrecord
340
1F
  0
XRECORD
  5
23C6
102
{ACAD_REACTORS
330
23C5
102
}
330
23C5
100
AcDbXrecord
340
101
  0
MLINESTYLE
  5
18
102
{ACAD_REACTORS
330
17
102
}
330
17
100
AcDbMlineStyle
  2
STANDARD
 70
     0
  3

 62
   256
 51
90.0
 52
90.0
 71
     2
 49
0.5
 62
   256
  6
BYLAYER
 49
-0.5
 62
   256
  6
BYLAYER
  0
ACDBPLACEHOLDER
  5
F
102
{ACAD_REACTORS
330
E
102
}
330
E
100
AcDbPlaceHolder
280
     0
  0
DICTIONARYVAR
  5
35
102
{ACAD_REACTORS
330
34
102
}
330
34
100
DictionaryVariables
280
     0
  1
1
  0
DICTIONARYVAR
  5
B5E
102
{ACAD_REACTORS
330
34
102
}
330
34
100
DictionaryVariables
280
     0
  1
96
  0
DICTIONARY
  5
260
102
{ACAD_REACTORS
330
43
102
}
330
43
100
AcDbDictionary
  0
DICTIONARY
  5
2C
102
{ACAD_REACTORS
330
2B
102
}
330
2B
100
AcDbDictionary
  3
DWGSETTINGS
350
2D
  0
XRECORD
  5
239E
102
{ACAD_REACTORS
330
239D
102
}
330
239D
100
AcDbXrecord
 90
        1
  0
XRECORD
  5
239F
102
{ACAD_REACTORS
330
239D
102
}
330
239D
100
AcDbXrecord
 90
       70
  0
XRECORD
  5
23A0
102
{ACAD_REACTORS
330
239D
102
}
330
239D
100
AcDbXrecord
  1

  0
XRECORD
  5
23A1
102
{ACAD_REACTORS
330
239D
102
}
330
239D
100
AcDbXrecord
  1
ASAMI.ctb
  0
XRECORD
  5
23A2
102
{ACAD_REACTORS
330
239D
102
}
330
239D
100
AcDbXrecord
340
1A
  0
XRECORD
  5
23A3
102
{ACAD_REACTORS
330
239D
102
}
330
239D
100
AcDbXrecord
340
19
  0
XRECORD
  5
23A4
102
{ACAD_REACTORS
330
239D
102
}
330
239D
100
AcDbXrecord
340
E
  0
XRECORD
  5
23A5
102
{ACAD_REACTORS
330
239D
102
}
330
239D
100
AcDbXrecord
 90
    10781
  0
XRECORD
  5
23A6
102
{ACAD_REACTORS
330
239D
102
}
330
239D
100
AcDbXrecord
 90
        4
  0
XRECORD
  5
23A7
102
{ACAD_REACTORS
330
239D
102
}
330
239D
100
AcDbXrecord
 90
        0
  0
XRECORD
  5
23A8
102
{ACAD_REACTORS
330
239D
102
}
330
239D
100
AcDbXrecord
  1
{AFB28963-8C59-40AE-9337-C84526B81ACE}
  0
XRECORD
  5
23A9
102
{ACAD_REACTORS
330
239D
102
}
330
239D
100
AcDbXrecord
  1
{2D676D6E-BC9E-460D-8E05-483444A4C0E0}
  0
XRECORD
  5
23AA
102
{ACAD_REACTORS
330
239D
102
}
330
239D
100
AcDbXrecord
 40
0.0
  0
XRECORD
  5
23AB
102
{ACAD_REACTORS
330
239D
102
}
330
239D
100
AcDbXrecord
1000
DSTYLE
1002
{
1070
    79
 70
     2
1070
   341
340
59
1070
   342
340
59
1070
   371
 70
    -1
1070
   372
 70
    -1
1002
}
  0
XRECORD
  5
23AC
102
{ACAD_REACTORS
330
239D
102
}
330
239D
100
AcDbXrecord
340
0
  0
XRECORD
  5
23AD
102
{ACAD_REACTORS
330
239D
102
}
330
239D
100
AcDbXrecord
 70
     0
  0
XRECORD
  5
23AE
102
{ACAD_REACTORS
330
239D
102
}
330
239D
100
AcDbXrecord
340
0
  0
XRECORD
  5
23AF
102
{ACAD_REACTORS
330
239D
102
}
330
239D
100
AcDbXrecord
 10
0.0
 20
0.0
 30
0.0
  0
XRECORD
  5
23B0
102
{ACAD_REACTORS
330
239D
102
}
330
239D
100
AcDbXrecord
 10
0.0
 20
0.0
 30
0.0
  0
XRECORD
  5
23B1
102
{ACAD_REACTORS
330
239D
102
}
330
239D
100
AcDbXrecord
 10
0.0
 20
0.0
 30
0.0
  0
XRECORD
  5
23B2
102
{ACAD_REACTORS
330
239D
102
}
330
239D
100
AcDbXrecord
 10
0.0
 20
0.0
 30
0.0
  0
XRECORD
  5
23B3
102
{ACAD_REACTORS
330
239D
102
}
330
239D
100
AcDbXrecord
 10
0.0
 20
0.0
 30
0.0
  0
XRECORD
  5
23B4
102
{ACAD_REACTORS
330
239D
102
}
330
239D
100
AcDbXrecord
 10
0.0
 20
0.0
 30
0.0
  0
XRECORD
  5
23B5
102
{ACAD_REACTORS
330
239D
102
}
330
239D
100
AcDbXrecord
340
0
  0
XRECORD
  5
23B6
102
{ACAD_REACTORS
330
239D
102
}
330
239D
100
AcDbXrecord
 70
     0
  0
XRECORD
  5
23B7
102
{ACAD_REACTORS
330
239D
102
}
330
239D
100
AcDbXrecord
340
0
  0
XRECORD
  5
23B8
102
{ACAD_REACTORS
330
239D
102
}
330
239D
100
AcDbXrecord
 10
0.0
 20
0.0
 30
0.0
  0
XRECORD
  5
23B9
102
{ACAD_REACTORS
330
239D
102
}
330
239D
100
AcDbXrecord
 10
0.0
 20
0.0
 30
0.0
  0
XRECORD
  5
23BA
102
{ACAD_REACTORS
330
239D
102
}
330
239D
100
AcDbXrecord
 10
0.0
 20
0.0
 30
0.0
  0
XRECORD
  5
23BB
102
{ACAD_REACTORS
330
239D
102
}
330
239D
100
AcDbXrecord
 10
0.0
 20
0.0
 30
0.0
  0
XRECORD
  5
23BC
102
{ACAD_REACTORS
330
239D
102
}
330
239D
100
AcDbXrecord
 10
0.0
 20
0.0
 30
0.0
  0
XRECORD
  5
23BD
102
{ACAD_REACTORS
330
239D
102
}
330
239D
100
AcDbXrecord
 10
0.0
 20
0.0
 30
0.0
  0
LAYER_INDEX
  5
2394
102
{ACAD_REACTORS
330
2393
102
}
330
2393
100
AcDbIndex
 40
2453152.360065417
100
AcDbLayerIndex
  8
0
360
2395
 90
        0
  8
AM_0
360
2396
 90
       46
  8
AM_5
360
2397
 90
        4
  8
AM_11
360
2398
 90
        4
  8
AM_7
360
2399
 90
        1
  8
AM_6
360
239A
 90
        1
  8
Defpoints
360
239B
 90
        0
  0
XRECORD
  5
2D
102
{ACAD_REACTORS
330
2C
102
}
330
2C
100
AcDbXrecord
  1
VERSION
140
15.0
  1
PRODUCT
  2
AutoCAD Mechanical 2000
  0
IDBUFFER
  5
2395
330
0
100
AcDbIdBuffer
  0
IDBUFFER
  5
2396
330
0
100
AcDbIdBuffer
330
21A9
330
21AA
330
21AB
330
21AC
330
21AE
330
21AF
330
21B1
330
21B2
330
21B4
330
21B5
330
21B6
330
21B7
330
21B8
330
21B9
330
21C8
330
21C9
330
21D8
330
21DB
330
21DD
330
21DE
330
21E0
330
21E2
330
21E3
330
21E4
330
21E6
330
21E7
330
21E9
330
21EA
330
2207
330
2381
330
202E
330
202F
330
2034
330
2035
330
2037
330
2038
330
204E
330
204F
330
2054
330
219F
330
21A2
330
21A3
330
21A4
330
21A5
330
21A6
330
21A8
  0
IDBUFFER
  5
2397
330
0
100
AcDbIdBuffer
330
2031
330
2036
330
2039
330
2069
  0
IDBUFFER
  5
2398
330
0
100
AcDbIdBuffer
330
21DA
330
2250
330
2254
330
2259
  0
IDBUFFER
  5
2399
330
0
100
AcDbIdBuffer
330
202D
  0
IDBUFFER
  5
239A
330
0
100
AcDbIdBuffer
330
E65
  0
IDBUFFER
  5
239B
330
0
100
AcDbIdBuffer
  0
ENDSEC
  0
EOF
