  0
SECTION
  2
HEADER
  9
$ACADVER
  1
AC1014
  9
$ACADMAINTVER
 70
     9
  9
$DWGCODEPAGE
  3
ANSI_932
  9
$INSBASE
 10
0.0
 20
0.0
 30
0.0
  9
$EXTMIN
 10
-74.35000000000008
 20
-27.25000099999999
 30
-0.00000001
  9
$EXTMAX
 10
7.500000000000002
 20
5.5
 30
0.00000001
  9
$LIMMIN
 10
-91.1578756139869
 20
-46.5984816706773
  9
$LIMMAX
 10
28.32620251361004
 20
30.6528395631471
  9
$ORTHOMODE
 70
     0
  9
$REGENMODE
 70
     1
  9
$FILLMODE
 70
     1
  9
$QTEXTMODE
 70
     0
  9
$MIRRTEXT
 70
     0
  9
$DRAGMODE
 70
     2
  9
$LTSCALE
 40
0.3
  9
$OSMODE
 70
    55
  9
$ATTMODE
 70
     1
  9
$TEXTSIZE
 40
2.5
  9
$TRACEWID
 40
1.0
  9
$TEXTSTYLE
  7
STANDARD
  9
$CLAYER
  8
AM_0
  9
$CELTYPE
  6
BYLAYER
  9
$CECOLOR
 62
   256
  9
$CELTSCALE
 40
1.0
  9
$DELOBJ
 70
     1
  9
$DISPSILH
 70
     0
  9
$DIMSCALE
 40
0.5
  9
$DIMASZ
 40
2.5
  9
$DIMEXO
 40
1.0
  9
$DIMDLI
 40
12.0
  9
$DIMRND
 40
0.0
  9
$DIMDLE
 40
0.0
  9
$DIMEXE
 40
1.0
  9
$DIMTP
 40
0.1
  9
$DIMTM
 40
0.1
  9
$DIMTXT
 40
3.2
  9
$DIMCEN
 40
0.0
  9
$DIMTSZ
 40
0.0
  9
$DIMTOL
 70
     0
  9
$DIMLIM
 70
     0
  9
$DIMTIH
 70
     0
  9
$DIMTOH
 70
     0
  9
$DIMSE1
 70
     0
  9
$DIMSE2
 70
     0
  9
$DIMTAD
 70
     3
  9
$DIMZIN
 70
     8
  9
$DIMBLK
  1
OPEN30
  9
$DIMASO
 70
     1
  9
$DIMSHO
 70
     1
  9
$DIMPOST
  1

  9
$DIMAPOST
  1
"
  9
$DIMALT
 70
     0
  9
$DIMALTD
 70
     2
  9
$DIMALTF
 40
0.0393701
  9
$DIMLFAC
 40
1.0
  9
$DIMTOFL
 70
     1
  9
$DIMTVP
 40
0.0
  9
$DIMTIX
 70
     0
  9
$DIMSOXD
 70
     0
  9
$DIMSAH
 70
     0
  9
$DIMBLK1
  1

  9
$DIMBLK2
  1

  9
$DIMSTYLE
  2
AM_JIS
  9
$DIMCLRD
 70
   256
  9
$DIMCLRE
 70
   256
  9
$DIMCLRT
 70
     2
  9
$DIMTFAC
 40
0.71
  9
$DIMGAP
 40
1.5
  9
$DIMJUST
 70
     0
  9
$DIMSD1
 70
     0
  9
$DIMSD2
 70
     0
  9
$DIMTOLJ
 70
     0
  9
$DIMTZIN
 70
     0
  9
$DIMALTZ
 70
     0
  9
$DIMALTTZ
 70
     0
  9
$DIMFIT
 70
     3
  9
$DIMUPT
 70
     0
  9
$DIMUNIT
 70
     2
  9
$DIMDEC
 70
     3
  9
$DIMTDEC
 70
     3
  9
$DIMALTU
 70
     2
  9
$DIMALTTD
 70
     2
  9
$DIMTXSTY
  7
ASAMI
  9
$DIMAUNIT
 70
     0
  9
$LUNITS
 70
     2
  9
$LUPREC
 70
     2
  9
$SKETCHINC
 40
1.0
  9
$FILLETRAD
 40
2.5
  9
$AUNITS
 70
     0
  9
$AUPREC
 70
     0
  9
$MENU
  1
.
  9
$ELEVATION
 40
0.0
  9
$PELEVATION
 40
0.0
  9
$THICKNESS
 40
0.0
  9
$LIMCHECK
 70
     0
  9
$BLIPMODE
 70
     0
  9
$CHAMFERA
 40
2.5
  9
$CHAMFERB
 40
2.5
  9
$CHAMFERC
 40
20.0
  9
$CHAMFERD
 40
0.0
  9
$SKPOLY
 70
     0
  9
$TDCREATE
 40
2452838.620506898
  9
$TDUPDATE
 40
2453152.359758877
  9
$TDINDWG
 40
0.0834109954
  9
$TDUSRTIMER
 40
0.0834109954
  9
$USRTIMER
 70
     1
  9
$ANGBASE
 50
0.0
  9
$ANGDIR
 70
     0
  9
$PDMODE
 70
     0
  9
$PDSIZE
 40
0.0
  9
$PLINEWID
 40
0.0
  9
$COORDS
 70
     1
  9
$SPLFRAME
 70
     0
  9
$SPLINETYPE
 70
     6
  9
$SPLINESEGS
 70
     8
  9
$ATTDIA
 70
     1
  9
$ATTREQ
 70
     1
  9
$HANDLING
 70
 12289
  9
$HANDSEED
  5
1CD2
  9
$SURFTAB1
 70
     6
  9
$SURFTAB2
 70
     6
  9
$SURFTYPE
 70
     6
  9
$SURFU
 70
     6
  9
$SURFV
 70
     6
  9
$UCSNAME
  2

  9
$UCSORG
 10
-0.000000000000061
 20
0.0000000000003206
 30
0.0
  9
$UCSXDIR
 10
1.0
 20
0.0
 30
0.0
  9
$UCSYDIR
 10
0.0
 20
1.0
 30
0.0
  9
$PUCSNAME
  2

  9
$PUCSORG
 10
0.0
 20
0.0
 30
0.0
  9
$PUCSXDIR
 10
1.0
 20
0.0
 30
0.0
  9
$PUCSYDIR
 10
0.0
 20
1.0
 30
0.0
  9
$USERI1
 70
     0
  9
$USERI2
 70
     0
  9
$USERI3
 70
     0
  9
$USERI4
 70
     0
  9
$USERI5
 70
     0
  9
$USERR1
 40
0.0
  9
$USERR2
 40
0.0
  9
$USERR3
 40
0.0
  9
$USERR4
 40
0.0
  9
$USERR5
 40
0.0
  9
$WORLDVIEW
 70
     1
  9
$SHADEDGE
 70
     3
  9
$SHADEDIF
 70
    70
  9
$TILEMODE
 70
     1
  9
$MAXACTVP
 70
    64
  9
$PINSBASE
 10
0.0
 20
0.0
 30
0.0
  9
$PLIMCHECK
 70
     0
  9
$PEXTMIN
 10
1.000000000000000E+20
 20
1.000000000000000E+20
 30
1.000000000000000E+20
  9
$PEXTMAX
 10
-1.000000000000000E+20
 20
-1.000000000000000E+20
 30
-1.000000000000000E+20
  9
$PLIMMIN
 10
0.0
 20
0.0
  9
$PLIMMAX
 10
841.0
 20
594.0
  9
$UNITMODE
 70
     0
  9
$VISRETAIN
 70
     1
  9
$PLINEGEN
 70
     0
  9
$PSLTSCALE
 70
     0
  9
$TREEDEPTH
 70
  3020
  9
$PICKSTYLE
 70
     0
  9
$CMLSTYLE
  2
STANDARD
  9
$CMLJUST
 70
     0
  9
$CMLSCALE
 40
20.0
  9
$PROXYGRAPHICS
 70
     1
  9
$MEASUREMENT
 70
     1
  0
ENDSEC
  0
SECTION
  2
CLASSES
  0
CLASS
  1
ACDBDICTIONARYWDFLT
  2
AcDbDictionaryWithDefault
  3
AutoCAD 2000
 90
        0
280
     0
281
     0
  0
CLASS
  1
ACDBPLACEHOLDER
  2
AcDbPlaceHolder
  3
AutoCAD 2000
 90
        0
280
     0
281
     0
  0
CLASS
  1
LAYOUT
  2
AcDbLayout
  3
AutoCAD 2000
 90
        0
280
     0
281
     0
  0
CLASS
  1
AMGSETTINGSOBJ
  2
AmgSettingsObj
  3
"AcadM|Product Description: AutoCAD Mechanical 2000|Company: Autodesk"
 90
        0
280
     0
281
     0
  0
CLASS
  1
ACME_DOCUMENT
  2
AcMeDbDoc
  3
AcMeServices
 90
        0
280
     0
281
     0
  0
CLASS
  1
ACMESCOPE
  2
AcMeScope
  3
AcMeServices
 90
        0
280
     0
281
     0
  0
CLASS
  1
ACMECOMMANDHISTORY
  2
AcMeCommandHistory
  3
AcMeServices
 90
        0
280
     0
281
     0
  0
CLASS
  1
DICTIONARYVAR
  2
AcDbDictionaryVar
  3
AutoCAD 2000
 90
        0
280
     0
281
     0
  0
CLASS
  1
ACIMSYSVARMAN
  2
AcImSysVarManager
  3
AcMeServices
 90
        0
280
     0
281
     0
  0
CLASS
  1
ACIMREALSYSVAR
  2
AcImRealSysVar
  3
AcMeServices
 90
        0
280
     0
281
     0
  0
CLASS
  1
ACIMINTSYSVAR
  2
AcImIntSysVar
  3
AcMeServices
 90
        0
280
     0
281
     0
  0
CLASS
  1
ACMEDRAWINGMAN
  2
AcMeDrawingMan
  3
AcMeServices
 90
        0
280
     0
281
     0
  0
CLASS
  1
ACMEVIEW
  2
AcMeView
  3
AcMeServices
 90
        0
280
     0
281
     0
  0
CLASS
  1
ACDBENTITYCACHE
  2
AcMeEntityCache
  3
AcMeServices
 90
        0
280
     0
281
     0
  0
CLASS
  1
GSMANAGER
  2
AcMeGSManager
  3
AcMeServices
 90
        0
280
     0
281
     0
  0
CLASS
  1
AmdtInternalReactor
  2
AmdtInternalReactor
  3
AcMeServices
 90
        0
280
     0
281
     0
  0
CLASS
  1
ACMESTATEMGR
  2
AcMeStateMgr
  3
AcMeServices
 90
        0
280
     0
281
     0
  0
CLASS
  1
ACME_DATABASE
  2
AcMeDbDatabase
  3
AcMeServices
 90
        0
280
     0
281
     0
  0
CLASS
  1
ACRFINSADJUSTERMGR
  2
AcRfInsAdjusterMgr
  3
AcMeServices
 90
        0
280
     0
281
     0
  0
CLASS
  1
ACMDATADICTIONARY
  2
AcmDataDictionary
  3
"AcmSymBB|Product Description: AutoCAD Mechanical 2000|Company: Autodesk"
 90
        0
280
     0
281
     0
  0
CLASS
  1
ACMDATAENTRYBLOCK
  2
AcmDataEntryBlock
  3
"AcmSymBB|Product Description: AutoCAD Mechanical 2000|Company: Autodesk"
 90
        0
280
     0
281
     0
  0
CLASS
  1
AMGOBJPROPCFG
  2
AmgObjPropCfg
  3
"AmgLay|Product Description: AutoCAD Mechanical 2000|Company: Autodesk"
 90
        1
280
     0
281
     0
  0
CLASS
  1
ACAMGFILTERDAT
  2
AcAmgFilterDat
  3
"AcadM|Product Description: AutoCAD Mechanical 2000|Company: Autodesk"
 90
        0
280
     0
281
     0
  0
CLASS
  1
LAYER_INDEX
  2
AcDbLayerIndex
  3
AutoCAD 2000
 90
        0
280
     0
281
     0
  0
CLASS
  1
IDBUFFER
  2
AcDbIdBuffer
  3
AutoCAD 2000
 90
        0
280
     0
281
     0
  0
CLASS
  1
ACIMSTRSYSVAR
  2
AcImStrSysVar
  3
AcMeServices
 90
        0
280
     0
281
     0
  0
CLASS
  1
ACMSTANDARDJIS
  2
AcmStandardJIS
  3
"AcmSymBB|Product Description: AutoCAD Mechanical 2000|Company: Autodesk"
 90
        0
280
     0
281
     0
  0
CLASS
  1
ACMSURFSTANDARDJIS
  2
AcmSurfTextStdJIS
  3
"AcmSymBB|Product Description: AutoCAD Mechanical 2000|Company: Autodesk"
 90
        0
280
     0
281
     0
  0
CLASS
  1
ACMFCFSTANDARDJIS
  2
AcmFCFStdJIS
  3
"AcmSymBB|Product Description: AutoCAD Mechanical 2000|Company: Autodesk"
 90
        0
280
     0
281
     0
  0
CLASS
  1
ACMWELDSTANDARDJIS
  2
AcmWeldingStdJIS
  3
"AcmSymBB|Product Description: AutoCAD Mechanical 2000|Company: Autodesk"
 90
        0
280
     0
281
     0
  0
CLASS
  1
ACMIDSTANDARDJIS
  2
AcmIdStdJIS
  3
"AcmSymBB|Product Description: AutoCAD Mechanical 2000|Company: Autodesk"
 90
        0
280
     0
281
     0
  0
CLASS
  1
ACMDATUMSTANDARDJIS
  2
AcmDatumStdJIS
  3
"AcmSymBB|Product Description: AutoCAD Mechanical 2000|Company: Autodesk"
 90
        0
280
     0
281
     0
  0
CLASS
  1
ACMBOMSTANDARDJIS
  2
AcmBOMStdJIS
  3
"AcmSymBB|Product Description: AutoCAD Mechanical 2000|Company: Autodesk"
 90
        0
280
     0
281
     0
  0
CLASS
  1
ACMSTANDARDANSI
  2
AcmStandardANSI
  3
"AcmSymBB|Product Description: AutoCAD Mechanical 2000|Company: Autodesk"
 90
        0
280
     0
281
     0
  0
CLASS
  1
ACMSURFSTANDARDANSI
  2
AcmSurfTextStdANSI
  3
"AcmSymBB|Product Description: AutoCAD Mechanical 2000|Company: Autodesk"
 90
        0
280
     0
281
     0
  0
CLASS
  1
ACMFCFSTANDARDANSI
  2
AcmFCFStdANSI
  3
"AcmSymBB|Product Description: AutoCAD Mechanical 2000|Company: Autodesk"
 90
        0
280
     0
281
     0
  0
CLASS
  1
ACMWELDSTANDARDANSI
  2
AcmWeldingStdANSI
  3
"AcmSymBB|Product Description: AutoCAD Mechanical 2000|Company: Autodesk"
 90
        0
280
     0
281
     0
  0
CLASS
  1
ACMIDSTANDARDANSI
  2
AcmIdStdANSI
  3
"AcmSymBB|Product Description: AutoCAD Mechanical 2000|Company: Autodesk"
 90
        0
280
     0
281
     0
  0
CLASS
  1
ACMDATUMSTANDARDANSI
  2
AcmDatumStdANSI
  3
"AcmSymBB|Product Description: AutoCAD Mechanical 2000|Company: Autodesk"
 90
        0
280
     0
281
     0
  0
CLASS
  1
ACMBOMSTANDARDANSI
  2
AcmBOMStdANSI
  3
"AcmSymBB|Product Description: AutoCAD Mechanical 2000|Company: Autodesk"
 90
        0
280
     0
281
     0
  0
CLASS
  1
ACMSTANDARDBSI
  2
AcmStandardBSI
  3
"AcmSymBB|Product Description: AutoCAD Mechanical 2000|Company: Autodesk"
 90
        0
280
     0
281
     0
  0
CLASS
  1
ACMSURFSTANDARDBSI
  2
AcmSurfTextStdBSI
  3
"AcmSymBB|Product Description: AutoCAD Mechanical 2000|Company: Autodesk"
 90
        0
280
     0
281
     0
  0
CLASS
  1
ACMFCFSTANDARDBSI
  2
AcmFCFStdBSI
  3
"AcmSymBB|Product Description: AutoCAD Mechanical 2000|Company: Autodesk"
 90
        0
280
     0
281
     0
  0
CLASS
  1
ACMWELDSTANDARDBSI
  2
AcmWeldingStdBSI
  3
"AcmSymBB|Product Description: AutoCAD Mechanical 2000|Company: Autodesk"
 90
        0
280
     0
281
     0
  0
CLASS
  1
ACMIDSTANDARDBSI
  2
AcmIdStdBSI
  3
"AcmSymBB|Product Description: AutoCAD Mechanical 2000|Company: Autodesk"
 90
        0
280
     0
281
     0
  0
CLASS
  1
ACMDATUMSTANDARDBSI
  2
AcmDatumStdBSI
  3
"AcmSymBB|Product Description: AutoCAD Mechanical 2000|Company: Autodesk"
 90
        0
280
     0
281
     0
  0
CLASS
  1
ACMBOMSTANDARDBSI
  2
AcmBOMStdBSI
  3
"AcmSymBB|Product Description: AutoCAD Mechanical 2000|Company: Autodesk"
 90
        0
280
     0
281
     0
  0
CLASS
  1
LONG_TRANSACTION
  2
AcDbLongTransaction
  3
AutoCAD 2000
 90
        0
280
     0
281
     0
  0
CLASS
  1
LWPOLYLINE
  2
AcDbPolyline
  3
AutoCAD 2000
 90
        0
280
     0
281
     1
  0
CLASS
  1
HATCH
  2
AcDbHatch
  3
AutoCAD 2000
 90
        0
280
     0
281
     1
  0
CLASS
  1
XRECORD
  2
AcDbXrecord
  3
AutoCAD 2000
 90
        0
280
     0
281
     0
  0
ENDSEC
  0
SECTION
  2
TABLES
  0
TABLE
  2
VPORT
  5
8
330
0
100
AcDbSymbolTable
 70
     3
  0
VPORT
  5
1CA7
330
8
100
AcDbSymbolTableRecord
100
AcDbViewportTableRecord
  2
*ACTIVE
 70
     0
 10
0.0
 20
0.0
 11
1.0
 21
1.0
 12
-31.717056925711
 22
-3.527206755174553
 13
0.0
 23
0.0
 14
2.5
 24
2.5
 15
10.0
 25
10.0
 16
0.0
 26
0.0
 36
1.0
 17
0.0
 27
0.0
 37
0.0
 40
116.8424249193936
 41
1.56570841889117
 42
50.0
 43
0.0
 44
0.0
 50
0.0
 51
0.0
 71
     0
 72
   100
 73
     1
 74
     3
 75
     0
 76
     0
 77
     0
 78
     0
  0
ENDTAB
  0
TABLE
  2
LTYPE
  5
5
330
0
100
AcDbSymbolTable
 70
    10
  0
LTYPE
  5
14
330
5
100
AcDbSymbolTableRecord
100
AcDbLinetypeTableRecord
  2
BYBLOCK
 70
     0
  3

 72
    65
 73
     0
 40
0.0
  0
LTYPE
  5
15
330
5
100
AcDbSymbolTableRecord
100
AcDbLinetypeTableRecord
  2
BYLAYER
 70
     0
  3

 72
    65
 73
     0
 40
0.0
  0
LTYPE
  5
16
330
5
100
AcDbSymbolTableRecord
100
AcDbLinetypeTableRecord
  2
CONTINUOUS
 70
     0
  3
Solid line
 72
    65
 73
     0
 40
0.0
  0
LTYPE
  5
4B
330
5
100
AcDbSymbolTableRecord
100
AcDbLinetypeTableRecord
  2
AM_ISO02W050
 70
     0
  3
__ __ __ __ __ __ __ __ __ __ __ __ __ __ __
 72
    65
 73
     2
 40
7.5
 49
6.0
 74
     0
 49
-1.5
 74
     0
  0
LTYPE
  5
4C
330
5
100
AcDbSymbolTableRecord
100
AcDbLinetypeTableRecord
  2
AM_ISO08W050
 70
     0
  3
____ . ____ . ____ . ____ . ____ . ____ . ____
 72
    65
 73
     4
 40
18.0
 49
12.0
 74
     0
 49
-1.5
 74
     0
 49
3.0
 74
     0
 49
-1.5
 74
     0
  0
LTYPE
  5
4D
330
5
100
AcDbSymbolTableRecord
100
AcDbLinetypeTableRecord
  2
AM_ISO09W050
 70
     0
  3
_____ . . _____ . . _____ . . ____ .. ____
 72
    65
 73
     6
 40
22.5
 49
12.0
 74
     0
 49
-1.5
 74
     0
 49
3.0
 74
     0
 49
-1.5
 74
     0
 49
3.0
 74
     0
 49
-1.5
 74
     0
  0
LTYPE
  5
4E
330
5
100
AcDbSymbolTableRecord
100
AcDbLinetypeTableRecord
  2
AMCONSTR
 70
     0
  3
_______________________
 72
    65
 73
     2
 40
9999.0
 49
9999.0
 74
     0
 49
0.0
 74
     0
  0
LTYPE
  5
4F
330
5
100
AcDbSymbolTableRecord
100
AcDbLinetypeTableRecord
  2
AM_ISO02W050X2
 70
     0
  3
 _ _ _ _ _ _ _ _ _ _ _ _
 72
    65
 73
     2
 40
3.75
 49
3.0
 74
     0
 49
-0.75
 74
     0
  0
LTYPE
  5
50
330
5
100
AcDbSymbolTableRecord
100
AcDbLinetypeTableRecord
  2
AM_ISO08W050X2
 70
     0
  3
__ . __ . __ . __ . __ . __
 72
    65
 73
     4
 40
9.0
 49
6.0
 74
     0
 49
-0.75
 74
     0
 49
1.5
 74
     0
 49
-0.75
 74
     0
  0
LTYPE
  5
53
330
5
100
AcDbSymbolTableRecord
100
AcDbLinetypeTableRecord
  2
AMZIGZAG
 70
     0
  3
/\/-/\/-/\/-/\/-/\/-/\/
 72
    65
 73
     2
 40
11.00009999999999
 49
0.0001
 74
     4
 75
   135
340
52
 46
0.04
 50
0.0
 44
0.0
 45
0.0
 49
-11.0
 74
     0
  0
LTYPE
  5
166
330
5
100
AcDbSymbolTableRecord
100
AcDbLinetypeTableRecord
  2
ACJISTGL
 70
     0
  3
_ _ _ _ _
 72
    65
 73
     2
 40
3.0
 49
2.0
 74
     0
 49
-1.0
 74
     0
  0
LTYPE
  5
26A
330
5
100
AcDbSymbolTableRecord
100
AcDbLinetypeTableRecord
  2
ACJISTGB
 70
     0
  3
__ . . __ . .
 72
    65
 73
     6
 40
9.0
 49
4.0
 74
     0
 49
-1.0
 74
     0
 49
1.0
 74
     0
 49
-1.0
 74
     0
 49
1.0
 74
     0
 49
-1.0
 74
     0
  0
ENDTAB
  0
TABLE
  2
LAYER
  5
2
330
0
100
AcDbSymbolTable
 70
     8
  0
LAYER
  5
10
330
2
100
AcDbSymbolTableRecord
100
AcDbLayerTableRecord
  2
0
 70
     0
 62
     7
  6
CONTINUOUS
  0
LAYER
  5
3F9
330
2
100
AcDbSymbolTableRecord
100
AcDbLayerTableRecord
  2
AM_0
 70
     0
 62
     7
  6
CONTINUOUS
  0
LAYER
  5
BD6
330
2
100
AcDbSymbolTableRecord
100
AcDbLayerTableRecord
  2
AM_11
 70
     0
 62
     3
  6
AM_ISO09W050
  0
LAYER
  5
BD7
330
2
100
AcDbSymbolTableRecord
100
AcDbLayerTableRecord
  2
AM_7
 70
     0
 62
     4
  6
AM_ISO08W050
  0
LAYER
  5
BD8
330
2
100
AcDbSymbolTableRecord
100
AcDbLayerTableRecord
  2
AM_5
 70
     0
 62
     3
  6
CONTINUOUS
  0
LAYER
  5
BD9
330
2
100
AcDbSymbolTableRecord
100
AcDbLayerTableRecord
  2
DEFPOINTS
 70
     0
 62
     7
  6
CONTINUOUS
  0
LAYER
  5
BDA
330
2
100
AcDbSymbolTableRecord
100
AcDbLayerTableRecord
  2
AM_6
 70
     0
 62
     2
  6
CONTINUOUS
  0
LAYER
  5
1A09
330
2
100
AcDbSymbolTableRecord
100
AcDbLayerTableRecord
  2
AM_CL
 70
     0
 62
     1
  6
AMCONSTR
  0
ENDTAB
  0
TABLE
  2
STYLE
  5
3
330
0
100
AcDbSymbolTable
 70
     5
  0
STYLE
  5
11
330
3
100
AcDbSymbolTableRecord
100
AcDbTextStyleTableRecord
  2
STANDARD
 70
     0
 40
0.0
 41
1.0
 50
0.0
 71
     0
 42
2.5
  3
simplex.shx
  4
EXTFONT.SHX
  0
STYLE
  5
52
330
3
100
AcDbSymbolTableRecord
100
AcDbTextStyleTableRecord
  2

 70
     1
 40
0.0
 41
1.0
 50
0.0
 71
     0
 42
2.5
  3
ltypeshp.shx
  4

  0
STYLE
  5
6B
330
3
100
AcDbSymbolTableRecord
100
AcDbTextStyleTableRecord
  2
ASAMI
 70
     0
 40
0.0
 41
1.0
 50
0.0
 71
     0
 42
2.5
  3
simplex.shx
  4
EXTFONT.SHX
  0
STYLE
  5
262
330
3
100
AcDbSymbolTableRecord
100
AcDbTextStyleTableRecord
  2
ACJISTS
 70
     0
 40
1.0
 41
1.0
 50
0.0
 71
     0
 42
2.5
  3
simplex.shx
  4
bigfont.shx
  0
STYLE
  5
269
330
3
100
AcDbSymbolTableRecord
100
AcDbTextStyleTableRecord
  2
ACJISGDT
 70
     0
 40
0.0
 41
1.0
 50
0.0
 71
     0
 42
2.5
  3
amgdtans.shx
  4

  0
ENDTAB
  0
TABLE
  2
VIEW
  5
6
330
0
100
AcDbSymbolTable
 70
     0
  0
ENDTAB
  0
TABLE
  2
UCS
  5
7
330
0
100
AcDbSymbolTable
 70
     0
  0
ENDTAB
  0
TABLE
  2
APPID
  5
9
330
0
100
AcDbSymbolTable
 70
    13
  0
APPID
  5
12
330
9
100
AcDbSymbolTableRecord
100
AcDbRegAppTableRecord
  2
ACAD
 70
     0
  0
APPID
  5
30
330
9
100
AcDbSymbolTableRecord
100
AcDbRegAppTableRecord
  2
MCAD_NO_VIS
 70
     0
  0
APPID
  5
31
330
9
100
AcDbSymbolTableRecord
100
AcDbRegAppTableRecord
  2
ACAD_TEMP_GRAPHIC
 70
     0
  0
APPID
  5
2C2
330
9
100
AcDbSymbolTableRecord
100
AcDbRegAppTableRecord
  2
GENIUS_GENDTOL_13
 70
     0
  0
APPID
  5
339
330
9
100
AcDbSymbolTableRecord
100
AcDbRegAppTableRecord
  2
GENIUS_GENODEF_13
 70
     0
  0
APPID
  5
33A
330
9
100
AcDbSymbolTableRecord
100
AcDbRegAppTableRecord
  2
GENIUS_GENOBJ-N-RSBK_13
 70
     0
  0
APPID
  5
33B
330
9
100
AcDbSymbolTableRecord
100
AcDbRegAppTableRecord
  2
GENIUS_GENOBJ-N-LIB_13
 70
     0
  0
APPID
  5
33C
330
9
100
AcDbSymbolTableRecord
100
AcDbRegAppTableRecord
  2
GENIUS_GENSCALE_13
 70
     0
  0
APPID
  5
378
330
9
100
AcDbSymbolTableRecord
100
AcDbRegAppTableRecord
  2
GENIUS_GENDIMSH_14
 70
     0
  0
APPID
  5
BDB
330
9
100
AcDbSymbolTableRecord
100
AcDbRegAppTableRecord
  2
GENIUS_GENOBJ-N-CEN_13
 70
     0
  0
APPID
  5
BDC
330
9
100
AcDbSymbolTableRecord
100
AcDbRegAppTableRecord
  2
GENIUS_GENFIL_13
 70
     0
  0
APPID
  5
BDD
330
9
100
AcDbSymbolTableRecord
100
AcDbRegAppTableRecord
  2
GENIUS_GENOBJ-N-FIL_13
 70
     0
  0
APPID
  5
12AD
330
9
100
AcDbSymbolTableRecord
100
AcDbRegAppTableRecord
  2
GENIUS_GENOREF_13
 70
     0
  0
ENDTAB
  0
TABLE
  2
DIMSTYLE
  5
A
330
0
100
AcDbSymbolTable
 70
     8
  0
DIMSTYLE
105
58
102
{ACAD_REACTORS
330
C4F
330
C53
330
16F7
330
1704
102
}
330
A
100
AcDbSymbolTableRecord
100
AcDbDimStyleTableRecord
  2
AM_JIS
 70
     0
  3

  4
"
  5
OPEN30
  6

  7

 40
0.5
 41
2.5
 42
1.0
 43
12.0
 44
1.0
 45
0.0
 46
0.0
 47
0.1
 48
0.1
140
3.2
141
0.0
142
0.0
143
0.0393701
144
1.0
145
0.0
146
0.71
147
1.5
 71
     0
 72
     0
 73
     0
 74
     0
 75
     0
 76
     0
 77
     3
 78
     8
170
     0
171
     2
172
     1
173
     0
174
     0
175
     0
176
   256
177
   256
178
     2
270
     2
271
     3
272
     3
273
     2
274
     2
340
6B
275
     0
280
     0
281
     0
282
     0
283
     0
284
     0
285
     0
286
     0
287
     3
288
     0
  0
DIMSTYLE
105
5F
330
A
100
AcDbSymbolTableRecord
100
AcDbDimStyleTableRecord
  2
AM_JIS$3
 70
     0
  3

  4
"
  5
OPEN30
  6

  7

 40
0.5
 41
2.5
 42
1.0
 43
10.0
 44
1.0
 45
0.0
 46
0.0
 47
0.1
 48
0.1
140
3.2
141
0.0
142
0.0
143
0.0393701
144
1.0
145
0.0
146
0.71
147
1.5
 71
     0
 72
     0
 73
     0
 74
     1
 75
     0
 76
     0
 77
     3
 78
     8
170
     0
171
     2
172
     0
173
     0
174
     0
175
     0
176
   256
177
   256
178
     2
270
     2
271
     2
272
     3
273
     2
274
     2
340
6B
275
     0
280
     0
281
     0
282
     0
283
     0
284
     0
285
     0
286
     0
287
     0
288
     1
  0
DIMSTYLE
105
60
330
A
100
AcDbSymbolTableRecord
100
AcDbDimStyleTableRecord
  2
AM_JIS$4
 70
     0
  3

  4
"
  5
OPEN30
  6

  7

 40
0.5
 41
2.5
 42
1.0
 43
10.0
 44
1.0
 45
0.0
 46
0.0
 47
0.1
 48
0.1
140
3.2
141
0.0
142
0.0
143
0.0393701
144
1.0
145
0.0
146
0.71
147
1.5
 71
     0
 72
     0
 73
     0
 74
     1
 75
     0
 76
     0
 77
     3
 78
     8
170
     0
171
     2
172
     0
173
     0
174
     0
175
     0
176
   256
177
   256
178
     2
270
     2
271
     2
272
     3
273
     2
274
     2
340
6B
275
     0
280
     0
281
     0
282
     0
283
     0
284
     0
285
     0
286
     0
287
     0
288
     1
  0
DIMSTYLE
105
61
330
A
100
AcDbSymbolTableRecord
100
AcDbDimStyleTableRecord
  2
AM_JIS$6
 70
     0
  3

  4
"
  5
OPEN30
  6

  7

 40
0.5
 41
2.5
 42
1.0
 43
10.0
 44
1.0
 45
0.0
 46
0.0
 47
0.1
 48
0.1
140
3.2
141
0.0
142
0.0
143
0.0393701
144
1.0
145
0.0
146
0.71
147
1.5
 71
     0
 72
     0
 73
     0
 74
     0
 75
     0
 76
     0
 77
     0
 78
     8
170
     0
171
     2
172
     1
173
     0
174
     0
175
     0
176
   256
177
   256
178
     2
270
     2
271
     2
272
     2
273
     2
274
     2
340
6B
275
     0
280
     0
281
     0
282
     0
283
     0
284
     0
285
     0
286
     0
287
     3
288
     0
  0
DIMSTYLE
105
62
330
A
100
AcDbSymbolTableRecord
100
AcDbDimStyleTableRecord
  2
AM_JIS$7
 70
     0
  3

  4
"
  5
OPEN30
  6

  7

 40
0.5
 41
2.5
 42
1.0
 43
10.0
 44
1.0
 45
0.0
 46
0.0
 47
0.1
 48
0.1
140
3.2
141
0.0
142
0.0
143
0.0393701
144
1.0
145
0.0
146
0.71
147
1.5
 71
     0
 72
     0
 73
     0
 74
     0
 75
     0
 76
     0
 77
     3
 78
     8
170
     0
171
     2
172
     1
173
     0
174
     0
175
     0
176
   256
177
   256
178
     2
270
     2
271
     2
272
     3
273
     2
274
     2
340
6B
275
     0
280
     0
281
     0
282
     0
283
     0
284
     0
285
     0
286
     0
287
     3
288
     0
  0
DIMSTYLE
105
63
330
A
100
AcDbSymbolTableRecord
100
AcDbDimStyleTableRecord
  2
AM_JIS$SF
 70
     0
  3

  4
"
  5
OPEN30
  6

  7

 40
0.5
 41
2.5
 42
1.0
 43
10.0
 44
1.0
 45
0.0
 46
0.0
 47
0.1
 48
0.1
140
3.2
141
0.0
142
0.0
143
0.0393701
144
1.0
145
0.0
146
0.71
147
1.5
 71
     0
 72
     0
 73
     0
 74
     0
 75
     1
 76
     1
 77
     3
 78
     8
170
     0
171
     2
172
     1
173
     0
174
     0
175
     0
176
   256
177
   256
178
     2
270
     2
271
     2
272
     2
273
     2
274
     2
340
6B
275
     0
280
     0
281
     0
282
     0
283
     0
284
     0
285
     0
286
     0
287
     3
288
     0
  0
DIMSTYLE
105
68
330
A
100
AcDbSymbolTableRecord
100
AcDbDimStyleTableRecord
  2
AM_JIS$SH
 70
     0
  3

  4
"
  5

  6
GENAXEH
  7
OPEN30
 40
0.5
 41
2.5
 42
1.0
 43
10.0
 44
1.0
 45
0.0
 46
0.0
 47
0.1
 48
0.1
140
3.2
141
0.0
142
0.0
143
0.0393701
144
2.0
145
0.0
146
0.71
147
1.5
 71
     0
 72
     0
 73
     0
 74
     0
 75
     1
 76
     1
 77
     3
 78
     8
170
     0
171
     2
172
     1
173
     1
174
     0
175
     0
176
   256
177
   256
178
     2
270
     2
271
     2
272
     2
273
     2
274
     2
340
6B
275
     0
280
     0
281
     0
282
     0
283
     0
284
     0
285
     0
286
     0
287
     3
288
     0
  0
DIMSTYLE
105
B34
330
A
100
AcDbSymbolTableRecord
100
AcDbDimStyleTableRecord
  2
AM_JIS$2
 70
     0
  3

  4
"
  5
OPEN30
  6

  7

 40
0.5
 41
2.5
 42
1.0
 43
12.0
 44
1.0
 45
0.0
 46
0.0
 47
0.1
 48
0.1
140
3.2
141
0.0
142
0.0
143
0.0393701
144
1.0
145
0.0
146
0.71
147
1.5
 71
     0
 72
     0
 73
     0
 74
     0
 75
     0
 76
     0
 77
     3
 78
     8
170
     0
171
     2
172
     1
173
     0
174
     0
175
     0
176
   256
177
   256
178
     2
270
     2
271
     3
272
     3
273
     2
274
     2
340
6B
275
     0
280
     0
281
     0
282
     0
283
     0
284
     0
285
     0
286
     0
287
     3
288
     0
  0
ENDTAB
  0
TABLE
  2
BLOCK_RECORD
  5
1
330
0
100
AcDbSymbolTable
 70
    10
  0
BLOCK_RECORD
  5
1F
102
{ACAD_XDICTIONARY
360
74
102
}
330
1
100
AcDbSymbolTableRecord
100
AcDbBlockTableRecord
  2
*MODEL_SPACE
  0
BLOCK_RECORD
  5
101
102
{ACAD_XDICTIONARY
360
1CD0
102
}
330
1
100
AcDbSymbolTableRecord
100
AcDbBlockTableRecord
  2
*PAPER_SPACE
  0
BLOCK_RECORD
  5
59
330
1
100
AcDbSymbolTableRecord
100
AcDbBlockTableRecord
  2
_OPEN30
  0
BLOCK_RECORD
  5
64
330
1
100
AcDbSymbolTableRecord
100
AcDbBlockTableRecord
  2
GENAXEH
  0
BLOCK_RECORD
  5
C75
330
1
100
AcDbSymbolTableRecord
100
AcDbBlockTableRecord
  2
*D5
  0
BLOCK_RECORD
  5
C81
330
1
100
AcDbSymbolTableRecord
100
AcDbBlockTableRecord
  2
*D6
  0
BLOCK_RECORD
  5
16F8
330
1
100
AcDbSymbolTableRecord
100
AcDbBlockTableRecord
  2
*D7
  0
BLOCK_RECORD
  5
1705
330
1
100
AcDbSymbolTableRecord
100
AcDbBlockTableRecord
  2
*D8
  0
ENDTAB
  0
ENDSEC
  0
SECTION
  2
BLOCKS
  0
BLOCK
  5
20
330
1F
100
AcDbEntity
  8
0
100
AcDbBlockBegin
  2
*MODEL_SPACE
 70
     0
 10
0.0
 20
0.0
 30
0.0
  3
*MODEL_SPACE
  1

  0
ENDBLK
  5
21
330
1F
100
AcDbEntity
  8
0
100
AcDbBlockEnd
  0
BLOCK
  5
103
330
101
100
AcDbEntity
 67
     1
  8
0
100
AcDbBlockBegin
  2
*PAPER_SPACE
 70
     0
 10
0.0
 20
0.0
 30
0.0
  3
*PAPER_SPACE
  1

  0
ENDBLK
  5
104
330
101
100
AcDbEntity
 67
     1
  8
0
100
AcDbBlockEnd
  0
BLOCK
  5
5D
330
59
100
AcDbEntity
  8
0
100
AcDbBlockBegin
  2
_OPEN30
 70
     0
 10
0.0
 20
0.0
 30
0.0
  3
_OPEN30
  1

  0
LINE
  5
5A
330
59
100
AcDbEntity
  8
0
 62
     0
100
AcDbLine
 10
-1.0
 20
0.26794919
 30
0.0
 11
0.0
 21
0.0
 31
0.0
  0
LINE
  5
5B
330
59
100
AcDbEntity
  8
0
 62
     0
100
AcDbLine
 10
0.0
 20
0.0
 30
0.0
 11
-1.0
 21
-0.26794919
 31
0.0
  0
LINE
  5
5C
330
59
100
AcDbEntity
  8
0
 62
     0
100
AcDbLine
 10
0.0
 20
0.0
 30
0.0
 11
-1.0
 21
0.0
 31
0.0
  0
ENDBLK
  5
5E
330
59
100
AcDbEntity
  8
0
100
AcDbBlockEnd
  0
BLOCK
  5
66
330
64
100
AcDbEntity
  8
0
100
AcDbBlockBegin
  2
GENAXEH
 70
     0
 10
0.0
 20
0.0
 30
0.0
  3
GENAXEH
  1

  0
LINE
  5
65
330
64
100
AcDbEntity
  8
0
100
AcDbLine
 10
-1.0
 20
0.0
 30
0.0
 11
1.0
 21
0.0
 31
0.0
  0
ENDBLK
  5
67
330
64
100
AcDbEntity
  8
0
100
AcDbBlockEnd
  0
BLOCK
  5
C7F
330
C75
100
AcDbEntity
  8
0
100
AcDbBlockBegin
  2
*D5
 70
     1
 10
0.0
 20
0.0
 30
0.0
  3
*D5
  1

  0
LINE
  5
1B40
330
C75
100
AcDbEntity
  8
AM_5
100
AcDbLine
 10
-65.00000000000007
 20
-2.750000000000006
 30
0.0
 11
-65.00000000000007
 21
-16.50000099999994
 31
0.0
  0
LINE
  5
1B41
330
C75
100
AcDbEntity
  8
AM_5
100
AcDbLine
 10
-0.00000000000006
 20
-1.500000000000003
 30
0.0
 11
-0.0000000000000609
 21
-16.50000099999994
 31
0.0
  0
LINE
  5
1B42
330
C75
100
AcDbEntity
  8
AM_5
100
AcDbLine
 10
-63.75000000000007
 20
-16.00000099999994
 30
0.0
 11
-1.25000000000006
 21
-16.00000099999994
 31
0.0
  0
INSERT
  5
1B43
330
C75
100
AcDbEntity
  8
AM_5
100
AcDbBlockReference
  2
_OPEN30
 10
-65.00000000000007
 20
-16.00000099999994
 30
0.0
 41
1.25
 42
1.25
 43
1.25
 50
180.0
  0
INSERT
  5
1B44
330
C75
100
AcDbEntity
  8
AM_5
100
AcDbBlockReference
  2
_OPEN30
 10
-0.0000000000000609
 20
-16.00000099999994
 30
0.0
 41
1.25
 42
1.25
 43
1.25
  0
MTEXT
  5
1B45
330
C75
100
AcDbEntity
  8
AM_5
 62
     2
100
AcDbMText
 10
-32.50000000000006
 20
-14.45000099999994
 30
0.0
 40
1.6
 41
0.0
 71
     5
 72
     1
  1
65
  7
ASAMI
1001
ACAD
1000
MTEXTBEGIN
1070
    73
1070
     1
1070
    44
1040
1.0
1070
    74
1070
     0
1000
MTEXTEND
  0
POINT
  5
1B46
330
C75
100
AcDbEntity
  8
DEFPOINTS
 62
     0
100
AcDbPoint
 10
-65.00000000000007
 20
-2.250000000000006
 30
0.0
  0
POINT
  5
1B47
330
C75
100
AcDbEntity
  8
DEFPOINTS
 62
     0
100
AcDbPoint
 10
-0.00000000000006
 20
-1.000000000000003
 30
0.0
  0
POINT
  5
1B48
330
C75
100
AcDbEntity
  8
DEFPOINTS
 62
     0
100
AcDbPoint
 10
-0.0000000000000609
 20
-16.00000099999994
 30
0.0
  0
ENDBLK
  5
C80
330
C75
100
AcDbEntity
  8
0
100
AcDbBlockEnd
  0
BLOCK
  5
C8B
330
C81
100
AcDbEntity
  8
0
100
AcDbBlockBegin
  2
*D6
 70
     1
 10
0.0
 20
0.0
 30
0.0
  3
*D6
  1

  0
LINE
  5
1B35
330
C81
100
AcDbEntity
  8
AM_5
100
AcDbLine
 10
-65.00000000000007
 20
-3.000000000000005
 30
0.0
 11
-72.50000000000008
 21
-3.000000000000003
 31
0.0
  0
LINE
  5
1B36
330
C81
100
AcDbEntity
  8
AM_5
100
AcDbLine
 10
-65.00000000000007
 20
2.999999999999999
 30
0.0
 11
-72.50000000000008
 21
3.0
 31
0.0
  0
LINE
  5
1B37
330
C81
100
AcDbEntity
  8
AM_5
100
AcDbLine
 10
-72.00000000000009
 20
-4.250000000000003
 30
0.0
 11
-72.00000000000009
 21
-5.500000000000003
 31
0.0
  0
LINE
  5
1B38
330
C81
100
AcDbEntity
  8
AM_5
100
AcDbLine
 10
-72.00000000000009
 20
4.25
 30
0.0
 11
-72.00000000000009
 21
5.5
 31
0.0
  0
LINE
  5
1B39
330
C81
100
AcDbEntity
  8
AM_5
100
AcDbLine
 10
-72.00000000000009
 20
-3.000000000000003
 30
0.0
 11
-72.00000000000009
 21
3.0
 31
0.0
  0
INSERT
  5
1B3A
330
C81
100
AcDbEntity
  8
AM_5
100
AcDbBlockReference
  2
_OPEN30
 10
-72.00000000000009
 20
-3.000000000000003
 30
0.0
 41
1.25
 42
1.25
 43
1.25
 50
90.0
  0
INSERT
  5
1B3B
330
C81
100
AcDbEntity
  8
AM_5
100
AcDbBlockReference
  2
_OPEN30
 10
-72.00000000000009
 20
3.0
 30
0.0
 41
1.25
 42
1.25
 43
1.25
 50
270.0
  0
MTEXT
  5
1B3C
330
C81
100
AcDbEntity
  8
AM_5
 62
     2
100
AcDbMText
 10
-73.55000000000008
 20
-0.0000000000000079
 30
0.0
 40
1.6
 41
0.0
 71
     5
 72
     1
  1
%%c6
  7
ASAMI
 11
0.0000000000000001
 21
1.0
 31
0.0
1001
ACAD
1000
MTEXTBEGIN
1070
    73
1070
     1
1070
    44
1040
1.0
1070
    74
1070
     0
1000
MTEXTEND
  0
POINT
  5
1B3D
330
C81
100
AcDbEntity
  8
DEFPOINTS
 62
     0
100
AcDbPoint
 10
-64.50000000000007
 20
-3.000000000000006
 30
0.0
  0
POINT
  5
1B3E
330
C81
100
AcDbEntity
  8
DEFPOINTS
 62
     0
100
AcDbPoint
 10
-64.50000000000007
 20
2.999999999999998
 30
0.0
  0
POINT
  5
1B3F
330
C81
100
AcDbEntity
  8
DEFPOINTS
 62
     0
100
AcDbPoint
 10
-72.00000000000009
 20
3.0
 30
0.0
  0
ENDBLK
  5
C8C
330
C81
100
AcDbEntity
  8
0
100
AcDbBlockEnd
  0
BLOCK
  5
1702
330
16F8
100
AcDbEntity
  8
0
100
AcDbBlockBegin
  2
*D7
 70
     1
 10
0.0
 20
0.0
 30
0.0
  3
*D7
  1

  0
LINE
  5
1B62
330
16F8
100
AcDbEntity
  8
AM_5
100
AcDbLine
 10
-25.00000000000006
 20
-2.50000000000001
 30
0.0
 11
-25.00000000000006
 21
-10.5000010000001
 31
0.0
  0
LINE
  5
1B63
330
16F8
100
AcDbEntity
  8
AM_5
100
AcDbLine
 10
-0.0000000000000569
 20
-2.500000000000003
 30
0.0
 11
-0.0000000000000574
 21
-10.5000010000001
 31
0.0
  0
LINE
  5
1B64
330
16F8
100
AcDbEntity
  8
AM_5
100
AcDbLine
 10
-23.75000000000006
 20
-10.0000010000001
 30
0.0
 11
-1.250000000000057
 21
-10.0000010000001
 31
0.0
  0
INSERT
  5
1B65
330
16F8
100
AcDbEntity
  8
AM_5
100
AcDbBlockReference
  2
_OPEN30
 10
-25.00000000000006
 20
-10.0000010000001
 30
0.0
 41
1.25
 42
1.25
 43
1.25
 50
180.0
  0
INSERT
  5
1B66
330
16F8
100
AcDbEntity
  8
AM_5
100
AcDbBlockReference
  2
_OPEN30
 10
-0.0000000000000573
 20
-10.0000010000001
 30
0.0
 41
1.25
 42
1.25
 43
1.25
  0
MTEXT
  5
1B67
330
16F8
100
AcDbEntity
  8
AM_5
 62
     2
100
AcDbMText
 10
-12.50000000000005
 20
-8.450001000000099
 30
0.0
 40
1.6
 41
0.0
 71
     5
 72
     1
  1
25
  7
ASAMI
1001
ACAD
1000
MTEXTBEGIN
1070
    73
1070
     1
1070
    44
1040
1.0
1070
    74
1070
     0
1000
MTEXTEND
  0
POINT
  5
1B68
330
16F8
100
AcDbEntity
  8
DEFPOINTS
 62
     0
100
AcDbPoint
 10
-25.00000000000006
 20
-2.00000000000001
 30
0.0
  0
POINT
  5
1B69
330
16F8
100
AcDbEntity
  8
DEFPOINTS
 62
     0
100
AcDbPoint
 10
-0.0000000000000569
 20
-2.000000000000003
 30
0.0
  0
POINT
  5
1B6A
330
16F8
100
AcDbEntity
  8
DEFPOINTS
 62
     0
100
AcDbPoint
 10
-0.0000000000000573
 20
-10.0000010000001
 30
0.0
  0
ENDBLK
  5
1703
330
16F8
100
AcDbEntity
  8
0
100
AcDbBlockEnd
  0
BLOCK
  5
1710
330
1705
100
AcDbEntity
  8
0
100
AcDbBlockBegin
  2
*D8
 70
     1
 10
0.0
 20
0.0
 30
0.0
  3
*D8
  1

  0
LINE
  5
1AFB
330
1705
100
AcDbEntity
  8
AM_5
100
AcDbLine
 10
0.4999999999999432
 20
-2.000000000000003
 30
0.0
 11
7.5
 21
-2.000000000000005
 31
0.0
  0
LINE
  5
1AFC
330
1705
100
AcDbEntity
  8
AM_5
100
AcDbLine
 10
0.2980486836125273
 20
2.00000000001091
 30
0.0
 11
7.500000000000002
 21
2.000000000010908
 31
0.0
  0
LINE
  5
1AFD
330
1705
100
AcDbEntity
  8
AM_5
100
AcDbLine
 10
7.000000000000001
 20
-0.7500000000000052
 30
0.0
 11
7.000000000000001
 21
0.7500000000109088
 31
0.0
  0
INSERT
  5
1AFE
330
1705
100
AcDbEntity
  8
AM_5
100
AcDbBlockReference
  2
_OPEN30
 10
7.0
 20
-2.000000000000005
 30
0.0
 41
1.25
 42
1.25
 43
1.25
 50
270.0
  0
INSERT
  5
1AFF
330
1705
100
AcDbEntity
  8
AM_5
100
AcDbBlockReference
  2
_OPEN30
 10
7.000000000000002
 20
2.000000000010908
 30
0.0
 41
1.25
 42
1.25
 43
1.25
 50
90.0
  0
MTEXT
  5
1B00
330
1705
100
AcDbEntity
  8
AM_5
 62
     2
100
AcDbMText
 10
5.450000000000001
 20
0.0000000000054532
 30
0.0
 40
1.6
 41
0.0
 71
     5
 72
     1
  1
%%c4
  7
ASAMI
 11
0.0000000000000001
 21
1.0
 31
0.0
1001
ACAD
1000
MTEXTBEGIN
1070
    73
1070
     1
1070
    44
1040
1.0
1070
    74
1070
     0
1000
MTEXTEND
  0
POINT
  5
1B01
330
1705
100
AcDbEntity
  8
DEFPOINTS
 62
     0
100
AcDbPoint
 10
-0.0000000000000569
 20
-2.000000000000003
 30
0.0
  0
POINT
  5
1B02
330
1705
100
AcDbEntity
  8
DEFPOINTS
 62
     0
100
AcDbPoint
 10
-0.2019513163874727
 20
2.00000000001091
 30
0.0
  0
POINT
  5
1B03
330
1705
100
AcDbEntity
  8
DEFPOINTS
 62
     0
100
AcDbPoint
 10
7.000000000000002
 20
2.000000000010908
 30
0.0
  0
ENDBLK
  5
1711
330
1705
100
AcDbEntity
  8
0
100
AcDbBlockEnd
  0
ENDSEC
  0
SECTION
  2
ENTITIES
  0
DIMENSION
  5
C4F
330
1F
100
AcDbEntity
  8
AM_5
100
AcDbDimension
  2
*D5
 10
-0.0000000000000609
 20
-16.00000099999994
 30
0.0
 11
-32.50000000000006
 21
-14.45000099999994
 31
0.0
 70
    32
  1
<>
  3
AM_JIS
100
AcDbAlignedDimension
 13
-65.00000000000007
 23
-2.250000000000006
 33
0.0
 14
-0.00000000000006
 24
-1.000000000000003
 34
0.0
 50
0.0000000000002036
100
AcDbRotatedDimension
1001
GENIUS_GENDTOL_13
1000

1000
H7
1000

1040
0.0
  0
LINE
  5
C50
330
1F
100
AcDbEntity
  8
AM_7
100
AcDbLine
 10
-67.38487321524641
 20
-0.0000000000000036
 30
0.0
 11
1.32952988907452
 21
-0.0000000000000036
 31
0.0
1001
GENIUS_GENODEF_13
1002
{
1000
HIER
1070
     0
1002
}
1002
{
1000
MANEDIT
1070
     0
1002
}
1002
{
1000
NOSEL
1070
     0
1002
}
1002
{
1000
BEHIND
1070
     0
1002
}
1002
{
1000
REACTOR
1002
}
1001
GENIUS_GENOBJ-N-CEN_13
1002
{
1000
OWNER
1000
GEN
1002
}
  0
DIMENSION
  5
C53
330
1F
100
AcDbEntity
  8
AM_5
100
AcDbDimension
  2
*D6
 10
-72.00000000000009
 20
3.0
 30
0.0
 11
-72.00000000000009
 21
-0.0000000000000081
 31
0.0
 70
   160
  1
%%c<>
  3
AM_JIS
100
AcDbAlignedDimension
 13
-64.50000000000007
 23
-3.000000000000006
 33
0.0
 14
-64.50000000000007
 24
2.999999999999998
 34
0.0
 50
270.0
100
AcDbRotatedDimension
1001
ACAD
1000
DSTYLE
1002
{
1070
    48
1040
0.1
1070
    47
1040
0.1
1070
   274
1070
     2
1070
   272
1070
     3
1002
}
1001
GENIUS_GENDTOL_13
1000

1000
h6
1000

1040
0.0
  0
TEXT
  5
C58
330
1F
100
AcDbEntity
  8
AM_6
100
AcDbText
 10
-44.46428571428577
 20
-27.25000099999999
 30
0.0
 40
2.5
  1
EHHM4040ZX
 50
0.0000000000002036
 72
     4
 11
-32.50000000000006
 21
-26.00000099999995
 31
0.0
100
AcDbText
  0
LINE
  5
DFA
330
1F
100
AcDbEntity
  8
AM_0
100
AcDbLine
 10
-31.70000000000007
 20
-3.000000000000003
 30
0.0
 11
-31.70000000000007
 21
2.999999999999996
 31
0.0
  0
LINE
  5
DFB
330
1F
100
AcDbEntity
  8
AM_0
100
AcDbLine
 10
-65.00000000000007
 20
2.249999999999993
 30
0.0
 11
-64.50000000000007
 21
2.999999999999993
 31
0.0
1001
GENIUS_GENFIL_13
1070
     0
1040
0.5
1040
0.5
1040
0.4999999999999716
1040
45.0
1002
{
1002
}
  0
LINE
  5
DFC
330
1F
100
AcDbEntity
  8
AM_0
100
AcDbLine
 10
-65.00000000000007
 20
-2.250000000000006
 30
0.0
 11
-64.50000000000007
 21
-3.000000000000006
 31
0.0
1001
GENIUS_GENFIL_13
1070
     0
1040
0.5
1040
0.5
1040
0.4999999999999716
1040
45.00000000000036
1002
{
1002
}
  0
LINE
  5
DFD
330
1F
100
AcDbEntity
  8
0
100
AcDbLine
 10
-64.50000000000007
 20
-3.000000000000006
 30
0.0
 11
-64.50000000000007
 21
2.999999999999993
 31
0.0
  0
LINE
  5
DFE
330
1F
100
AcDbEntity
  8
AM_0
100
AcDbLine
 10
-65.00000000000007
 20
-2.250000000000006
 30
0.0
 11
-65.00000000000007
 21
2.249999999999993
 31
0.0
  0
LINE
  5
DFF
330
1F
100
AcDbEntity
  8
AM_0
100
AcDbLine
 10
-64.50000000000007
 20
2.999999999999993
 30
0.0
 11
-31.70000000000007
 21
2.999999999999993
 31
0.0
1001
GENIUS_GENODEF_13
1002
{
1000
HIER
1070
     0
1002
}
1002
{
1000
MANEDIT
1070
     0
1002
}
1002
{
1000
NOSEL
1070
     0
1002
}
1002
{
1000
BEHIND
1070
     0
1002
}
1002
{
1000
REACTOR
1002
}
1001
GENIUS_GENOBJ-N-CEN_13
1002
{
1000
OWNER
1000
GEN
1002
}
  0
LINE
  5
E00
330
1F
100
AcDbEntity
  8
AM_0
100
AcDbLine
 10
-64.50000000000007
 20
-3.000000000000006
 30
0.0
 11
-31.70000000000007
 21
-3.000000000000006
 31
0.0
1001
GENIUS_GENODEF_13
1002
{
1000
HIER
1070
     0
1002
}
1002
{
1000
MANEDIT
1070
     0
1002
}
1002
{
1000
NOSEL
1070
     0
1002
}
1002
{
1000
BEHIND
1070
     0
1002
}
1002
{
1000
REACTOR
1002
}
1001
GENIUS_GENOBJ-N-CEN_13
1002
{
1000
OWNER
1000
GEN
1002
}
  0
LINE
  5
E32
330
1F
100
AcDbEntity
  8
AM_0
100
AcDbLine
 10
-31.70000000000007
 20
2.999999999999996
 30
0.0
 11
-27.96794919243122
 21
2.0
 31
0.0
  0
LINE
  5
1174
330
1F
100
AcDbEntity
  8
AM_0
100
AcDbLine
 10
-31.70000000000007
 20
-3.000000000000003
 30
0.0
 11
-27.96794919243122
 21
-2.000000000000006
 31
0.0
  0
DIMENSION
  5
16F7
330
1F
100
AcDbEntity
  8
AM_5
100
AcDbDimension
  2
*D7
 10
-0.0000000000000573
 20
-10.0000010000001
 30
0.0
 11
-12.50000000000005
 21
-8.450001000000099
 31
0.0
 70
    32
  1
<>
  3
AM_JIS
100
AcDbAlignedDimension
 13
-25.00000000000006
 23
-2.00000000000001
 33
0.0
 14
-0.0000000000000569
 24
-2.000000000000003
 34
0.0
 50
359.9999999999993
100
AcDbRotatedDimension
1001
GENIUS_GENDTOL_13
1000

1000
H7
1000

1040
0.0
  0
DIMENSION
  5
1704
330
1F
100
AcDbEntity
  8
AM_5
100
AcDbDimension
  2
*D8
 10
7.000000000000002
 20
2.000000000010908
 30
0.0
 11
7.000000000000001
 21
0.000000000005453
 31
0.0
 70
   160
  1
%%c<>
  3
AM_JIS
100
AcDbAlignedDimension
 13
-0.0000000000000569
 23
-2.000000000000003
 33
0.0
 14
-0.2019513163874727
 24
2.00000000001091
 34
0.0
 50
90.00000000000005
100
AcDbRotatedDimension
1001
ACAD
1000
DSTYLE
1002
{
1070
    48
1040
0.05
1070
    47
1040
0.0
1070
   274
1070
     1
1070
   272
1070
     2
1002
}
1001
GENIUS_GENDTOL_13
1000

1000
H7
1000

1040
0.0
  0
LINE
  5
17FD
330
1F
100
AcDbEntity
  8
AM_0
100
AcDbLine
 10
-27.96794919243122
 20
1.999999999999999
 30
0.0
 11
-27.96794919243122
 21
-2.000000000000006
 31
0.0
  0
LINE
  5
1C20
330
1F
100
AcDbEntity
  8
AM_0
100
AcDbLine
 10
-0.1244098428553501
 20
2.000000000000178
 30
0.0
 11
-0.0000000000000764
 21
1.978840762315117
 31
0.0
  0
LINE
  5
1C21
330
1F
100
AcDbEntity
  8
AM_0
100
AcDbLine
 10
-0.0000000000000764
 20
0.5838688579555501
 30
0.0
 11
-0.0000000000000764
 21
1.978840762315094
 31
0.0
  0
LINE
  5
1C22
330
1F
100
AcDbEntity
  8
AM_0
100
AcDbLine
 10
-0.0000000000000764
 20
0.0000000000001783
 30
0.0
 11
-0.0435866713093909
 21
0.4000000000001782
 31
0.0
  0
LINE
  5
1C23
330
1F
100
AcDbEntity
  8
AM_0
100
AcDbLine
 10
-0.0435866713093909
 20
-0.3999999999998216
 30
0.0
 11
-0.0500034339980679
 21
-0.423098832527743
 31
0.0
  0
LINE
  5
1C24
330
1F
100
AcDbEntity
  8
AM_0
100
AcDbLine
 10
-0.0000000000000764
 20
-0.5838688579551708
 30
0.0
 11
-0.1815975821652304
 21
0.0000000000001784
 31
0.0
  0
LINE
  5
1C25
330
1F
100
AcDbEntity
  8
AM_0
100
AcDbLine
 10
-0.0435866713093909
 20
-0.8148089656310311
 30
0.0
 11
-0.0000000000000764
 21
-0.5838688579551708
 31
0.0
  0
LINE
  5
1C26
330
1F
100
AcDbEntity
  8
AM_0
100
AcDbLine
 10
-0.0000000000000764
 20
0.0000000000001783
 30
0.0
 11
-0.0435866713093909
 21
-0.3999999999998216
 31
0.0
  0
LINE
  5
1C27
330
1F
100
AcDbEntity
  8
AM_0
100
AcDbLine
 10
-0.0435866713093909
 20
-1.92687303021194
 30
0.0
 11
-0.0000000000000764
 21
-1.978840762315079
 31
0.0
  0
LINE
  5
1C28
330
1F
100
AcDbEntity
  8
AM_0
100
AcDbLine
 10
-0.0000000000000764
 20
-1.978840762315079
 30
0.0
 11
-0.1244098428532776
 21
-1.999999999999821
 31
0.0
  0
LINE
  5
1C29
330
1F
100
AcDbEntity
  8
AM_0
100
AcDbLine
 10
-0.0435866713093909
 20
-1.92687303021194
 30
0.0
 11
-0.0435866713093909
 21
-0.8148089656310311
 31
0.0
  0
LINE
  5
1C2A
330
1F
100
AcDbEntity
  8
AM_0
100
AcDbLine
 10
-0.0000000000000764
 20
-1.978840762315079
 30
0.0
 11
-0.0000000000000764
 21
-0.5838688579552162
 31
0.0
  0
LINE
  5
1C2B
330
1F
100
AcDbEntity
  8
AM_11
100
AcDbLine
 10
-0.0000000000000611
 20
-2.000000000000003
 30
0.0
 11
-0.0000000000000608
 21
1.999999999999996
 31
0.0
  0
LINE
  5
1C2C
330
1F
100
AcDbEntity
  8
AM_0
100
AcDbLine
 10
-0.0000000000000764
 20
0.5838688579555501
 30
0.0
 11
-0.0500034339980679
 21
0.4230988325280997
 31
0.0
  0
LINE
  5
1C2D
330
1F
100
AcDbEntity
  8
AM_0
100
AcDbLine
 10
-0.3080052154404637
 20
1.351844405731431
 30
0.0
 11
-0.6133858419156045
 21
1.700000000000178
 31
0.0
  0
LINE
  5
1C2E
330
1F
100
AcDbEntity
  8
AM_0
100
AcDbLine
 10
-0.6133858419156045
 20
1.700000000000178
 30
0.0
 11
-2.212278940180637
 21
1.851081708081047
 31
0.0
  0
SPLINE
  5
1C2F
330
1F
100
AcDbEntity
  8
AM_0
100
AcDbSpline
210
0.0
220
0.0
230
1.0
 70
     8
 71
     3
 72
     8
 73
     4
 74
     0
 42
0.0000000001
 43
0.0000000001
 40
0.0
 40
0.0
 40
0.0
 40
0.0
 40
2.795805529891336
 40
2.795805529891336
 40
2.795805529891336
 40
2.795805529891336
 10
-3.379800730886013
 20
2.000000000000178
 30
0.0
 10
-3.766273760470949
 20
2.000000000000178
 30
0.0
 10
-4.125483247086786
 20
1.909763299824449
 30
0.0
 10
-4.465619002037557
 20
1.756396484555167
 30
0.0
  0
LINE
  5
1C30
330
1F
100
AcDbEntity
  8
AM_0
100
AcDbLine
 10
-0.6133858419156045
 20
-0.3999999999998216
 30
0.0
 11
-0.6133858419156045
 21
0.0000000000001784
 31
0.0
  0
LINE
  5
1C31
330
1F
100
AcDbEntity
  8
AM_0
100
AcDbLine
 10
-1.210228114005095
 20
-1.75639648455531
 30
0.0
 11
-2.212278940180637
 21
-1.851081708080667
 31
0.0
  0
LINE
  5
1C32
330
1F
100
AcDbEntity
  8
AM_0
100
AcDbLine
 10
-0.3080052154404637
 20
-1.156291278934262
 30
0.0
 11
-0.6133858419156045
 21
-0.3999999999998216
 31
0.0
  0
SPLINE
  5
1C33
330
1F
100
AcDbEntity
  8
AM_0
100
AcDbSpline
210
0.0
220
0.0
230
1.0
 70
     8
 71
     3
 72
     8
 73
     4
 74
     0
 42
0.0000000001
 43
0.0000000001
 40
0.0
 40
0.0
 40
0.0
 40
0.0
 40
1.168827779870509
 40
1.168827779870509
 40
1.168827779870509
 40
1.168827779870509
 10
-3.379800730889313
 20
-1.999999999999821
 30
0.0
 10
-3.218229974869274
 20
-1.999999999999821
 30
0.0
 10
-3.061424290373965
 20
-1.984228596738561
 30
0.0
 10
-2.908785259480941
 20
-1.954666430029241
 30
0.0
  0
SPLINE
  5
1C34
330
1F
100
AcDbEntity
  8
AM_0
100
AcDbSpline
210
0.0
220
0.0
230
1.0
 70
     8
 71
     3
 72
     8
 73
     4
 74
     0
 42
0.0000000001
 43
0.0000000001
 40
0.0
 40
0.0
 40
0.0
 40
0.0
 40
1.797797194454997
 40
1.797797194454997
 40
1.797797194454997
 40
1.797797194454997
 10
-2.927108667413138
 20
-1.954733416506272
 30
0.0
 10
-2.678593482472122
 20
-1.954733416506272
 30
0.0
 10
-2.441026430886984
 20
-1.917788531055069
 30
0.0
 10
-2.212278940044483
 20
-1.851081708040968
 30
0.0
  0
ELLIPSE
  5
1C35
330
1F
100
AcDbEntity
  8
AM_0
100
AcDbEllipse
 10
2.140880919053189
 20
-0.8019910823626144
 30
0.0
 11
2.476280976922017
 21
0.0000000000000749
 31
0.0
210
0.0
220
0.0
230
1.0
 40
0.9645539070412342
 41
3.29047754711384
 42
3.631967056263503
  0
LINE
  5
1C36
330
1F
100
AcDbEntity
  8
AM_0
100
AcDbLine
 10
-0.0435866713093909
 20
-0.8148089656310311
 30
0.0
 11
-0.3080052154404637
 21
-1.156291278934262
 31
0.0
  0
SPLINE
  5
1C37
330
1F
100
AcDbEntity
  8
AM_0
100
AcDbSpline
210
0.0
220
0.0
230
1.0
 70
     8
 71
     3
 72
     8
 73
     4
 74
     0
 42
0.0000000001
 43
0.0000000001
 40
0.9166275210629445
 40
0.9166275210629445
 40
0.9166275210629445
 40
0.9166275210629445
 40
9.246817942408316
 40
9.246817942408316
 40
9.246817942408316
 40
9.246817942408316
 10
-0.0435866713093909
 20
-1.92687303021194
 30
0.0
 10
-1.145929853693598
 20
-1.760962709970184
 30
0.0
 10
-2.036519260552563
 20
-0.8804813549850257
 30
0.0
 10
-2.927108667411625
 20
0.0000000000001787
 30
0.0
  0
SPLINE
  5
1C38
330
1F
100
AcDbEntity
  8
AM_0
100
AcDbSpline
210
0.0
220
0.0
230
1.0
 70
     8
 71
     3
 72
     8
 73
     4
 74
     0
 42
0.0000000001
 43
0.0000000001
 40
0.0
 40
0.0
 40
0.0
 40
0.0
 40
2.792136278909009
 40
2.792136278909009
 40
2.792136278909009
 40
2.792136278909009
 10
-0.1244098428532776
 20
-1.999999999999821
 30
0.0
 10
-1.410962567624772
 20
-1.999999999999821
 30
0.0
 10
-2.395381649256194
 20
-0.9999999999998209
 30
0.0
 10
-3.379800730887614
 20
0.0000000000001787
 30
0.0
  0
SPLINE
  5
1C39
330
1F
100
AcDbEntity
  8
AM_0
100
AcDbSpline
210
0.0
220
0.0
230
1.0
 70
     8
 71
     3
 72
     8
 73
     4
 74
     0
 42
0.0000000001
 43
0.0000000001
 40
0.0
 40
0.0
 40
0.0
 40
0.0
 40
0.4192277204543643
 40
0.4192277204543643
 40
0.4192277204543643
 40
0.4192277204543643
 10
-0.124409842854967
 20
2.000000000000178
 30
0.0
 10
-0.1585589115928571
 20
1.81661115485941
 30
0.0
 10
-0.4202152685003797
 20
1.700000000000185
 30
0.0
 10
-0.6133858419156045
 20
1.700000000000177
 30
0.0
  0
LINE
  5
1C3A
330
1F
100
AcDbEntity
  8
AM_0
100
AcDbLine
 10
-0.0571877393104381
 20
-0.3999999999998216
 30
0.0
 11
-0.6133858419156045
 21
-0.3999999999998216
 31
0.0
  0
LINE
  5
1C3B
330
1F
100
AcDbEntity
  8
AM_0
100
AcDbLine
 10
-0.6133858419156045
 20
0.0000000000001784
 30
0.0
 11
-0.0000000000000764
 21
-0.0000000000000036
 31
0.0
  0
LINE
  5
1C3C
330
1F
100
AcDbEntity
  8
AM_0
100
AcDbLine
 10
-0.0435866713093909
 20
0.4000000000001782
 30
0.0
 11
-0.3080052154404637
 21
1.351844405731431
 31
0.0
  0
SPLINE
  5
1C3D
330
1F
100
AcDbEntity
  8
AM_0
100
AcDbSpline
210
0.0
220
0.0
230
1.0
 70
     8
 71
     3
 72
     8
 73
     4
 74
     0
 42
0.0000000001
 43
0.0000000001
 40
0.0
 40
0.0
 40
0.0
 40
0.0
 40
2.795805529891336
 40
2.795805529891336
 40
2.795805529891336
 40
2.795805529891336
 10
-0.1244098428532776
 20
2.000000000000178
 30
0.0
 10
-0.5108828724381151
 20
2.000000000000178
 30
0.0
 10
-0.8700923590540405
 20
1.909763299824449
 30
0.0
 10
-1.21022811400481
 20
1.756396484555167
 30
0.0
  0
SPLINE
  5
1C3E
330
1F
100
AcDbEntity
  8
AM_0
100
AcDbSpline
210
0.0
220
0.0
230
1.0
 70
     8
 71
     3
 72
     8
 73
     4
 74
     0
 42
0.0000000001
 43
0.0000000001
 40
0.0
 40
0.0
 40
0.0
 40
0.0
 40
8.102326919110769
 40
8.102326919110769
 40
8.102326919110769
 40
8.102326919110769
 10
-2.927108667413138
 20
1.954733416506652
 30
0.0
 10
-1.807098424341099
 20
1.954733416506651
 30
0.0
 10
-0.9094592109134211
 20
1.204334060670517
 30
0.0
 10
-0.0393431572206936
 20
0.3610567729888963
 30
0.0
  0
SPLINE
  5
1C3F
330
1F
100
AcDbEntity
  8
AM_0
100
AcDbSpline
210
0.0
220
0.0
230
1.0
 70
     8
 71
     3
 72
     8
 73
     4
 74
     0
 42
0.0000000001
 43
0.0000000001
 40
0.0
 40
0.0
 40
0.0
 40
0.0
 40
2.792136278909016
 40
2.792136278909016
 40
2.792136278909016
 40
2.792136278909016
 10
-3.379800730889313
 20
2.000000000000178
 30
0.0
 10
-2.093248006117816
 20
2.000000000000178
 30
0.0
 10
-1.108828924486391
 20
1.000000000000178
 30
0.0
 10
-0.124409842854967
 20
0.0000000000001784
 30
0.0
  0
LINE
  5
1C40
330
1F
100
AcDbEntity
  8
AM_0
100
AcDbLine
 10
-7.124167617981175
 20
1.700000000000178
 30
0.0
 11
-8.723060716246219
 21
1.851081708081048
 31
0.0
  0
SPLINE
  5
1C41
330
1F
100
AcDbEntity
  8
AM_0
100
AcDbSpline
210
0.0
220
0.0
230
1.0
 70
     8
 71
     3
 72
     8
 73
     4
 74
     0
 42
0.0000000001
 43
0.0000000001
 40
0.0
 40
0.0
 40
0.0
 40
0.0
 40
2.795805529891336
 40
2.795805529891336
 40
2.795805529891336
 40
2.795805529891336
 10
-6.63519161891875
 20
2.000000000000178
 30
0.0
 10
-7.021664648503597
 20
2.000000000000178
 30
0.0
 10
-7.380874135119532
 20
1.90976329982445
 30
0.0
 10
-7.72100989007039
 20
1.756396484555167
 30
0.0
  0
SPLINE
  5
1C42
330
1F
100
AcDbEntity
  8
AM_0
100
AcDbSpline
210
0.0
220
0.0
230
1.0
 70
     8
 71
     3
 72
     8
 73
     4
 74
     0
 42
0.0000000001
 43
0.0000000001
 40
0.0
 40
0.0
 40
0.0
 40
0.0
 40
1.797797194454997
 40
1.797797194454997
 40
1.797797194454997
 40
1.797797194454997
 10
-6.182499555445973
 20
-1.954733416506272
 30
0.0
 10
-5.93398437050487
 20
-1.954733416506272
 30
0.0
 10
-5.696417318919633
 20
-1.917788531055069
 30
0.0
 10
-5.467669828077132
 20
-1.851081708040968
 30
0.0
  0
LINE
  5
1C43
330
1F
100
AcDbEntity
  8
AM_0
100
AcDbLine
 10
-7.721009890070488
 20
-1.75639648455531
 30
0.0
 11
-8.723060716246218
 21
-1.851081708080667
 31
0.0
  0
SPLINE
  5
1C44
330
1F
100
AcDbEntity
  8
AM_0
100
AcDbSpline
210
0.0
220
0.0
230
1.0
 70
     8
 71
     3
 72
     8
 73
     4
 74
     0
 42
0.0000000001
 43
0.0000000001
 40
0.0
 40
0.0
 40
0.0
 40
0.0
 40
1.168827779870509
 40
1.168827779870509
 40
1.168827779870509
 40
1.168827779870509
 10
-6.635191618921962
 20
-1.99999999999982
 30
0.0
 10
-6.473620862902012
 20
-1.99999999999982
 30
0.0
 10
-6.316815178406701
 20
-1.98422859673856
 30
0.0
 10
-6.164176147513688
 20
-1.95466643002924
 30
0.0
  0
LINE
  5
1C45
330
1F
100
AcDbEntity
  8
AM_0
100
AcDbLine
 10
-10.37955850601382
 20
1.700000000000179
 30
0.0
 11
-11.97845160427895
 21
1.851081708081048
 31
0.0
  0
SPLINE
  5
1C46
330
1F
100
AcDbEntity
  8
AM_0
100
AcDbSpline
210
0.0
220
0.0
230
1.0
 70
     8
 71
     3
 72
     8
 73
     4
 74
     0
 42
0.0000000001
 43
0.0000000001
 40
0.0
 40
0.0
 40
0.0
 40
0.0
 40
2.795805529891336
 40
2.795805529891336
 40
2.795805529891336
 40
2.795805529891336
 10
-9.890582506951584
 20
2.000000000000178
 30
0.0
 10
-10.27705553653643
 20
2.000000000000178
 30
0.0
 10
-10.63626502315227
 20
1.90976329982445
 30
0.0
 10
-10.97640077810303
 20
1.756396484555168
 30
0.0
  0
SPLINE
  5
1C47
330
1F
100
AcDbEntity
  8
AM_0
100
AcDbSpline
210
0.0
220
0.0
230
1.0
 70
     8
 71
     3
 72
     8
 73
     4
 74
     0
 42
0.0000000001
 43
0.0000000001
 40
0.0
 40
0.0
 40
0.0
 40
0.0
 40
1.168827779870509
 40
1.168827779870509
 40
1.168827779870509
 40
1.168827779870509
 10
-9.890582506954707
 20
-1.99999999999982
 30
0.0
 10
-9.729011750934757
 20
-1.99999999999982
 30
0.0
 10
-9.572206066439447
 20
-1.98422859673856
 30
0.0
 10
-9.419567035546434
 20
-1.95466643002924
 30
0.0
  0
LINE
  5
1C48
330
1F
100
AcDbEntity
  8
AM_0
100
AcDbLine
 10
-10.97640077810321
 20
-1.75639648455531
 30
0.0
 11
-11.97845160427894
 21
-1.851081708080667
 31
0.0
  0
SPLINE
  5
1C49
330
1F
100
AcDbEntity
  8
AM_0
100
AcDbSpline
210
0.0
220
0.0
230
1.0
 70
     8
 71
     3
 72
     8
 73
     4
 74
     0
 42
0.0000000001
 43
0.0000000001
 40
0.0
 40
0.0
 40
0.0
 40
0.0
 40
1.797797194454997
 40
1.797797194454997
 40
1.797797194454997
 40
1.797797194454997
 10
-12.69328133151145
 20
-1.954733416506272
 30
0.0
 10
-12.44476614657034
 20
-1.954733416506272
 30
0.0
 10
-12.20719909498511
 20
-1.917788531055069
 30
0.0
 10
-11.9784516041426
 20
-1.851081708040968
 30
0.0
  0
SPLINE
  5
1C4A
330
1F
100
AcDbEntity
  8
AM_0
100
AcDbSpline
210
0.0
220
0.0
230
1.0
 70
     8
 71
     3
 72
     8
 73
     4
 74
     0
 42
0.0000000001
 43
0.0000000001
 40
0.0
 40
0.0
 40
0.0
 40
0.0
 40
2.77404538272248
 40
2.77404538272248
 40
2.77404538272248
 40
2.77404538272248
 10
-9.437890443475401
 20
-1.954733416506318
 30
0.0
 10
-10.7161072958333
 20
-1.954733416506317
 30
0.0
 10
-11.70469431367152
 20
-0.9773667082530693
 30
0.0
 10
-12.69328133150975
 20
0.0000000000001791
 30
0.0
  0
SPLINE
  5
1C4B
330
1F
100
AcDbEntity
  8
AM_0
100
AcDbSpline
210
0.0
220
0.0
230
1.0
 70
     8
 71
     3
 72
     8
 73
     4
 74
     0
 42
0.0000000001
 43
0.0000000001
 40
0.0
 40
0.0
 40
0.0
 40
0.0
 40
2.774045382722471
 40
2.774045382722471
 40
2.774045382722471
 40
2.774045382722471
 10
-12.69328133151136
 20
1.954733416506653
 30
0.0
 10
-11.41506447915346
 20
1.954733416506652
 30
0.0
 10
-10.42647746131524
 20
0.977366708253416
 30
0.0
 10
-9.437890443477021
 20
0.0000000000001791
 30
0.0
  0
SPLINE
  5
1C4C
330
1F
100
AcDbEntity
  8
AM_0
100
AcDbSpline
210
0.0
220
0.0
230
1.0
 70
     8
 71
     3
 72
     8
 73
     4
 74
     0
 42
0.0000000001
 43
0.0000000001
 40
0.0
 40
0.0
 40
0.0
 40
0.0
 40
1.797797194454997
 40
1.797797194454997
 40
1.797797194454997
 40
1.797797194454997
 10
-9.437890443478721
 20
-1.954733416506272
 30
0.0
 10
-9.189375258537614
 20
-1.954733416506272
 30
0.0
 10
-8.95180820695238
 20
-1.917788531055069
 30
0.0
 10
-8.723060716109879
 20
-1.851081708040968
 30
0.0
  0
SPLINE
  5
1C4D
330
1F
100
AcDbEntity
  8
AM_0
100
AcDbSpline
210
0.0
220
0.0
230
1.0
 70
     8
 71
     3
 72
     8
 73
     4
 74
     0
 42
0.0000000001
 43
0.0000000001
 40
0.0
 40
0.0
 40
0.0
 40
0.0
 40
2.77404538272248
 40
2.77404538272248
 40
2.77404538272248
 40
2.77404538272248
 10
-6.182499555442673
 20
-1.954733416506318
 30
0.0
 10
-7.460716407800577
 20
-1.954733416506317
 30
0.0
 10
-8.449303425638799
 20
-0.9773667082530693
 30
0.0
 10
-9.437890443477021
 20
0.0000000000001791
 30
0.0
  0
SPLINE
  5
1C4E
330
1F
100
AcDbEntity
  8
AM_0
100
AcDbSpline
210
0.0
220
0.0
230
1.0
 70
     8
 71
     3
 72
     8
 73
     4
 74
     0
 42
0.0000000001
 43
0.0000000001
 40
0.0
 40
0.0
 40
0.0
 40
0.0
 40
2.792136278909016
 40
2.792136278909016
 40
2.792136278909016
 40
2.792136278909016
 10
-6.635191618918759
 20
-1.999999999999821
 30
0.0
 10
-7.921744343690257
 20
-1.99999999999982
 30
0.0
 10
-8.906163425321683
 20
-0.9999999999998207
 30
0.0
 10
-9.890582506953109
 20
0.0000000000001791
 30
0.0
  0
SPLINE
  5
1C4F
330
1F
100
AcDbEntity
  8
AM_0
100
AcDbSpline
210
0.0
220
0.0
230
1.0
 70
     8
 71
     3
 72
     8
 73
     4
 74
     0
 42
0.0000000001
 43
0.0000000001
 40
0.0
 40
0.0
 40
0.0
 40
0.0
 40
2.774045382722471
 40
2.774045382722471
 40
2.774045382722471
 40
2.774045382722471
 10
-9.437890443478622
 20
1.954733416506653
 30
0.0
 10
-8.159673591120718
 20
1.954733416506652
 30
0.0
 10
-7.171086573282496
 20
0.977366708253416
 30
0.0
 10
-6.182499555444273
 20
0.0000000000001791
 30
0.0
  0
SPLINE
  5
1C50
330
1F
100
AcDbEntity
  8
AM_0
100
AcDbSpline
210
0.0
220
0.0
230
1.0
 70
     8
 71
     3
 72
     8
 73
     4
 74
     0
 42
0.0000000001
 43
0.0000000001
 40
0.0
 40
0.0
 40
0.0
 40
0.0
 40
2.792136278909015
 40
2.792136278909015
 40
2.792136278909015
 40
2.792136278909015
 10
-9.890582506954796
 20
2.000000000000178
 30
0.0
 10
-8.6040297821833
 20
2.000000000000178
 30
0.0
 10
-7.619610700551874
 20
1.000000000000178
 30
0.0
 10
-6.635191618920448
 20
0.0000000000001791
 30
0.0
  0
SPLINE
  5
1C51
330
1F
100
AcDbEntity
  8
AM_0
100
AcDbSpline
210
0.0
220
0.0
230
1.0
 70
     8
 71
     3
 72
     8
 73
     4
 74
     0
 42
0.0000000001
 43
0.0000000001
 40
0.0
 40
0.0
 40
0.0
 40
0.0
 40
2.795805529891336
 40
2.795805529891336
 40
2.795805529891336
 40
2.795805529891336
 10
-13.14597339498431
 20
2.000000000000178
 30
0.0
 10
-13.53244642456916
 20
2.000000000000178
 30
0.0
 10
-13.891655911185
 20
1.90976329982445
 30
0.0
 10
-14.23179166613576
 20
1.756396484555168
 30
0.0
  0
LINE
  5
1C52
330
1F
100
AcDbEntity
  8
AM_0
100
AcDbLine
 10
-13.63494939404665
 20
1.700000000000178
 30
0.0
 11
-15.23384249231169
 21
1.851081708081048
 31
0.0
  0
SPLINE
  5
1C53
330
1F
100
AcDbEntity
  8
AM_0
100
AcDbSpline
210
0.0
220
0.0
230
1.0
 70
     8
 71
     3
 72
     8
 73
     4
 74
     0
 42
0.0000000001
 43
0.0000000001
 40
0.0
 40
0.0
 40
0.0
 40
0.0
 40
1.797797194454997
 40
1.797797194454997
 40
1.797797194454997
 40
1.797797194454997
 10
-15.94867221954419
 20
-1.954733416506272
 30
0.0
 10
-15.70015703460309
 20
-1.954733416506272
 30
0.0
 10
-15.46258998301785
 20
-1.917788531055069
 30
0.0
 10
-15.23384249217535
 20
-1.851081708040968
 30
0.0
  0
SPLINE
  5
1C54
330
1F
100
AcDbEntity
  8
AM_0
100
AcDbSpline
210
0.0
220
0.0
230
1.0
 70
     8
 71
     3
 72
     8
 73
     4
 74
     0
 42
0.0000000001
 43
0.0000000001
 40
0.0
 40
0.0
 40
0.0
 40
0.0
 40
1.168827779870509
 40
1.168827779870509
 40
1.168827779870509
 40
1.168827779870509
 10
-16.40136428302018
 20
-1.99999999999982
 30
0.0
 10
-16.23979352700023
 20
-1.99999999999982
 30
0.0
 10
-16.08298784250492
 20
-1.98422859673856
 30
0.0
 10
-15.9303488116119
 20
-1.95466643002924
 30
0.0
  0
SPLINE
  5
1C55
330
1F
100
AcDbEntity
  8
AM_0
100
AcDbSpline
210
0.0
220
0.0
230
1.0
 70
     8
 71
     3
 72
     8
 73
     4
 74
     0
 42
0.0000000001
 43
0.0000000001
 40
0.0
 40
0.0
 40
0.0
 40
0.0
 40
2.792136278909016
 40
2.792136278909016
 40
2.792136278909016
 40
2.792136278909016
 10
-13.14597339498423
 20
-1.999999999999821
 30
0.0
 10
-14.43252611975573
 20
-1.99999999999982
 30
0.0
 10
-15.41694520138715
 20
-0.9999999999998207
 30
0.0
 10
-16.40136428301858
 20
0.0000000000001791
 30
0.0
  0
LINE
  5
1C56
330
1F
100
AcDbEntity
  8
AM_0
100
AcDbLine
 10
-14.23179166613596
 20
-1.75639648455531
 30
0.0
 11
-15.23384249231169
 21
-1.851081708080667
 31
0.0
  0
SPLINE
  5
1C57
330
1F
100
AcDbEntity
  8
AM_0
100
AcDbSpline
210
0.0
220
0.0
230
1.0
 70
     8
 71
     3
 72
     8
 73
     4
 74
     0
 42
0.0000000001
 43
0.0000000001
 40
0.0
 40
0.0
 40
0.0
 40
0.0
 40
2.792136278909015
 40
2.792136278909015
 40
2.792136278909015
 40
2.792136278909015
 10
-16.40136428302027
 20
2.000000000000178
 30
0.0
 10
-15.11481155824877
 20
2.000000000000178
 30
0.0
 10
-14.13039247661735
 20
1.000000000000178
 30
0.0
 10
-13.14597339498592
 20
0.0000000000001791
 30
0.0
  0
SPLINE
  5
1C58
330
1F
100
AcDbEntity
  8
AM_0
100
AcDbSpline
210
0.0
220
0.0
230
1.0
 70
     8
 71
     3
 72
     8
 73
     4
 74
     0
 42
0.0000000001
 43
0.0000000001
 40
0.0
 40
0.0
 40
0.0
 40
0.0
 40
2.795805529891336
 40
2.795805529891336
 40
2.795805529891336
 40
2.795805529891336
 10
-19.65675517104963
 20
1.999999999999996
 30
0.0
 10
-20.04322820063447
 20
1.999999999999996
 30
0.0
 10
-20.40243768725031
 20
1.909763299824268
 30
0.0
 10
-20.74257344220108
 20
1.756396484554985
 30
0.0
  0
SPLINE
  5
1C59
330
1F
100
AcDbEntity
  8
AM_0
100
AcDbSpline
210
0.0
220
0.0
230
1.0
 70
     8
 71
     3
 72
     8
 73
     4
 74
     0
 42
0.0000000001
 43
0.0000000001
 40
0.0
 40
0.0
 40
0.0
 40
0.0
 40
1.797797194454997
 40
1.797797194454997
 40
1.797797194454997
 40
1.797797194454997
 10
-19.20406310757676
 20
-1.954733416506454
 30
0.0
 10
-18.95554792263565
 20
-1.954733416506454
 30
0.0
 10
-18.71798087105042
 20
-1.917788531055251
 30
0.0
 10
-18.48923338020792
 20
-1.85108170804115
 30
0.0
  0
LINE
  5
1C5A
330
1F
100
AcDbEntity
  8
AM_0
100
AcDbLine
 10
-17.48718255416853
 20
-1.756396484555492
 30
0.0
 11
-18.48923338034426
 21
-1.851081708080849
 31
0.0
  0
SPLINE
  5
1C5B
330
1F
100
AcDbEntity
  8
AM_0
100
AcDbSpline
210
0.0
220
0.0
230
1.0
 70
     8
 71
     3
 72
     8
 73
     4
 74
     0
 42
0.0000000001
 43
0.0000000001
 40
0.0
 40
0.0
 40
0.0
 40
0.0
 40
1.168827779870509
 40
1.168827779870509
 40
1.168827779870509
 40
1.168827779870509
 10
-19.65675517105275
 20
-2.000000000000003
 30
0.0
 10
-19.4951844150328
 20
-2.000000000000003
 30
0.0
 10
-19.33837873053748
 20
-1.984228596738742
 30
0.0
 10
-19.18573969964447
 20
-1.954666430029423
 30
0.0
  0
SPLINE
  5
1C5C
330
1F
100
AcDbEntity
  8
AM_0
100
AcDbSpline
210
0.0
220
0.0
230
1.0
 70
     8
 71
     3
 72
     8
 73
     4
 74
     0
 42
0.0000000001
 43
0.0000000001
 40
0.0
 40
0.0
 40
0.0
 40
0.0
 40
2.792136278909015
 40
2.792136278909015
 40
2.792136278909015
 40
2.792136278909015
 10
-19.65675517105301
 20
2.000000000000178
 30
0.0
 10
-18.37020244628151
 20
2.000000000000178
 30
0.0
 10
-17.38578336465009
 20
1.000000000000178
 30
0.0
 10
-16.40136428301867
 20
0.0000000000001791
 30
0.0
  0
SPLINE
  5
1C5D
330
1F
100
AcDbEntity
  8
AM_0
100
AcDbSpline
210
0.0
220
0.0
230
1.0
 70
     8
 71
     3
 72
     8
 73
     4
 74
     0
 42
0.0000000001
 43
0.0000000001
 40
0.0
 40
0.0
 40
0.0
 40
0.0
 40
2.774045382722471
 40
2.774045382722471
 40
2.774045382722471
 40
2.774045382722471
 10
-19.20406310757684
 20
1.954733416506653
 30
0.0
 10
-17.92584625521894
 20
1.954733416506652
 30
0.0
 10
-16.93725923738071
 20
0.977366708253416
 30
0.0
 10
-15.94867221954249
 20
0.0000000000001791
 30
0.0
  0
LINE
  5
1C5E
330
1F
100
AcDbEntity
  8
AM_0
100
AcDbLine
 10
-16.89034028207929
 20
1.700000000000179
 30
0.0
 11
-18.48923338034443
 21
1.851081708081048
 31
0.0
  0
SPLINE
  5
1C5F
330
1F
100
AcDbEntity
  8
AM_0
100
AcDbSpline
210
0.0
220
0.0
230
1.0
 70
     8
 71
     3
 72
     8
 73
     4
 74
     0
 42
0.0000000001
 43
0.0000000001
 40
0.0
 40
0.0
 40
0.0
 40
0.0
 40
2.795805529891336
 40
2.795805529891336
 40
2.795805529891336
 40
2.795805529891336
 10
-16.40136428301706
 20
2.000000000000178
 30
0.0
 10
-16.78783731260191
 20
2.000000000000178
 30
0.0
 10
-17.14704679921774
 20
1.90976329982445
 30
0.0
 10
-17.48718255416851
 20
1.756396484555168
 30
0.0
  0
SPLINE
  5
1C60
330
1F
100
AcDbEntity
  8
AM_0
100
AcDbSpline
210
0.0
220
0.0
230
1.0
 70
     8
 71
     3
 72
     8
 73
     4
 74
     0
 42
0.0000000001
 43
0.0000000001
 40
0.0
 40
0.0
 40
0.0
 40
0.0
 40
2.77404538272248
 40
2.77404538272248
 40
2.77404538272248
 40
2.77404538272248
 10
-15.94867221954071
 20
-1.9547334165065
 30
0.0
 10
-17.22688907189861
 20
-1.954733416506499
 30
0.0
 10
-18.21547608973684
 20
-0.9773667082532515
 30
0.0
 10
-19.20406310757506
 20
-0.0000000000000033
 30
0.0
  0
SPLINE
  5
1C61
330
1F
100
AcDbEntity
  8
AM_0
100
AcDbSpline
210
0.0
220
0.0
230
1.0
 70
     8
 71
     3
 72
     8
 73
     4
 74
     0
 42
0.0000000001
 43
0.0000000001
 40
0.0
 40
0.0
 40
0.0
 40
0.0
 40
2.792136278909016
 40
2.792136278909016
 40
2.792136278909016
 40
2.792136278909016
 10
-16.4013642830168
 20
-2.000000000000003
 30
0.0
 10
-17.6879170077883
 20
-2.000000000000003
 30
0.0
 10
-18.67233608941972
 20
-1.000000000000003
 30
0.0
 10
-19.65675517105115
 20
-0.0000000000000032
 30
0.0
  0
SPLINE
  5
1C62
330
1F
100
AcDbEntity
  8
AM_0
100
AcDbSpline
210
0.0
220
0.0
230
1.0
 70
     8
 71
     3
 72
     8
 73
     4
 74
     0
 42
0.0000000001
 43
0.0000000001
 40
0.0
 40
0.0
 40
0.0
 40
0.0
 40
2.792136278909015
 40
2.792136278909015
 40
2.792136278909015
 40
2.792136278909015
 10
-13.14597339498754
 20
2.000000000000178
 30
0.0
 10
-11.85942067021604
 20
2.000000000000178
 30
0.0
 10
-10.87500158858462
 20
1.000000000000178
 30
0.0
 10
-9.890582506953194
 20
0.0000000000001791
 30
0.0
  0
SPLINE
  5
1C63
330
1F
100
AcDbEntity
  8
AM_0
100
AcDbSpline
210
0.0
220
0.0
230
1.0
 70
     8
 71
     3
 72
     8
 73
     4
 74
     0
 42
0.0000000001
 43
0.0000000001
 40
0.0
 40
0.0
 40
0.0
 40
0.0
 40
2.774045382722471
 40
2.774045382722471
 40
2.774045382722471
 40
2.774045382722471
 10
-15.94867221954409
 20
1.954733416506653
 30
0.0
 10
-14.67045536718619
 20
1.954733416506652
 30
0.0
 10
-13.68186834934797
 20
0.977366708253416
 30
0.0
 10
-12.69328133150975
 20
0.0000000000001791
 30
0.0
  0
SPLINE
  5
1C64
330
1F
100
AcDbEntity
  8
AM_0
100
AcDbSpline
210
0.0
220
0.0
230
1.0
 70
     8
 71
     3
 72
     8
 73
     4
 74
     0
 42
0.0000000001
 43
0.0000000001
 40
0.0
 40
0.0
 40
0.0
 40
0.0
 40
2.77404538272248
 40
2.77404538272248
 40
2.77404538272248
 40
2.77404538272248
 10
-12.69328133150814
 20
-1.954733416506318
 30
0.0
 10
-13.97149818386605
 20
-1.954733416506317
 30
0.0
 10
-14.96008520170427
 20
-0.9773667082530693
 30
0.0
 10
-15.94867221954249
 20
0.0000000000001791
 30
0.0
  0
SPLINE
  5
1C65
330
1F
100
AcDbEntity
  8
AM_0
100
AcDbSpline
210
0.0
220
0.0
230
1.0
 70
     8
 71
     3
 72
     8
 73
     4
 74
     0
 42
0.0000000001
 43
0.0000000001
 40
0.0
 40
0.0
 40
0.0
 40
0.0
 40
1.168827779870509
 40
1.168827779870509
 40
1.168827779870509
 40
1.168827779870509
 10
-13.14597339498743
 20
-1.99999999999982
 30
0.0
 10
-12.98440263896748
 20
-1.99999999999982
 30
0.0
 10
-12.82759695447217
 20
-1.98422859673856
 30
0.0
 10
-12.67495792357916
 20
-1.95466643002924
 30
0.0
  0
SPLINE
  5
1C66
330
1F
100
AcDbEntity
  8
AM_0
100
AcDbSpline
210
0.0
220
0.0
230
1.0
 70
     8
 71
     3
 72
     8
 73
     4
 74
     0
 42
0.0000000001
 43
0.0000000001
 40
0.0
 40
0.0
 40
0.0
 40
0.0
 40
2.792136278909016
 40
2.792136278909016
 40
2.792136278909016
 40
2.792136278909016
 10
-9.890582506951488
 20
-1.999999999999821
 30
0.0
 10
-11.17713523172298
 20
-1.99999999999982
 30
0.0
 10
-12.16155431335441
 20
-0.9999999999998207
 30
0.0
 10
-13.14597339498583
 20
0.0000000000001791
 30
0.0
  0
LINE
  5
1C67
330
1F
100
AcDbEntity
  8
AM_11
100
AcDbLine
 10
-25.00000000000005
 20
1.999999999999996
 30
0.0
 11
-0.0000000000000568
 21
1.999999999999996
 31
0.0
1001
GENIUS_GENODEF_13
1002
{
1000
HIER
1070
     0
1002
}
1002
{
1000
MANEDIT
1070
     0
1002
}
1002
{
1000
NOSEL
1070
     0
1002
}
1002
{
1000
BEHIND
1070
     0
1002
}
1002
{
1000
REACTOR
1002
}
1001
GENIUS_GENOBJ-N-CEN_13
1002
{
1000
OWNER
1000
GEN
1002
}
  0
LINE
  5
1C68
330
1F
100
AcDbEntity
  8
AM_11
100
AcDbLine
 10
-25.00000000000005
 20
-2.000000000000004
 30
0.0
 11
-0.0000000000000568
 21
-2.000000000000003
 31
0.0
1001
GENIUS_GENODEF_13
1002
{
1000
HIER
1070
     0
1002
}
1002
{
1000
MANEDIT
1070
     0
1002
}
1002
{
1000
NOSEL
1070
     0
1002
}
1002
{
1000
BEHIND
1070
     0
1002
}
1002
{
1000
REACTOR
1002
}
1001
GENIUS_GENOBJ-N-CEN_13
1002
{
1000
OWNER
1000
GEN
1002
}
  0
LINE
  5
1C69
330
1F
100
AcDbEntity
  8
AM_0
100
AcDbLine
 10
-4.465619002037742
 20
-1.75639648455531
 30
0.0
 11
-5.467669828213471
 21
-1.851081708080667
 31
0.0
  0
SPLINE
  5
1C6A
330
1F
100
AcDbEntity
  8
AM_0
100
AcDbSpline
210
0.0
220
0.0
230
1.0
 70
     8
 71
     3
 72
     8
 73
     4
 74
     0
 42
0.0000000001
 43
0.0000000001
 40
0.0
 40
0.0
 40
0.0
 40
0.0
 40
2.792136278909016
 40
2.792136278909016
 40
2.792136278909016
 40
2.792136278909016
 10
-3.379800730886013
 20
-1.999999999999821
 30
0.0
 10
-4.666353455657512
 20
-1.99999999999982
 30
0.0
 10
-5.650772537288936
 20
-0.9999999999998207
 30
0.0
 10
-6.635191618920361
 20
0.0000000000001791
 30
0.0
  0
SPLINE
  5
1C6B
330
1F
100
AcDbEntity
  8
AM_0
100
AcDbSpline
210
0.0
220
0.0
230
1.0
 70
     8
 71
     3
 72
     8
 73
     4
 74
     0
 42
0.0000000001
 43
0.0000000001
 40
0.0
 40
0.0
 40
0.0
 40
0.0
 40
2.77404538272248
 40
2.77404538272248
 40
2.77404538272248
 40
2.77404538272248
 10
-2.927108667409926
 20
-1.954733416506318
 30
0.0
 10
-4.205325519767832
 20
-1.954733416506317
 30
0.0
 10
-5.193912537606053
 20
-0.9773667082530693
 30
0.0
 10
-6.182499555444273
 20
0.0000000000001791
 30
0.0
  0
LINE
  5
1C6C
330
1F
100
AcDbEntity
  8
AM_0
100
AcDbLine
 10
-3.86877672994834
 20
1.700000000000178
 30
0.0
 11
-5.467669828213471
 21
1.851081708081048
 31
0.0
  0
SPLINE
  5
1C6D
330
1F
100
AcDbEntity
  8
AM_0
100
AcDbSpline
210
0.0
220
0.0
230
1.0
 70
     8
 71
     3
 72
     8
 73
     4
 74
     0
 42
0.0000000001
 43
0.0000000001
 40
0.0
 40
0.0
 40
0.0
 40
0.0
 40
2.774045382722525
 40
2.774045382722525
 40
2.774045382722525
 40
2.774045382722525
 10
-6.182499555445973
 20
1.954733416506652
 30
0.0
 10
-4.904282703088045
 20
1.954733416506652
 30
0.0
 10
-3.915695685249792
 20
0.9773667082534156
 30
0.0
 10
-2.927108667411537
 20
0.0000000000001787
 30
0.0
  0
SPLINE
  5
1C6E
330
1F
100
AcDbEntity
  8
AM_0
100
AcDbSpline
210
0.0
220
0.0
230
1.0
 70
     8
 71
     3
 72
     8
 73
     4
 74
     0
 42
0.0000000001
 43
0.0000000001
 40
0.0
 40
0.0
 40
0.0
 40
0.0
 40
2.792136278909015
 40
2.792136278909015
 40
2.792136278909015
 40
2.792136278909015
 10
-6.635191618921962
 20
2.000000000000178
 30
0.0
 10
-5.348638894150465
 20
2.000000000000178
 30
0.0
 10
-4.36421981251904
 20
1.000000000000178
 30
0.0
 10
-3.379800730887614
 20
0.0000000000001787
 30
0.0
  0
LINE
  5
1C6F
330
1F
100
AcDbEntity
  8
AM_0
100
AcDbLine
 10
-23.40112205814478
 20
1.700000000000179
 30
0.0
 11
-25.00001515640991
 21
1.851081708081048
 31
0.0
  0
SPLINE
  5
1C70
330
1F
100
AcDbEntity
  8
AM_0
100
AcDbSpline
210
0.0
220
0.0
230
1.0
 70
     8
 71
     3
 72
     8
 73
     4
 74
     0
 42
0.0000000001
 43
0.0000000001
 40
0.0
 40
0.0
 40
0.0
 40
0.0
 40
2.795805529891336
 40
2.795805529891336
 40
2.795805529891336
 40
2.795805529891336
 10
-22.91214605908254
 20
2.000000000000178
 30
0.0
 10
-23.29861908866739
 20
2.000000000000178
 30
0.0
 10
-23.65782857528322
 20
1.90976329982445
 30
0.0
 10
-23.997964330234
 20
1.756396484555168
 30
0.0
  0
SPLINE
  5
1C71
330
1F
100
AcDbEntity
  8
AM_0
100
AcDbSpline
210
0.0
220
0.0
230
1.0
 70
     8
 71
     3
 72
     8
 73
     4
 74
     0
 42
0.0000000001
 43
0.0000000001
 40
0.0
 40
0.0
 40
0.0
 40
0.0
 40
1.797797194454997
 40
1.797797194454997
 40
1.797797194454997
 40
1.797797194454997
 10
-22.45945399560957
 20
-1.954733416506272
 30
0.0
 10
-22.21093881066846
 20
-1.954733416506272
 30
0.0
 10
-21.97337175908333
 20
-1.917788531055069
 30
0.0
 10
-21.74462426824082
 20
-1.851081708040968
 30
0.0
  0
SPLINE
  5
1C72
330
1F
100
AcDbEntity
  8
AM_0
100
AcDbSpline
210
0.0
220
0.0
230
1.0
 70
     8
 71
     3
 72
     8
 73
     4
 74
     0
 42
0.0000000001
 43
0.0000000001
 40
0.0
 40
0.0
 40
0.0
 40
0.0
 40
1.168827779870509
 40
1.168827779870509
 40
1.168827779870509
 40
1.168827779870509
 10
-22.91214605908566
 20
-1.999999999999821
 30
0.0
 10
-22.75057530306562
 20
-1.999999999999821
 30
0.0
 10
-22.59376961857031
 20
-1.98422859673856
 30
0.0
 10
-22.44113058767728
 20
-1.95466643002924
 30
0.0
  0
SPLINE
  5
1C73
330
1F
100
AcDbEntity
  8
AM_0
100
AcDbSpline
210
0.0
220
0.0
230
1.0
 70
     8
 71
     3
 72
     8
 73
     4
 74
     0
 42
0.0000000001
 43
0.0000000001
 40
0.0
 40
0.0
 40
0.0
 40
0.0
 40
1.797797194454997
 40
1.797797194454997
 40
1.797797194454997
 40
1.797797194454997
 10
-25.71484488364232
 20
-1.954733416506272
 30
0.0
 10
-25.4663296987012
 20
-1.954733416506272
 30
0.0
 10
-25.22876264711606
 20
-1.917788531055069
 30
0.0
 10
-25.00001515627356
 20
-1.851081708040968
 30
0.0
  0
LINE
  5
1C74
330
1F
100
AcDbEntity
  8
AM_0
100
AcDbLine
 10
-23.99796433023417
 20
-1.75639648455531
 30
0.0
 11
-25.00001515640982
 21
-1.851081708080667
 31
0.0
  0
SPLINE
  5
1C75
330
1F
100
AcDbEntity
  8
AM_0
100
AcDbSpline
210
0.0
220
0.0
230
1.0
 70
     8
 71
     3
 72
     8
 73
     4
 74
     0
 42
0.0000000001
 43
0.0000000001
 40
0.0
 40
0.0
 40
0.0
 40
0.0
 40
2.774045382722535
 40
2.774045382722535
 40
2.774045382722535
 40
2.774045382722535
 10
-22.45945399560627
 20
-1.954733416506318
 30
0.0
 10
-23.7376708479642
 20
-1.954733416506317
 30
0.0
 10
-24.72625786580245
 20
-0.9773667082530689
 30
0.0
 10
-25.71484488364071
 20
0.0000000000001792
 30
0.0
  0
SPLINE
  5
1C76
330
1F
100
AcDbEntity
  8
AM_0
100
AcDbSpline
210
0.0
220
0.0
230
1.0
 70
     8
 71
     3
 72
     8
 73
     4
 74
     0
 42
0.0000000001
 43
0.0000000001
 40
0.0
 40
0.0
 40
0.0
 40
0.0
 40
2.522908762662146
 40
2.522908762662146
 40
2.522908762662146
 40
2.522908762662146
 10
-22.91214605908244
 20
-1.999999999999821
 30
0.0
 10
-24.07464488389666
 20
-1.99999999999982
 30
0.0
 10
-24.9904665402279
 20
-1.183549485190346
 30
0.0
 10
-25.88250272380586
 20
-0.2883739647638392
 30
0.0
  0
SPLINE
  5
1C78
330
1F
100
AcDbEntity
  8
AM_0
100
AcDbSpline
210
0.0
220
0.0
230
1.0
 70
     8
 71
     3
 72
     8
 73
     4
 74
     0
 42
0.0000000001
 43
0.0000000001
 40
0.0
 40
0.0
 40
0.0
 40
0.0
 40
2.774045382722471
 40
2.774045382722471
 40
2.774045382722471
 40
2.774045382722471
 10
-25.71484488364232
 20
1.954733416506652
 30
0.0
 10
-24.43662803128441
 20
1.954733416506652
 30
0.0
 10
-23.44804101344619
 20
0.9773667082534156
 30
0.0
 10
-22.45945399560797
 20
0.0000000000001788
 30
0.0
  0
LINE
  5
1C79
330
1F
100
AcDbEntity
  8
AM_11
 48
0.4
100
AcDbLine
 10
-25.00000000000005
 20
1.999999999999996
 30
0.0
 11
-25.00000000000005
 21
-2.000000000000004
 31
0.0
  0
LINE
  5
1C7A
330
1F
100
AcDbEntity
  8
AM_0
100
AcDbLine
 10
-26.65651294617752
 20
1.700000000000178
 30
0.0
 11
-27.67850497521976
 21
1.796569496460117
 31
0.0
  0
SPLINE
  5
1C7B
330
1F
100
AcDbEntity
  8
AM_0
100
AcDbSpline
210
0.0
220
0.0
230
1.0
 70
     8
 71
     3
 72
     8
 73
     4
 74
     0
 42
0.0000000001
 43
0.0000000001
 40
0.0
 40
0.0
 40
0.0
 40
0.0
 40
2.795805529891336
 40
2.795805529891336
 40
2.795805529891336
 40
2.795805529891336
 10
-26.16753694711509
 20
2.000000000000178
 30
0.0
 10
-26.55400997670003
 20
2.000000000000178
 30
0.0
 10
-26.91321946331596
 20
1.90976329982445
 30
0.0
 10
-27.25335521826673
 20
1.756396484555168
 30
0.0
  0
ELLIPSE
  5
1C7C
330
1F
100
AcDbEntity
  8
AM_0
100
AcDbEllipse
 10
-24.17631747278701
 20
-5.357824203457933
 30
0.0
 11
-5.930385576621478
 21
0.000000000000851
 31
0.0
210
0.0
220
0.0
230
1.0
 40
0.9645539070412409
 41
-1.122616825506758
 42
-0.8760867123346629
  0
LINE
  5
1C7D
330
1F
100
AcDbEntity
  8
AM_0
100
AcDbLine
 10
-28.01421503594842
 20
-2.00000000000001
 30
0.0
 11
-26.16753694711839
 21
-2.00000000000001
 31
0.0
  0
SPLINE
  5
1C7E
330
1F
100
AcDbEntity
  8
AM_0
100
AcDbSpline
210
0.0
220
0.0
230
1.0
 70
     8
 71
     3
 72
     8
 73
     4
 74
     0
 42
0.0000000001
 43
0.0000000001
 40
0.5594372577521371
 40
0.5594372577521371
 40
0.5594372577521371
 40
0.5594372577521371
 40
2.774045382722525
 40
2.774045382722525
 40
2.774045382722525
 40
2.774045382722525
 10
-27.96794919243122
 20
1.999999999999996
 30
0.0
 10
-27.29328542075698
 20
1.560525481417426
 30
0.0
 10
-26.5040651521988
 20
0.7802627407088031
 30
0.0
 10
-25.71484488364061
 20
0.0000000000001792
 30
0.0
  0
SPLINE
  5
1C7F
330
1F
100
AcDbEntity
  8
AM_0
100
AcDbSpline
210
0.0
220
0.0
230
1.0
 70
     8
 71
     3
 72
     8
 73
     4
 74
     0
 42
0.0000000001
 43
0.0000000001
 40
0.0
 40
0.0
 40
0.0
 40
0.0
 40
1.837983976000965
 40
1.837983976000965
 40
1.837983976000965
 40
1.837983976000965
 10
-25.7148448836391
 20
-1.954733416506317
 30
0.0
 10
-26.56174598595004
 20
-1.954733416506317
 30
0.0
 10
-27.28150199222
 20
-1.525677534904271
 30
0.0
 10
-27.95835472870243
 20
-0.9518429648943243
 30
0.0
  0
SPLINE
  5
1C80
330
1F
100
AcDbEntity
  8
AM_0
100
AcDbSpline
210
0.0
220
0.0
230
1.0
 70
     8
 71
     3
 72
     8
 73
     4
 74
     0
 42
0.0000000001
 43
0.0000000001
 40
0.0
 40
0.0
 40
0.0
 40
0.0
 40
2.792136278909069
 40
2.792136278909069
 40
2.792136278909069
 40
2.792136278909069
 10
-26.16753694711839
 20
2.000000000000178
 30
0.0
 10
-24.88098422234687
 20
2.000000000000178
 30
0.0
 10
-23.89656514071541
 20
1.000000000000178
 30
0.0
 10
-22.91214605908395
 20
0.0000000000001788
 30
0.0
  0
SPLINE
  5
1C81
330
1F
100
AcDbEntity
  8
AM_0
100
AcDbSpline
210
0.0
220
0.0
230
1.0
 70
     8
 71
     3
 72
     8
 73
     4
 74
     0
 42
0.0000000001
 43
0.0000000001
 40
0.0
 40
0.0
 40
0.0
 40
0.0
 40
1.168827779870509
 40
1.168827779870509
 40
1.168827779870509
 40
1.168827779870509
 10
-26.16753694711839
 20
-1.99999999999982
 30
0.0
 10
-26.00596619109835
 20
-1.99999999999982
 30
0.0
 10
-25.84916050660314
 20
-1.98422859673856
 30
0.0
 10
-25.69652147571003
 20
-1.95466643002924
 30
0.0
  0
ELLIPSE
  5
1C82
330
1F
100
AcDbEntity
  8
AM_0
100
AcDbEllipse
 10
-26.38670531464235
 20
-0.9235767418327744
 30
0.0
 11
0.8293989523654476
 21
0.0000000000000222
 31
0.0
210
0.0
220
0.0
230
1.0
 40
0.9645539070412345
 41
0.8794182442272795
 42
2.018975828082862
1001
GENIUS_GENODEF_13
1002
{
1000
HIER
1070
     0
1002
}
1002
{
1000
MANEDIT
1070
     0
1002
}
1002
{
1000
NOSEL
1070
     0
1002
}
1002
{
1000
BEHIND
1070
     0
1002
}
1002
{
1000
REACTOR
1002
}
1001
GENIUS_GENOBJ-N-FIL_13
1002
{
1000
OWNER
1000
GEN
1002
}
  0
SPLINE
  5
1C83
330
1F
100
AcDbEntity
  8
AM_0
100
AcDbSpline
210
0.0
220
0.0
230
1.0
 70
     8
 71
     3
 72
     8
 73
     4
 74
     0
 42
0.0000000001
 43
0.0000000001
 40
0.0
 40
0.0
 40
0.0
 40
0.0
 40
2.792136278909016
 40
2.792136278909016
 40
2.792136278909016
 40
2.792136278909016
 10
-19.65675517104961
 20
-1.999999999999821
 30
0.0
 10
-20.94330789582111
 20
-1.999999999999821
 30
0.0
 10
-21.92772697745254
 20
-0.9999999999998214
 30
0.0
 10
-22.91214605908395
 20
0.0000000000001788
 30
0.0
  0
SPLINE
  5
1C84
330
1F
100
AcDbEntity
  8
AM_0
100
AcDbSpline
210
0.0
220
0.0
230
1.0
 70
     8
 71
     3
 72
     8
 73
     4
 74
     0
 42
0.0000000001
 43
0.0000000001
 40
0.0
 40
0.0
 40
0.0
 40
0.0
 40
2.774045382722535
 40
2.774045382722535
 40
2.774045382722535
 40
2.774045382722535
 10
-19.20406310757353
 20
-1.954733416506318
 30
0.0
 10
-20.48227995993146
 20
-1.954733416506318
 30
0.0
 10
-21.47086697776972
 20
-0.9773667082530694
 30
0.0
 10
-22.45945399560797
 20
0.0000000000001788
 30
0.0
  0
LINE
  5
1C85
330
1F
100
AcDbEntity
  8
AM_0
100
AcDbLine
 10
-20.74257344220144
 20
-1.75639648455531
 30
0.0
 11
-21.74462426837707
 21
-1.851081708080667
 31
0.0
  0
LINE
  5
1C86
330
1F
100
AcDbEntity
  8
AM_0
100
AcDbLine
 10
-20.14573117011186
 20
1.699999999999996
 30
0.0
 11
-21.74462426837699
 21
1.851081708080866
 31
0.0
  0
SPLINE
  5
1C87
330
1F
100
AcDbEntity
  8
AM_0
100
AcDbSpline
210
0.0
220
0.0
230
1.0
 70
     8
 71
     3
 72
     8
 73
     4
 74
     0
 42
0.0000000001
 43
0.0000000001
 40
0.0
 40
0.0
 40
0.0
 40
0.0
 40
2.774045382722471
 40
2.774045382722471
 40
2.774045382722471
 40
2.774045382722471
 10
-22.45945399560941
 20
1.95473341650647
 30
0.0
 10
-21.1812371432515
 20
1.95473341650647
 30
0.0
 10
-20.19265012541328
 20
0.9773667082532336
 30
0.0
 10
-19.20406310757506
 20
-0.0000000000000033
 30
0.0
  0
SPLINE
  5
1C88
330
1F
100
AcDbEntity
  8
AM_0
100
AcDbSpline
210
0.0
220
0.0
230
1.0
 70
     8
 71
     3
 72
     8
 73
     4
 74
     0
 42
0.0000000001
 43
0.0000000001
 40
0.0
 40
0.0
 40
0.0
 40
0.0
 40
2.792136278909015
 40
2.792136278909015
 40
2.792136278909015
 40
2.792136278909015
 10
-22.91214605908558
 20
1.999999999999996
 30
0.0
 10
-21.62559333431408
 20
1.999999999999996
 30
0.0
 10
-20.64117425268266
 20
0.9999999999999966
 30
0.0
 10
-19.65675517105124
 20
-0.0000000000000032
 30
0.0
  0
VIEWPORT
  5
110
330
101
100
AcDbEntity
 67
     1
  8
0
100
AcDbViewport
 10
420.5
 20
297.0
 30
0.0
 40
948.9782706766916
 41
628.452
 68
     1
 69
     1
1001
ACAD
1000
MVIEW
1002
{
1070
    16
1010
0.0
1020
0.0
1030
0.0
1010
0.0
1020
0.0
1030
1.0
1040
0.0
1040
628.452
1040
420.5
1040
297.0
1040
50.0
1040
0.0
1040
0.0
1070
     0
1070
   100
1070
     1
1070
     1
1070
     0
1070
     0
1070
     0
1070
     0
1040
0.0
1040
0.0
1040
0.0
1040
10.0
1040
10.0
1040
10.0
1040
10.0
1070
     0
1002
{
1002
}
1002
}
  0
ENDSEC
  0
SECTION
  2
OBJECTS
  0
DICTIONARY
  5
C
330
0
100
AcDbDictionary
  3
ACAD_GROUP
350
D
  3
ACAD_LAYOUT
350
1A
  3
ACAD_MLINESTYLE
350
17
  3
ACAD_PLOTSETTINGS
350
19
  3
ACAD_PLOTSTYLENAME
350
E
  3
ACDBVARIABLEDICTIONARY
350
34
  3
ACMDICTIONARY
350
43
  3
AMG
350
2B
  3
AMGSNAPSETTINGS
350
6E
  3
DWGPROPS
350
1C9B
  3
ACDBHEADERROUNDTRIPXREC
350
1CA8
  0
DICTIONARY
  5
74
330
1F
100
AcDbDictionary
280
     1
  3
ACAD_INDEX
360
1C9D
  3
ACAD_LAYOUTSELFREF
360
1CCB
  0
DICTIONARY
  5
1CD0
330
101
100
AcDbDictionary
280
     1
  3
ACAD_LAYOUTSELFREF
360
1CD1
  0
DICTIONARY
  5
D
102
{ACAD_REACTORS
330
C
102
}
330
C
100
AcDbDictionary
  0
DICTIONARY
  5
1A
102
{ACAD_REACTORS
330
C
102
}
330
C
100
AcDbDictionary
  0
DICTIONARY
  5
17
102
{ACAD_REACTORS
330
C
102
}
330
C
100
AcDbDictionary
  3
STANDARD
350
18
  0
DICTIONARY
  5
19
102
{ACAD_REACTORS
330
C
102
}
330
C
100
AcDbDictionary
  0
ACDBDICTIONARYWDFLT
  5
E
102
{ACAD_REACTORS
330
C
102
}
330
C
100
AcDbDictionary
281
     1
  3
Normal
350
F
100
AcDbDictionaryWithDefault
340
F
  0
DICTIONARY
  5
34
102
{ACAD_REACTORS
330
C
102
}
330
C
100
AcDbDictionary
  3
INDEXCTL
350
35
  3
SORTENTS
350
B5E
  0
DICTIONARY
  5
43
102
{ACAD_REACTORS
330
C
102
}
330
C
100
AcDbDictionary
  3
ACMSTDDICTIONARY
350
260
  0
DICTIONARY
  5
2B
102
{ACAD_REACTORS
330
C
102
}
330
C
100
AcDbDictionary
  3
ACMGSETTINGS
350
2C
  0
DICTIONARY
  5
6E
102
{ACAD_REACTORS
330
C
102
}
330
C
100
AcDbDictionary
  0
XRECORD
  5
1C9B
102
{ACAD_REACTORS
330
C
102
}
330
C
100
AcDbXrecord
  1
DWGPROPS COOKIE
  2

  3

  4

  6

  7

  8

  9

300
AmdtFileType=82
301
=
302
=
303
=
304
=
305
=
306
=
307
=
308
=
309
=
 40
0.0833636111111111
 41
2452838.620506898
 42
2452839.807811249
  1

 90
        1
  0
DICTIONARY
  5
1CA8
102
{ACAD_REACTORS
330
C
102
}
330
C
100
AcDbDictionary
  3
TSTACKALIGN
350
1CA9
  3
TSTACKSIZE
350
1CAA
  3
HYPERLINKBASE
350
1CAB
  3
STYLESHEET
350
1CAC
  3
LAYOUTDICT
350
1CAD
  3
PLOTSETDICT
350
1CAE
  3
PLOTSTYLNAMDICT
350
1CAF
  3
LWETCUNION
350
1CB0
  3
INSUNITS
350
1CB1
  3
CEPSNTYPE
350
1CB2
  3
FINGERPRINTGUID
350
1CB3
  3
VERSIONGUID
350
1CB4
  3
PSVPSCALE
350
1CB5
  3
DIMSTYLEDATA
350
1CB6
  3
PUCSORTHOREF
350
1CB7
  3
PUCSORTHOVIEW
350
1CB8
  3
PUCSBASE
350
1CB9
  3
PUCSORGTOP
350
1CBA
  3
PUCSORGBOTTOM
350
1CBB
  3
PUCSORGLEFT
350
1CBC
  3
PUCSORGRIGHT
350
1CBD
  3
PUCSORGFRONT
350
1CBE
  3
PUCSORGBACK
350
1CBF
  3
UCSORTHOREF
350
1CC0
  3
UCSORTHOVIEW
350
1CC1
  3
UCSBASE
350
1CC2
  3
UCSORGTOP
350
1CC3
  3
UCSORGBOTTOM
350
1CC4
  3
UCSORGLEFT
350
1CC5
  3
UCSORGRIGHT
350
1CC6
  3
UCSORGFRONT
350
1CC7
  3
UCSORGBACK
350
1CC8
  0
DICTIONARY
  5
1C9D
102
{ACAD_REACTORS
330
74
102
}
330
74
100
AcDbDictionary
  3
*A1
350
1C9E
  0
XRECORD
  5
1CCB
102
{ACAD_REACTORS
330
74
102
}
330
74
100
AcDbXrecord
340
1F
  0
XRECORD
  5
1CD1
102
{ACAD_REACTORS
330
1CD0
102
}
330
1CD0
100
AcDbXrecord
340
101
  0
MLINESTYLE
  5
18
102
{ACAD_REACTORS
330
17
102
}
330
17
100
AcDbMlineStyle
  2
STANDARD
 70
     0
  3

 62
   256
 51
90.0
 52
90.0
 71
     2
 49
0.5
 62
   256
  6
BYLAYER
 49
-0.5
 62
   256
  6
BYLAYER
  0
ACDBPLACEHOLDER
  5
F
102
{ACAD_REACTORS
330
E
102
}
330
E
100
AcDbPlaceHolder
280
     0
  0
DICTIONARYVAR
  5
35
102
{ACAD_REACTORS
330
34
102
}
330
34
100
DictionaryVariables
280
     0
  1
1
  0
DICTIONARYVAR
  5
B5E
102
{ACAD_REACTORS
330
34
102
}
330
34
100
DictionaryVariables
280
     0
  1
96
  0
DICTIONARY
  5
260
102
{ACAD_REACTORS
330
43
102
}
330
43
100
AcDbDictionary
  0
DICTIONARY
  5
2C
102
{ACAD_REACTORS
330
2B
102
}
330
2B
100
AcDbDictionary
  3
DWGSETTINGS
350
2D
  0
XRECORD
  5
1CA9
102
{ACAD_REACTORS
330
1CA8
102
}
330
1CA8
100
AcDbXrecord
 90
        1
  0
XRECORD
  5
1CAA
102
{ACAD_REACTORS
330
1CA8
102
}
330
1CA8
100
AcDbXrecord
 90
       70
  0
XRECORD
  5
1CAB
102
{ACAD_REACTORS
330
1CA8
102
}
330
1CA8
100
AcDbXrecord
  1

  0
XRECORD
  5
1CAC
102
{ACAD_REACTORS
330
1CA8
102
}
330
1CA8
100
AcDbXrecord
  1
ACAD_M_9400.ctb
  0
XRECORD
  5
1CAD
102
{ACAD_REACTORS
330
1CA8
102
}
330
1CA8
100
AcDbXrecord
340
1A
  0
XRECORD
  5
1CAE
102
{ACAD_REACTORS
330
1CA8
102
}
330
1CA8
100
AcDbXrecord
340
19
  0
XRECORD
  5
1CAF
102
{ACAD_REACTORS
330
1CA8
102
}
330
1CA8
100
AcDbXrecord
340
E
  0
XRECORD
  5
1CB0
102
{ACAD_REACTORS
330
1CA8
102
}
330
1CA8
100
AcDbXrecord
 90
    10781
  0
XRECORD
  5
1CB1
102
{ACAD_REACTORS
330
1CA8
102
}
330
1CA8
100
AcDbXrecord
 90
        4
  0
XRECORD
  5
1CB2
102
{ACAD_REACTORS
330
1CA8
102
}
330
1CA8
100
AcDbXrecord
 90
        0
  0
XRECORD
  5
1CB3
102
{ACAD_REACTORS
330
1CA8
102
}
330
1CA8
100
AcDbXrecord
  1
{AFB28963-8C59-40AE-9337-C84526B81ACE}
  0
XRECORD
  5
1CB4
102
{ACAD_REACTORS
330
1CA8
102
}
330
1CA8
100
AcDbXrecord
  1
{08B3322B-954F-4291-8B4B-BA7B142A284F}
  0
XRECORD
  5
1CB5
102
{ACAD_REACTORS
330
1CA8
102
}
330
1CA8
100
AcDbXrecord
 40
0.0
  0
XRECORD
  5
1CB6
102
{ACAD_REACTORS
330
1CA8
102
}
330
1CA8
100
AcDbXrecord
1000
DSTYLE
1002
{
1070
    79
 70
     2
1070
   341
340
59
1070
   342
340
59
1070
   371
 70
    -1
1070
   372
 70
    -1
1002
}
  0
XRECORD
  5
1CB7
102
{ACAD_REACTORS
330
1CA8
102
}
330
1CA8
100
AcDbXrecord
340
0
  0
XRECORD
  5
1CB8
102
{ACAD_REACTORS
330
1CA8
102
}
330
1CA8
100
AcDbXrecord
 70
     0
  0
XRECORD
  5
1CB9
102
{ACAD_REACTORS
330
1CA8
102
}
330
1CA8
100
AcDbXrecord
340
0
  0
XRECORD
  5
1CBA
102
{ACAD_REACTORS
330
1CA8
102
}
330
1CA8
100
AcDbXrecord
 10
0.0
 20
0.0
 30
0.0
  0
XRECORD
  5
1CBB
102
{ACAD_REACTORS
330
1CA8
102
}
330
1CA8
100
AcDbXrecord
 10
0.0
 20
0.0
 30
0.0
  0
XRECORD
  5
1CBC
102
{ACAD_REACTORS
330
1CA8
102
}
330
1CA8
100
AcDbXrecord
 10
0.0
 20
0.0
 30
0.0
  0
XRECORD
  5
1CBD
102
{ACAD_REACTORS
330
1CA8
102
}
330
1CA8
100
AcDbXrecord
 10
0.0
 20
0.0
 30
0.0
  0
XRECORD
  5
1CBE
102
{ACAD_REACTORS
330
1CA8
102
}
330
1CA8
100
AcDbXrecord
 10
0.0
 20
0.0
 30
0.0
  0
XRECORD
  5
1CBF
102
{ACAD_REACTORS
330
1CA8
102
}
330
1CA8
100
AcDbXrecord
 10
0.0
 20
0.0
 30
0.0
  0
XRECORD
  5
1CC0
102
{ACAD_REACTORS
330
1CA8
102
}
330
1CA8
100
AcDbXrecord
340
0
  0
XRECORD
  5
1CC1
102
{ACAD_REACTORS
330
1CA8
102
}
330
1CA8
100
AcDbXrecord
 70
     0
  0
XRECORD
  5
1CC2
102
{ACAD_REACTORS
330
1CA8
102
}
330
1CA8
100
AcDbXrecord
340
0
  0
XRECORD
  5
1CC3
102
{ACAD_REACTORS
330
1CA8
102
}
330
1CA8
100
AcDbXrecord
 10
0.0
 20
0.0
 30
0.0
  0
XRECORD
  5
1CC4
102
{ACAD_REACTORS
330
1CA8
102
}
330
1CA8
100
AcDbXrecord
 10
0.0
 20
0.0
 30
0.0
  0
XRECORD
  5
1CC5
102
{ACAD_REACTORS
330
1CA8
102
}
330
1CA8
100
AcDbXrecord
 10
0.0
 20
0.0
 30
0.0
  0
XRECORD
  5
1CC6
102
{ACAD_REACTORS
330
1CA8
102
}
330
1CA8
100
AcDbXrecord
 10
0.0
 20
0.0
 30
0.0
  0
XRECORD
  5
1CC7
102
{ACAD_REACTORS
330
1CA8
102
}
330
1CA8
100
AcDbXrecord
 10
0.0
 20
0.0
 30
0.0
  0
XRECORD
  5
1CC8
102
{ACAD_REACTORS
330
1CA8
102
}
330
1CA8
100
AcDbXrecord
 10
0.0
 20
0.0
 30
0.0
  0
LAYER_INDEX
  5
1C9E
102
{ACAD_REACTORS
330
1C9D
102
}
330
1C9D
100
AcDbIndex
 40
2453152.359758877
100
AcDbLayerIndex
  8
0
360
1C9F
 90
        1
  8
AM_0
360
1CA0
 90
      109
  8
AM_11
360
1CA1
 90
        4
  8
AM_7
360
1CA2
 90
        1
  8
AM_5
360
1CA3
 90
        4
  8
Defpoints
360
1CA4
 90
        0
  8
AM_6
360
1CA5
 90
        1
  8
AM_CL
360
1CA6
 90
        0
  0
XRECORD
  5
2D
102
{ACAD_REACTORS
330
2C
102
}
330
2C
100
AcDbXrecord
  1
VERSION
140
15.0
  1
PRODUCT
  2
AutoCAD Mechanical 2000
  0
IDBUFFER
  5
1C9F
330
0
100
AcDbIdBuffer
330
DFD
  0
IDBUFFER
  5
1CA0
330
0
100
AcDbIdBuffer
330
1C48
330
1C49
330
1C4A
330
1C4B
330
1C4C
330
1C4D
330
1C4E
330
1C4F
330
1C50
330
1C51
330
1C52
330
1C53
330
1C54
330
1C55
330
1C56
330
1C57
330
1C58
330
1C59
330
1C5A
330
1C5B
330
1C5C
330
1C5D
330
1C5E
330
1C5F
330
1C60
330
1C61
330
1C62
330
1C63
330
1C64
330
1C65
330
1C66
330
1C69
330
1C6A
330
1C6B
330
1C6C
330
1C6D
330
1C6E
330
1C6F
330
1C70
330
1C71
330
1C72
330
1C73
330
1C74
330
1C75
330
1C76
330
1C78
330
1C7A
330
1C7B
330
1C7C
330
1C7D
330
1C7E
330
1C7F
330
1C80
330
1C81
330
1C82
330
1C83
330
1C84
330
1C85
330
1C86
330
1C87
330
1C88
330
DFA
330
DFB
330
DFC
330
DFE
330
DFF
330
E00
330
E32
330
1174
330
17FD
330
1C20
330
1C21
330
1C22
330
1C23
330
1C24
330
1C25
330
1C26
330
1C27
330
1C28
330
1C29
330
1C2A
330
1C2C
330
1C2D
330
1C2E
330
1C2F
330
1C30
330
1C31
330
1C32
330
1C33
330
1C34
330
1C35
330
1C36
330
1C37
330
1C38
330
1C39
330
1C3A
330
1C3B
330
1C3C
330
1C3D
330
1C3E
330
1C3F
330
1C40
330
1C41
330
1C42
330
1C43
330
1C44
330
1C45
330
1C46
330
1C47
  0
IDBUFFER
  5
1CA1
330
0
100
AcDbIdBuffer
330
1C2B
330
1C67
330
1C68
330
1C79
  0
IDBUFFER
  5
1CA2
330
0
100
AcDbIdBuffer
330
C50
  0
IDBUFFER
  5
1CA3
330
0
100
AcDbIdBuffer
330
C4F
330
C53
330
16F7
330
1704
  0
IDBUFFER
  5
1CA4
330
0
100
AcDbIdBuffer
  0
IDBUFFER
  5
1CA5
330
0
100
AcDbIdBuffer
330
C58
  0
IDBUFFER
  5
1CA6
330
0
100
AcDbIdBuffer
  0
ENDSEC
  0
EOF
