  0
SECTION
  2
HEADER
  9
$ACADVER
  1
AC1014
  9
$ACADMAINTVER
 70
     9
  9
$DWGCODEPAGE
  3
ANSI_932
  9
$INSBASE
 10
0.0
 20
0.0
 30
0.0
  9
$EXTMIN
 10
-81.73487421524638
 20
-27.25000099999999
 30
-0.00000001
  9
$EXTMAX
 10
8.829530889074508
 20
5.500000000000001
 30
0.00000001
  9
$LIMMIN
 10
-93.05016286219728
 20
-39.0952520994208
  9
$LIMMAX
 10
22.85609819359007
 20
28.94515144470625
  9
$ORTHOMODE
 70
     0
  9
$REGENMODE
 70
     1
  9
$FILLMODE
 70
     1
  9
$QTEXTMODE
 70
     0
  9
$MIRRTEXT
 70
     0
  9
$DRAGMODE
 70
     2
  9
$LTSCALE
 40
0.3
  9
$OSMODE
 70
    55
  9
$ATTMODE
 70
     1
  9
$TEXTSIZE
 40
2.5
  9
$TRACEWID
 40
1.0
  9
$TEXTSTYLE
  7
STANDARD
  9
$CLAYER
  8
AM_0
  9
$CELTYPE
  6
BYLAYER
  9
$CECOLOR
 62
   256
  9
$CELTSCALE
 40
1.0
  9
$DELOBJ
 70
     1
  9
$DISPSILH
 70
     0
  9
$DIMSCALE
 40
0.5
  9
$DIMASZ
 40
2.5
  9
$DIMEXO
 40
1.0
  9
$DIMDLI
 40
12.0
  9
$DIMRND
 40
0.0
  9
$DIMDLE
 40
0.0
  9
$DIMEXE
 40
1.0
  9
$DIMTP
 40
0.1
  9
$DIMTM
 40
0.1
  9
$DIMTXT
 40
3.2
  9
$DIMCEN
 40
0.0
  9
$DIMTSZ
 40
0.0
  9
$DIMTOL
 70
     0
  9
$DIMLIM
 70
     0
  9
$DIMTIH
 70
     0
  9
$DIMTOH
 70
     0
  9
$DIMSE1
 70
     0
  9
$DIMSE2
 70
     0
  9
$DIMTAD
 70
     3
  9
$DIMZIN
 70
     8
  9
$DIMBLK
  1
OPEN30
  9
$DIMASO
 70
     1
  9
$DIMSHO
 70
     1
  9
$DIMPOST
  1

  9
$DIMAPOST
  1
"
  9
$DIMALT
 70
     0
  9
$DIMALTD
 70
     2
  9
$DIMALTF
 40
0.0393701
  9
$DIMLFAC
 40
1.0
  9
$DIMTOFL
 70
     1
  9
$DIMTVP
 40
0.0
  9
$DIMTIX
 70
     0
  9
$DIMSOXD
 70
     0
  9
$DIMSAH
 70
     0
  9
$DIMBLK1
  1

  9
$DIMBLK2
  1

  9
$DIMSTYLE
  2
AM_JIS
  9
$DIMCLRD
 70
   256
  9
$DIMCLRE
 70
   256
  9
$DIMCLRT
 70
     2
  9
$DIMTFAC
 40
0.71
  9
$DIMGAP
 40
1.5
  9
$DIMJUST
 70
     0
  9
$DIMSD1
 70
     0
  9
$DIMSD2
 70
     0
  9
$DIMTOLJ
 70
     0
  9
$DIMTZIN
 70
     0
  9
$DIMALTZ
 70
     0
  9
$DIMALTTZ
 70
     0
  9
$DIMFIT
 70
     3
  9
$DIMUPT
 70
     0
  9
$DIMUNIT
 70
     2
  9
$DIMDEC
 70
     3
  9
$DIMTDEC
 70
     3
  9
$DIMALTU
 70
     2
  9
$DIMALTTD
 70
     2
  9
$DIMTXSTY
  7
ASAMI
  9
$DIMAUNIT
 70
     0
  9
$LUNITS
 70
     2
  9
$LUPREC
 70
     2
  9
$SKETCHINC
 40
1.0
  9
$FILLETRAD
 40
2.5
  9
$AUNITS
 70
     0
  9
$AUPREC
 70
     0
  9
$MENU
  1
.
  9
$ELEVATION
 40
0.0
  9
$PELEVATION
 40
0.0
  9
$THICKNESS
 40
0.0
  9
$LIMCHECK
 70
     0
  9
$BLIPMODE
 70
     0
  9
$CHAMFERA
 40
2.5
  9
$CHAMFERB
 40
2.5
  9
$CHAMFERC
 40
20.0
  9
$CHAMFERD
 40
0.0
  9
$SKPOLY
 70
     0
  9
$TDCREATE
 40
2452838.620506898
  9
$TDUPDATE
 40
2453152.359835196
  9
$TDINDWG
 40
0.0909234144
  9
$TDUSRTIMER
 40
0.0909234144
  9
$USRTIMER
 70
     1
  9
$ANGBASE
 50
0.0
  9
$ANGDIR
 70
     0
  9
$PDMODE
 70
     0
  9
$PDSIZE
 40
0.0
  9
$PLINEWID
 40
0.0
  9
$COORDS
 70
     1
  9
$SPLFRAME
 70
     0
  9
$SPLINETYPE
 70
     6
  9
$SPLINESEGS
 70
     8
  9
$ATTDIA
 70
     1
  9
$ATTREQ
 70
     1
  9
$HANDLING
 70
 12289
  9
$HANDSEED
  5
1D7D
  9
$SURFTAB1
 70
     6
  9
$SURFTAB2
 70
     6
  9
$SURFTYPE
 70
     6
  9
$SURFU
 70
     6
  9
$SURFV
 70
     6
  9
$UCSNAME
  2

  9
$UCSORG
 10
-0.0000000000000616
 20
0.0000000000003144
 30
0.0
  9
$UCSXDIR
 10
1.0
 20
0.0
 30
0.0
  9
$UCSYDIR
 10
0.0
 20
1.0
 30
0.0
  9
$PUCSNAME
  2

  9
$PUCSORG
 10
0.0
 20
0.0
 30
0.0
  9
$PUCSXDIR
 10
1.0
 20
0.0
 30
0.0
  9
$PUCSYDIR
 10
0.0
 20
1.0
 30
0.0
  9
$USERI1
 70
     0
  9
$USERI2
 70
     0
  9
$USERI3
 70
     0
  9
$USERI4
 70
     0
  9
$USERI5
 70
     0
  9
$USERR1
 40
0.0
  9
$USERR2
 40
0.0
  9
$USERR3
 40
0.0
  9
$USERR4
 40
0.0
  9
$USERR5
 40
0.0
  9
$WORLDVIEW
 70
     1
  9
$SHADEDGE
 70
     3
  9
$SHADEDIF
 70
    70
  9
$TILEMODE
 70
     1
  9
$MAXACTVP
 70
    64
  9
$PINSBASE
 10
0.0
 20
0.0
 30
0.0
  9
$PLIMCHECK
 70
     0
  9
$PEXTMIN
 10
1.000000000000000E+20
 20
1.000000000000000E+20
 30
1.000000000000000E+20
  9
$PEXTMAX
 10
-1.000000000000000E+20
 20
-1.000000000000000E+20
 30
-1.000000000000000E+20
  9
$PLIMMIN
 10
0.0
 20
0.0
  9
$PLIMMAX
 10
841.0
 20
594.0
  9
$UNITMODE
 70
     0
  9
$VISRETAIN
 70
     1
  9
$PLINEGEN
 70
     0
  9
$PSLTSCALE
 70
     0
  9
$TREEDEPTH
 70
  3020
  9
$PICKSTYLE
 70
     0
  9
$CMLSTYLE
  2
STANDARD
  9
$CMLJUST
 70
     0
  9
$CMLSCALE
 40
20.0
  9
$PROXYGRAPHICS
 70
     1
  9
$MEASUREMENT
 70
     1
  0
ENDSEC
  0
SECTION
  2
CLASSES
  0
CLASS
  1
ACDBDICTIONARYWDFLT
  2
AcDbDictionaryWithDefault
  3
AutoCAD 2000
 90
        0
280
     0
281
     0
  0
CLASS
  1
ACDBPLACEHOLDER
  2
AcDbPlaceHolder
  3
AutoCAD 2000
 90
        0
280
     0
281
     0
  0
CLASS
  1
LAYOUT
  2
AcDbLayout
  3
AutoCAD 2000
 90
        0
280
     0
281
     0
  0
CLASS
  1
AMGSETTINGSOBJ
  2
AmgSettingsObj
  3
"AcadM|Product Description: AutoCAD Mechanical 2000|Company: Autodesk"
 90
        0
280
     0
281
     0
  0
CLASS
  1
ACME_DOCUMENT
  2
AcMeDbDoc
  3
AcMeServices
 90
        0
280
     0
281
     0
  0
CLASS
  1
ACMESCOPE
  2
AcMeScope
  3
AcMeServices
 90
        0
280
     0
281
     0
  0
CLASS
  1
ACMECOMMANDHISTORY
  2
AcMeCommandHistory
  3
AcMeServices
 90
        0
280
     0
281
     0
  0
CLASS
  1
DICTIONARYVAR
  2
AcDbDictionaryVar
  3
AutoCAD 2000
 90
        0
280
     0
281
     0
  0
CLASS
  1
ACIMSYSVARMAN
  2
AcImSysVarManager
  3
AcMeServices
 90
        0
280
     0
281
     0
  0
CLASS
  1
ACIMREALSYSVAR
  2
AcImRealSysVar
  3
AcMeServices
 90
        0
280
     0
281
     0
  0
CLASS
  1
ACIMINTSYSVAR
  2
AcImIntSysVar
  3
AcMeServices
 90
        0
280
     0
281
     0
  0
CLASS
  1
ACMEDRAWINGMAN
  2
AcMeDrawingMan
  3
AcMeServices
 90
        0
280
     0
281
     0
  0
CLASS
  1
ACMEVIEW
  2
AcMeView
  3
AcMeServices
 90
        0
280
     0
281
     0
  0
CLASS
  1
ACDBENTITYCACHE
  2
AcMeEntityCache
  3
AcMeServices
 90
        0
280
     0
281
     0
  0
CLASS
  1
GSMANAGER
  2
AcMeGSManager
  3
AcMeServices
 90
        0
280
     0
281
     0
  0
CLASS
  1
AmdtInternalReactor
  2
AmdtInternalReactor
  3
AcMeServices
 90
        0
280
     0
281
     0
  0
CLASS
  1
ACMESTATEMGR
  2
AcMeStateMgr
  3
AcMeServices
 90
        0
280
     0
281
     0
  0
CLASS
  1
ACME_DATABASE
  2
AcMeDbDatabase
  3
AcMeServices
 90
        0
280
     0
281
     0
  0
CLASS
  1
ACRFINSADJUSTERMGR
  2
AcRfInsAdjusterMgr
  3
AcMeServices
 90
        0
280
     0
281
     0
  0
CLASS
  1
ACMDATADICTIONARY
  2
AcmDataDictionary
  3
"AcmSymBB|Product Description: AutoCAD Mechanical 2000|Company: Autodesk"
 90
        0
280
     0
281
     0
  0
CLASS
  1
ACMDATAENTRYBLOCK
  2
AcmDataEntryBlock
  3
"AcmSymBB|Product Description: AutoCAD Mechanical 2000|Company: Autodesk"
 90
        0
280
     0
281
     0
  0
CLASS
  1
AMGOBJPROPCFG
  2
AmgObjPropCfg
  3
"AmgLay|Product Description: AutoCAD Mechanical 2000|Company: Autodesk"
 90
        1
280
     0
281
     0
  0
CLASS
  1
ACAMGFILTERDAT
  2
AcAmgFilterDat
  3
"AcadM|Product Description: AutoCAD Mechanical 2000|Company: Autodesk"
 90
        0
280
     0
281
     0
  0
CLASS
  1
LAYER_INDEX
  2
AcDbLayerIndex
  3
AutoCAD 2000
 90
        0
280
     0
281
     0
  0
CLASS
  1
IDBUFFER
  2
AcDbIdBuffer
  3
AutoCAD 2000
 90
        0
280
     0
281
     0
  0
CLASS
  1
ACIMSTRSYSVAR
  2
AcImStrSysVar
  3
AcMeServices
 90
        0
280
     0
281
     0
  0
CLASS
  1
ACMSTANDARDJIS
  2
AcmStandardJIS
  3
"AcmSymBB|Product Description: AutoCAD Mechanical 2000|Company: Autodesk"
 90
        0
280
     0
281
     0
  0
CLASS
  1
ACMSURFSTANDARDJIS
  2
AcmSurfTextStdJIS
  3
"AcmSymBB|Product Description: AutoCAD Mechanical 2000|Company: Autodesk"
 90
        0
280
     0
281
     0
  0
CLASS
  1
ACMFCFSTANDARDJIS
  2
AcmFCFStdJIS
  3
"AcmSymBB|Product Description: AutoCAD Mechanical 2000|Company: Autodesk"
 90
        0
280
     0
281
     0
  0
CLASS
  1
ACMWELDSTANDARDJIS
  2
AcmWeldingStdJIS
  3
"AcmSymBB|Product Description: AutoCAD Mechanical 2000|Company: Autodesk"
 90
        0
280
     0
281
     0
  0
CLASS
  1
ACMIDSTANDARDJIS
  2
AcmIdStdJIS
  3
"AcmSymBB|Product Description: AutoCAD Mechanical 2000|Company: Autodesk"
 90
        0
280
     0
281
     0
  0
CLASS
  1
ACMDATUMSTANDARDJIS
  2
AcmDatumStdJIS
  3
"AcmSymBB|Product Description: AutoCAD Mechanical 2000|Company: Autodesk"
 90
        0
280
     0
281
     0
  0
CLASS
  1
ACMBOMSTANDARDJIS
  2
AcmBOMStdJIS
  3
"AcmSymBB|Product Description: AutoCAD Mechanical 2000|Company: Autodesk"
 90
        0
280
     0
281
     0
  0
CLASS
  1
ACMSTANDARDANSI
  2
AcmStandardANSI
  3
"AcmSymBB|Product Description: AutoCAD Mechanical 2000|Company: Autodesk"
 90
        0
280
     0
281
     0
  0
CLASS
  1
ACMSURFSTANDARDANSI
  2
AcmSurfTextStdANSI
  3
"AcmSymBB|Product Description: AutoCAD Mechanical 2000|Company: Autodesk"
 90
        0
280
     0
281
     0
  0
CLASS
  1
ACMFCFSTANDARDANSI
  2
AcmFCFStdANSI
  3
"AcmSymBB|Product Description: AutoCAD Mechanical 2000|Company: Autodesk"
 90
        0
280
     0
281
     0
  0
CLASS
  1
ACMWELDSTANDARDANSI
  2
AcmWeldingStdANSI
  3
"AcmSymBB|Product Description: AutoCAD Mechanical 2000|Company: Autodesk"
 90
        0
280
     0
281
     0
  0
CLASS
  1
ACMIDSTANDARDANSI
  2
AcmIdStdANSI
  3
"AcmSymBB|Product Description: AutoCAD Mechanical 2000|Company: Autodesk"
 90
        0
280
     0
281
     0
  0
CLASS
  1
ACMDATUMSTANDARDANSI
  2
AcmDatumStdANSI
  3
"AcmSymBB|Product Description: AutoCAD Mechanical 2000|Company: Autodesk"
 90
        0
280
     0
281
     0
  0
CLASS
  1
ACMBOMSTANDARDANSI
  2
AcmBOMStdANSI
  3
"AcmSymBB|Product Description: AutoCAD Mechanical 2000|Company: Autodesk"
 90
        0
280
     0
281
     0
  0
CLASS
  1
ACMSTANDARDBSI
  2
AcmStandardBSI
  3
"AcmSymBB|Product Description: AutoCAD Mechanical 2000|Company: Autodesk"
 90
        0
280
     0
281
     0
  0
CLASS
  1
ACMSURFSTANDARDBSI
  2
AcmSurfTextStdBSI
  3
"AcmSymBB|Product Description: AutoCAD Mechanical 2000|Company: Autodesk"
 90
        0
280
     0
281
     0
  0
CLASS
  1
ACMFCFSTANDARDBSI
  2
AcmFCFStdBSI
  3
"AcmSymBB|Product Description: AutoCAD Mechanical 2000|Company: Autodesk"
 90
        0
280
     0
281
     0
  0
CLASS
  1
ACMWELDSTANDARDBSI
  2
AcmWeldingStdBSI
  3
"AcmSymBB|Product Description: AutoCAD Mechanical 2000|Company: Autodesk"
 90
        0
280
     0
281
     0
  0
CLASS
  1
ACMIDSTANDARDBSI
  2
AcmIdStdBSI
  3
"AcmSymBB|Product Description: AutoCAD Mechanical 2000|Company: Autodesk"
 90
        0
280
     0
281
     0
  0
CLASS
  1
ACMDATUMSTANDARDBSI
  2
AcmDatumStdBSI
  3
"AcmSymBB|Product Description: AutoCAD Mechanical 2000|Company: Autodesk"
 90
        0
280
     0
281
     0
  0
CLASS
  1
ACMBOMSTANDARDBSI
  2
AcmBOMStdBSI
  3
"AcmSymBB|Product Description: AutoCAD Mechanical 2000|Company: Autodesk"
 90
        0
280
     0
281
     0
  0
CLASS
  1
LONG_TRANSACTION
  2
AcDbLongTransaction
  3
AutoCAD 2000
 90
        0
280
     0
281
     0
  0
CLASS
  1
LWPOLYLINE
  2
AcDbPolyline
  3
AutoCAD 2000
 90
        0
280
     0
281
     1
  0
CLASS
  1
HATCH
  2
AcDbHatch
  3
AutoCAD 2000
 90
        0
280
     0
281
     1
  0
CLASS
  1
XRECORD
  2
AcDbXrecord
  3
AutoCAD 2000
 90
        0
280
     0
281
     0
  0
ENDSEC
  0
SECTION
  2
TABLES
  0
TABLE
  2
VPORT
  5
8
330
0
100
AcDbSymbolTable
 70
     3
  0
VPORT
  5
1D52
330
8
100
AcDbSymbolTableRecord
100
AcDbViewportTableRecord
  2
*ACTIVE
 70
     0
 10
0.0
 20
0.0
 11
1.0
 21
1.0
 12
-31.39447124133387
 22
1.705788102715231
 13
0.0
 23
0.0
 14
2.5
 24
2.5
 15
10.0
 25
10.0
 16
0.0
 26
0.0
 36
1.0
 17
0.0
 27
0.0
 37
0.0
 40
93.66598164621539
 41
1.56570841889117
 42
50.0
 43
0.0
 44
0.0
 50
0.0
 51
0.0
 71
     0
 72
   100
 73
     1
 74
     3
 75
     0
 76
     0
 77
     0
 78
     0
  0
ENDTAB
  0
TABLE
  2
LTYPE
  5
5
330
0
100
AcDbSymbolTable
 70
    10
  0
LTYPE
  5
14
330
5
100
AcDbSymbolTableRecord
100
AcDbLinetypeTableRecord
  2
BYBLOCK
 70
     0
  3

 72
    65
 73
     0
 40
0.0
  0
LTYPE
  5
15
330
5
100
AcDbSymbolTableRecord
100
AcDbLinetypeTableRecord
  2
BYLAYER
 70
     0
  3

 72
    65
 73
     0
 40
0.0
  0
LTYPE
  5
16
330
5
100
AcDbSymbolTableRecord
100
AcDbLinetypeTableRecord
  2
CONTINUOUS
 70
     0
  3
Solid line
 72
    65
 73
     0
 40
0.0
  0
LTYPE
  5
4B
330
5
100
AcDbSymbolTableRecord
100
AcDbLinetypeTableRecord
  2
AM_ISO02W050
 70
     0
  3
__ __ __ __ __ __ __ __ __ __ __ __ __ __ __
 72
    65
 73
     2
 40
7.5
 49
6.0
 74
     0
 49
-1.5
 74
     0
  0
LTYPE
  5
4C
330
5
100
AcDbSymbolTableRecord
100
AcDbLinetypeTableRecord
  2
AM_ISO08W050
 70
     0
  3
____ . ____ . ____ . ____ . ____ . ____ . ____
 72
    65
 73
     4
 40
18.0
 49
12.0
 74
     0
 49
-1.5
 74
     0
 49
3.0
 74
     0
 49
-1.5
 74
     0
  0
LTYPE
  5
4D
330
5
100
AcDbSymbolTableRecord
100
AcDbLinetypeTableRecord
  2
AM_ISO09W050
 70
     0
  3
_____ . . _____ . . _____ . . ____ .. ____
 72
    65
 73
     6
 40
22.5
 49
12.0
 74
     0
 49
-1.5
 74
     0
 49
3.0
 74
     0
 49
-1.5
 74
     0
 49
3.0
 74
     0
 49
-1.5
 74
     0
  0
LTYPE
  5
4E
330
5
100
AcDbSymbolTableRecord
100
AcDbLinetypeTableRecord
  2
AMCONSTR
 70
     0
  3
_______________________
 72
    65
 73
     2
 40
9999.0
 49
9999.0
 74
     0
 49
0.0
 74
     0
  0
LTYPE
  5
4F
330
5
100
AcDbSymbolTableRecord
100
AcDbLinetypeTableRecord
  2
AM_ISO02W050X2
 70
     0
  3
 _ _ _ _ _ _ _ _ _ _ _ _
 72
    65
 73
     2
 40
3.75
 49
3.0
 74
     0
 49
-0.75
 74
     0
  0
LTYPE
  5
50
330
5
100
AcDbSymbolTableRecord
100
AcDbLinetypeTableRecord
  2
AM_ISO08W050X2
 70
     0
  3
__ . __ . __ . __ . __ . __
 72
    65
 73
     4
 40
9.0
 49
6.0
 74
     0
 49
-0.75
 74
     0
 49
1.5
 74
     0
 49
-0.75
 74
     0
  0
LTYPE
  5
53
330
5
100
AcDbSymbolTableRecord
100
AcDbLinetypeTableRecord
  2
AMZIGZAG
 70
     0
  3
/\/-/\/-/\/-/\/-/\/-/\/
 72
    65
 73
     2
 40
11.00009999999999
 49
0.0001
 74
     4
 75
   135
340
52
 46
0.04
 50
0.0
 44
0.0
 45
0.0
 49
-11.0
 74
     0
  0
LTYPE
  5
166
330
5
100
AcDbSymbolTableRecord
100
AcDbLinetypeTableRecord
  2
ACJISTGL
 70
     0
  3
_ _ _ _ _
 72
    65
 73
     2
 40
3.0
 49
2.0
 74
     0
 49
-1.0
 74
     0
  0
LTYPE
  5
26A
330
5
100
AcDbSymbolTableRecord
100
AcDbLinetypeTableRecord
  2
ACJISTGB
 70
     0
  3
__ . . __ . .
 72
    65
 73
     6
 40
9.0
 49
4.0
 74
     0
 49
-1.0
 74
     0
 49
1.0
 74
     0
 49
-1.0
 74
     0
 49
1.0
 74
     0
 49
-1.0
 74
     0
  0
ENDTAB
  0
TABLE
  2
LAYER
  5
2
330
0
100
AcDbSymbolTable
 70
     7
  0
LAYER
  5
10
330
2
100
AcDbSymbolTableRecord
100
AcDbLayerTableRecord
  2
0
 70
     0
 62
     7
  6
CONTINUOUS
  0
LAYER
  5
3F9
330
2
100
AcDbSymbolTableRecord
100
AcDbLayerTableRecord
  2
AM_0
 70
     0
 62
     7
  6
CONTINUOUS
  0
LAYER
  5
BD6
330
2
100
AcDbSymbolTableRecord
100
AcDbLayerTableRecord
  2
AM_11
 70
     0
 62
     3
  6
AM_ISO09W050
  0
LAYER
  5
BD7
330
2
100
AcDbSymbolTableRecord
100
AcDbLayerTableRecord
  2
AM_7
 70
     0
 62
     4
  6
AM_ISO08W050
  0
LAYER
  5
BD8
330
2
100
AcDbSymbolTableRecord
100
AcDbLayerTableRecord
  2
AM_5
 70
     0
 62
     3
  6
CONTINUOUS
  0
LAYER
  5
BD9
330
2
100
AcDbSymbolTableRecord
100
AcDbLayerTableRecord
  2
DEFPOINTS
 70
     0
 62
     7
  6
CONTINUOUS
  0
LAYER
  5
BDA
330
2
100
AcDbSymbolTableRecord
100
AcDbLayerTableRecord
  2
AM_6
 70
     0
 62
     2
  6
CONTINUOUS
  0
ENDTAB
  0
TABLE
  2
STYLE
  5
3
330
0
100
AcDbSymbolTable
 70
     5
  0
STYLE
  5
11
330
3
100
AcDbSymbolTableRecord
100
AcDbTextStyleTableRecord
  2
STANDARD
 70
     0
 40
0.0
 41
1.0
 50
0.0
 71
     0
 42
2.5
  3
simplex.shx
  4
EXTFONT.SHX
  0
STYLE
  5
52
330
3
100
AcDbSymbolTableRecord
100
AcDbTextStyleTableRecord
  2

 70
     1
 40
0.0
 41
1.0
 50
0.0
 71
     0
 42
2.5
  3
ltypeshp.shx
  4

  0
STYLE
  5
6B
330
3
100
AcDbSymbolTableRecord
100
AcDbTextStyleTableRecord
  2
ASAMI
 70
     0
 40
0.0
 41
1.0
 50
0.0
 71
     0
 42
2.5
  3
simplex.shx
  4
EXTFONT.SHX
  0
STYLE
  5
262
330
3
100
AcDbSymbolTableRecord
100
AcDbTextStyleTableRecord
  2
ACJISTS
 70
     0
 40
1.0
 41
1.0
 50
0.0
 71
     0
 42
2.5
  3
simplex.shx
  4
bigfont.shx
  0
STYLE
  5
269
330
3
100
AcDbSymbolTableRecord
100
AcDbTextStyleTableRecord
  2
ACJISGDT
 70
     0
 40
0.0
 41
1.0
 50
0.0
 71
     0
 42
2.5
  3
amgdtans.shx
  4

  0
ENDTAB
  0
TABLE
  2
VIEW
  5
6
330
0
100
AcDbSymbolTable
 70
     0
  0
ENDTAB
  0
TABLE
  2
UCS
  5
7
330
0
100
AcDbSymbolTable
 70
     0
  0
ENDTAB
  0
TABLE
  2
APPID
  5
9
330
0
100
AcDbSymbolTable
 70
    13
  0
APPID
  5
12
330
9
100
AcDbSymbolTableRecord
100
AcDbRegAppTableRecord
  2
ACAD
 70
     0
  0
APPID
  5
30
330
9
100
AcDbSymbolTableRecord
100
AcDbRegAppTableRecord
  2
MCAD_NO_VIS
 70
     0
  0
APPID
  5
31
330
9
100
AcDbSymbolTableRecord
100
AcDbRegAppTableRecord
  2
ACAD_TEMP_GRAPHIC
 70
     0
  0
APPID
  5
2C2
330
9
100
AcDbSymbolTableRecord
100
AcDbRegAppTableRecord
  2
GENIUS_GENDTOL_13
 70
     0
  0
APPID
  5
339
330
9
100
AcDbSymbolTableRecord
100
AcDbRegAppTableRecord
  2
GENIUS_GENODEF_13
 70
     0
  0
APPID
  5
33A
330
9
100
AcDbSymbolTableRecord
100
AcDbRegAppTableRecord
  2
GENIUS_GENOBJ-N-RSBK_13
 70
     0
  0
APPID
  5
33B
330
9
100
AcDbSymbolTableRecord
100
AcDbRegAppTableRecord
  2
GENIUS_GENOBJ-N-LIB_13
 70
     0
  0
APPID
  5
33C
330
9
100
AcDbSymbolTableRecord
100
AcDbRegAppTableRecord
  2
GENIUS_GENSCALE_13
 70
     0
  0
APPID
  5
378
330
9
100
AcDbSymbolTableRecord
100
AcDbRegAppTableRecord
  2
GENIUS_GENDIMSH_14
 70
     0
  0
APPID
  5
BDB
330
9
100
AcDbSymbolTableRecord
100
AcDbRegAppTableRecord
  2
GENIUS_GENOBJ-N-CEN_13
 70
     0
  0
APPID
  5
BDC
330
9
100
AcDbSymbolTableRecord
100
AcDbRegAppTableRecord
  2
GENIUS_GENFIL_13
 70
     0
  0
APPID
  5
BDD
330
9
100
AcDbSymbolTableRecord
100
AcDbRegAppTableRecord
  2
GENIUS_GENOBJ-N-FIL_13
 70
     0
  0
APPID
  5
12AD
330
9
100
AcDbSymbolTableRecord
100
AcDbRegAppTableRecord
  2
GENIUS_GENOREF_13
 70
     0
  0
ENDTAB
  0
TABLE
  2
DIMSTYLE
  5
A
330
0
100
AcDbSymbolTable
 70
     8
  0
DIMSTYLE
105
58
102
{ACAD_REACTORS
330
C4F
330
C53
330
18B7
330
18EB
102
}
330
A
100
AcDbSymbolTableRecord
100
AcDbDimStyleTableRecord
  2
AM_JIS
 70
     0
  3

  4
"
  5
OPEN30
  6

  7

 40
0.5
 41
2.5
 42
1.0
 43
12.0
 44
1.0
 45
0.0
 46
0.0
 47
0.1
 48
0.1
140
3.2
141
0.0
142
0.0
143
0.0393701
144
1.0
145
0.0
146
0.71
147
1.5
 71
     0
 72
     0
 73
     0
 74
     0
 75
     0
 76
     0
 77
     3
 78
     8
170
     0
171
     2
172
     1
173
     0
174
     0
175
     0
176
   256
177
   256
178
     2
270
     2
271
     3
272
     3
273
     2
274
     2
340
6B
275
     0
280
     0
281
     0
282
     0
283
     0
284
     0
285
     0
286
     0
287
     3
288
     0
  0
DIMSTYLE
105
5F
330
A
100
AcDbSymbolTableRecord
100
AcDbDimStyleTableRecord
  2
AM_JIS$3
 70
     0
  3

  4
"
  5
OPEN30
  6

  7

 40
0.5
 41
2.5
 42
1.0
 43
10.0
 44
1.0
 45
0.0
 46
0.0
 47
0.1
 48
0.1
140
3.2
141
0.0
142
0.0
143
0.0393701
144
1.0
145
0.0
146
0.71
147
1.5
 71
     0
 72
     0
 73
     0
 74
     1
 75
     0
 76
     0
 77
     3
 78
     8
170
     0
171
     2
172
     0
173
     0
174
     0
175
     0
176
   256
177
   256
178
     2
270
     2
271
     2
272
     3
273
     2
274
     2
340
6B
275
     0
280
     0
281
     0
282
     0
283
     0
284
     0
285
     0
286
     0
287
     0
288
     1
  0
DIMSTYLE
105
60
330
A
100
AcDbSymbolTableRecord
100
AcDbDimStyleTableRecord
  2
AM_JIS$4
 70
     0
  3

  4
"
  5
OPEN30
  6

  7

 40
0.5
 41
2.5
 42
1.0
 43
10.0
 44
1.0
 45
0.0
 46
0.0
 47
0.1
 48
0.1
140
3.2
141
0.0
142
0.0
143
0.0393701
144
1.0
145
0.0
146
0.71
147
1.5
 71
     0
 72
     0
 73
     0
 74
     1
 75
     0
 76
     0
 77
     3
 78
     8
170
     0
171
     2
172
     0
173
     0
174
     0
175
     0
176
   256
177
   256
178
     2
270
     2
271
     2
272
     3
273
     2
274
     2
340
6B
275
     0
280
     0
281
     0
282
     0
283
     0
284
     0
285
     0
286
     0
287
     0
288
     1
  0
DIMSTYLE
105
61
330
A
100
AcDbSymbolTableRecord
100
AcDbDimStyleTableRecord
  2
AM_JIS$6
 70
     0
  3

  4
"
  5
OPEN30
  6

  7

 40
0.5
 41
2.5
 42
1.0
 43
10.0
 44
1.0
 45
0.0
 46
0.0
 47
0.1
 48
0.1
140
3.2
141
0.0
142
0.0
143
0.0393701
144
1.0
145
0.0
146
0.71
147
1.5
 71
     0
 72
     0
 73
     0
 74
     0
 75
     0
 76
     0
 77
     0
 78
     8
170
     0
171
     2
172
     1
173
     0
174
     0
175
     0
176
   256
177
   256
178
     2
270
     2
271
     2
272
     2
273
     2
274
     2
340
6B
275
     0
280
     0
281
     0
282
     0
283
     0
284
     0
285
     0
286
     0
287
     3
288
     0
  0
DIMSTYLE
105
62
330
A
100
AcDbSymbolTableRecord
100
AcDbDimStyleTableRecord
  2
AM_JIS$7
 70
     0
  3

  4
"
  5
OPEN30
  6

  7

 40
0.5
 41
2.5
 42
1.0
 43
10.0
 44
1.0
 45
0.0
 46
0.0
 47
0.1
 48
0.1
140
3.2
141
0.0
142
0.0
143
0.0393701
144
1.0
145
0.0
146
0.71
147
1.5
 71
     0
 72
     0
 73
     0
 74
     0
 75
     0
 76
     0
 77
     3
 78
     8
170
     0
171
     2
172
     1
173
     0
174
     0
175
     0
176
   256
177
   256
178
     2
270
     2
271
     2
272
     3
273
     2
274
     2
340
6B
275
     0
280
     0
281
     0
282
     0
283
     0
284
     0
285
     0
286
     0
287
     3
288
     0
  0
DIMSTYLE
105
63
330
A
100
AcDbSymbolTableRecord
100
AcDbDimStyleTableRecord
  2
AM_JIS$SF
 70
     0
  3

  4
"
  5
OPEN30
  6

  7

 40
0.5
 41
2.5
 42
1.0
 43
10.0
 44
1.0
 45
0.0
 46
0.0
 47
0.1
 48
0.1
140
3.2
141
0.0
142
0.0
143
0.0393701
144
1.0
145
0.0
146
0.71
147
1.5
 71
     0
 72
     0
 73
     0
 74
     0
 75
     1
 76
     1
 77
     3
 78
     8
170
     0
171
     2
172
     1
173
     0
174
     0
175
     0
176
   256
177
   256
178
     2
270
     2
271
     2
272
     2
273
     2
274
     2
340
6B
275
     0
280
     0
281
     0
282
     0
283
     0
284
     0
285
     0
286
     0
287
     3
288
     0
  0
DIMSTYLE
105
68
330
A
100
AcDbSymbolTableRecord
100
AcDbDimStyleTableRecord
  2
AM_JIS$SH
 70
     0
  3

  4
"
  5

  6
GENAXEH
  7
OPEN30
 40
0.5
 41
2.5
 42
1.0
 43
10.0
 44
1.0
 45
0.0
 46
0.0
 47
0.1
 48
0.1
140
3.2
141
0.0
142
0.0
143
0.0393701
144
2.0
145
0.0
146
0.71
147
1.5
 71
     0
 72
     0
 73
     0
 74
     0
 75
     1
 76
     1
 77
     3
 78
     8
170
     0
171
     2
172
     1
173
     1
174
     0
175
     0
176
   256
177
   256
178
     2
270
     2
271
     2
272
     2
273
     2
274
     2
340
6B
275
     0
280
     0
281
     0
282
     0
283
     0
284
     0
285
     0
286
     0
287
     3
288
     0
  0
DIMSTYLE
105
B34
330
A
100
AcDbSymbolTableRecord
100
AcDbDimStyleTableRecord
  2
AM_JIS$2
 70
     0
  3

  4
"
  5
OPEN30
  6

  7

 40
0.5
 41
2.5
 42
1.0
 43
12.0
 44
1.0
 45
0.0
 46
0.0
 47
0.1
 48
0.1
140
3.2
141
0.0
142
0.0
143
0.0393701
144
1.0
145
0.0
146
0.71
147
1.5
 71
     0
 72
     0
 73
     0
 74
     0
 75
     0
 76
     0
 77
     3
 78
     8
170
     0
171
     2
172
     1
173
     0
174
     0
175
     0
176
   256
177
   256
178
     2
270
     2
271
     3
272
     3
273
     2
274
     2
340
6B
275
     0
280
     0
281
     0
282
     0
283
     0
284
     0
285
     0
286
     0
287
     3
288
     0
  0
ENDTAB
  0
TABLE
  2
BLOCK_RECORD
  5
1
330
0
100
AcDbSymbolTable
 70
    10
  0
BLOCK_RECORD
  5
1F
102
{ACAD_XDICTIONARY
360
74
102
}
330
1
100
AcDbSymbolTableRecord
100
AcDbBlockTableRecord
  2
*MODEL_SPACE
  0
BLOCK_RECORD
  5
101
102
{ACAD_XDICTIONARY
360
1D7B
102
}
330
1
100
AcDbSymbolTableRecord
100
AcDbBlockTableRecord
  2
*PAPER_SPACE
  0
BLOCK_RECORD
  5
59
330
1
100
AcDbSymbolTableRecord
100
AcDbBlockTableRecord
  2
_OPEN30
  0
BLOCK_RECORD
  5
64
330
1
100
AcDbSymbolTableRecord
100
AcDbBlockTableRecord
  2
GENAXEH
  0
BLOCK_RECORD
  5
C75
330
1
100
AcDbSymbolTableRecord
100
AcDbBlockTableRecord
  2
*D5
  0
BLOCK_RECORD
  5
C81
330
1
100
AcDbSymbolTableRecord
100
AcDbBlockTableRecord
  2
*D6
  0
BLOCK_RECORD
  5
18B8
330
1
100
AcDbSymbolTableRecord
100
AcDbBlockTableRecord
  2
*D7
  0
BLOCK_RECORD
  5
18EC
330
1
100
AcDbSymbolTableRecord
100
AcDbBlockTableRecord
  2
*D8
  0
ENDTAB
  0
ENDSEC
  0
SECTION
  2
BLOCKS
  0
BLOCK
  5
20
330
1F
100
AcDbEntity
  8
0
100
AcDbBlockBegin
  2
*MODEL_SPACE
 70
     0
 10
0.0
 20
0.0
 30
0.0
  3
*MODEL_SPACE
  1

  0
ENDBLK
  5
21
330
1F
100
AcDbEntity
  8
0
100
AcDbBlockEnd
  0
BLOCK
  5
103
330
101
100
AcDbEntity
 67
     1
  8
0
100
AcDbBlockBegin
  2
*PAPER_SPACE
 70
     0
 10
0.0
 20
0.0
 30
0.0
  3
*PAPER_SPACE
  1

  0
ENDBLK
  5
104
330
101
100
AcDbEntity
 67
     1
  8
0
100
AcDbBlockEnd
  0
BLOCK
  5
5D
330
59
100
AcDbEntity
  8
0
100
AcDbBlockBegin
  2
_OPEN30
 70
     0
 10
0.0
 20
0.0
 30
0.0
  3
_OPEN30
  1

  0
LINE
  5
5A
330
59
100
AcDbEntity
  8
0
 62
     0
100
AcDbLine
 10
-1.0
 20
0.26794919
 30
0.0
 11
0.0
 21
0.0
 31
0.0
  0
LINE
  5
5B
330
59
100
AcDbEntity
  8
0
 62
     0
100
AcDbLine
 10
0.0
 20
0.0
 30
0.0
 11
-1.0
 21
-0.26794919
 31
0.0
  0
LINE
  5
5C
330
59
100
AcDbEntity
  8
0
 62
     0
100
AcDbLine
 10
0.0
 20
0.0
 30
0.0
 11
-1.0
 21
0.0
 31
0.0
  0
ENDBLK
  5
5E
330
59
100
AcDbEntity
  8
0
100
AcDbBlockEnd
  0
BLOCK
  5
66
330
64
100
AcDbEntity
  8
0
100
AcDbBlockBegin
  2
GENAXEH
 70
     0
 10
0.0
 20
0.0
 30
0.0
  3
GENAXEH
  1

  0
LINE
  5
65
330
64
100
AcDbEntity
  8
0
100
AcDbLine
 10
-1.0
 20
0.0
 30
0.0
 11
1.0
 21
0.0
 31
0.0
  0
ENDBLK
  5
67
330
64
100
AcDbEntity
  8
0
100
AcDbBlockEnd
  0
BLOCK
  5
C7F
330
C75
100
AcDbEntity
  8
0
100
AcDbBlockBegin
  2
*D5
 70
     1
 10
0.0
 20
0.0
 30
0.0
  3
*D5
  1

  0
LINE
  5
1B85
330
C75
100
AcDbEntity
  8
AM_5
100
AcDbLine
 10
-70.00000000000007
 20
-2.750000000000006
 30
0.0
 11
-70.00000000000007
 21
-16.50000099999994
 31
0.0
  0
LINE
  5
1B86
330
C75
100
AcDbEntity
  8
AM_5
100
AcDbLine
 10
-0.00000000000006
 20
-1.500000000000003
 30
0.0
 11
-0.0000000000000609
 21
-16.50000099999994
 31
0.0
  0
LINE
  5
1B87
330
C75
100
AcDbEntity
  8
AM_5
100
AcDbLine
 10
-68.75000000000007
 20
-16.00000099999994
 30
0.0
 11
-1.25000000000006
 21
-16.00000099999994
 31
0.0
  0
INSERT
  5
1B88
330
C75
100
AcDbEntity
  8
AM_5
100
AcDbBlockReference
  2
_OPEN30
 10
-70.00000000000007
 20
-16.00000099999994
 30
0.0
 41
1.25
 42
1.25
 43
1.25
 50
180.0
  0
INSERT
  5
1B89
330
C75
100
AcDbEntity
  8
AM_5
100
AcDbBlockReference
  2
_OPEN30
 10
-0.0000000000000609
 20
-16.00000099999994
 30
0.0
 41
1.25
 42
1.25
 43
1.25
  0
MTEXT
  5
1B8A
330
C75
100
AcDbEntity
  8
AM_5
 62
     2
100
AcDbMText
 10
-35.00000000000006
 20
-14.45000099999994
 30
0.0
 40
1.6
 41
0.0
 71
     5
 72
     1
  1
70
  7
ASAMI
1001
ACAD
1000
MTEXTBEGIN
1070
    73
1070
     1
1070
    44
1040
1.0
1070
    74
1070
     0
1000
MTEXTEND
  0
POINT
  5
1B8B
330
C75
100
AcDbEntity
  8
DEFPOINTS
 62
     0
100
AcDbPoint
 10
-70.00000000000007
 20
-2.250000000000006
 30
0.0
  0
POINT
  5
1B8C
330
C75
100
AcDbEntity
  8
DEFPOINTS
 62
     0
100
AcDbPoint
 10
-0.00000000000006
 20
-1.000000000000003
 30
0.0
  0
POINT
  5
1B8D
330
C75
100
AcDbEntity
  8
DEFPOINTS
 62
     0
100
AcDbPoint
 10
-0.0000000000000609
 20
-16.00000099999994
 30
0.0
  0
ENDBLK
  5
C80
330
C75
100
AcDbEntity
  8
0
100
AcDbBlockEnd
  0
BLOCK
  5
C8B
330
C81
100
AcDbEntity
  8
0
100
AcDbBlockBegin
  2
*D6
 70
     1
 10
0.0
 20
0.0
 30
0.0
  3
*D6
  1

  0
LINE
  5
1B7A
330
C81
100
AcDbEntity
  8
AM_5
100
AcDbLine
 10
-70.00000000000007
 20
-3.000000000000006
 30
0.0
 11
-79.8848742152464
 21
-3.000000000000003
 31
0.0
  0
LINE
  5
1B7B
330
C81
100
AcDbEntity
  8
AM_5
100
AcDbLine
 10
-70.00000000000007
 20
2.999999999999998
 30
0.0
 11
-79.8848742152464
 21
3.000000000000001
 31
0.0
  0
LINE
  5
1B7C
330
C81
100
AcDbEntity
  8
AM_5
100
AcDbLine
 10
-79.3848742152464
 20
-4.250000000000003
 30
0.0
 11
-79.3848742152464
 21
-5.500000000000003
 31
0.0
  0
LINE
  5
1B7D
330
C81
100
AcDbEntity
  8
AM_5
100
AcDbLine
 10
-79.3848742152464
 20
4.250000000000001
 30
0.0
 11
-79.3848742152464
 21
5.500000000000001
 31
0.0
  0
LINE
  5
1B7E
330
C81
100
AcDbEntity
  8
AM_5
100
AcDbLine
 10
-79.3848742152464
 20
-3.000000000000003
 30
0.0
 11
-79.3848742152464
 21
3.000000000000001
 31
0.0
  0
INSERT
  5
1B7F
330
C81
100
AcDbEntity
  8
AM_5
100
AcDbBlockReference
  2
_OPEN30
 10
-79.3848742152464
 20
-3.000000000000003
 30
0.0
 41
1.25
 42
1.25
 43
1.25
 50
90.0
  0
INSERT
  5
1B80
330
C81
100
AcDbEntity
  8
AM_5
100
AcDbBlockReference
  2
_OPEN30
 10
-79.3848742152464
 20
3.000000000000001
 30
0.0
 41
1.25
 42
1.25
 43
1.25
 50
270.0
  0
MTEXT
  5
1B81
330
C81
100
AcDbEntity
  8
AM_5
 62
     2
100
AcDbMText
 10
-80.9348742152464
 20
-0.0000000000000075
 30
0.0
 40
1.6
 41
0.0
 71
     5
 72
     1
  1
%%c6
  7
ASAMI
 11
0.0000000000000001
 21
1.0
 31
0.0
1001
ACAD
1000
MTEXTBEGIN
1070
    73
1070
     1
1070
    44
1040
1.0
1070
    74
1070
     0
1000
MTEXTEND
  0
POINT
  5
1B82
330
C81
100
AcDbEntity
  8
DEFPOINTS
 62
     0
100
AcDbPoint
 10
-69.50000000000007
 20
-3.000000000000006
 30
0.0
  0
POINT
  5
1B83
330
C81
100
AcDbEntity
  8
DEFPOINTS
 62
     0
100
AcDbPoint
 10
-69.50000000000007
 20
2.999999999999998
 30
0.0
  0
POINT
  5
1B84
330
C81
100
AcDbEntity
  8
DEFPOINTS
 62
     0
100
AcDbPoint
 10
-79.3848742152464
 20
3.000000000000001
 30
0.0
  0
ENDBLK
  5
C8C
330
C81
100
AcDbEntity
  8
0
100
AcDbBlockEnd
  0
BLOCK
  5
18C4
330
18B8
100
AcDbEntity
  8
0
100
AcDbBlockBegin
  2
*D7
 70
     1
 10
0.0
 20
0.0
 30
0.0
  3
*D7
  1

  0
LINE
  5
1A0F
330
18B8
100
AcDbEntity
  8
AM_5
100
AcDbLine
 10
0.499999999999944
 20
-2.500000000000082
 30
0.0
 11
8.829530889074508
 21
-2.500000000000084
 31
0.0
  0
LINE
  5
1A10
330
18B8
100
AcDbEntity
  8
AM_5
100
AcDbLine
 10
0.2576584203350449
 20
2.500000000013559
 30
0.0
 11
8.829530889074508
 21
2.500000000013557
 31
0.0
  0
LINE
  5
1A11
330
18B8
100
AcDbEntity
  8
AM_5
100
AcDbLine
 10
8.329530889074508
 20
-3.750000000000084
 30
0.0
 11
8.329530889074506
 21
-5.000000000000085
 31
0.0
  0
LINE
  5
1A12
330
18B8
100
AcDbEntity
  8
AM_5
100
AcDbLine
 10
8.329530889074508
 20
3.750000000013557
 30
0.0
 11
8.32953088907451
 21
5.000000000013557
 31
0.0
  0
LINE
  5
1A13
330
18B8
100
AcDbEntity
  8
AM_5
100
AcDbLine
 10
8.329530889074508
 20
-2.500000000000084
 30
0.0
 11
8.329530889074508
 21
2.500000000013557
 31
0.0
  0
INSERT
  5
1A14
330
18B8
100
AcDbEntity
  8
AM_5
100
AcDbBlockReference
  2
_OPEN30
 10
8.329530889074508
 20
-2.500000000000084
 30
0.0
 41
1.25
 42
1.25
 43
1.25
 50
90.0
  0
INSERT
  5
1A15
330
18B8
100
AcDbEntity
  8
AM_5
100
AcDbBlockReference
  2
_OPEN30
 10
8.329530889074508
 20
2.500000000013557
 30
0.0
 41
1.25
 42
1.25
 43
1.25
 50
270.0
  0
MTEXT
  5
1A16
330
18B8
100
AcDbEntity
  8
AM_5
 62
     2
100
AcDbMText
 10
6.779530889074507
 20
0.0000000000067359
 30
0.0
 40
1.6
 41
0.0
 71
     5
 72
     1
  1
%%c5
  7
ASAMI
 11
0.0000000000000001
 21
1.0
 31
0.0
1001
ACAD
1000
MTEXTBEGIN
1070
    73
1070
     1
1070
    44
1040
1.0
1070
    74
1070
     0
1000
MTEXTEND
  0
POINT
  5
1A17
330
18B8
100
AcDbEntity
  8
DEFPOINTS
 62
     0
100
AcDbPoint
 10
-0.000000000000056
 20
-2.500000000000082
 30
0.0
  0
POINT
  5
1A18
330
18B8
100
AcDbEntity
  8
DEFPOINTS
 62
     0
100
AcDbPoint
 10
-0.2423415796649551
 20
2.500000000013559
 30
0.0
  0
POINT
  5
1A19
330
18B8
100
AcDbEntity
  8
DEFPOINTS
 62
     0
100
AcDbPoint
 10
8.329530889074508
 20
2.500000000013557
 30
0.0
  0
ENDBLK
  5
18C5
330
18B8
100
AcDbEntity
  8
0
100
AcDbBlockEnd
  0
BLOCK
  5
18F6
330
18EC
100
AcDbEntity
  8
0
100
AcDbBlockBegin
  2
*D8
 70
     1
 10
0.0
 20
0.0
 30
0.0
  3
*D8
  1

  0
LINE
  5
1B9E
330
18EC
100
AcDbEntity
  8
AM_5
100
AcDbLine
 10
-30.00000000000005
 20
-3.000000000000092
 30
0.0
 11
-30.00000000000005
 21
-10.50000100000014
 31
0.0
  0
LINE
  5
1B9F
330
18EC
100
AcDbEntity
  8
AM_5
100
AcDbLine
 10
-0.0000000000000561
 20
-3.000000000000082
 30
0.0
 11
-0.0000000000000565
 21
-10.50000100000014
 31
0.0
  0
LINE
  5
1BA0
330
18EC
100
AcDbEntity
  8
AM_5
100
AcDbLine
 10
-28.75000000000005
 20
-10.00000100000014
 30
0.0
 11
-1.250000000000056
 21
-10.00000100000014
 31
0.0
  0
INSERT
  5
1BA1
330
18EC
100
AcDbEntity
  8
AM_5
100
AcDbBlockReference
  2
_OPEN30
 10
-30.00000000000005
 20
-10.00000100000014
 30
0.0
 41
1.25
 42
1.25
 43
1.25
 50
180.0
  0
INSERT
  5
1BA2
330
18EC
100
AcDbEntity
  8
AM_5
100
AcDbBlockReference
  2
_OPEN30
 10
-0.0000000000000565
 20
-10.00000100000014
 30
0.0
 41
1.25
 42
1.25
 43
1.25
  0
MTEXT
  5
1BA3
330
18EC
100
AcDbEntity
  8
AM_5
 62
     2
100
AcDbMText
 10
-15.00000000000005
 20
-8.45000100000014
 30
0.0
 40
1.6
 41
0.0
 71
     5
 72
     1
  1
30
  7
ASAMI
1001
ACAD
1000
MTEXTBEGIN
1070
    73
1070
     1
1070
    44
1040
1.0
1070
    74
1070
     0
1000
MTEXTEND
  0
POINT
  5
1BA4
330
18EC
100
AcDbEntity
  8
DEFPOINTS
 62
     0
100
AcDbPoint
 10
-30.00000000000005
 20
-2.500000000000092
 30
0.0
  0
POINT
  5
1BA5
330
18EC
100
AcDbEntity
  8
DEFPOINTS
 62
     0
100
AcDbPoint
 10
-0.000000000000056
 20
-2.500000000000082
 30
0.0
  0
POINT
  5
1BA6
330
18EC
100
AcDbEntity
  8
DEFPOINTS
 62
     0
100
AcDbPoint
 10
-0.0000000000000565
 20
-10.00000100000014
 30
0.0
  0
ENDBLK
  5
18F7
330
18EC
100
AcDbEntity
  8
0
100
AcDbBlockEnd
  0
ENDSEC
  0
SECTION
  2
ENTITIES
  0
DIMENSION
  5
C4F
330
1F
100
AcDbEntity
  8
AM_5
100
AcDbDimension
  2
*D5
 10
-0.0000000000000609
 20
-16.00000099999994
 30
0.0
 11
-35.00000000000006
 21
-14.45000099999994
 31
0.0
 70
    32
  1
<>
  3
AM_JIS
100
AcDbAlignedDimension
 13
-70.00000000000007
 23
-2.250000000000006
 33
0.0
 14
-0.00000000000006
 24
-1.000000000000003
 34
0.0
 50
0.0000000000002036
100
AcDbRotatedDimension
1001
GENIUS_GENDTOL_13
1000

1000
H7
1000

1040
0.0
  0
LINE
  5
C50
330
1F
100
AcDbEntity
  8
AM_7
100
AcDbLine
 10
-72.38487321524641
 20
-0.0000000000000036
 30
0.0
 11
1.32952988907452
 21
-0.0000000000000036
 31
0.0
1001
GENIUS_GENODEF_13
1002
{
1000
HIER
1070
     0
1002
}
1002
{
1000
MANEDIT
1070
     0
1002
}
1002
{
1000
NOSEL
1070
     0
1002
}
1002
{
1000
BEHIND
1070
     0
1002
}
1002
{
1000
REACTOR
1002
}
1001
GENIUS_GENOBJ-N-CEN_13
1002
{
1000
OWNER
1000
GEN
1002
}
  0
DIMENSION
  5
C53
330
1F
100
AcDbEntity
  8
AM_5
100
AcDbDimension
  2
*D6
 10
-79.3848742152464
 20
3.000000000000001
 30
0.0
 11
-79.3848742152464
 21
-0.0000000000000077
 31
0.0
 70
   160
  1
%%c<>
  3
AM_JIS
100
AcDbAlignedDimension
 13
-69.50000000000007
 23
-3.000000000000006
 33
0.0
 14
-69.50000000000007
 24
2.999999999999998
 34
0.0
 50
270.0
100
AcDbRotatedDimension
1001
ACAD
1000
DSTYLE
1002
{
1070
    48
1040
0.1
1070
    47
1040
0.1
1070
   274
1070
     2
1070
   272
1070
     3
1002
}
1001
GENIUS_GENDTOL_13
1000

1000
h6
1000

1040
0.0
  0
TEXT
  5
C58
330
1F
100
AcDbEntity
  8
AM_6
100
AcDbText
 10
-46.96428571428577
 20
-27.25000099999999
 30
0.0
 40
2.5
  1
EHHM4050ZX
 50
0.0000000000002036
 72
     4
 11
-35.00000000000006
 21
-26.00000099999995
 31
0.0
100
AcDbText
  0
LINE
  5
DFA
330
1F
100
AcDbEntity
  8
AM_0
100
AcDbLine
 10
-34.90000000000007
 20
-3.000000000000006
 30
0.0
 11
-34.90000000000007
 21
2.999999999999992
 31
0.0
  0
LINE
  5
DFB
330
1F
100
AcDbEntity
  8
AM_0
100
AcDbLine
 10
-70.00000000000007
 20
2.249999999999993
 30
0.0
 11
-69.50000000000007
 21
2.999999999999993
 31
0.0
1001
GENIUS_GENFIL_13
1070
     0
1040
0.5
1040
0.5
1040
0.4999999999999716
1040
45.0
1002
{
1002
}
  0
LINE
  5
DFC
330
1F
100
AcDbEntity
  8
AM_0
100
AcDbLine
 10
-70.00000000000007
 20
-2.250000000000006
 30
0.0
 11
-69.50000000000007
 21
-3.000000000000006
 31
0.0
1001
GENIUS_GENFIL_13
1070
     0
1040
0.5
1040
0.5
1040
0.4999999999999716
1040
45.00000000000036
1002
{
1002
}
  0
LINE
  5
DFD
330
1F
100
AcDbEntity
  8
0
100
AcDbLine
 10
-69.50000000000007
 20
-3.000000000000006
 30
0.0
 11
-69.50000000000007
 21
2.999999999999993
 31
0.0
  0
LINE
  5
DFE
330
1F
100
AcDbEntity
  8
AM_0
100
AcDbLine
 10
-70.00000000000007
 20
-2.250000000000006
 30
0.0
 11
-70.00000000000007
 21
2.249999999999993
 31
0.0
  0
LINE
  5
DFF
330
1F
100
AcDbEntity
  8
AM_0
100
AcDbLine
 10
-69.50000000000007
 20
2.999999999999993
 30
0.0
 11
-34.90000000000006
 21
2.999999999999994
 31
0.0
1001
GENIUS_GENODEF_13
1002
{
1000
HIER
1070
     0
1002
}
1002
{
1000
MANEDIT
1070
     0
1002
}
1002
{
1000
NOSEL
1070
     0
1002
}
1002
{
1000
BEHIND
1070
     0
1002
}
1002
{
1000
REACTOR
1002
}
1001
GENIUS_GENOBJ-N-CEN_13
1002
{
1000
OWNER
1000
GEN
1002
}
  0
LINE
  5
E00
330
1F
100
AcDbEntity
  8
AM_0
100
AcDbLine
 10
-69.50000000000007
 20
-3.000000000000006
 30
0.0
 11
-34.90000000000006
 21
-3.000000000000006
 31
0.0
1001
GENIUS_GENODEF_13
1002
{
1000
HIER
1070
     0
1002
}
1002
{
1000
MANEDIT
1070
     0
1002
}
1002
{
1000
NOSEL
1070
     0
1002
}
1002
{
1000
BEHIND
1070
     0
1002
}
1002
{
1000
REACTOR
1002
}
1001
GENIUS_GENOBJ-N-CEN_13
1002
{
1000
OWNER
1000
GEN
1002
}
  0
LINE
  5
E32
330
1F
100
AcDbEntity
  8
AM_0
100
AcDbLine
 10
-34.90000000000007
 20
2.999999999999992
 30
0.0
 11
-33.03397459621595
 21
2.500000000000078
 31
0.0
  0
LINE
  5
1174
330
1F
100
AcDbEntity
  8
AM_0
100
AcDbLine
 10
-34.90000000000007
 20
-3.000000000000006
 30
0.0
 11
-33.03397459621595
 21
-2.500000000000092
 31
0.0
  0
DIMENSION
  5
18B7
330
1F
100
AcDbEntity
  8
AM_5
100
AcDbDimension
  2
*D7
 10
8.329530889074508
 20
2.500000000013557
 30
0.0
 11
8.329530889074508
 21
0.0000000000067358
 31
0.0
 70
   160
  1
%%c<>
  3
AM_JIS
100
AcDbAlignedDimension
 13
-0.000000000000056
 23
-2.500000000000082
 33
0.0
 14
-0.2423415796649551
 24
2.500000000013559
 34
0.0
 50
90.00000000000005
100
AcDbRotatedDimension
1001
ACAD
1000
DSTYLE
1002
{
1070
    48
1040
0.05
1070
    47
1040
0.0
1070
   274
1070
     1
1070
   272
1070
     2
1002
}
1001
GENIUS_GENDTOL_13
1000

1000
H7
1000

1040
0.0
  0
DIMENSION
  5
18EB
330
1F
100
AcDbEntity
  8
AM_5
100
AcDbDimension
  2
*D8
 10
-0.0000000000000565
 20
-10.00000100000014
 30
0.0
 11
-15.00000000000005
 21
-8.45000100000014
 31
0.0
 70
    32
  1
<>
  3
AM_JIS
100
AcDbAlignedDimension
 13
-30.00000000000005
 23
-2.500000000000092
 33
0.0
 14
-0.000000000000056
 24
-2.500000000000082
 34
0.0
 50
359.9999999999992
100
AcDbRotatedDimension
1001
GENIUS_GENDTOL_13
1000

1000
H7
1000

1040
0.0
  0
LINE
  5
1B45
330
1F
100
AcDbEntity
  8
AM_0
100
AcDbLine
 10
-33.03397459621427
 20
2.499999999999916
 30
0.0
 11
-33.03397459621427
 21
-2.500000000000091
 31
0.0
  0
LINE
  5
1B9D
330
1F
100
AcDbEntity
  8
AM_11
100
AcDbLine
 10
-30.00000000000005
 20
-2.500000000000082
 30
0.0
 11
-30.00000000000005
 21
2.499999999999916
 31
0.0
  0
SPLINE
  5
1C60
330
1F
100
AcDbEntity
  8
AM_0
100
AcDbSpline
210
0.0
220
0.0
230
1.0
 70
     8
 71
     3
 72
     8
 73
     4
 74
     0
 42
0.0000000001
 43
0.0000000001
 40
0.0
 40
0.0
 40
0.0
 40
0.0
 40
0.4192277204543643
 40
0.4192277204543643
 40
0.4192277204543643
 40
0.4192277204543643
 10
-0.1181782617303799
 20
2.500000000000143
 30
0.0
 10
-0.1506168332335982
 20
2.270763943574185
 30
0.0
 10
-0.3991670501652445
 20
2.125000000000153
 30
0.0
 10
-0.5826618771001537
 20
2.125000000000143
 30
0.0
  0
LINE
  5
1C61
330
1F
100
AcDbEntity
  8
AM_0
100
AcDbLine
 10
-0.2925775013402916
 20
1.689805507164211
 30
0.0
 11
-0.5826618771001537
 21
2.125000000000144
 31
0.0
  0
LINE
  5
1C62
330
1F
100
AcDbEntity
  8
AM_0
100
AcDbLine
 10
-0.1181782617307437
 20
2.500000000000143
 30
0.0
 11
-0.0000000000000757
 21
2.473550952893818
 31
0.0
  0
LINE
  5
1C63
330
1F
100
AcDbEntity
  8
AM_0
100
AcDbLine
 10
-0.5826618771001537
 20
2.125000000000144
 30
0.0
 11
-2.101467806836235
 21
2.313852135101231
 31
0.0
  0
SPLINE
  5
1C64
330
1F
100
AcDbEntity
  8
AM_0
100
AcDbSpline
210
0.0
220
0.0
230
1.0
 70
     8
 71
     3
 72
     8
 73
     4
 74
     0
 42
0.0000000001
 43
0.0000000001
 40
0.0
 40
0.0
 40
0.0
 40
0.0
 40
2.795805529891336
 40
2.795805529891336
 40
2.795805529891336
 40
2.795805529891336
 10
-0.1181782617287751
 20
2.500000000000143
 30
0.0
 10
-0.4852931924601993
 20
2.500000000000143
 30
0.0
 10
-0.8265101874436172
 20
2.387204124780483
 30
0.0
 10
-1.149608837437824
 20
2.19549560569388
 30
0.0
  0
SPLINE
  5
1C65
330
1F
100
AcDbEntity
  8
AM_0
100
AcDbSpline
210
0.0
220
0.0
230
1.0
 70
     8
 71
     3
 72
     8
 73
     4
 74
     0
 42
0.0000000001
 43
0.0000000001
 40
0.0
 40
0.0
 40
0.0
 40
0.0
 40
2.795805529891336
 40
2.795805529891336
 40
2.795805529891336
 40
2.795805529891336
 10
-3.210509443668345
 20
2.500000000000144
 30
0.0
 10
-3.577624374399862
 20
2.500000000000144
 30
0.0
 10
-3.918841369383197
 20
2.387204124780483
 30
0.0
 10
-4.241940019377405
 20
2.19549560569388
 30
0.0
  0
LINE
  5
1C66
330
1F
100
AcDbEntity
  8
AM_0
100
AcDbLine
 10
-3.674993059039723
 20
2.125000000000144
 30
0.0
 11
-5.1937989887759
 21
2.313852135101231
 31
0.0
  0
SPLINE
  5
1C67
330
1F
100
AcDbEntity
  8
AM_0
100
AcDbSpline
210
0.0
220
0.0
230
1.0
 70
     8
 71
     3
 72
     8
 73
     4
 74
     0
 42
0.0000000001
 43
0.0000000001
 40
0.0
 40
0.0
 40
0.0
 40
0.0
 40
2.795805529891336
 40
2.795805529891336
 40
2.795805529891336
 40
2.795805529891336
 10
-9.395171807547583
 20
2.500000000000145
 30
0.0
 10
-9.762286738279016
 20
2.500000000000145
 30
0.0
 10
-10.10350373326234
 20
2.387204124780484
 30
0.0
 10
-10.42660238325655
 20
2.195495605693881
 30
0.0
  0
LINE
  5
1C68
330
1F
100
AcDbEntity
  8
AM_0
100
AcDbLine
 10
-12.95198660485842
 20
2.124999999999996
 30
0.0
 11
-14.4707925345946
 21
2.313852135101084
 31
0.0
  0
SPLINE
  5
1C69
330
1F
100
AcDbEntity
  8
AM_0
100
AcDbSpline
210
0.0
220
0.0
230
1.0
 70
     8
 71
     3
 72
     8
 73
     4
 74
     0
 42
0.0000000001
 43
0.0000000001
 40
0.0
 40
0.0
 40
0.0
 40
0.0
 40
2.795805529891336
 40
2.795805529891336
 40
2.795805529891336
 40
2.795805529891336
 10
-12.48750298948713
 20
2.499999999999996
 30
0.0
 10
-12.85461792021856
 20
2.499999999999996
 30
0.0
 10
-13.1958349152019
 20
2.387204124780336
 30
0.0
 10
-13.51893356519611
 20
2.195495605693733
 30
0.0
  0
LINE
  5
1C6A
330
1F
100
AcDbEntity
  8
AM_0
100
AcDbLine
 10
-9.859655422918875
 20
2.125000000000145
 30
0.0
 11
-11.37846135265505
 21
2.313852135101232
 31
0.0
  0
SPLINE
  5
1C6B
330
1F
100
AcDbEntity
  8
AM_0
100
AcDbSpline
210
0.0
220
0.0
230
1.0
 70
     8
 71
     3
 72
     8
 73
     4
 74
     0
 42
0.0000000001
 43
0.0000000001
 40
0.0
 40
0.0
 40
0.0
 40
0.0
 40
2.795805529891336
 40
2.795805529891336
 40
2.795805529891336
 40
2.795805529891336
 10
-6.302840625607917
 20
2.500000000000144
 30
0.0
 10
-6.66995555633935
 20
2.500000000000144
 30
0.0
 10
-7.011172551322777
 20
2.387204124780484
 30
0.0
 10
-7.334271201317069
 20
2.195495605693881
 30
0.0
  0
LINE
  5
1C6C
330
1F
100
AcDbEntity
  8
AM_0
100
AcDbLine
 10
-6.767324240979388
 20
2.125000000000145
 30
0.0
 11
-8.28613017071548
 21
2.313852135101232
 31
0.0
  0
LINE
  5
1C6D
330
1F
100
AcDbEntity
  8
AM_0
100
AcDbLine
 10
-0.0000000000000757
 20
0.0000000000001443
 30
0.0
 11
-0.0414034527474032
 21
-0.4999999999998557
 31
0.0
  0
LINE
  5
1C6E
330
1F
100
AcDbEntity
  8
AM_0
100
AcDbLine
 10
-0.0414034527474032
 20
-0.4999999999998557
 30
0.0
 11
-0.0474988053584359
 21
-0.5288735406597574
 31
0.0
  0
LINE
  5
1C6F
330
1F
100
AcDbEntity
  8
AM_0
100
AcDbLine
 10
-0.0000000000000757
 20
0.0000000000001443
 30
0.0
 11
-0.0414034527474032
 21
0.5000000000001441
 31
0.0
  0
LINE
  5
1C70
330
1F
100
AcDbEntity
  8
AM_0
100
AcDbLine
 10
-0.5826618771001537
 20
-0.4999999999998557
 30
0.0
 11
-0.5826618771001537
 21
0.0000000000001444
 31
0.0
  0
LINE
  5
1C71
330
1F
100
AcDbEntity
  8
AM_0
100
AcDbLine
 10
-0.0543232550488514
 20
-0.4999999999998557
 30
0.0
 11
-0.5826618771001537
 21
-0.4999999999998557
 31
0.0
  0
LINE
  5
1C72
330
1F
100
AcDbEntity
  8
AM_0
100
AcDbLine
 10
-0.5826618771001537
 20
0.0000000000001444
 30
0.0
 11
-0.0000000000000757
 21
-0.000000000000083
 31
0.0
  0
LINE
  5
1C73
330
1F
100
AcDbEntity
  8
AM_0
100
AcDbLine
 10
-0.0000000000000757
 20
0.7298360724443591
 30
0.0
 11
-0.0474988053584359
 21
0.528873540660046
 31
0.0
  0
LINE
  5
1C74
330
1F
100
AcDbEntity
  8
AM_0
100
AcDbLine
 10
-0.0414034527474032
 20
-1.018511207038867
 30
0.0
 11
-0.0000000000000757
 21
-0.7298360724440421
 31
0.0
  0
LINE
  5
1C75
330
1F
100
AcDbEntity
  8
AM_0
100
AcDbLine
 10
-0.0414034527474032
 20
-1.018511207038867
 30
0.0
 11
-0.2925775013402916
 21
-1.445364098667906
 31
0.0
  0
LINE
  5
1C76
330
1F
100
AcDbEntity
  8
AM_0
100
AcDbLine
 10
-0.0414034527474032
 20
-2.408591287765003
 30
0.0
 11
-0.0000000000000757
 21
-2.473550952893927
 31
0.0
  0
LINE
  5
1C77
330
1F
100
AcDbEntity
  8
AM_0
100
AcDbLine
 10
-0.0000000000000757
 20
-2.473550952893927
 30
0.0
 11
-0.1181782617287751
 21
-2.499999999999855
 31
0.0
  0
LINE
  5
1C78
330
1F
100
AcDbEntity
  8
AM_0
100
AcDbLine
 10
-0.0414034527474032
 20
-2.408591287765003
 30
0.0
 11
-0.0414034527474032
 21
-1.018511207038867
 31
0.0
  0
ELLIPSE
  5
1C79
330
1F
100
AcDbEntity
  8
AM_0
100
AcDbEllipse
 10
2.033646050661625
 20
-1.002488852953346
 30
0.0
 11
0.0000000000000032
 21
2.985633114027523
 31
0.0
210
0.0
220
0.0
230
0.9999999999999998
 40
0.7878550782015632
 41
1.719681220318975
 42
2.061170729468638
  0
LINE
  5
1C7A
330
1F
100
AcDbEntity
  8
AM_0
100
AcDbLine
 10
-0.0000000000000757
 20
-2.473550952893927
 30
0.0
 11
-0.0000000000000757
 21
-0.7298360724440988
 31
0.0
  0
SPLINE
  5
1C7B
330
1F
100
AcDbEntity
  8
AM_0
100
AcDbSpline
210
0.0
220
0.0
230
1.0
 70
     8
 71
     3
 72
     8
 73
     4
 74
     0
 42
0.0000000001
 43
0.0000000001
 40
0.0
 40
0.0
 40
0.0
 40
0.0
 40
1.797797194454997
 40
1.797797194454997
 40
1.797797194454997
 40
1.797797194454997
 10
-2.780492333022779
 20
-2.443416770632919
 30
0.0
 10
-2.54442505815153
 20
-2.443416770632919
 30
0.0
 10
-2.318757534131975
 20
-2.397235663818915
 30
0.0
 10
-2.101467806706902
 20
-2.313852135051289
 30
0.0
  0
LINE
  5
1C7C
330
1F
100
AcDbEntity
  8
AM_0
100
AcDbLine
 10
-1.149608837438095
 20
-2.195495605694216
 30
0.0
 11
-2.101467806836235
 21
-2.313852135100913
 31
0.0
  0
LINE
  5
1C7D
330
1F
100
AcDbEntity
  8
AM_0
100
AcDbLine
 10
-0.0000000000000757
 20
-0.7298360724440421
 30
0.0
 11
-0.1725015167790622
 21
0.0000000000001444
 31
0.0
  0
LINE
  5
1C7E
330
1F
100
AcDbEntity
  8
AM_0
100
AcDbLine
 10
-0.2925775013402916
 20
-1.445364098667906
 30
0.0
 11
-0.5826618771001537
 21
-0.4999999999998557
 31
0.0
  0
SPLINE
  5
1C7F
330
1F
100
AcDbEntity
  8
AM_0
100
AcDbSpline
210
0.0
220
0.0
230
1.0
 70
     8
 71
     3
 72
     8
 73
     4
 74
     0
 42
0.0000000001
 43
0.0000000001
 40
0.9166275210629445
 40
0.9166275210629445
 40
0.9166275210629445
 40
0.9166275210629445
 40
9.246817942408316
 40
9.246817942408316
 40
9.246817942408316
 40
9.246817942408316
 10
-0.0414034527474032
 20
-2.408591287765003
 30
0.0
 10
-1.088531221217985
 20
-2.201203387462809
 30
0.0
 10
-1.934511777119617
 20
-1.10060169373136
 30
0.0
 10
-2.780492333021343
 20
0.0000000000001448
 30
0.0
  0
SPLINE
  5
1C80
330
1F
100
AcDbEntity
  8
AM_0
100
AcDbSpline
210
0.0
220
0.0
230
1.0
 70
     8
 71
     3
 72
     8
 73
     4
 74
     0
 42
0.0000000001
 43
0.0000000001
 40
0.0
 40
0.0
 40
0.0
 40
0.0
 40
1.797797194454997
 40
1.797797194454997
 40
1.797797194454997
 40
1.797797194454997
 10
-5.872823514962445
 20
-2.443416770632918
 30
0.0
 10
-5.636756240091111
 20
-2.443416770632918
 30
0.0
 10
-5.411088716071462
 20
-2.397235663818915
 30
0.0
 10
-5.193798988646389
 20
-2.313852135051288
 30
0.0
  0
SPLINE
  5
1C81
330
1F
100
AcDbEntity
  8
AM_0
100
AcDbSpline
210
0.0
220
0.0
230
1.0
 70
     8
 71
     3
 72
     8
 73
     4
 74
     0
 42
0.0000000001
 43
0.0000000001
 40
0.0
 40
0.0
 40
0.0
 40
0.0
 40
1.168827779870509
 40
1.168827779870509
 40
1.168827779870509
 40
1.168827779870509
 10
-6.302840625610967
 20
-2.499999999999854
 30
0.0
 10
-6.149362808625379
 20
-2.499999999999854
 30
0.0
 10
-6.000411384864635
 20
-2.480285745923279
 30
0.0
 10
-5.855417910641102
 20
-2.443333037536629
 30
0.0
  0
LINE
  5
1C82
330
1F
100
AcDbEntity
  8
AM_0
100
AcDbLine
 10
-4.241940019377582
 20
-2.195495605694216
 30
0.0
 11
-5.1937989887759
 21
-2.313852135100912
 31
0.0
  0
SPLINE
  5
1C83
330
1F
100
AcDbEntity
  8
AM_0
100
AcDbSpline
210
0.0
220
0.0
230
1.0
 70
     8
 71
     3
 72
     8
 73
     4
 74
     0
 42
0.0000000001
 43
0.0000000001
 40
0.0
 40
0.0
 40
0.0
 40
0.0
 40
2.792136278909016
 40
2.792136278909016
 40
2.792136278909016
 40
2.792136278909016
 10
-3.210509443668345
 20
-2.499999999999855
 30
0.0
 10
-4.432619858317948
 20
-2.499999999999854
 30
0.0
 10
-5.367730241963697
 20
-1.249999999999854
 30
0.0
 10
-6.302840625609447
 20
0.0000000000001453
 30
0.0
  0
SPLINE
  5
1C84
330
1F
100
AcDbEntity
  8
AM_0
100
AcDbSpline
210
0.0
220
0.0
230
1.0
 70
     8
 71
     3
 72
     8
 73
     4
 74
     0
 42
0.0000000001
 43
0.0000000001
 40
0.0
 40
0.0
 40
0.0
 40
0.0
 40
1.168827779870509
 40
1.168827779870509
 40
1.168827779870509
 40
1.168827779870509
 10
-3.21050944367148
 20
-2.499999999999855
 30
0.0
 10
-3.057031626685807
 20
-2.499999999999855
 30
0.0
 10
-2.908080202925064
 20
-2.480285745923279
 30
0.0
 10
-2.763086728701521
 20
-2.443333037536629
 30
0.0
  0
SPLINE
  5
1C85
330
1F
100
AcDbEntity
  8
AM_0
100
AcDbSpline
210
0.0
220
0.0
230
1.0
 70
     8
 71
     3
 72
     8
 73
     4
 74
     0
 42
0.0000000001
 43
0.0000000001
 40
0.0
 40
0.0
 40
0.0
 40
0.0
 40
2.77404538272248
 40
2.77404538272248
 40
2.77404538272248
 40
2.77404538272248
 10
-2.780492333019729
 20
-2.443416770632976
 30
0.0
 10
-3.994684411875008
 20
-2.443416770632975
 30
0.0
 10
-4.93375396341792
 20
-1.221708385316415
 30
0.0
 10
-5.872823514960829
 20
0.0000000000001452
 30
0.0
  0
SPLINE
  5
1C86
330
1F
100
AcDbEntity
  8
AM_0
100
AcDbSpline
210
0.0
220
0.0
230
1.0
 70
     8
 71
     3
 72
     8
 73
     4
 74
     0
 42
0.0000000001
 43
0.0000000001
 40
0.0
 40
0.0
 40
0.0
 40
0.0
 40
2.792136278909009
 40
2.792136278909009
 40
2.792136278909009
 40
2.792136278909009
 10
-0.1181782617287751
 20
-2.499999999999855
 30
0.0
 10
-1.340288676378374
 20
-2.499999999999855
 30
0.0
 10
-2.27539906002412
 20
-1.249999999999854
 30
0.0
 10
-3.210509443669867
 20
0.0000000000001448
 30
0.0
  0
SPLINE
  5
1C87
330
1F
100
AcDbEntity
  8
AM_0
100
AcDbSpline
210
0.0
220
0.0
230
1.0
 70
     8
 71
     3
 72
     8
 73
     4
 74
     0
 42
0.0000000001
 43
0.0000000001
 40
0.0
 40
0.0
 40
0.0
 40
0.0
 40
1.797797194454997
 40
1.797797194454997
 40
1.797797194454997
 40
1.797797194454997
 10
-8.965154696901997
 20
-2.443416770633067
 30
0.0
 10
-8.729087422030666
 20
-2.443416770633067
 30
0.0
 10
-8.503419898011017
 20
-2.397235663819063
 30
0.0
 10
-8.286130170585945
 20
-2.313852135051436
 30
0.0
  0
LINE
  5
1C88
330
1F
100
AcDbEntity
  8
AM_0
100
AcDbLine
 10
-7.334271201317137
 20
-2.195495605694365
 30
0.0
 11
-8.286130170715452
 21
-2.31385213510106
 31
0.0
  0
SPLINE
  5
1C89
330
1F
100
AcDbEntity
  8
AM_0
100
AcDbSpline
210
0.0
220
0.0
230
1.0
 70
     8
 71
     3
 72
     8
 73
     4
 74
     0
 42
0.0000000001
 43
0.0000000001
 40
0.0
 40
0.0
 40
0.0
 40
0.0
 40
1.168827779870509
 40
1.168827779870509
 40
1.168827779870509
 40
1.168827779870509
 10
-9.395171807550521
 20
-2.500000000000003
 30
0.0
 10
-9.241693990564932
 20
-2.500000000000003
 30
0.0
 10
-9.092742566804188
 20
-2.480285745923427
 30
0.0
 10
-8.947749092580655
 20
-2.443333037536777
 30
0.0
  0
SPLINE
  5
1C8A
330
1F
100
AcDbEntity
  8
AM_0
100
AcDbSpline
210
0.0
220
0.0
230
1.0
 70
     8
 71
     3
 72
     8
 73
     4
 74
     0
 42
0.0000000001
 43
0.0000000001
 40
0.0
 40
0.0
 40
0.0
 40
0.0
 40
1.168827779870509
 40
1.168827779870509
 40
1.168827779870509
 40
1.168827779870509
 10
-12.48750298949019
 20
-2.500000000000002
 30
0.0
 10
-12.3340251725046
 20
-2.500000000000002
 30
0.0
 10
-12.18507374874385
 20
-2.480285745923427
 30
0.0
 10
-12.04008027452032
 20
-2.443333037536777
 30
0.0
  0
SPLINE
  5
1C8B
330
1F
100
AcDbEntity
  8
AM_0
100
AcDbSpline
210
0.0
220
0.0
230
1.0
 70
     8
 71
     3
 72
     8
 73
     4
 74
     0
 42
0.0000000001
 43
0.0000000001
 40
0.0
 40
0.0
 40
0.0
 40
0.0
 40
1.797797194454997
 40
1.797797194454997
 40
1.797797194454997
 40
1.797797194454997
 10
-12.05748587884166
 20
-2.443416770633066
 30
0.0
 10
-11.82141860397033
 20
-2.443416770633066
 30
0.0
 10
-11.59575107995068
 20
-2.397235663819063
 30
0.0
 10
-11.37846135252561
 20
-2.313852135051436
 30
0.0
  0
LINE
  5
1C8C
330
1F
100
AcDbEntity
  8
AM_0
100
AcDbLine
 10
-13.51893356519635
 20
-2.195495605694514
 30
0.0
 11
-14.47079253459467
 21
-2.31385213510121
 31
0.0
  0
SPLINE
  5
1C8D
330
1F
100
AcDbEntity
  8
AM_0
100
AcDbSpline
210
0.0
220
0.0
230
1.0
 70
     8
 71
     3
 72
     8
 73
     4
 74
     0
 42
0.0000000001
 43
0.0000000001
 40
0.0
 40
0.0
 40
0.0
 40
0.0
 40
2.77404538272248
 40
2.77404538272248
 40
2.77404538272248
 40
2.77404538272248
 10
-8.965154696898951
 20
-2.443416770633124
 30
0.0
 10
-10.17934677575423
 20
-2.443416770633123
 30
0.0
 10
-11.11841632729714
 20
-1.221708385316563
 30
0.0
 10
-12.05748587884005
 20
-0.0000000000000029
 30
0.0
  0
SPLINE
  5
1C8E
330
1F
100
AcDbEntity
  8
AM_0
100
AcDbSpline
210
0.0
220
0.0
230
1.0
 70
     8
 71
     3
 72
     8
 73
     4
 74
     0
 42
0.0000000001
 43
0.0000000001
 40
0.0
 40
0.0
 40
0.0
 40
0.0
 40
2.792136278909016
 40
2.792136278909016
 40
2.792136278909016
 40
2.792136278909016
 10
-9.395171807547569
 20
-2.500000000000003
 30
0.0
 10
-10.61728222219717
 20
-2.500000000000002
 30
0.0
 10
-11.55239260584292
 20
-1.250000000000002
 30
0.0
 10
-12.48750298948867
 20
-0.0000000000000028
 30
0.0
  0
LINE
  5
1C8F
330
1F
100
AcDbEntity
  8
AM_0
100
AcDbLine
 10
-10.4266023832568
 20
-2.195495605694365
 30
0.0
 11
-11.37846135265512
 21
-2.31385213510106
 31
0.0
  0
SPLINE
  5
1C90
330
1F
100
AcDbEntity
  8
AM_0
100
AcDbSpline
210
0.0
220
0.0
230
1.0
 70
     8
 71
     3
 72
     8
 73
     4
 74
     0
 42
0.0000000001
 43
0.0000000001
 40
0.0
 40
0.0
 40
0.0
 40
0.0
 40
2.792136278909016
 40
2.792136278909016
 40
2.792136278909016
 40
2.792136278909016
 10
-6.302840625607899
 20
-2.500000000000003
 30
0.0
 10
-7.524951040257501
 20
-2.500000000000003
 30
0.0
 10
-8.460061423903251
 20
-1.250000000000002
 30
0.0
 10
-9.395171807549001
 20
-0.000000000000003
 30
0.0
  0
SPLINE
  5
1C91
330
1F
100
AcDbEntity
  8
AM_0
100
AcDbSpline
210
0.0
220
0.0
230
1.0
 70
     8
 71
     3
 72
     8
 73
     4
 74
     0
 42
0.0000000001
 43
0.0000000001
 40
0.0
 40
0.0
 40
0.0
 40
0.0
 40
2.77404538272248
 40
2.77404538272248
 40
2.77404538272248
 40
2.77404538272248
 10
-5.872823514959282
 20
-2.443416770633124
 30
0.0
 10
-7.087015593814562
 20
-2.443416770633124
 30
0.0
 10
-8.026085145357473
 20
-1.221708385316563
 30
0.0
 10
-8.965154696900382
 20
-0.0000000000000031
 30
0.0
  0
LINE
  5
1C92
330
1F
100
AcDbEntity
  8
AM_0
100
AcDbLine
 10
-0.0414034527474032
 20
0.5000000000001441
 30
0.0
 11
-0.2925775013402916
 21
1.689805507164211
 31
0.0
  0
LINE
  5
1C93
330
1F
100
AcDbEntity
  8
AM_0
100
AcDbLine
 10
-0.0000000000000757
 20
0.7298360724443591
 30
0.0
 11
-0.0000000000000757
 21
2.47355095289379
 31
0.0
  0
LINE
  5
1C94
330
1F
100
AcDbEntity
  8
AM_11
100
AcDbLine
 10
-0.0000000000000618
 20
-2.500000000000083
 30
0.0
 11
-0.0000000000000615
 21
2.499999999999916
 31
0.0
  0
SPLINE
  5
1C95
330
1F
100
AcDbEntity
  8
AM_0
100
AcDbSpline
210
0.0
220
0.0
230
1.0
 70
     8
 71
     3
 72
     8
 73
     4
 74
     0
 42
0.0000000001
 43
0.0000000001
 40
0.0
 40
0.0
 40
0.0
 40
0.0
 40
2.774045382722471
 40
2.774045382722471
 40
2.774045382722471
 40
2.774045382722471
 10
-8.965154696901931
 20
2.443416770633238
 30
0.0
 10
-7.750962618046652
 20
2.443416770633237
 30
0.0
 10
-6.811893066503742
 20
1.221708385316691
 30
0.0
 10
-5.872823514960829
 20
0.0000000000001452
 30
0.0
  0
SPLINE
  5
1C96
330
1F
100
AcDbEntity
  8
AM_0
100
AcDbSpline
210
0.0
220
0.0
230
1.0
 70
     8
 71
     3
 72
     8
 73
     4
 74
     0
 42
0.0000000001
 43
0.0000000001
 40
0.0
 40
0.0
 40
0.0
 40
0.0
 40
2.792136278909015
 40
2.792136278909015
 40
2.792136278909015
 40
2.792136278909015
 10
-9.395171807550633
 20
2.500000000000145
 30
0.0
 10
-8.173061392901029
 20
2.500000000000144
 30
0.0
 10
-7.23795100925528
 20
1.250000000000145
 30
0.0
 10
-6.302840625609531
 20
0.0000000000001453
 30
0.0
  0
SPLINE
  5
1C97
330
1F
100
AcDbEntity
  8
AM_0
100
AcDbSpline
210
0.0
220
0.0
230
1.0
 70
     8
 71
     3
 72
     8
 73
     4
 74
     0
 42
0.0000000001
 43
0.0000000001
 40
0.0
 40
0.0
 40
0.0
 40
0.0
 40
2.792136278909015
 40
2.792136278909015
 40
2.792136278909015
 40
2.792136278909015
 10
-6.302840625610967
 20
2.500000000000144
 30
0.0
 10
-5.080730210961367
 20
2.500000000000144
 30
0.0
 10
-4.145619827315617
 20
1.250000000000144
 30
0.0
 10
-3.210509443669867
 20
0.0000000000001448
 30
0.0
  0
SPLINE
  5
1C98
330
1F
100
AcDbEntity
  8
AM_0
100
AcDbSpline
210
0.0
220
0.0
230
1.0
 70
     8
 71
     3
 72
     8
 73
     4
 74
     0
 42
0.0000000001
 43
0.0000000001
 40
0.0
 40
0.0
 40
0.0
 40
0.0
 40
2.774045382722525
 40
2.774045382722525
 40
2.774045382722525
 40
2.774045382722525
 10
-5.872823514962445
 20
2.443416770633237
 30
0.0
 10
-4.658631436107144
 20
2.443416770633237
 30
0.0
 10
-3.719561884564202
 20
1.221708385316691
 30
0.0
 10
-2.780492333021258
 20
0.0000000000001448
 30
0.0
  0
SPLINE
  5
1C99
330
1F
100
AcDbEntity
  8
AM_0
100
AcDbSpline
210
0.0
220
0.0
230
1.0
 70
     8
 71
     3
 72
     8
 73
     4
 74
     0
 42
0.0000000001
 43
0.0000000001
 40
0.0
 40
0.0
 40
0.0
 40
0.0
 40
2.792136278909016
 40
2.792136278909016
 40
2.792136278909016
 40
2.792136278909016
 10
-3.21050944367148
 20
2.500000000000144
 30
0.0
 10
-1.988399029021879
 20
2.500000000000143
 30
0.0
 10
-1.05328864537613
 20
1.250000000000143
 30
0.0
 10
-0.1181782617303799
 20
0.0000000000001443
 30
0.0
  0
SPLINE
  5
1C9A
330
1F
100
AcDbEntity
  8
AM_0
100
AcDbSpline
210
0.0
220
0.0
230
1.0
 70
     8
 71
     3
 72
     8
 73
     4
 74
     0
 42
0.0000000001
 43
0.0000000001
 40
0.0
 40
0.0
 40
0.0
 40
0.0
 40
8.102326919110769
 40
8.102326919110769
 40
8.102326919110769
 40
8.102326919110769
 10
-2.780492333022779
 20
2.443416770633236
 30
0.0
 10
-1.716582431611102
 20
2.443416770633236
 30
0.0
 10
-0.8639051878372947
 20
1.505417575838068
 30
0.0
 10
-0.0373724925988945
 20
0.4513209662360418
 30
0.0
  0
SPLINE
  5
1C9B
330
1F
100
AcDbEntity
  8
AM_0
100
AcDbSpline
210
0.0
220
0.0
230
1.0
 70
     8
 71
     3
 72
     8
 73
     4
 74
     0
 42
0.0000000001
 43
0.0000000001
 40
0.0
 40
0.0
 40
0.0
 40
0.0
 40
2.792136278909015
 40
2.792136278909015
 40
2.792136278909015
 40
2.792136278909015
 10
-12.48750298949018
 20
2.499999999999996
 30
0.0
 10
-11.26539257484058
 20
2.499999999999996
 30
0.0
 10
-10.33028219119483
 20
1.249999999999996
 30
0.0
 10
-9.395171807549084
 20
-0.000000000000003
 30
0.0
  0
SPLINE
  5
1C9C
330
1F
100
AcDbEntity
  8
AM_0
100
AcDbSpline
210
0.0
220
0.0
230
1.0
 70
     8
 71
     3
 72
     8
 73
     4
 74
     0
 42
0.0000000001
 43
0.0000000001
 40
0.0
 40
0.0
 40
0.0
 40
0.0
 40
2.774045382722471
 40
2.774045382722471
 40
2.774045382722471
 40
2.774045382722471
 10
-12.05748587884148
 20
2.443416770633089
 30
0.0
 10
-10.8432937999862
 20
2.443416770633088
 30
0.0
 10
-9.904224248443297
 20
1.221708385316543
 30
0.0
 10
-8.965154696900382
 20
-0.0000000000000031
 30
0.0
  0
SPLINE
  5
1C9D
330
1F
100
AcDbEntity
  8
AM_0
100
AcDbSpline
210
0.0
220
0.0
230
1.0
 70
     8
 71
     3
 72
     8
 73
     4
 74
     0
 42
0.0000000001
 43
0.0000000001
 40
0.0
 40
0.0
 40
0.0
 40
0.0
 40
2.795805529891336
 40
2.795805529891336
 40
2.795805529891336
 40
2.795805529891336
 10
-15.57983417142679
 20
2.499999999999996
 30
0.0
 10
-15.94694910215823
 20
2.499999999999996
 30
0.0
 10
-16.28816609714156
 20
2.387204124780335
 30
0.0
 10
-16.61126474713576
 20
2.195495605693732
 30
0.0
  0
LINE
  5
1C9E
330
1F
100
AcDbEntity
  8
AM_0
100
AcDbLine
 10
-16.04431778679809
 20
2.124999999999996
 30
0.0
 11
-17.56312371653427
 21
2.313852135101083
 31
0.0
  0
LINE
  5
1C9F
330
1F
100
AcDbEntity
  8
AM_0
100
AcDbLine
 10
-19.13664896873765
 20
2.124999999999847
 30
0.0
 11
-20.65545489847382
 21
2.313852135100935
 31
0.0
  0
SPLINE
  5
1CA0
330
1F
100
AcDbEntity
  8
AM_0
100
AcDbSpline
210
0.0
220
0.0
230
1.0
 70
     8
 71
     3
 72
     8
 73
     4
 74
     0
 42
0.0000000001
 43
0.0000000001
 40
0.0
 40
0.0
 40
0.0
 40
0.0
 40
2.795805529891336
 40
2.795805529891336
 40
2.795805529891336
 40
2.795805529891336
 10
-21.76449653530601
 20
2.499999999999848
 30
0.0
 10
-22.13161146603745
 20
2.499999999999848
 30
0.0
 10
-22.47282846102077
 20
2.387204124780188
 30
0.0
 10
-22.79592711101498
 20
2.195495605693584
 30
0.0
  0
SPLINE
  5
1CA1
330
1F
100
AcDbEntity
  8
AM_0
100
AcDbSpline
210
0.0
220
0.0
230
1.0
 70
     8
 71
     3
 72
     8
 73
     4
 74
     0
 42
0.0000000001
 43
0.0000000001
 40
0.0
 40
0.0
 40
0.0
 40
0.0
 40
2.795805529891336
 40
2.795805529891336
 40
2.795805529891336
 40
2.795805529891336
 10
-18.67216535336635
 20
2.499999999999847
 30
0.0
 10
-19.03928028409778
 20
2.499999999999847
 30
0.0
 10
-19.38049727908112
 20
2.387204124780187
 30
0.0
 10
-19.70359592907533
 20
2.195495605693583
 30
0.0
  0
SPLINE
  5
1CA2
330
1F
100
AcDbEntity
  8
AM_0
100
AcDbSpline
210
0.0
220
0.0
230
1.0
 70
     8
 71
     3
 72
     8
 73
     4
 74
     0
 42
0.0000000001
 43
0.0000000001
 40
0.0
 40
0.0
 40
0.0
 40
0.0
 40
2.795805529891336
 40
2.795805529891336
 40
2.795805529891336
 40
2.795805529891336
 10
-24.85682771724557
 20
2.499999999999699
 30
0.0
 10
-25.223942647977
 20
2.499999999999699
 30
0.0
 10
-25.56515964296034
 20
2.387204124780039
 30
0.0
 10
-25.88825829295455
 20
2.195495605693436
 30
0.0
  0
LINE
  5
1CA3
330
1F
100
AcDbEntity
  8
AM_0
100
AcDbLine
 10
-22.22898015067731
 20
2.124999999999848
 30
0.0
 11
-23.74778608041349
 21
2.313852135100935
 31
0.0
  0
SPLINE
  5
1CA4
330
1F
100
AcDbEntity
  8
AM_0
100
AcDbSpline
210
0.0
220
0.0
230
1.0
 70
     8
 71
     3
 72
     8
 73
     4
 74
     0
 42
0.0000000001
 43
0.0000000001
 40
0.0
 40
0.0
 40
0.0
 40
0.0
 40
1.168827779870509
 40
1.168827779870509
 40
1.168827779870509
 40
1.168827779870509
 10
-15.57983417142974
 20
-2.500000000000152
 30
0.0
 10
-15.42635635444415
 20
-2.500000000000152
 30
0.0
 10
-15.2774049306834
 20
-2.480285745923576
 30
0.0
 10
-15.13241145645987
 20
-2.443333037536926
 30
0.0
  0
SPLINE
  5
1CA5
330
1F
100
AcDbEntity
  8
AM_0
100
AcDbSpline
210
0.0
220
0.0
230
1.0
 70
     8
 71
     3
 72
     8
 73
     4
 74
     0
 42
0.0000000001
 43
0.0000000001
 40
0.0
 40
0.0
 40
0.0
 40
0.0
 40
1.168827779870509
 40
1.168827779870509
 40
1.168827779870509
 40
1.168827779870509
 10
-18.67216535336941
 20
-2.500000000000151
 30
0.0
 10
-18.51868753638382
 20
-2.500000000000151
 30
0.0
 10
-18.36973611262307
 20
-2.480285745923576
 30
0.0
 10
-18.22474263839954
 20
-2.443333037536926
 30
0.0
  0
SPLINE
  5
1CA6
330
1F
100
AcDbEntity
  8
AM_0
100
AcDbSpline
210
0.0
220
0.0
230
1.0
 70
     8
 71
     3
 72
     8
 73
     4
 74
     0
 42
0.0000000001
 43
0.0000000001
 40
0.0
 40
0.0
 40
0.0
 40
0.0
 40
1.168827779870509
 40
1.168827779870509
 40
1.168827779870509
 40
1.168827779870509
 10
-18.67216535336941
 20
-2.50000000000015
 30
0.0
 10
-18.51868753638382
 20
-2.50000000000015
 30
0.0
 10
-18.36973611262307
 20
-2.480285745923575
 30
0.0
 10
-18.22474263839954
 20
-2.443333037536925
 30
0.0
  0
SPLINE
  5
1CA7
330
1F
100
AcDbEntity
  8
AM_0
100
AcDbSpline
210
0.0
220
0.0
230
1.0
 70
     8
 71
     3
 72
     8
 73
     4
 74
     0
 42
0.0000000001
 43
0.0000000001
 40
0.0
 40
0.0
 40
0.0
 40
0.0
 40
1.797797194454997
 40
1.797797194454997
 40
1.797797194454997
 40
1.797797194454997
 10
-18.24214824272088
 20
-2.443416770633215
 30
0.0
 10
-18.00608096784955
 20
-2.443416770633215
 30
0.0
 10
-17.7804134438299
 20
-2.397235663819212
 30
0.0
 10
-17.56312371640483
 20
-2.313852135051585
 30
0.0
  0
LINE
  5
1CA8
330
1F
100
AcDbEntity
  8
AM_0
100
AcDbLine
 10
-16.61126474713602
 20
-2.195495605694514
 30
0.0
 11
-17.56312371653434
 21
-2.31385213510121
 31
0.0
  0
SPLINE
  5
1CA9
330
1F
100
AcDbEntity
  8
AM_0
100
AcDbSpline
210
0.0
220
0.0
230
1.0
 70
     8
 71
     3
 72
     8
 73
     4
 74
     0
 42
0.0000000001
 43
0.0000000001
 40
0.0
 40
0.0
 40
0.0
 40
0.0
 40
2.792136278909016
 40
2.792136278909016
 40
2.792136278909016
 40
2.792136278909016
 10
-15.57983417142678
 20
-2.500000000000152
 30
0.0
 10
-16.80194458607638
 20
-2.500000000000151
 30
0.0
 10
-17.73705496972214
 20
-1.250000000000151
 30
0.0
 10
-18.67216535336789
 20
-0.0000000000001519
 30
0.0
  0
SPLINE
  5
1CAA
330
1F
100
AcDbEntity
  8
AM_0
100
AcDbSpline
210
0.0
220
0.0
230
1.0
 70
     8
 71
     3
 72
     8
 73
     4
 74
     0
 42
0.0000000001
 43
0.0000000001
 40
0.0
 40
0.0
 40
0.0
 40
0.0
 40
2.77404538272248
 40
2.77404538272248
 40
2.77404538272248
 40
2.77404538272248
 10
-15.14981706077817
 20
-2.443416770633273
 30
0.0
 10
-16.36400913963345
 20
-2.443416770633272
 30
0.0
 10
-17.30307869117636
 20
-1.221708385316712
 30
0.0
 10
-18.24214824271927
 20
-0.000000000000152
 30
0.0
  0
LINE
  5
1CAB
330
1F
100
AcDbEntity
  8
AM_0
100
AcDbLine
 10
-19.70359592907557
 20
-2.195495605694662
 30
0.0
 11
-20.65545489847389
 21
-2.313852135101357
 31
0.0
  0
SPLINE
  5
1CAC
330
1F
100
AcDbEntity
  8
AM_0
100
AcDbSpline
210
0.0
220
0.0
230
1.0
 70
     8
 71
     3
 72
     8
 73
     4
 74
     0
 42
0.0000000001
 43
0.0000000001
 40
0.0
 40
0.0
 40
0.0
 40
0.0
 40
2.792136278909016
 40
2.792136278909016
 40
2.792136278909016
 40
2.792136278909016
 10
-18.67216535336633
 20
-2.5000000000003
 30
0.0
 10
-19.89427576801594
 20
-2.5000000000003
 30
0.0
 10
-20.82938615166169
 20
-1.250000000000299
 30
0.0
 10
-21.76449653530744
 20
-0.0000000000003
 30
0.0
  0
SPLINE
  5
1CAD
330
1F
100
AcDbEntity
  8
AM_0
100
AcDbSpline
210
0.0
220
0.0
230
1.0
 70
     8
 71
     3
 72
     8
 73
     4
 74
     0
 42
0.0000000001
 43
0.0000000001
 40
0.0
 40
0.0
 40
0.0
 40
0.0
 40
2.77404538272248
 40
2.77404538272248
 40
2.77404538272248
 40
2.77404538272248
 10
-18.24214824271772
 20
-2.443416770633421
 30
0.0
 10
-19.456340321573
 20
-2.443416770633421
 30
0.0
 10
-20.39540987311591
 20
-1.22170838531686
 30
0.0
 10
-21.33447942465882
 20
-0.0000000000003001
 30
0.0
  0
SPLINE
  5
1CAE
330
1F
100
AcDbEntity
  8
AM_0
100
AcDbSpline
210
0.0
220
0.0
230
1.0
 70
     8
 71
     3
 72
     8
 73
     4
 74
     0
 42
0.0000000001
 43
0.0000000001
 40
0.0
 40
0.0
 40
0.0
 40
0.0
 40
2.792136278909015
 40
2.792136278909015
 40
2.792136278909015
 40
2.792136278909015
 10
-21.76449653530907
 20
2.499999999999848
 30
0.0
 10
-20.54238612065947
 20
2.499999999999847
 30
0.0
 10
-19.60727573701372
 20
1.249999999999848
 30
0.0
 10
-18.67216535336797
 20
-0.0000000000001519
 30
0.0
  0
SPLINE
  5
1CAF
330
1F
100
AcDbEntity
  8
AM_0
100
AcDbSpline
210
0.0
220
0.0
230
1.0
 70
     8
 71
     3
 72
     8
 73
     4
 74
     0
 42
0.0000000001
 43
0.0000000001
 40
0.0
 40
0.0
 40
0.0
 40
0.0
 40
2.774045382722471
 40
2.774045382722471
 40
2.774045382722471
 40
2.774045382722471
 10
-21.33447942466037
 20
2.44341677063294
 30
0.0
 10
-20.12028734580509
 20
2.443416770632939
 30
0.0
 10
-19.18121779426218
 20
1.221708385316394
 30
0.0
 10
-18.24214824271927
 20
-0.000000000000152
 30
0.0
  0
SPLINE
  5
1CB0
330
1F
100
AcDbEntity
  8
AM_0
100
AcDbSpline
210
0.0
220
0.0
230
1.0
 70
     8
 71
     3
 72
     8
 73
     4
 74
     0
 42
0.0000000001
 43
0.0000000001
 40
0.0
 40
0.0
 40
0.0
 40
0.0
 40
2.774045382722471
 40
2.774045382722471
 40
2.774045382722471
 40
2.774045382722471
 10
-18.2421482427207
 20
2.44341677063294
 30
0.0
 10
-17.02795616386542
 20
2.443416770632939
 30
0.0
 10
-16.08888661232251
 20
1.221708385316394
 30
0.0
 10
-15.1498170607796
 20
-0.0000000000001522
 30
0.0
  0
SPLINE
  5
1CB1
330
1F
100
AcDbEntity
  8
AM_0
100
AcDbSpline
210
0.0
220
0.0
230
1.0
 70
     8
 71
     3
 72
     8
 73
     4
 74
     0
 42
0.0000000001
 43
0.0000000001
 40
0.0
 40
0.0
 40
0.0
 40
0.0
 40
2.792136278909015
 40
2.792136278909015
 40
2.792136278909015
 40
2.792136278909015
 10
-18.6721653533694
 20
2.499999999999847
 30
0.0
 10
-17.4500549387198
 20
2.499999999999847
 30
0.0
 10
-16.51494455507405
 20
1.249999999999847
 30
0.0
 10
-15.5798341714283
 20
-0.0000000000001521
 30
0.0
  0
SPLINE
  5
1CB2
330
1F
100
AcDbEntity
  8
AM_0
100
AcDbSpline
210
0.0
220
0.0
230
1.0
 70
     8
 71
     3
 72
     8
 73
     4
 74
     0
 42
0.0000000001
 43
0.0000000001
 40
0.0
 40
0.0
 40
0.0
 40
0.0
 40
2.792136278909015
 40
2.792136278909015
 40
2.792136278909015
 40
2.792136278909015
 10
-24.85682771724862
 20
2.499999999999699
 30
0.0
 10
-23.63471730259902
 20
2.499999999999699
 30
0.0
 10
-22.69960691895327
 20
1.2499999999997
 30
0.0
 10
-21.76449653530752
 20
-0.0000000000003
 30
0.0
  0
SPLINE
  5
1CB3
330
1F
100
AcDbEntity
  8
AM_0
100
AcDbSpline
210
0.0
220
0.0
230
1.0
 70
     8
 71
     3
 72
     8
 73
     4
 74
     0
 42
0.0000000001
 43
0.0000000001
 40
0.0
 40
0.0
 40
0.0
 40
0.0
 40
2.774045382722471
 40
2.774045382722471
 40
2.774045382722471
 40
2.774045382722471
 10
-24.42681060659992
 20
2.443416770632792
 30
0.0
 10
-23.21261852774464
 20
2.443416770632791
 30
0.0
 10
-22.27354897620173
 20
1.221708385316246
 30
0.0
 10
-21.33447942465882
 20
-0.0000000000003001
 30
0.0
  0
SPLINE
  5
1CB4
330
1F
100
AcDbEntity
  8
AM_0
100
AcDbSpline
210
0.0
220
0.0
230
1.0
 70
     8
 71
     3
 72
     8
 73
     4
 74
     0
 42
0.0000000001
 43
0.0000000001
 40
0.0
 40
0.0
 40
0.0
 40
0.0
 40
2.774045382722471
 40
2.774045382722471
 40
2.774045382722471
 40
2.774045382722471
 10
-15.14981706078115
 20
2.443416770633089
 30
0.0
 10
-13.93562498192587
 20
2.443416770633088
 30
0.0
 10
-12.99655543038296
 20
1.221708385316543
 30
0.0
 10
-12.05748587884005
 20
-0.0000000000000029
 30
0.0
  0
SPLINE
  5
1CB5
330
1F
100
AcDbEntity
  8
AM_0
100
AcDbSpline
210
0.0
220
0.0
230
1.0
 70
     8
 71
     3
 72
     8
 73
     4
 74
     0
 42
0.0000000001
 43
0.0000000001
 40
0.0
 40
0.0
 40
0.0
 40
0.0
 40
2.792136278909015
 40
2.792136278909015
 40
2.792136278909015
 40
2.792136278909015
 10
-15.57983417142985
 20
2.499999999999997
 30
0.0
 10
-14.35772375678025
 20
2.499999999999996
 30
0.0
 10
-13.4226133731345
 20
1.249999999999997
 30
0.0
 10
-12.48750298948875
 20
-0.0000000000000028
 30
0.0
  0
LINE
  5
1CB6
330
1F
100
AcDbEntity
  8
AM_11
100
AcDbLine
 10
-30.00000000000005
 20
2.499999999999916
 30
0.0
 11
-0.0000000000000569
 21
2.499999999999916
 31
0.0
1001
GENIUS_GENODEF_13
1002
{
1000
HIER
1070
     0
1002
}
1002
{
1000
MANEDIT
1070
     0
1002
}
1002
{
1000
NOSEL
1070
     0
1002
}
1002
{
1000
BEHIND
1070
     0
1002
}
1002
{
1000
REACTOR
1002
}
1001
GENIUS_GENOBJ-N-CEN_13
1002
{
1000
OWNER
1000
GEN
1002
}
  0
LINE
  5
1CB7
330
1F
100
AcDbEntity
  8
AM_11
100
AcDbLine
 10
-30.00000000000005
 20
-2.500000000000082
 30
0.0
 11
-0.0000000000000569
 21
-2.500000000000082
 31
0.0
1001
GENIUS_GENODEF_13
1002
{
1000
HIER
1070
     0
1002
}
1002
{
1000
MANEDIT
1070
     0
1002
}
1002
{
1000
NOSEL
1070
     0
1002
}
1002
{
1000
BEHIND
1070
     0
1002
}
1002
{
1000
REACTOR
1002
}
1001
GENIUS_GENOBJ-N-CEN_13
1002
{
1000
OWNER
1000
GEN
1002
}
  0
SPLINE
  5
1CB8
330
1F
100
AcDbEntity
  8
AM_0
100
AcDbSpline
210
0.0
220
0.0
230
1.0
 70
     8
 71
     3
 72
     8
 73
     4
 74
     0
 42
0.0000000001
 43
0.0000000001
 40
0.0
 40
0.0
 40
0.0
 40
0.0
 40
1.797797194454997
 40
1.797797194454997
 40
1.797797194454997
 40
1.797797194454997
 10
-15.14981706078121
 20
-2.443416770633216
 30
0.0
 10
-14.91374978590988
 20
-2.443416770633216
 30
0.0
 10
-14.68808226189023
 20
-2.397235663819212
 30
0.0
 10
-14.47079253446516
 20
-2.313852135051586
 30
0.0
  0
SPLINE
  5
1CB9
330
1F
100
AcDbEntity
  8
AM_0
100
AcDbSpline
210
0.0
220
0.0
230
1.0
 70
     8
 71
     3
 72
     8
 73
     4
 74
     0
 42
0.0000000001
 43
0.0000000001
 40
0.0
 40
0.0
 40
0.0
 40
0.0
 40
2.77404538272248
 40
2.77404538272248
 40
2.77404538272248
 40
2.77404538272248
 10
-12.0574858788385
 20
-2.443416770633273
 30
0.0
 10
-13.27167795769378
 20
-2.443416770633273
 30
0.0
 10
-14.21074750923669
 20
-1.221708385316712
 30
0.0
 10
-15.1498170607796
 20
-0.0000000000001522
 30
0.0
  0
SPLINE
  5
1CBA
330
1F
100
AcDbEntity
  8
AM_0
100
AcDbSpline
210
0.0
220
0.0
230
1.0
 70
     8
 71
     3
 72
     8
 73
     4
 74
     0
 42
0.0000000001
 43
0.0000000001
 40
0.0
 40
0.0
 40
0.0
 40
0.0
 40
2.792136278909016
 40
2.792136278909016
 40
2.792136278909016
 40
2.792136278909016
 10
-12.48750298948712
 20
-2.500000000000152
 30
0.0
 10
-13.70961340413672
 20
-2.500000000000152
 30
0.0
 10
-14.64472378778247
 20
-1.250000000000151
 30
0.0
 10
-15.57983417142822
 20
-0.0000000000001521
 30
0.0
  0
SPLINE
  5
1CBB
330
1F
100
AcDbEntity
  8
AM_0
100
AcDbSpline
210
0.0
220
0.0
230
1.0
 70
     8
 71
     3
 72
     8
 73
     4
 74
     0
 42
0.0000000001
 43
0.0000000001
 40
0.0
 40
0.0
 40
0.0
 40
0.0
 40
2.792136278909016
 40
2.792136278909016
 40
2.792136278909016
 40
2.792136278909016
 10
-21.76449653530601
 20
-2.5000000000003
 30
0.0
 10
-22.98660694995561
 20
-2.500000000000299
 30
0.0
 10
-23.92171733360135
 20
-1.250000000000299
 30
0.0
 10
-24.85682771724711
 20
-0.0000000000002998
 30
0.0
  0
SPLINE
  5
1CBC
330
1F
100
AcDbEntity
  8
AM_0
100
AcDbSpline
210
0.0
220
0.0
230
1.0
 70
     8
 71
     3
 72
     8
 73
     4
 74
     0
 42
0.0000000001
 43
0.0000000001
 40
0.0
 40
0.0
 40
0.0
 40
0.0
 40
2.77404538272248
 40
2.77404538272248
 40
2.77404538272248
 40
2.77404538272248
 10
-21.33447942465739
 20
-2.443416770633421
 30
0.0
 10
-22.54867150351266
 20
-2.44341677063342
 30
0.0
 10
-23.48774105505558
 20
-1.22170838531686
 30
0.0
 10
-24.42681060659849
 20
-0.0000000000002998
 30
0.0
  0
SPLINE
  5
1CBD
330
1F
100
AcDbEntity
  8
AM_0
100
AcDbSpline
210
0.0
220
0.0
230
1.0
 70
     8
 71
     3
 72
     8
 73
     4
 74
     0
 42
0.0000000001
 43
0.0000000001
 40
0.0
 40
0.0
 40
0.0
 40
0.0
 40
1.168827779870509
 40
1.168827779870509
 40
1.168827779870509
 40
1.168827779870509
 10
-21.76449653530896
 20
-2.5000000000003
 30
0.0
 10
-21.61101871832337
 20
-2.5000000000003
 30
0.0
 10
-21.46206729456263
 20
-2.480285745923724
 30
0.0
 10
-21.31707382033909
 20
-2.443333037537074
 30
0.0
  0
SPLINE
  5
1CBE
330
1F
100
AcDbEntity
  8
AM_0
100
AcDbSpline
210
0.0
220
0.0
230
1.0
 70
     8
 71
     3
 72
     8
 73
     4
 74
     0
 42
0.0000000001
 43
0.0000000001
 40
0.0
 40
0.0
 40
0.0
 40
0.0
 40
1.797797194454997
 40
1.797797194454997
 40
1.797797194454997
 40
1.797797194454997
 10
-21.33447942466044
 20
-2.443416770633364
 30
0.0
 10
-21.0984121497891
 20
-2.443416770633364
 30
0.0
 10
-20.87274462576945
 20
-2.39723566381936
 30
0.0
 10
-20.65545489834438
 20
-2.313852135051734
 30
0.0
  0
SPLINE
  5
1CBF
330
1F
100
AcDbEntity
  8
AM_0
100
AcDbSpline
210
0.0
220
0.0
230
1.0
 70
     8
 71
     3
 72
     8
 73
     4
 74
     0
 42
0.0000000001
 43
0.0000000001
 40
0.0
 40
0.0
 40
0.0
 40
0.0
 40
1.797797194454997
 40
1.797797194454997
 40
1.797797194454997
 40
1.797797194454997
 10
-24.4268106066001
 20
-2.443416770633363
 30
0.0
 10
-24.19074333172877
 20
-2.443416770633363
 30
0.0
 10
-23.96507580770912
 20
-2.39723566381936
 30
0.0
 10
-23.74778608028405
 20
-2.313852135051733
 30
0.0
  0
LINE
  5
1CC0
330
1F
100
AcDbEntity
  8
AM_0
100
AcDbLine
 10
-22.79592711101524
 20
-2.195495605694662
 30
0.0
 11
-23.74778608041356
 21
-2.313852135101357
 31
0.0
  0
SPLINE
  5
1CC1
330
1F
100
AcDbEntity
  8
AM_0
100
AcDbSpline
210
0.0
220
0.0
230
1.0
 70
     8
 71
     3
 72
     8
 73
     4
 74
     0
 42
0.0000000001
 43
0.0000000001
 40
0.0
 40
0.0
 40
0.0
 40
0.0
 40
2.792136278909016
 40
2.792136278909016
 40
2.792136278909016
 40
2.792136278909016
 10
-24.85682771724533
 20
-2.499999999999406
 30
0.0
 10
-26.07893813189493
 20
-2.499999999999405
 30
0.0
 10
-27.01404851554068
 20
-1.249999999999406
 30
0.0
 10
-27.94915889918644
 20
0.0000000000005939
 30
0.0
  0
SPLINE
  5
1CC2
330
1F
100
AcDbEntity
  8
AM_0
100
AcDbSpline
210
0.0
220
0.0
230
1.0
 70
     8
 71
     3
 72
     8
 73
     4
 74
     0
 42
0.0000000001
 43
0.0000000001
 40
0.0
 40
0.0
 40
0.0
 40
0.0
 40
2.774045382722535
 40
2.774045382722535
 40
2.774045382722535
 40
2.774045382722535
 10
-24.42681060659673
 20
-2.443416770632527
 30
0.0
 10
-25.64100268545203
 20
-2.443416770632526
 30
0.0
 10
-26.58007223699497
 20
-1.221708385315966
 30
0.0
 10
-27.51914178853791
 20
0.0000000000005938
 30
0.0
  0
SPLINE
  5
1CC3
330
1F
100
AcDbEntity
  8
AM_0
100
AcDbSpline
210
0.0
220
0.0
230
1.0
 70
     8
 71
     3
 72
     8
 73
     4
 74
     0
 42
0.0000000001
 43
0.0000000001
 40
0.0
 40
0.0
 40
0.0
 40
0.0
 40
2.774045382722535
 40
2.774045382722535
 40
2.774045382722535
 40
2.774045382722535
 10
-27.5191417885363
 20
-2.443416770632526
 30
0.0
 10
-28.7333338673916
 20
-2.443416770632526
 30
0.0
 10
-29.67240341893454
 20
-1.221708385315966
 30
0.0
 10
-30.61147297047748
 20
0.0000000000005943
 30
0.0
  0
SPLINE
  5
1CC4
330
1F
100
AcDbEntity
  8
AM_0
100
AcDbSpline
210
0.0
220
0.0
230
1.0
 70
     8
 71
     3
 72
     8
 73
     4
 74
     0
 42
0.0000000001
 43
0.0000000001
 40
0.0
 40
0.0
 40
0.0
 40
0.0
 40
1.168827779870509
 40
1.168827779870509
 40
1.168827779870509
 40
1.168827779870509
 10
-24.85682771724863
 20
-2.500000000000299
 30
0.0
 10
-24.70334990026304
 20
-2.500000000000299
 30
0.0
 10
-24.55439847650229
 20
-2.480285745923724
 30
0.0
 10
-24.40940500227876
 20
-2.443333037537074
 30
0.0
  0
LINE
  5
1CC5
330
1F
100
AcDbEntity
  8
AM_0
100
AcDbLine
 10
-25.88825829295466
 20
-2.195495605693768
 30
0.0
 11
-26.8401172623529
 21
-2.313852135100463
 31
0.0
  0
SPLINE
  5
1CC6
330
1F
100
AcDbEntity
  8
AM_0
100
AcDbSpline
210
0.0
220
0.0
230
1.0
 70
     8
 71
     3
 72
     8
 73
     4
 74
     0
 42
0.0000000001
 43
0.0000000001
 40
0.0
 40
0.0
 40
0.0
 40
0.0
 40
1.168827779870509
 40
1.168827779870509
 40
1.168827779870509
 40
1.168827779870509
 10
-27.94915889918804
 20
-2.499999999999405
 30
0.0
 10
-27.79568108220238
 20
-2.499999999999405
 30
0.0
 10
-27.64672965844163
 20
-2.48028574592283
 30
0.0
 10
-27.50173618421809
 20
-2.44333303753618
 30
0.0
  0
SPLINE
  5
1CC7
330
1F
100
AcDbEntity
  8
AM_0
100
AcDbSpline
210
0.0
220
0.0
230
1.0
 70
     8
 71
     3
 72
     8
 73
     4
 74
     0
 42
0.0000000001
 43
0.0000000001
 40
0.0
 40
0.0
 40
0.0
 40
0.0
 40
1.797797194454997
 40
1.797797194454997
 40
1.797797194454997
 40
1.797797194454997
 10
-30.61147297047901
 20
-2.443416770632469
 30
0.0
 10
-30.37540569560767
 20
-2.443416770632469
 30
0.0
 10
-30.14973817158812
 20
-2.397235663818466
 30
0.0
 10
-29.93244844416304
 20
-2.313852135050839
 30
0.0
  0
LINE
  5
1CC8
330
1F
100
AcDbEntity
  8
AM_0
100
AcDbLine
 10
-28.98058947489423
 20
-2.195495605693767
 30
0.0
 11
-29.93244844429247
 21
-2.313852135100463
 31
0.0
  0
SPLINE
  5
1CC9
330
1F
100
AcDbEntity
  8
AM_0
100
AcDbSpline
210
0.0
220
0.0
230
1.0
 70
     8
 71
     3
 72
     8
 73
     4
 74
     0
 42
0.0000000001
 43
0.0000000001
 40
0.0
 40
0.0
 40
0.0
 40
0.0
 40
1.797797194454997
 40
1.797797194454997
 40
1.797797194454997
 40
1.797797194454997
 10
-27.51914178853943
 20
-2.443416770632469
 30
0.0
 10
-27.2830745136681
 20
-2.443416770632469
 30
0.0
 10
-27.05740698964854
 20
-2.397235663818466
 30
0.0
 10
-26.84011726222347
 20
-2.313852135050839
 30
0.0
  0
SPLINE
  5
1CCA
330
1F
100
AcDbEntity
  8
AM_0
100
AcDbSpline
210
0.0
220
0.0
230
1.0
 70
     8
 71
     3
 72
     8
 73
     4
 74
     0
 42
0.0000000001
 43
0.0000000001
 40
0.0
 40
0.0
 40
0.0
 40
0.0
 40
1.168827779870509
 40
1.168827779870509
 40
1.168827779870509
 40
1.168827779870509
 10
-31.04149008112762
 20
-2.499999999999405
 30
0.0
 10
-30.88801226414195
 20
-2.499999999999405
 30
0.0
 10
-30.7390608403813
 20
-2.48028574592283
 30
0.0
 10
-30.59406736615767
 20
-2.44333303753618
 30
0.0
  0
LINE
  5
1CCB
330
1F
100
AcDbEntity
  8
AM_0
100
AcDbLine
 10
-33.00052296975731
 20
-2.499999999999642
 30
0.0
 11
-31.04149008112762
 21
-2.499999999999642
 31
0.0
  0
SPLINE
  5
1CCC
330
1F
100
AcDbEntity
  8
AM_0
100
AcDbSpline
210
0.0
220
0.0
230
1.0
 70
     8
 71
     3
 72
     8
 73
     4
 74
     0
 42
0.0000000001
 43
0.0000000001
 40
0.0
 40
0.0
 40
0.0
 40
0.0
 40
2.713830576726758
 40
2.713830576726758
 40
2.713830576726758
 40
2.713830576726758
 10
-27.94915889918499
 20
-2.499999999999405
 30
0.0
 10
-29.13699512210325
 20
-2.499999999999405
 30
0.0
 10
-30.05370346191396
 20
-1.319129556539886
 30
0.0
 10
-30.96280799691463
 20
-0.1051414998894018
 30
0.0
  0
ELLIPSE
  5
1CCD
330
1F
100
AcDbEntity
  8
AM_0
100
AcDbEllipse
 10
-31.46514393635984
 20
-0.8755095820287211
 30
0.0
 11
-0.0000000000000038
 21
0.9999999999999985
 31
0.0
210
0.0
220
0.0
230
1.0
 40
0.7878550782015617
 41
-0.6913780825675932
 42
0.4481795012879904
1001
GENIUS_GENODEF_13
1002
{
1000
HIER
1070
     0
1002
}
1002
{
1000
MANEDIT
1070
     0
1002
}
1002
{
1000
NOSEL
1070
     0
1002
}
1002
{
1000
BEHIND
1070
     0
1002
}
1002
{
1000
REACTOR
1002
}
1001
GENIUS_GENOBJ-N-FIL_13
1002
{
1000
OWNER
1000
GEN
1002
}
  0
SPLINE
  5
1CCE
330
1F
100
AcDbEntity
  8
AM_0
100
AcDbSpline
210
0.0
220
0.0
230
1.0
 70
     8
 71
     3
 72
     8
 73
     4
 74
     0
 42
0.0000000001
 43
0.0000000001
 40
0.0
 40
0.0
 40
0.0
 40
0.0
 40
2.057843192737954
 40
2.057843192737954
 40
2.057843192737954
 40
2.057843192737954
 10
-30.61147297047596
 20
-2.443416770632526
 30
0.0
 10
-31.51218530910991
 20
-2.443416770632526
 30
0.0
 10
-32.26149844581238
 20
-1.771113864953244
 30
0.0
 10
-32.97172338278293
 20
-0.9252360003423573
 30
0.0
  0
ELLIPSE
  5
1CCF
330
1F
100
AcDbEntity
  8
AM_0
100
AcDbEllipse
 10
-29.365472504374
 20
-6.41831890906017
 30
0.0
 11
-0.0000000000002172
 21
7.150220722739059
 31
0.0
210
0.0
220
0.0
230
1.0
 40
0.7878550782015608
 41
0.4481795012879584
 42
0.6947096144600571
  0
SPLINE
  5
1CD0
330
1F
100
AcDbEntity
  8
AM_0
100
AcDbSpline
210
0.0
220
0.0
230
1.0
 70
     8
 71
     3
 72
     8
 73
     4
 74
     0
 42
0.0000000001
 43
0.0000000001
 40
0.0
 40
0.0
 40
0.0
 40
0.0
 40
2.774045382722471
 40
2.774045382722471
 40
2.774045382722471
 40
2.774045382722471
 10
-30.61147297047901
 20
2.443416770633686
 30
0.0
 10
-29.39728089162374
 20
2.443416770633686
 30
0.0
 10
-28.45821134008082
 20
1.221708385317139
 30
0.0
 10
-27.51914178853791
 20
0.0000000000005938
 30
0.0
  0
SPLINE
  5
1CD1
330
1F
100
AcDbEntity
  8
AM_0
100
AcDbSpline
210
0.0
220
0.0
230
1.0
 70
     8
 71
     3
 72
     8
 73
     4
 74
     0
 42
0.0000000001
 43
0.0000000001
 40
0.0
 40
0.0
 40
0.0
 40
0.0
 40
2.774045382722471
 40
2.774045382722471
 40
2.774045382722471
 40
2.774045382722471
 10
-27.51914178853959
 20
2.443416770632792
 30
0.0
 10
-26.30494970968431
 20
2.443416770632791
 30
0.0
 10
-25.3658801581414
 20
1.221708385316246
 30
0.0
 10
-24.42681060659849
 20
-0.0000000000002998
 30
0.0
  0
SPLINE
  5
1CD2
330
1F
100
AcDbEntity
  8
AM_0
100
AcDbSpline
210
0.0
220
0.0
230
1.0
 70
     8
 71
     3
 72
     8
 73
     4
 74
     0
 42
0.0000000001
 43
0.0000000001
 40
0.0
 40
0.0
 40
0.0
 40
0.0
 40
2.792136278909015
 40
2.792136278909015
 40
2.792136278909015
 40
2.792136278909015
 10
-27.94915889918829
 20
2.4999999999997
 30
0.0
 10
-26.72704848453869
 20
2.499999999999699
 30
0.0
 10
-25.79193810089294
 20
1.2499999999997
 30
0.0
 10
-24.85682771724719
 20
-0.0000000000002998
 30
0.0
  0
LINE
  5
1CD3
330
1F
100
AcDbEntity
  8
AM_0
100
AcDbLine
 10
-25.32131133261687
 20
2.124999999999699
 30
0.0
 11
-26.84011726235304
 21
2.313852135100787
 31
0.0
  0
LINE
  5
1CD4
330
1F
100
AcDbEntity
  8
AM_0
100
AcDbLine
 10
-28.41364251455621
 20
2.124999999999997
 30
0.0
 11
-29.93244844429238
 21
2.313852135101084
 31
0.0
  0
SPLINE
  5
1CD5
330
1F
100
AcDbEntity
  8
AM_0
100
AcDbSpline
210
0.0
220
0.0
230
1.0
 70
     8
 71
     3
 72
     8
 73
     4
 74
     0
 42
0.0000000001
 43
0.0000000001
 40
0.0
 40
0.0
 40
0.0
 40
0.0
 40
2.795805529891336
 40
2.795805529891336
 40
2.795805529891336
 40
2.795805529891336
 10
-27.94915889918491
 20
2.499999999999997
 30
0.0
 10
-28.31627382991634
 20
2.499999999999997
 30
0.0
 10
-28.65749082489968
 20
2.387204124780336
 30
0.0
 10
-28.98058947489389
 20
2.195495605693733
 30
0.0
  0
SPLINE
  5
1CD6
330
1F
100
AcDbEntity
  8
AM_0
100
AcDbSpline
210
0.0
220
0.0
230
1.0
 70
     8
 71
     3
 72
     8
 73
     4
 74
     0
 42
0.0000000001
 43
0.0000000001
 40
0.0
 40
0.0
 40
0.0
 40
0.0
 40
2.792136278909069
 40
2.792136278909069
 40
2.792136278909069
 40
2.792136278909069
 10
-31.04149008112762
 20
2.500000000000594
 30
0.0
 10
-29.81937966647799
 20
2.500000000000593
 30
0.0
 10
-28.88426928283221
 20
1.250000000000593
 30
0.0
 10
-27.94915889918644
 20
0.0000000000005939
 30
0.0
  0
SPLINE
  5
1CD7
330
1F
100
AcDbEntity
  8
AM_0
100
AcDbSpline
210
0.0
220
0.0
230
1.0
 70
     8
 71
     3
 72
     8
 73
     4
 74
     0
 42
0.0000000001
 43
0.0000000001
 40
0.0
 40
0.0
 40
0.0
 40
0.0
 40
2.795805529891336
 40
2.795805529891336
 40
2.795805529891336
 40
2.795805529891336
 10
-31.04149008112448
 20
2.500000000000594
 30
0.0
 10
-31.40860501185601
 20
2.500000000000594
 30
0.0
 10
-31.74982200683943
 20
2.387204124780933
 30
0.0
 10
-32.07292065683363
 20
2.195495605694331
 30
0.0
  0
SPLINE
  5
1CD8
330
1F
100
AcDbEntity
  8
AM_0
100
AcDbSpline
210
0.0
220
0.0
230
1.0
 70
     8
 71
     3
 72
     8
 73
     4
 74
     0
 42
0.0000000001
 43
0.0000000001
 40
0.5594372577521371
 40
0.5594372577521371
 40
0.5594372577521371
 40
0.5594372577521371
 40
2.774045382722525
 40
2.774045382722525
 40
2.774045382722525
 40
2.774045382722525
 10
-33.03397459621595
 20
2.500000000000078
 30
0.0
 10
-32.11085079011369
 20
1.950656851772153
 30
0.0
 10
-31.36116188029554
 20
0.975328425886374
 30
0.0
 10
-30.6114729704774
 20
0.0000000000005943
 30
0.0
  0
LINE
  5
1CD9
330
1F
100
AcDbEntity
  8
AM_0
100
AcDbLine
 10
-31.50597369649595
 20
2.125000000000594
 30
0.0
 11
-32.64302267217817
 21
2.266383518834622
 31
0.0
  0
VIEWPORT
  5
110
330
101
100
AcDbEntity
 67
     1
  8
0
100
AcDbViewport
 10
420.5
 20
297.0
 30
0.0
 40
948.9782706766916
 41
628.452
 68
     1
 69
     1
1001
ACAD
1000
MVIEW
1002
{
1070
    16
1010
0.0
1020
0.0
1030
0.0
1010
0.0
1020
0.0
1030
1.0
1040
0.0
1040
628.452
1040
420.5
1040
297.0
1040
50.0
1040
0.0
1040
0.0
1070
     0
1070
   100
1070
     1
1070
     1
1070
     0
1070
     0
1070
     0
1070
     0
1040
0.0
1040
0.0
1040
0.0
1040
10.0
1040
10.0
1040
10.0
1040
10.0
1070
     0
1002
{
1002
}
1002
}
  0
ENDSEC
  0
SECTION
  2
OBJECTS
  0
DICTIONARY
  5
C
330
0
100
AcDbDictionary
  3
ACAD_GROUP
350
D
  3
ACAD_LAYOUT
350
1A
  3
ACAD_MLINESTYLE
350
17
  3
ACAD_PLOTSETTINGS
350
19
  3
ACAD_PLOTSTYLENAME
350
E
  3
ACDBVARIABLEDICTIONARY
350
34
  3
ACMDICTIONARY
350
43
  3
AMG
350
2B
  3
AMGSNAPSETTINGS
350
6E
  3
DWGPROPS
350
1D47
  3
ACDBHEADERROUNDTRIPXREC
350
1D53
  0
DICTIONARY
  5
74
330
1F
100
AcDbDictionary
280
     1
  3
ACAD_INDEX
360
1D49
  3
ACAD_LAYOUTSELFREF
360
1D76
  0
DICTIONARY
  5
1D7B
330
101
100
AcDbDictionary
280
     1
  3
ACAD_LAYOUTSELFREF
360
1D7C
  0
DICTIONARY
  5
D
102
{ACAD_REACTORS
330
C
102
}
330
C
100
AcDbDictionary
  0
DICTIONARY
  5
1A
102
{ACAD_REACTORS
330
C
102
}
330
C
100
AcDbDictionary
  0
DICTIONARY
  5
17
102
{ACAD_REACTORS
330
C
102
}
330
C
100
AcDbDictionary
  3
STANDARD
350
18
  0
DICTIONARY
  5
19
102
{ACAD_REACTORS
330
C
102
}
330
C
100
AcDbDictionary
  0
ACDBDICTIONARYWDFLT
  5
E
102
{ACAD_REACTORS
330
C
102
}
330
C
100
AcDbDictionary
281
     1
  3
Normal
350
F
100
AcDbDictionaryWithDefault
340
F
  0
DICTIONARY
  5
34
102
{ACAD_REACTORS
330
C
102
}
330
C
100
AcDbDictionary
  3
INDEXCTL
350
35
  3
SORTENTS
350
B5E
  0
DICTIONARY
  5
43
102
{ACAD_REACTORS
330
C
102
}
330
C
100
AcDbDictionary
  3
ACMSTDDICTIONARY
350
260
  0
DICTIONARY
  5
2B
102
{ACAD_REACTORS
330
C
102
}
330
C
100
AcDbDictionary
  3
ACMGSETTINGS
350
2C
  0
DICTIONARY
  5
6E
102
{ACAD_REACTORS
330
C
102
}
330
C
100
AcDbDictionary
  0
XRECORD
  5
1D47
102
{ACAD_REACTORS
330
C
102
}
330
C
100
AcDbXrecord
  1
DWGPROPS COOKIE
  2

  3

  4

  6

  7

  8

  9

300
AmdtFileType=82
301
=
302
=
303
=
304
=
305
=
306
=
307
=
308
=
309
=
 40
0.0908760300925926
 41
2452838.620506898
 42
2452839.81841956
  1

 90
        1
  0
DICTIONARY
  5
1D53
102
{ACAD_REACTORS
330
C
102
}
330
C
100
AcDbDictionary
  3
TSTACKALIGN
350
1D54
  3
TSTACKSIZE
350
1D55
  3
HYPERLINKBASE
350
1D56
  3
STYLESHEET
350
1D57
  3
LAYOUTDICT
350
1D58
  3
PLOTSETDICT
350
1D59
  3
PLOTSTYLNAMDICT
350
1D5A
  3
LWETCUNION
350
1D5B
  3
INSUNITS
350
1D5C
  3
CEPSNTYPE
350
1D5D
  3
FINGERPRINTGUID
350
1D5E
  3
VERSIONGUID
350
1D5F
  3
PSVPSCALE
350
1D60
  3
DIMSTYLEDATA
350
1D61
  3
PUCSORTHOREF
350
1D62
  3
PUCSORTHOVIEW
350
1D63
  3
PUCSBASE
350
1D64
  3
PUCSORGTOP
350
1D65
  3
PUCSORGBOTTOM
350
1D66
  3
PUCSORGLEFT
350
1D67
  3
PUCSORGRIGHT
350
1D68
  3
PUCSORGFRONT
350
1D69
  3
PUCSORGBACK
350
1D6A
  3
UCSORTHOREF
350
1D6B
  3
UCSORTHOVIEW
350
1D6C
  3
UCSBASE
350
1D6D
  3
UCSORGTOP
350
1D6E
  3
UCSORGBOTTOM
350
1D6F
  3
UCSORGLEFT
350
1D70
  3
UCSORGRIGHT
350
1D71
  3
UCSORGFRONT
350
1D72
  3
UCSORGBACK
350
1D73
  0
DICTIONARY
  5
1D49
102
{ACAD_REACTORS
330
74
102
}
330
74
100
AcDbDictionary
  3
*A1
350
1D4A
  0
XRECORD
  5
1D76
102
{ACAD_REACTORS
330
74
102
}
330
74
100
AcDbXrecord
340
1F
  0
XRECORD
  5
1D7C
102
{ACAD_REACTORS
330
1D7B
102
}
330
1D7B
100
AcDbXrecord
340
101
  0
MLINESTYLE
  5
18
102
{ACAD_REACTORS
330
17
102
}
330
17
100
AcDbMlineStyle
  2
STANDARD
 70
     0
  3

 62
   256
 51
90.0
 52
90.0
 71
     2
 49
0.5
 62
   256
  6
BYLAYER
 49
-0.5
 62
   256
  6
BYLAYER
  0
ACDBPLACEHOLDER
  5
F
102
{ACAD_REACTORS
330
E
102
}
330
E
100
AcDbPlaceHolder
280
     0
  0
DICTIONARYVAR
  5
35
102
{ACAD_REACTORS
330
34
102
}
330
34
100
DictionaryVariables
280
     0
  1
1
  0
DICTIONARYVAR
  5
B5E
102
{ACAD_REACTORS
330
34
102
}
330
34
100
DictionaryVariables
280
     0
  1
96
  0
DICTIONARY
  5
260
102
{ACAD_REACTORS
330
43
102
}
330
43
100
AcDbDictionary
  0
DICTIONARY
  5
2C
102
{ACAD_REACTORS
330
2B
102
}
330
2B
100
AcDbDictionary
  3
DWGSETTINGS
350
2D
  0
XRECORD
  5
1D54
102
{ACAD_REACTORS
330
1D53
102
}
330
1D53
100
AcDbXrecord
 90
        1
  0
XRECORD
  5
1D55
102
{ACAD_REACTORS
330
1D53
102
}
330
1D53
100
AcDbXrecord
 90
       70
  0
XRECORD
  5
1D56
102
{ACAD_REACTORS
330
1D53
102
}
330
1D53
100
AcDbXrecord
  1

  0
XRECORD
  5
1D57
102
{ACAD_REACTORS
330
1D53
102
}
330
1D53
100
AcDbXrecord
  1
ACAD_M_9400.ctb
  0
XRECORD
  5
1D58
102
{ACAD_REACTORS
330
1D53
102
}
330
1D53
100
AcDbXrecord
340
1A
  0
XRECORD
  5
1D59
102
{ACAD_REACTORS
330
1D53
102
}
330
1D53
100
AcDbXrecord
340
19
  0
XRECORD
  5
1D5A
102
{ACAD_REACTORS
330
1D53
102
}
330
1D53
100
AcDbXrecord
340
E
  0
XRECORD
  5
1D5B
102
{ACAD_REACTORS
330
1D53
102
}
330
1D53
100
AcDbXrecord
 90
    10781
  0
XRECORD
  5
1D5C
102
{ACAD_REACTORS
330
1D53
102
}
330
1D53
100
AcDbXrecord
 90
        4
  0
XRECORD
  5
1D5D
102
{ACAD_REACTORS
330
1D53
102
}
330
1D53
100
AcDbXrecord
 90
        0
  0
XRECORD
  5
1D5E
102
{ACAD_REACTORS
330
1D53
102
}
330
1D53
100
AcDbXrecord
  1
{AFB28963-8C59-40AE-9337-C84526B81ACE}
  0
XRECORD
  5
1D5F
102
{ACAD_REACTORS
330
1D53
102
}
330
1D53
100
AcDbXrecord
  1
{CC36772F-3C89-4BC6-A509-4279382A4834}
  0
XRECORD
  5
1D60
102
{ACAD_REACTORS
330
1D53
102
}
330
1D53
100
AcDbXrecord
 40
0.0
  0
XRECORD
  5
1D61
102
{ACAD_REACTORS
330
1D53
102
}
330
1D53
100
AcDbXrecord
1000
DSTYLE
1002
{
1070
    79
 70
     2
1070
   341
340
59
1070
   342
340
59
1070
   371
 70
    -1
1070
   372
 70
    -1
1002
}
  0
XRECORD
  5
1D62
102
{ACAD_REACTORS
330
1D53
102
}
330
1D53
100
AcDbXrecord
340
0
  0
XRECORD
  5
1D63
102
{ACAD_REACTORS
330
1D53
102
}
330
1D53
100
AcDbXrecord
 70
     0
  0
XRECORD
  5
1D64
102
{ACAD_REACTORS
330
1D53
102
}
330
1D53
100
AcDbXrecord
340
0
  0
XRECORD
  5
1D65
102
{ACAD_REACTORS
330
1D53
102
}
330
1D53
100
AcDbXrecord
 10
0.0
 20
0.0
 30
0.0
  0
XRECORD
  5
1D66
102
{ACAD_REACTORS
330
1D53
102
}
330
1D53
100
AcDbXrecord
 10
0.0
 20
0.0
 30
0.0
  0
XRECORD
  5
1D67
102
{ACAD_REACTORS
330
1D53
102
}
330
1D53
100
AcDbXrecord
 10
0.0
 20
0.0
 30
0.0
  0
XRECORD
  5
1D68
102
{ACAD_REACTORS
330
1D53
102
}
330
1D53
100
AcDbXrecord
 10
0.0
 20
0.0
 30
0.0
  0
XRECORD
  5
1D69
102
{ACAD_REACTORS
330
1D53
102
}
330
1D53
100
AcDbXrecord
 10
0.0
 20
0.0
 30
0.0
  0
XRECORD
  5
1D6A
102
{ACAD_REACTORS
330
1D53
102
}
330
1D53
100
AcDbXrecord
 10
0.0
 20
0.0
 30
0.0
  0
XRECORD
  5
1D6B
102
{ACAD_REACTORS
330
1D53
102
}
330
1D53
100
AcDbXrecord
340
0
  0
XRECORD
  5
1D6C
102
{ACAD_REACTORS
330
1D53
102
}
330
1D53
100
AcDbXrecord
 70
     0
  0
XRECORD
  5
1D6D
102
{ACAD_REACTORS
330
1D53
102
}
330
1D53
100
AcDbXrecord
340
0
  0
XRECORD
  5
1D6E
102
{ACAD_REACTORS
330
1D53
102
}
330
1D53
100
AcDbXrecord
 10
0.0
 20
0.0
 30
0.0
  0
XRECORD
  5
1D6F
102
{ACAD_REACTORS
330
1D53
102
}
330
1D53
100
AcDbXrecord
 10
0.0
 20
0.0
 30
0.0
  0
XRECORD
  5
1D70
102
{ACAD_REACTORS
330
1D53
102
}
330
1D53
100
AcDbXrecord
 10
0.0
 20
0.0
 30
0.0
  0
XRECORD
  5
1D71
102
{ACAD_REACTORS
330
1D53
102
}
330
1D53
100
AcDbXrecord
 10
0.0
 20
0.0
 30
0.0
  0
XRECORD
  5
1D72
102
{ACAD_REACTORS
330
1D53
102
}
330
1D53
100
AcDbXrecord
 10
0.0
 20
0.0
 30
0.0
  0
XRECORD
  5
1D73
102
{ACAD_REACTORS
330
1D53
102
}
330
1D53
100
AcDbXrecord
 10
0.0
 20
0.0
 30
0.0
  0
LAYER_INDEX
  5
1D4A
102
{ACAD_REACTORS
330
1D49
102
}
330
1D49
100
AcDbIndex
 40
2453152.359835196
100
AcDbLayerIndex
  8
0
360
1D4B
 90
        1
  8
AM_0
360
1D4C
 90
      128
  8
AM_11
360
1D4D
 90
        4
  8
AM_7
360
1D4E
 90
        1
  8
AM_5
360
1D4F
 90
        4
  8
Defpoints
360
1D50
 90
        0
  8
AM_6
360
1D51
 90
        1
  0
XRECORD
  5
2D
102
{ACAD_REACTORS
330
2C
102
}
330
2C
100
AcDbXrecord
  1
VERSION
140
15.0
  1
PRODUCT
  2
AutoCAD Mechanical 2000
  0
IDBUFFER
  5
1D4B
330
0
100
AcDbIdBuffer
330
DFD
  0
IDBUFFER
  5
1D4C
330
0
100
AcDbIdBuffer
330
1CCA
330
1CCB
330
1CCC
330
1CCD
330
1CCE
330
1CCF
330
1CD0
330
1CD1
330
1CD2
330
1CD3
330
1CD4
330
1CD5
330
1CD6
330
1CD7
330
1CD8
330
1CD9
330
DFA
330
DFB
330
DFC
330
DFE
330
DFF
330
E00
330
E32
330
1174
330
1B45
330
1C60
330
1C61
330
1C62
330
1C63
330
1C64
330
1C65
330
1C66
330
1C67
330
1C68
330
1C69
330
1C6A
330
1C6B
330
1C6C
330
1C6D
330
1C6E
330
1C6F
330
1C70
330
1C71
330
1C72
330
1C73
330
1C74
330
1C75
330
1C76
330
1C77
330
1C78
330
1C79
330
1C7A
330
1C7B
330
1C7C
330
1C7D
330
1C7E
330
1C7F
330
1C80
330
1C81
330
1C82
330
1C83
330
1C84
330
1C85
330
1C86
330
1C87
330
1C88
330
1C89
330
1C8A
330
1C8B
330
1C8C
330
1C8D
330
1C8E
330
1C8F
330
1C90
330
1C91
330
1C92
330
1C93
330
1C95
330
1C96
330
1C97
330
1C98
330
1C99
330
1C9A
330
1C9B
330
1C9C
330
1C9D
330
1C9E
330
1C9F
330
1CA0
330
1CA1
330
1CA2
330
1CA3
330
1CA4
330
1CA5
330
1CA6
330
1CA7
330
1CA8
330
1CA9
330
1CAA
330
1CAB
330
1CAC
330
1CAD
330
1CAE
330
1CAF
330
1CB0
330
1CB1
330
1CB2
330
1CB3
330
1CB4
330
1CB5
330
1CB8
330
1CB9
330
1CBA
330
1CBB
330
1CBC
330
1CBD
330
1CBE
330
1CBF
330
1CC0
330
1CC1
330
1CC2
330
1CC3
330
1CC4
330
1CC5
330
1CC6
330
1CC7
330
1CC8
330
1CC9
  0
IDBUFFER
  5
1D4D
330
0
100
AcDbIdBuffer
330
1B9D
330
1C94
330
1CB6
330
1CB7
  0
IDBUFFER
  5
1D4E
330
0
100
AcDbIdBuffer
330
C50
  0
IDBUFFER
  5
1D4F
330
0
100
AcDbIdBuffer
330
C4F
330
C53
330
18B7
330
18EB
  0
IDBUFFER
  5
1D50
330
0
100
AcDbIdBuffer
  0
IDBUFFER
  5
1D51
330
0
100
AcDbIdBuffer
330
C58
  0
ENDSEC
  0
EOF
