  0
SECTION
  2
HEADER
  9
$ACADVER
  1
AC1014
  9
$ACADMAINTVER
 70
     9
  9
$DWGCODEPAGE
  3
ANSI_932
  9
$INSBASE
 10
0.0
 20
0.0
 30
0.0
  9
$EXTMIN
 10
-83.25430219514823
 20
-27.25000101000752
 30
-0.00000001
  9
$EXTMAX
 10
10.89356115204065
 20
5.5
 30
0.00000001
  9
$LIMMIN
 10
-104.1395787946735
 20
-46.78502103485373
  9
$LIMMAX
 10
33.39611307987336
 20
29.73827892813678
  9
$ORTHOMODE
 70
     0
  9
$REGENMODE
 70
     1
  9
$FILLMODE
 70
     1
  9
$QTEXTMODE
 70
     0
  9
$MIRRTEXT
 70
     0
  9
$DRAGMODE
 70
     2
  9
$LTSCALE
 40
1.0
  9
$OSMODE
 70
    55
  9
$ATTMODE
 70
     1
  9
$TEXTSIZE
 40
2.5
  9
$TRACEWID
 40
1.0
  9
$TEXTSTYLE
  7
STANDARD
  9
$CLAYER
  8
AM_0
  9
$CELTYPE
  6
BYLAYER
  9
$CECOLOR
 62
   256
  9
$CELTSCALE
 40
1.0
  9
$DELOBJ
 70
     1
  9
$DISPSILH
 70
     0
  9
$DIMSCALE
 40
0.5
  9
$DIMASZ
 40
2.5
  9
$DIMEXO
 40
1.0
  9
$DIMDLI
 40
12.0
  9
$DIMRND
 40
0.0
  9
$DIMDLE
 40
0.0
  9
$DIMEXE
 40
1.0
  9
$DIMTP
 40
0.1
  9
$DIMTM
 40
0.1
  9
$DIMTXT
 40
3.2
  9
$DIMCEN
 40
0.0
  9
$DIMTSZ
 40
0.0
  9
$DIMTOL
 70
     0
  9
$DIMLIM
 70
     0
  9
$DIMTIH
 70
     0
  9
$DIMTOH
 70
     0
  9
$DIMSE1
 70
     0
  9
$DIMSE2
 70
     0
  9
$DIMTAD
 70
     3
  9
$DIMZIN
 70
     8
  9
$DIMBLK
  1
OPEN30
  9
$DIMASO
 70
     1
  9
$DIMSHO
 70
     1
  9
$DIMPOST
  1

  9
$DIMAPOST
  1
"
  9
$DIMALT
 70
     0
  9
$DIMALTD
 70
     2
  9
$DIMALTF
 40
0.0393701
  9
$DIMLFAC
 40
1.0
  9
$DIMTOFL
 70
     1
  9
$DIMTVP
 40
0.0
  9
$DIMTIX
 70
     0
  9
$DIMSOXD
 70
     0
  9
$DIMSAH
 70
     0
  9
$DIMBLK1
  1

  9
$DIMBLK2
  1

  9
$DIMSTYLE
  2
AM_JIS
  9
$DIMCLRD
 70
   256
  9
$DIMCLRE
 70
   256
  9
$DIMCLRT
 70
     2
  9
$DIMTFAC
 40
0.71
  9
$DIMGAP
 40
1.5
  9
$DIMJUST
 70
     0
  9
$DIMSD1
 70
     0
  9
$DIMSD2
 70
     0
  9
$DIMTOLJ
 70
     0
  9
$DIMTZIN
 70
     0
  9
$DIMALTZ
 70
     0
  9
$DIMALTTZ
 70
     0
  9
$DIMFIT
 70
     3
  9
$DIMUPT
 70
     0
  9
$DIMUNIT
 70
     2
  9
$DIMDEC
 70
     3
  9
$DIMTDEC
 70
     3
  9
$DIMALTU
 70
     2
  9
$DIMALTTD
 70
     2
  9
$DIMTXSTY
  7
ASAMI
  9
$DIMAUNIT
 70
     0
  9
$LUNITS
 70
     2
  9
$LUPREC
 70
     2
  9
$SKETCHINC
 40
1.0
  9
$FILLETRAD
 40
2.5
  9
$AUNITS
 70
     0
  9
$AUPREC
 70
     0
  9
$MENU
  1
.
  9
$ELEVATION
 40
0.0
  9
$PELEVATION
 40
0.0
  9
$THICKNESS
 40
0.0
  9
$LIMCHECK
 70
     0
  9
$BLIPMODE
 70
     0
  9
$CHAMFERA
 40
2.5
  9
$CHAMFERB
 40
2.5
  9
$CHAMFERC
 40
20.0
  9
$CHAMFERD
 40
0.0
  9
$SKPOLY
 70
     0
  9
$TDCREATE
 40
2452838.620506898
  9
$TDUPDATE
 40
2453152.359378009
  9
$TDINDWG
 40
0.1408783449
  9
$TDUSRTIMER
 40
0.1408783449
  9
$USRTIMER
 70
     1
  9
$ANGBASE
 50
0.0
  9
$ANGDIR
 70
     0
  9
$PDMODE
 70
     0
  9
$PDSIZE
 40
0.0
  9
$PLINEWID
 40
0.0
  9
$COORDS
 70
     1
  9
$SPLFRAME
 70
     0
  9
$SPLINETYPE
 70
     6
  9
$SPLINESEGS
 70
     8
  9
$ATTDIA
 70
     1
  9
$ATTREQ
 70
     1
  9
$HANDLING
 70
 12289
  9
$HANDSEED
  5
1E82
  9
$SURFTAB1
 70
     6
  9
$SURFTAB2
 70
     6
  9
$SURFTYPE
 70
     6
  9
$SURFU
 70
     6
  9
$SURFV
 70
     6
  9
$UCSNAME
  2

  9
$UCSORG
 10
-0.0000000000000568
 20
-0.0000000000000027
 30
0.0
  9
$UCSXDIR
 10
1.0
 20
0.0
 30
0.0
  9
$UCSYDIR
 10
0.0
 20
1.0
 30
0.0
  9
$PUCSNAME
  2

  9
$PUCSORG
 10
0.0
 20
0.0
 30
0.0
  9
$PUCSXDIR
 10
1.0
 20
0.0
 30
0.0
  9
$PUCSYDIR
 10
0.0
 20
1.0
 30
0.0
  9
$USERI1
 70
     0
  9
$USERI2
 70
     0
  9
$USERI3
 70
     0
  9
$USERI4
 70
     0
  9
$USERI5
 70
     0
  9
$USERR1
 40
0.0
  9
$USERR2
 40
0.0
  9
$USERR3
 40
0.0
  9
$USERR4
 40
0.0
  9
$USERR5
 40
0.0
  9
$WORLDVIEW
 70
     1
  9
$SHADEDGE
 70
     3
  9
$SHADEDIF
 70
    70
  9
$TILEMODE
 70
     1
  9
$MAXACTVP
 70
    64
  9
$PINSBASE
 10
0.0
 20
0.0
 30
0.0
  9
$PLIMCHECK
 70
     0
  9
$PEXTMIN
 10
1.000000000000000E+20
 20
1.000000000000000E+20
 30
1.000000000000000E+20
  9
$PEXTMAX
 10
-1.000000000000000E+20
 20
-1.000000000000000E+20
 30
-1.000000000000000E+20
  9
$PLIMMIN
 10
0.0
 20
0.0
  9
$PLIMMAX
 10
841.0
 20
594.0
  9
$UNITMODE
 70
     0
  9
$VISRETAIN
 70
     1
  9
$PLINEGEN
 70
     0
  9
$PSLTSCALE
 70
     0
  9
$TREEDEPTH
 70
  3020
  9
$PICKSTYLE
 70
     0
  9
$CMLSTYLE
  2
STANDARD
  9
$CMLJUST
 70
     0
  9
$CMLSCALE
 40
20.0
  9
$PROXYGRAPHICS
 70
     1
  9
$MEASUREMENT
 70
     1
  0
ENDSEC
  0
SECTION
  2
CLASSES
  0
CLASS
  1
ACDBDICTIONARYWDFLT
  2
AcDbDictionaryWithDefault
  3
AutoCAD 2000
 90
        0
280
     0
281
     0
  0
CLASS
  1
ACDBPLACEHOLDER
  2
AcDbPlaceHolder
  3
AutoCAD 2000
 90
        0
280
     0
281
     0
  0
CLASS
  1
LAYOUT
  2
AcDbLayout
  3
AutoCAD 2000
 90
        0
280
     0
281
     0
  0
CLASS
  1
AMGSETTINGSOBJ
  2
AmgSettingsObj
  3
"AcadM|Product Description: AutoCAD Mechanical 2000|Company: Autodesk"
 90
        0
280
     0
281
     0
  0
CLASS
  1
ACME_DOCUMENT
  2
AcMeDbDoc
  3
AcMeServices
 90
        0
280
     0
281
     0
  0
CLASS
  1
ACMESCOPE
  2
AcMeScope
  3
AcMeServices
 90
        0
280
     0
281
     0
  0
CLASS
  1
ACMECOMMANDHISTORY
  2
AcMeCommandHistory
  3
AcMeServices
 90
        0
280
     0
281
     0
  0
CLASS
  1
DICTIONARYVAR
  2
AcDbDictionaryVar
  3
AutoCAD 2000
 90
        0
280
     0
281
     0
  0
CLASS
  1
ACIMSYSVARMAN
  2
AcImSysVarManager
  3
AcMeServices
 90
        0
280
     0
281
     0
  0
CLASS
  1
ACIMREALSYSVAR
  2
AcImRealSysVar
  3
AcMeServices
 90
        0
280
     0
281
     0
  0
CLASS
  1
ACIMINTSYSVAR
  2
AcImIntSysVar
  3
AcMeServices
 90
        0
280
     0
281
     0
  0
CLASS
  1
ACMEDRAWINGMAN
  2
AcMeDrawingMan
  3
AcMeServices
 90
        0
280
     0
281
     0
  0
CLASS
  1
ACMEVIEW
  2
AcMeView
  3
AcMeServices
 90
        0
280
     0
281
     0
  0
CLASS
  1
ACDBENTITYCACHE
  2
AcMeEntityCache
  3
AcMeServices
 90
        0
280
     0
281
     0
  0
CLASS
  1
GSMANAGER
  2
AcMeGSManager
  3
AcMeServices
 90
        0
280
     0
281
     0
  0
CLASS
  1
AmdtInternalReactor
  2
AmdtInternalReactor
  3
AcMeServices
 90
        0
280
     0
281
     0
  0
CLASS
  1
ACMESTATEMGR
  2
AcMeStateMgr
  3
AcMeServices
 90
        0
280
     0
281
     0
  0
CLASS
  1
ACME_DATABASE
  2
AcMeDbDatabase
  3
AcMeServices
 90
        0
280
     0
281
     0
  0
CLASS
  1
ACRFINSADJUSTERMGR
  2
AcRfInsAdjusterMgr
  3
AcMeServices
 90
        0
280
     0
281
     0
  0
CLASS
  1
ACMDATADICTIONARY
  2
AcmDataDictionary
  3
"AcmSymBB|Product Description: AutoCAD Mechanical 2000|Company: Autodesk"
 90
        0
280
     0
281
     0
  0
CLASS
  1
ACMDATAENTRYBLOCK
  2
AcmDataEntryBlock
  3
"AcmSymBB|Product Description: AutoCAD Mechanical 2000|Company: Autodesk"
 90
        0
280
     0
281
     0
  0
CLASS
  1
AMGOBJPROPCFG
  2
AmgObjPropCfg
  3
"AmgLay|Product Description: AutoCAD Mechanical 2000|Company: Autodesk"
 90
        1
280
     0
281
     0
  0
CLASS
  1
ACAMGFILTERDAT
  2
AcAmgFilterDat
  3
"AcadM|Product Description: AutoCAD Mechanical 2000|Company: Autodesk"
 90
        0
280
     0
281
     0
  0
CLASS
  1
LAYER_INDEX
  2
AcDbLayerIndex
  3
AutoCAD 2000
 90
        0
280
     0
281
     0
  0
CLASS
  1
IDBUFFER
  2
AcDbIdBuffer
  3
AutoCAD 2000
 90
        0
280
     0
281
     0
  0
CLASS
  1
ACIMSTRSYSVAR
  2
AcImStrSysVar
  3
AcMeServices
 90
        0
280
     0
281
     0
  0
CLASS
  1
ACMSTANDARDJIS
  2
AcmStandardJIS
  3
"AcmSymBB|Product Description: AutoCAD Mechanical 2000|Company: Autodesk"
 90
        0
280
     0
281
     0
  0
CLASS
  1
ACMSURFSTANDARDJIS
  2
AcmSurfTextStdJIS
  3
"AcmSymBB|Product Description: AutoCAD Mechanical 2000|Company: Autodesk"
 90
        0
280
     0
281
     0
  0
CLASS
  1
ACMFCFSTANDARDJIS
  2
AcmFCFStdJIS
  3
"AcmSymBB|Product Description: AutoCAD Mechanical 2000|Company: Autodesk"
 90
        0
280
     0
281
     0
  0
CLASS
  1
ACMWELDSTANDARDJIS
  2
AcmWeldingStdJIS
  3
"AcmSymBB|Product Description: AutoCAD Mechanical 2000|Company: Autodesk"
 90
        0
280
     0
281
     0
  0
CLASS
  1
ACMIDSTANDARDJIS
  2
AcmIdStdJIS
  3
"AcmSymBB|Product Description: AutoCAD Mechanical 2000|Company: Autodesk"
 90
        0
280
     0
281
     0
  0
CLASS
  1
ACMDATUMSTANDARDJIS
  2
AcmDatumStdJIS
  3
"AcmSymBB|Product Description: AutoCAD Mechanical 2000|Company: Autodesk"
 90
        0
280
     0
281
     0
  0
CLASS
  1
ACMBOMSTANDARDJIS
  2
AcmBOMStdJIS
  3
"AcmSymBB|Product Description: AutoCAD Mechanical 2000|Company: Autodesk"
 90
        0
280
     0
281
     0
  0
CLASS
  1
ACMSTANDARDANSI
  2
AcmStandardANSI
  3
"AcmSymBB|Product Description: AutoCAD Mechanical 2000|Company: Autodesk"
 90
        0
280
     0
281
     0
  0
CLASS
  1
ACMSURFSTANDARDANSI
  2
AcmSurfTextStdANSI
  3
"AcmSymBB|Product Description: AutoCAD Mechanical 2000|Company: Autodesk"
 90
        0
280
     0
281
     0
  0
CLASS
  1
ACMFCFSTANDARDANSI
  2
AcmFCFStdANSI
  3
"AcmSymBB|Product Description: AutoCAD Mechanical 2000|Company: Autodesk"
 90
        0
280
     0
281
     0
  0
CLASS
  1
ACMWELDSTANDARDANSI
  2
AcmWeldingStdANSI
  3
"AcmSymBB|Product Description: AutoCAD Mechanical 2000|Company: Autodesk"
 90
        0
280
     0
281
     0
  0
CLASS
  1
ACMIDSTANDARDANSI
  2
AcmIdStdANSI
  3
"AcmSymBB|Product Description: AutoCAD Mechanical 2000|Company: Autodesk"
 90
        0
280
     0
281
     0
  0
CLASS
  1
ACMDATUMSTANDARDANSI
  2
AcmDatumStdANSI
  3
"AcmSymBB|Product Description: AutoCAD Mechanical 2000|Company: Autodesk"
 90
        0
280
     0
281
     0
  0
CLASS
  1
ACMBOMSTANDARDANSI
  2
AcmBOMStdANSI
  3
"AcmSymBB|Product Description: AutoCAD Mechanical 2000|Company: Autodesk"
 90
        0
280
     0
281
     0
  0
CLASS
  1
ACMSTANDARDBSI
  2
AcmStandardBSI
  3
"AcmSymBB|Product Description: AutoCAD Mechanical 2000|Company: Autodesk"
 90
        0
280
     0
281
     0
  0
CLASS
  1
ACMSURFSTANDARDBSI
  2
AcmSurfTextStdBSI
  3
"AcmSymBB|Product Description: AutoCAD Mechanical 2000|Company: Autodesk"
 90
        0
280
     0
281
     0
  0
CLASS
  1
ACMFCFSTANDARDBSI
  2
AcmFCFStdBSI
  3
"AcmSymBB|Product Description: AutoCAD Mechanical 2000|Company: Autodesk"
 90
        0
280
     0
281
     0
  0
CLASS
  1
ACMWELDSTANDARDBSI
  2
AcmWeldingStdBSI
  3
"AcmSymBB|Product Description: AutoCAD Mechanical 2000|Company: Autodesk"
 90
        0
280
     0
281
     0
  0
CLASS
  1
ACMIDSTANDARDBSI
  2
AcmIdStdBSI
  3
"AcmSymBB|Product Description: AutoCAD Mechanical 2000|Company: Autodesk"
 90
        0
280
     0
281
     0
  0
CLASS
  1
ACMDATUMSTANDARDBSI
  2
AcmDatumStdBSI
  3
"AcmSymBB|Product Description: AutoCAD Mechanical 2000|Company: Autodesk"
 90
        0
280
     0
281
     0
  0
CLASS
  1
ACMBOMSTANDARDBSI
  2
AcmBOMStdBSI
  3
"AcmSymBB|Product Description: AutoCAD Mechanical 2000|Company: Autodesk"
 90
        0
280
     0
281
     0
  0
CLASS
  1
LONG_TRANSACTION
  2
AcDbLongTransaction
  3
AutoCAD 2000
 90
        0
280
     0
281
     0
  0
CLASS
  1
LWPOLYLINE
  2
AcDbPolyline
  3
AutoCAD 2000
 90
        0
280
     0
281
     1
  0
CLASS
  1
HATCH
  2
AcDbHatch
  3
AutoCAD 2000
 90
        0
280
     0
281
     1
  0
CLASS
  1
XRECORD
  2
AcDbXrecord
  3
AutoCAD 2000
 90
        0
280
     0
281
     0
  0
ENDSEC
  0
SECTION
  2
TABLES
  0
TABLE
  2
VPORT
  5
8
330
0
100
AcDbSymbolTable
 70
     3
  0
VPORT
  5
1E57
330
8
100
AcDbSymbolTableRecord
100
AcDbViewportTableRecord
  2
*ACTIVE
 70
     0
 10
0.0
 20
0.0
 11
1.0
 21
1.0
 12
-32.50228319613042
 22
-2.362799230465519
 13
0.0
 23
0.0
 14
2.5
 24
2.5
 15
10.0
 25
10.0
 16
0.0
 26
0.0
 36
1.0
 17
0.0
 27
0.0
 37
0.0
 40
115.1431484542475
 41
1.56570841889117
 42
50.0
 43
0.0
 44
0.0
 50
0.0
 51
0.0
 71
     0
 72
   100
 73
     1
 74
     3
 75
     0
 76
     0
 77
     0
 78
     0
  0
ENDTAB
  0
TABLE
  2
LTYPE
  5
5
330
0
100
AcDbSymbolTable
 70
    10
  0
LTYPE
  5
14
330
5
100
AcDbSymbolTableRecord
100
AcDbLinetypeTableRecord
  2
BYBLOCK
 70
     0
  3

 72
    65
 73
     0
 40
0.0
  0
LTYPE
  5
15
330
5
100
AcDbSymbolTableRecord
100
AcDbLinetypeTableRecord
  2
BYLAYER
 70
     0
  3

 72
    65
 73
     0
 40
0.0
  0
LTYPE
  5
16
330
5
100
AcDbSymbolTableRecord
100
AcDbLinetypeTableRecord
  2
CONTINUOUS
 70
     0
  3
Solid line
 72
    65
 73
     0
 40
0.0
  0
LTYPE
  5
4B
330
5
100
AcDbSymbolTableRecord
100
AcDbLinetypeTableRecord
  2
AM_ISO02W050
 70
     0
  3
__ __ __ __ __ __ __ __ __ __ __ __ __ __ __
 72
    65
 73
     2
 40
7.5
 49
6.0
 74
     0
 49
-1.5
 74
     0
  0
LTYPE
  5
4C
330
5
100
AcDbSymbolTableRecord
100
AcDbLinetypeTableRecord
  2
AM_ISO08W050
 70
     0
  3
____ . ____ . ____ . ____ . ____ . ____ . ____
 72
    65
 73
     4
 40
18.0
 49
12.0
 74
     0
 49
-1.5
 74
     0
 49
3.0
 74
     0
 49
-1.5
 74
     0
  0
LTYPE
  5
4D
330
5
100
AcDbSymbolTableRecord
100
AcDbLinetypeTableRecord
  2
AM_ISO09W050
 70
     0
  3
_____ . . _____ . . _____ . . ____ .. ____
 72
    65
 73
     6
 40
22.5
 49
12.0
 74
     0
 49
-1.5
 74
     0
 49
3.0
 74
     0
 49
-1.5
 74
     0
 49
3.0
 74
     0
 49
-1.5
 74
     0
  0
LTYPE
  5
4E
330
5
100
AcDbSymbolTableRecord
100
AcDbLinetypeTableRecord
  2
AMCONSTR
 70
     0
  3
_______________________
 72
    65
 73
     2
 40
9999.0
 49
9999.0
 74
     0
 49
0.0
 74
     0
  0
LTYPE
  5
4F
330
5
100
AcDbSymbolTableRecord
100
AcDbLinetypeTableRecord
  2
AM_ISO02W050X2
 70
     0
  3
 _ _ _ _ _ _ _ _ _ _ _ _
 72
    65
 73
     2
 40
3.75
 49
3.0
 74
     0
 49
-0.75
 74
     0
  0
LTYPE
  5
50
330
5
100
AcDbSymbolTableRecord
100
AcDbLinetypeTableRecord
  2
AM_ISO08W050X2
 70
     0
  3
__ . __ . __ . __ . __ . __
 72
    65
 73
     4
 40
9.0
 49
6.0
 74
     0
 49
-0.75
 74
     0
 49
1.5
 74
     0
 49
-0.75
 74
     0
  0
LTYPE
  5
53
330
5
100
AcDbSymbolTableRecord
100
AcDbLinetypeTableRecord
  2
AMZIGZAG
 70
     0
  3
/\/-/\/-/\/-/\/-/\/-/\/
 72
    65
 73
     2
 40
11.00009999999999
 49
0.0001
 74
     4
 75
   135
340
52
 46
0.04
 50
0.0
 44
0.0
 45
0.0
 49
-11.0
 74
     0
  0
LTYPE
  5
166
330
5
100
AcDbSymbolTableRecord
100
AcDbLinetypeTableRecord
  2
ACJISTGL
 70
     0
  3
_ _ _ _ _
 72
    65
 73
     2
 40
3.0
 49
2.0
 74
     0
 49
-1.0
 74
     0
  0
LTYPE
  5
26A
330
5
100
AcDbSymbolTableRecord
100
AcDbLinetypeTableRecord
  2
ACJISTGB
 70
     0
  3
__ . . __ . .
 72
    65
 73
     6
 40
9.0
 49
4.0
 74
     0
 49
-1.0
 74
     0
 49
1.0
 74
     0
 49
-1.0
 74
     0
 49
1.0
 74
     0
 49
-1.0
 74
     0
  0
ENDTAB
  0
TABLE
  2
LAYER
  5
2
330
0
100
AcDbSymbolTable
 70
     7
  0
LAYER
  5
10
330
2
100
AcDbSymbolTableRecord
100
AcDbLayerTableRecord
  2
0
 70
     0
 62
     7
  6
CONTINUOUS
  0
LAYER
  5
3F9
330
2
100
AcDbSymbolTableRecord
100
AcDbLayerTableRecord
  2
AM_0
 70
     0
 62
     7
  6
CONTINUOUS
  0
LAYER
  5
BD6
330
2
100
AcDbSymbolTableRecord
100
AcDbLayerTableRecord
  2
AM_11
 70
     0
 62
     3
  6
AM_ISO09W050
  0
LAYER
  5
BD7
330
2
100
AcDbSymbolTableRecord
100
AcDbLayerTableRecord
  2
AM_7
 70
     0
 62
     4
  6
AM_ISO08W050
  0
LAYER
  5
BD8
330
2
100
AcDbSymbolTableRecord
100
AcDbLayerTableRecord
  2
AM_5
 70
     0
 62
     3
  6
CONTINUOUS
  0
LAYER
  5
BD9
330
2
100
AcDbSymbolTableRecord
100
AcDbLayerTableRecord
  2
DEFPOINTS
 70
     0
 62
     7
  6
CONTINUOUS
  0
LAYER
  5
BDA
330
2
100
AcDbSymbolTableRecord
100
AcDbLayerTableRecord
  2
AM_6
 70
     0
 62
     2
  6
CONTINUOUS
  0
ENDTAB
  0
TABLE
  2
STYLE
  5
3
330
0
100
AcDbSymbolTable
 70
     5
  0
STYLE
  5
11
330
3
100
AcDbSymbolTableRecord
100
AcDbTextStyleTableRecord
  2
STANDARD
 70
     0
 40
0.0
 41
1.0
 50
0.0
 71
     0
 42
2.5
  3
simplex.shx
  4
EXTFONT.SHX
  0
STYLE
  5
52
330
3
100
AcDbSymbolTableRecord
100
AcDbTextStyleTableRecord
  2

 70
     1
 40
0.0
 41
1.0
 50
0.0
 71
     0
 42
2.5
  3
ltypeshp.shx
  4

  0
STYLE
  5
6B
330
3
100
AcDbSymbolTableRecord
100
AcDbTextStyleTableRecord
  2
ASAMI
 70
     0
 40
0.0
 41
1.0
 50
0.0
 71
     0
 42
2.5
  3
simplex.shx
  4
EXTFONT.SHX
  0
STYLE
  5
262
330
3
100
AcDbSymbolTableRecord
100
AcDbTextStyleTableRecord
  2
ACJISTS
 70
     0
 40
1.0
 41
1.0
 50
0.0
 71
     0
 42
2.5
  3
simplex.shx
  4
bigfont.shx
  0
STYLE
  5
269
330
3
100
AcDbSymbolTableRecord
100
AcDbTextStyleTableRecord
  2
ACJISGDT
 70
     0
 40
0.0
 41
1.0
 50
0.0
 71
     0
 42
2.5
  3
amgdtans.shx
  4

  0
ENDTAB
  0
TABLE
  2
VIEW
  5
6
330
0
100
AcDbSymbolTable
 70
     0
  0
ENDTAB
  0
TABLE
  2
UCS
  5
7
330
0
100
AcDbSymbolTable
 70
     0
  0
ENDTAB
  0
TABLE
  2
APPID
  5
9
330
0
100
AcDbSymbolTable
 70
    13
  0
APPID
  5
12
330
9
100
AcDbSymbolTableRecord
100
AcDbRegAppTableRecord
  2
ACAD
 70
     0
  0
APPID
  5
30
330
9
100
AcDbSymbolTableRecord
100
AcDbRegAppTableRecord
  2
MCAD_NO_VIS
 70
     0
  0
APPID
  5
31
330
9
100
AcDbSymbolTableRecord
100
AcDbRegAppTableRecord
  2
ACAD_TEMP_GRAPHIC
 70
     0
  0
APPID
  5
2C2
330
9
100
AcDbSymbolTableRecord
100
AcDbRegAppTableRecord
  2
GENIUS_GENDTOL_13
 70
     0
  0
APPID
  5
339
330
9
100
AcDbSymbolTableRecord
100
AcDbRegAppTableRecord
  2
GENIUS_GENODEF_13
 70
     0
  0
APPID
  5
33A
330
9
100
AcDbSymbolTableRecord
100
AcDbRegAppTableRecord
  2
GENIUS_GENOBJ-N-RSBK_13
 70
     0
  0
APPID
  5
33B
330
9
100
AcDbSymbolTableRecord
100
AcDbRegAppTableRecord
  2
GENIUS_GENOBJ-N-LIB_13
 70
     0
  0
APPID
  5
33C
330
9
100
AcDbSymbolTableRecord
100
AcDbRegAppTableRecord
  2
GENIUS_GENSCALE_13
 70
     0
  0
APPID
  5
378
330
9
100
AcDbSymbolTableRecord
100
AcDbRegAppTableRecord
  2
GENIUS_GENDIMSH_14
 70
     0
  0
APPID
  5
BDB
330
9
100
AcDbSymbolTableRecord
100
AcDbRegAppTableRecord
  2
GENIUS_GENOBJ-N-CEN_13
 70
     0
  0
APPID
  5
BDC
330
9
100
AcDbSymbolTableRecord
100
AcDbRegAppTableRecord
  2
GENIUS_GENFIL_13
 70
     0
  0
APPID
  5
BDD
330
9
100
AcDbSymbolTableRecord
100
AcDbRegAppTableRecord
  2
GENIUS_GENOBJ-N-FIL_13
 70
     0
  0
APPID
  5
12AD
330
9
100
AcDbSymbolTableRecord
100
AcDbRegAppTableRecord
  2
GENIUS_GENOREF_13
 70
     0
  0
ENDTAB
  0
TABLE
  2
DIMSTYLE
  5
A
330
0
100
AcDbSymbolTable
 70
     8
  0
DIMSTYLE
105
58
102
{ACAD_REACTORS
330
C4F
330
C53
330
15A7
330
1B34
102
}
330
A
100
AcDbSymbolTableRecord
100
AcDbDimStyleTableRecord
  2
AM_JIS
 70
     0
  3

  4
"
  5
OPEN30
  6

  7

 40
0.5
 41
2.5
 42
1.0
 43
12.0
 44
1.0
 45
0.0
 46
0.0
 47
0.1
 48
0.1
140
3.2
141
0.0
142
0.0
143
0.0393701
144
1.0
145
0.0
146
0.71
147
1.5
 71
     0
 72
     0
 73
     0
 74
     0
 75
     0
 76
     0
 77
     3
 78
     8
170
     0
171
     2
172
     1
173
     0
174
     0
175
     0
176
   256
177
   256
178
     2
270
     2
271
     3
272
     3
273
     2
274
     2
340
6B
275
     0
280
     0
281
     0
282
     0
283
     0
284
     0
285
     0
286
     0
287
     3
288
     0
  0
DIMSTYLE
105
5F
330
A
100
AcDbSymbolTableRecord
100
AcDbDimStyleTableRecord
  2
AM_JIS$3
 70
     0
  3

  4
"
  5
OPEN30
  6

  7

 40
0.5
 41
2.5
 42
1.0
 43
10.0
 44
1.0
 45
0.0
 46
0.0
 47
0.1
 48
0.1
140
3.2
141
0.0
142
0.0
143
0.0393701
144
1.0
145
0.0
146
0.71
147
1.5
 71
     0
 72
     0
 73
     0
 74
     1
 75
     0
 76
     0
 77
     3
 78
     8
170
     0
171
     2
172
     0
173
     0
174
     0
175
     0
176
   256
177
   256
178
     2
270
     2
271
     2
272
     3
273
     2
274
     2
340
6B
275
     0
280
     0
281
     0
282
     0
283
     0
284
     0
285
     0
286
     0
287
     0
288
     1
  0
DIMSTYLE
105
60
330
A
100
AcDbSymbolTableRecord
100
AcDbDimStyleTableRecord
  2
AM_JIS$4
 70
     0
  3

  4
"
  5
OPEN30
  6

  7

 40
0.5
 41
2.5
 42
1.0
 43
10.0
 44
1.0
 45
0.0
 46
0.0
 47
0.1
 48
0.1
140
3.2
141
0.0
142
0.0
143
0.0393701
144
1.0
145
0.0
146
0.71
147
1.5
 71
     0
 72
     0
 73
     0
 74
     1
 75
     0
 76
     0
 77
     3
 78
     8
170
     0
171
     2
172
     0
173
     0
174
     0
175
     0
176
   256
177
   256
178
     2
270
     2
271
     2
272
     3
273
     2
274
     2
340
6B
275
     0
280
     0
281
     0
282
     0
283
     0
284
     0
285
     0
286
     0
287
     0
288
     1
  0
DIMSTYLE
105
61
330
A
100
AcDbSymbolTableRecord
100
AcDbDimStyleTableRecord
  2
AM_JIS$6
 70
     0
  3

  4
"
  5
OPEN30
  6

  7

 40
0.5
 41
2.5
 42
1.0
 43
10.0
 44
1.0
 45
0.0
 46
0.0
 47
0.1
 48
0.1
140
3.2
141
0.0
142
0.0
143
0.0393701
144
1.0
145
0.0
146
0.71
147
1.5
 71
     0
 72
     0
 73
     0
 74
     0
 75
     0
 76
     0
 77
     0
 78
     8
170
     0
171
     2
172
     1
173
     0
174
     0
175
     0
176
   256
177
   256
178
     2
270
     2
271
     2
272
     2
273
     2
274
     2
340
6B
275
     0
280
     0
281
     0
282
     0
283
     0
284
     0
285
     0
286
     0
287
     3
288
     0
  0
DIMSTYLE
105
62
330
A
100
AcDbSymbolTableRecord
100
AcDbDimStyleTableRecord
  2
AM_JIS$7
 70
     0
  3

  4
"
  5
OPEN30
  6

  7

 40
0.5
 41
2.5
 42
1.0
 43
10.0
 44
1.0
 45
0.0
 46
0.0
 47
0.1
 48
0.1
140
3.2
141
0.0
142
0.0
143
0.0393701
144
1.0
145
0.0
146
0.71
147
1.5
 71
     0
 72
     0
 73
     0
 74
     0
 75
     0
 76
     0
 77
     3
 78
     8
170
     0
171
     2
172
     1
173
     0
174
     0
175
     0
176
   256
177
   256
178
     2
270
     2
271
     2
272
     3
273
     2
274
     2
340
6B
275
     0
280
     0
281
     0
282
     0
283
     0
284
     0
285
     0
286
     0
287
     3
288
     0
  0
DIMSTYLE
105
63
330
A
100
AcDbSymbolTableRecord
100
AcDbDimStyleTableRecord
  2
AM_JIS$SF
 70
     0
  3

  4
"
  5
OPEN30
  6

  7

 40
0.5
 41
2.5
 42
1.0
 43
10.0
 44
1.0
 45
0.0
 46
0.0
 47
0.1
 48
0.1
140
3.2
141
0.0
142
0.0
143
0.0393701
144
1.0
145
0.0
146
0.71
147
1.5
 71
     0
 72
     0
 73
     0
 74
     0
 75
     1
 76
     1
 77
     3
 78
     8
170
     0
171
     2
172
     1
173
     0
174
     0
175
     0
176
   256
177
   256
178
     2
270
     2
271
     2
272
     2
273
     2
274
     2
340
6B
275
     0
280
     0
281
     0
282
     0
283
     0
284
     0
285
     0
286
     0
287
     3
288
     0
  0
DIMSTYLE
105
68
330
A
100
AcDbSymbolTableRecord
100
AcDbDimStyleTableRecord
  2
AM_JIS$SH
 70
     0
  3

  4
"
  5

  6
GENAXEH
  7
OPEN30
 40
0.5
 41
2.5
 42
1.0
 43
10.0
 44
1.0
 45
0.0
 46
0.0
 47
0.1
 48
0.1
140
3.2
141
0.0
142
0.0
143
0.0393701
144
2.0
145
0.0
146
0.71
147
1.5
 71
     0
 72
     0
 73
     0
 74
     0
 75
     1
 76
     1
 77
     3
 78
     8
170
     0
171
     2
172
     1
173
     1
174
     0
175
     0
176
   256
177
   256
178
     2
270
     2
271
     2
272
     2
273
     2
274
     2
340
6B
275
     0
280
     0
281
     0
282
     0
283
     0
284
     0
285
     0
286
     0
287
     3
288
     0
  0
DIMSTYLE
105
B34
330
A
100
AcDbSymbolTableRecord
100
AcDbDimStyleTableRecord
  2
AM_JIS$2
 70
     0
  3

  4
"
  5
OPEN30
  6

  7

 40
0.5
 41
2.5
 42
1.0
 43
12.0
 44
1.0
 45
0.0
 46
0.0
 47
0.1
 48
0.1
140
3.2
141
0.0
142
0.0
143
0.0393701
144
1.0
145
0.0
146
0.71
147
1.5
 71
     0
 72
     0
 73
     0
 74
     0
 75
     0
 76
     0
 77
     3
 78
     8
170
     0
171
     2
172
     1
173
     0
174
     0
175
     0
176
   256
177
   256
178
     2
270
     2
271
     3
272
     3
273
     2
274
     2
340
6B
275
     0
280
     0
281
     0
282
     0
283
     0
284
     0
285
     0
286
     0
287
     3
288
     0
  0
ENDTAB
  0
TABLE
  2
BLOCK_RECORD
  5
1
330
0
100
AcDbSymbolTable
 70
    10
  0
BLOCK_RECORD
  5
1F
102
{ACAD_XDICTIONARY
360
74
102
}
330
1
100
AcDbSymbolTableRecord
100
AcDbBlockTableRecord
  2
*MODEL_SPACE
  0
BLOCK_RECORD
  5
101
102
{ACAD_XDICTIONARY
360
1E80
102
}
330
1
100
AcDbSymbolTableRecord
100
AcDbBlockTableRecord
  2
*PAPER_SPACE
  0
BLOCK_RECORD
  5
59
330
1
100
AcDbSymbolTableRecord
100
AcDbBlockTableRecord
  2
_OPEN30
  0
BLOCK_RECORD
  5
64
330
1
100
AcDbSymbolTableRecord
100
AcDbBlockTableRecord
  2
GENAXEH
  0
BLOCK_RECORD
  5
C75
330
1
100
AcDbSymbolTableRecord
100
AcDbBlockTableRecord
  2
*D5
  0
BLOCK_RECORD
  5
C81
330
1
100
AcDbSymbolTableRecord
100
AcDbBlockTableRecord
  2
*D6
  0
BLOCK_RECORD
  5
15A8
330
1
100
AcDbSymbolTableRecord
100
AcDbBlockTableRecord
  2
*D7
  0
BLOCK_RECORD
  5
1B35
330
1
100
AcDbSymbolTableRecord
100
AcDbBlockTableRecord
  2
*D8
  0
ENDTAB
  0
ENDSEC
  0
SECTION
  2
BLOCKS
  0
BLOCK
  5
20
330
1F
100
AcDbEntity
  8
0
100
AcDbBlockBegin
  2
*MODEL_SPACE
 70
     0
 10
0.0
 20
0.0
 30
0.0
  3
*MODEL_SPACE
  1

  0
ENDBLK
  5
21
330
1F
100
AcDbEntity
  8
0
100
AcDbBlockEnd
  0
BLOCK
  5
103
330
101
100
AcDbEntity
 67
     1
  8
0
100
AcDbBlockBegin
  2
*PAPER_SPACE
 70
     0
 10
0.0
 20
0.0
 30
0.0
  3
*PAPER_SPACE
  1

  0
ENDBLK
  5
104
330
101
100
AcDbEntity
 67
     1
  8
0
100
AcDbBlockEnd
  0
BLOCK
  5
5D
330
59
100
AcDbEntity
  8
0
100
AcDbBlockBegin
  2
_OPEN30
 70
     0
 10
0.0
 20
0.0
 30
0.0
  3
_OPEN30
  1

  0
LINE
  5
5A
330
59
100
AcDbEntity
  8
0
 62
     0
100
AcDbLine
 10
-1.0
 20
0.26794919
 30
0.0
 11
0.0
 21
0.0
 31
0.0
  0
LINE
  5
5B
330
59
100
AcDbEntity
  8
0
 62
     0
100
AcDbLine
 10
0.0
 20
0.0
 30
0.0
 11
-1.0
 21
-0.26794919
 31
0.0
  0
LINE
  5
5C
330
59
100
AcDbEntity
  8
0
 62
     0
100
AcDbLine
 10
0.0
 20
0.0
 30
0.0
 11
-1.0
 21
0.0
 31
0.0
  0
ENDBLK
  5
5E
330
59
100
AcDbEntity
  8
0
100
AcDbBlockEnd
  0
BLOCK
  5
66
330
64
100
AcDbEntity
  8
0
100
AcDbBlockBegin
  2
GENAXEH
 70
     0
 10
0.0
 20
0.0
 30
0.0
  3
GENAXEH
  1

  0
LINE
  5
65
330
64
100
AcDbEntity
  8
0
100
AcDbLine
 10
-1.0
 20
0.0
 30
0.0
 11
1.0
 21
0.0
 31
0.0
  0
ENDBLK
  5
67
330
64
100
AcDbEntity
  8
0
100
AcDbBlockEnd
  0
BLOCK
  5
C7F
330
C75
100
AcDbEntity
  8
0
100
AcDbBlockBegin
  2
*D5
 70
     1
 10
0.0
 20
0.0
 30
0.0
  3
*D5
  1

  0
LINE
  5
1CE5
330
C75
100
AcDbEntity
  8
AM_5
100
AcDbLine
 10
-70.00000000000006
 20
-2.75
 30
0.0
 11
-70.00000000000006
 21
-16.50000101000748
 31
0.0
  0
LINE
  5
1CE6
330
C75
100
AcDbEntity
  8
AM_5
100
AcDbLine
 10
-0.0000000000000569
 20
-3.500000000007911
 30
0.0
 11
-0.0000000000000577
 21
-16.50000101000748
 31
0.0
  0
LINE
  5
1CE7
330
C75
100
AcDbEntity
  8
AM_5
100
AcDbLine
 10
-68.75000000000006
 20
-16.00000101000748
 30
0.0
 11
-1.250000000000057
 21
-16.00000101000748
 31
0.0
  0
INSERT
  5
1CE8
330
C75
100
AcDbEntity
  8
AM_5
100
AcDbBlockReference
  2
_OPEN30
 10
-70.00000000000006
 20
-16.00000101000748
 30
0.0
 41
1.25
 42
1.25
 43
1.25
 50
180.0
  0
INSERT
  5
1CE9
330
C75
100
AcDbEntity
  8
AM_5
100
AcDbBlockReference
  2
_OPEN30
 10
-0.0000000000000577
 20
-16.00000101000748
 30
0.0
 41
1.25
 42
1.25
 43
1.25
  0
MTEXT
  5
1CEA
330
C75
100
AcDbEntity
  8
AM_5
 62
     2
100
AcDbMText
 10
-35.00000000000005
 20
-14.45000101000748
 30
0.0
 40
1.6
 41
0.0
 71
     5
 72
     1
  1
70
  7
ASAMI
1001
ACAD
1000
MTEXTBEGIN
1070
    73
1070
     1
1070
    44
1040
1.0
1070
    74
1070
     0
1000
MTEXTEND
  0
POINT
  5
1CEB
330
C75
100
AcDbEntity
  8
DEFPOINTS
 62
     0
100
AcDbPoint
 10
-70.00000000000006
 20
-2.25
 30
0.0
  0
POINT
  5
1CEC
330
C75
100
AcDbEntity
  8
DEFPOINTS
 62
     0
100
AcDbPoint
 10
-0.0000000000000569
 20
-3.000000000007911
 30
0.0
  0
POINT
  5
1CED
330
C75
100
AcDbEntity
  8
DEFPOINTS
 62
     0
100
AcDbPoint
 10
-0.0000000000000577
 20
-16.00000101000748
 30
0.0
  0
ENDBLK
  5
C80
330
C75
100
AcDbEntity
  8
0
100
AcDbBlockEnd
  0
BLOCK
  5
C8B
330
C81
100
AcDbEntity
  8
0
100
AcDbBlockBegin
  2
*D6
 70
     1
 10
0.0
 20
0.0
 30
0.0
  3
*D6
  1

  0
LINE
  5
1CDA
330
C81
100
AcDbEntity
  8
AM_5
100
AcDbLine
 10
-70.00000000000006
 20
-3.000000000000002
 30
0.0
 11
-81.40430219514824
 21
-2.999999999999999
 31
0.0
  0
LINE
  5
1CDB
330
C81
100
AcDbEntity
  8
AM_5
100
AcDbLine
 10
-70.00000000000006
 20
2.999999999999997
 30
0.0
 11
-81.40430219514824
 21
3.0
 31
0.0
  0
LINE
  5
1CDC
330
C81
100
AcDbEntity
  8
AM_5
100
AcDbLine
 10
-80.90430219514823
 20
-4.25
 30
0.0
 11
-80.90430219514823
 21
-5.5
 31
0.0
  0
LINE
  5
1CDD
330
C81
100
AcDbEntity
  8
AM_5
100
AcDbLine
 10
-80.90430219514823
 20
4.25
 30
0.0
 11
-80.90430219514823
 21
5.5
 31
0.0
  0
LINE
  5
1CDE
330
C81
100
AcDbEntity
  8
AM_5
100
AcDbLine
 10
-80.90430219514823
 20
-3.0
 30
0.0
 11
-80.90430219514823
 21
3.0
 31
0.0
  0
INSERT
  5
1CDF
330
C81
100
AcDbEntity
  8
AM_5
100
AcDbBlockReference
  2
_OPEN30
 10
-80.90430219514823
 20
-3.0
 30
0.0
 41
1.25
 42
1.25
 43
1.25
 50
90.0
  0
INSERT
  5
1CE0
330
C81
100
AcDbEntity
  8
AM_5
100
AcDbBlockReference
  2
_OPEN30
 10
-80.90430219514823
 20
3.0
 30
0.0
 41
1.25
 42
1.25
 43
1.25
 50
270.0
  0
MTEXT
  5
1CE1
330
C81
100
AcDbEntity
  8
AM_5
 62
     2
100
AcDbMText
 10
-82.45430219514823
 20
-0.0000000000000089
 30
0.0
 40
1.6
 41
0.0
 71
     5
 72
     1
  1
%%c6
  7
ASAMI
 11
0.0000000000000001
 21
1.0
 31
0.0
1001
ACAD
1000
MTEXTBEGIN
1070
    73
1070
     1
1070
    44
1040
1.0
1070
    74
1070
     0
1000
MTEXTEND
  0
POINT
  5
1CE2
330
C81
100
AcDbEntity
  8
DEFPOINTS
 62
     0
100
AcDbPoint
 10
-69.50000000000006
 20
-3.000000000000002
 30
0.0
  0
POINT
  5
1CE3
330
C81
100
AcDbEntity
  8
DEFPOINTS
 62
     0
100
AcDbPoint
 10
-69.50000000000006
 20
2.999999999999997
 30
0.0
  0
POINT
  5
1CE4
330
C81
100
AcDbEntity
  8
DEFPOINTS
 62
     0
100
AcDbPoint
 10
-80.90430219514823
 20
3.0
 30
0.0
  0
ENDBLK
  5
C8C
330
C81
100
AcDbEntity
  8
0
100
AcDbBlockEnd
  0
BLOCK
  5
15B2
330
15A8
100
AcDbEntity
  8
0
100
AcDbBlockBegin
  2
*D7
 70
     1
 10
0.0
 20
0.0
 30
0.0
  3
*D7
  1

  0
LINE
  5
1CF7
330
15A8
100
AcDbEntity
  8
AM_5
100
AcDbLine
 10
-30.00000000000006
 20
-3.5
 30
0.0
 11
-30.00000000000006
 21
-10.50000101000766
 31
0.0
  0
LINE
  5
1CF8
330
15A8
100
AcDbEntity
  8
AM_5
100
AcDbLine
 10
-0.0000000000000569
 20
-3.500000000007911
 30
0.0
 11
-0.0000000000000574
 21
-10.50000101000766
 31
0.0
  0
LINE
  5
1CF9
330
15A8
100
AcDbEntity
  8
AM_5
100
AcDbLine
 10
-28.75000000000006
 20
-10.00000101000766
 30
0.0
 11
-1.250000000000057
 21
-10.00000101000766
 31
0.0
  0
INSERT
  5
1CFA
330
15A8
100
AcDbEntity
  8
AM_5
100
AcDbBlockReference
  2
_OPEN30
 10
-30.00000000000006
 20
-10.00000101000766
 30
0.0
 41
1.25
 42
1.25
 43
1.25
 50
180.0
  0
INSERT
  5
1CFB
330
15A8
100
AcDbEntity
  8
AM_5
100
AcDbBlockReference
  2
_OPEN30
 10
-0.0000000000000573
 20
-10.00000101000766
 30
0.0
 41
1.25
 42
1.25
 43
1.25
  0
MTEXT
  5
1CFC
330
15A8
100
AcDbEntity
  8
AM_5
 62
     2
100
AcDbMText
 10
-15.00000000000006
 20
-8.450001010007664
 30
0.0
 40
1.6
 41
0.0
 71
     5
 72
     1
  1
30
  7
ASAMI
1001
ACAD
1000
MTEXTBEGIN
1070
    73
1070
     1
1070
    44
1040
1.0
1070
    74
1070
     0
1000
MTEXTEND
  0
POINT
  5
1CFD
330
15A8
100
AcDbEntity
  8
DEFPOINTS
 62
     0
100
AcDbPoint
 10
-30.00000000000006
 20
-3.0
 30
0.0
  0
POINT
  5
1CFE
330
15A8
100
AcDbEntity
  8
DEFPOINTS
 62
     0
100
AcDbPoint
 10
-0.0000000000000569
 20
-3.000000000007911
 30
0.0
  0
POINT
  5
1CFF
330
15A8
100
AcDbEntity
  8
DEFPOINTS
 62
     0
100
AcDbPoint
 10
-0.0000000000000573
 20
-10.00000101000766
 30
0.0
  0
ENDBLK
  5
15B3
330
15A8
100
AcDbEntity
  8
0
100
AcDbBlockEnd
  0
BLOCK
  5
1B3F
330
1B35
100
AcDbEntity
  8
0
100
AcDbBlockBegin
  2
*D8
 70
     1
 10
0.0
 20
0.0
 30
0.0
  3
*D8
  1

  0
LINE
  5
1C1B
330
1B35
100
AcDbEntity
  8
AM_5
100
AcDbLine
 10
0.4999999999999432
 20
2.999999999999996
 30
0.0
 11
10.89356115204065
 21
2.999999999999993
 31
0.0
  0
LINE
  5
1C1C
330
1B35
100
AcDbEntity
  8
AM_5
100
AcDbLine
 10
0.4999999999998011
 20
-3.000000000007478
 30
0.0
 11
10.89356115204065
 21
-3.000000000007481
 31
0.0
  0
LINE
  5
1C1D
330
1B35
100
AcDbEntity
  8
AM_5
100
AcDbLine
 10
10.39356115204065
 20
1.749999999999993
 30
0.0
 11
10.39356115204065
 21
-1.750000000007481
 31
0.0
  0
INSERT
  5
1C1E
330
1B35
100
AcDbEntity
  8
AM_5
100
AcDbBlockReference
  2
_OPEN30
 10
10.39356115204065
 20
2.999999999999993
 30
0.0
 41
1.25
 42
1.25
 43
1.25
 50
90.0
  0
INSERT
  5
1C1F
330
1B35
100
AcDbEntity
  8
AM_5
100
AcDbBlockReference
  2
_OPEN30
 10
10.39356115204065
 20
-3.000000000007481
 30
0.0
 41
1.25
 42
1.25
 43
1.25
 50
270.0
  0
MTEXT
  5
1C20
330
1B35
100
AcDbEntity
  8
AM_5
 62
     2
100
AcDbMText
 10
8.843561152040651
 20
-0.0000000000037419
 30
0.0
 40
1.6
 41
0.0
 71
     5
 72
     1
  1
%%c6
  7
ASAMI
 11
0.0000000000000001
 21
1.0
 31
0.0
1001
ACAD
1000
MTEXTBEGIN
1070
    73
1070
     1
1070
    44
1040
1.0
1070
    74
1070
     0
1000
MTEXTEND
  0
POINT
  5
1C21
330
1B35
100
AcDbEntity
  8
DEFPOINTS
 62
     0
100
AcDbPoint
 10
-0.0000000000000568
 20
2.999999999999996
 30
0.0
  0
POINT
  5
1C22
330
1B35
100
AcDbEntity
  8
DEFPOINTS
 62
     0
100
AcDbPoint
 10
-0.000000000000199
 20
-3.000000000007478
 30
0.0
  0
POINT
  5
1C23
330
1B35
100
AcDbEntity
  8
DEFPOINTS
 62
     0
100
AcDbPoint
 10
10.39356115204065
 20
-3.000000000007481
 30
0.0
  0
ENDBLK
  5
1B40
330
1B35
100
AcDbEntity
  8
0
100
AcDbBlockEnd
  0
ENDSEC
  0
SECTION
  2
ENTITIES
  0
DIMENSION
  5
C4F
330
1F
100
AcDbEntity
  8
AM_5
100
AcDbDimension
  2
*D5
 10
-0.0000000000000577
 20
-16.00000101000748
 30
0.0
 11
-35.00000000000005
 21
-14.45000101000748
 31
0.0
 70
    32
  1
<>
  3
AM_JIS
100
AcDbAlignedDimension
 13
-70.00000000000006
 23
-2.25
 33
0.0
 14
-0.0000000000000569
 24
-3.000000000007911
 34
0.0
 50
0.0000000000002036
100
AcDbRotatedDimension
1001
GENIUS_GENDTOL_13
1000

1000
H7
1000

1040
0.0
  0
LINE
  5
C50
330
1F
100
AcDbEntity
  8
AM_7
100
AcDbLine
 10
-73.90430119514826
 20
-0.0000000000000036
 30
0.0
 11
3.393560152040663
 21
-0.0000000000000036
 31
0.0
1001
GENIUS_GENODEF_13
1002
{
1000
HIER
1070
     0
1002
}
1002
{
1000
MANEDIT
1070
     0
1002
}
1002
{
1000
NOSEL
1070
     0
1002
}
1002
{
1000
BEHIND
1070
     0
1002
}
1002
{
1000
REACTOR
1002
}
1001
GENIUS_GENOBJ-N-CEN_13
1002
{
1000
OWNER
1000
GEN
1002
}
  0
DIMENSION
  5
C53
330
1F
100
AcDbEntity
  8
AM_5
100
AcDbDimension
  2
*D6
 10
-80.90430219514823
 20
3.0
 30
0.0
 11
-80.90430219514823
 21
-0.0000000000000091
 31
0.0
 70
   160
  1
%%c<>
  3
AM_JIS
100
AcDbAlignedDimension
 13
-69.50000000000006
 23
-3.000000000000002
 33
0.0
 14
-69.50000000000006
 24
2.999999999999997
 34
0.0
 50
270.0
100
AcDbRotatedDimension
1001
ACAD
1000
DSTYLE
1002
{
1070
    48
1040
0.1
1070
    47
1040
0.1
1070
   274
1070
     2
1070
   272
1070
     3
1002
}
1001
GENIUS_GENDTOL_13
1000

1000
h6
1000

1040
0.0
  0
TEXT
  5
C58
330
1F
100
AcDbEntity
  8
AM_6
100
AcDbText
 10
-46.96428571428576
 20
-27.25000101000752
 30
0.0
 40
2.5
  1
EHHM6060ZX
 50
0.0000000000002036
 72
     4
 11
-35.00000000000005
 21
-26.00000101000748
 31
0.0
100
AcDbText
  0
LINE
  5
DFB
330
1F
100
AcDbEntity
  8
AM_0
100
AcDbLine
 10
-70.00000000000006
 20
2.25
 30
0.0
 11
-69.50000000000006
 21
2.999999999999996
 31
0.0
1001
GENIUS_GENFIL_13
1070
     0
1040
0.5
1040
0.5
1040
0.4999999999999716
1040
45.0
1002
{
1002
}
  0
LINE
  5
DFC
330
1F
100
AcDbEntity
  8
AM_0
100
AcDbLine
 10
-70.00000000000006
 20
-2.25
 30
0.0
 11
-69.50000000000006
 21
-3.0
 31
0.0
1001
GENIUS_GENFIL_13
1070
     0
1040
0.5
1040
0.5
1040
0.4999999999999716
1040
45.00000000000036
1002
{
1002
}
  0
LINE
  5
DFD
330
1F
100
AcDbEntity
  8
0
100
AcDbLine
 10
-69.50000000000006
 20
-3.0
 30
0.0
 11
-69.50000000000006
 21
2.999999999999996
 31
0.0
  0
LINE
  5
DFE
330
1F
100
AcDbEntity
  8
AM_0
100
AcDbLine
 10
-70.00000000000006
 20
-2.25
 30
0.0
 11
-70.00000000000006
 21
2.25
 31
0.0
  0
LINE
  5
DFF
330
1F
100
AcDbEntity
  8
AM_0
100
AcDbLine
 10
-69.50000000000006
 20
2.999999999999996
 30
0.0
 11
-33.26410126200755
 21
2.999999999999996
 31
0.0
1001
GENIUS_GENODEF_13
1002
{
1000
HIER
1070
     0
1002
}
1002
{
1000
MANEDIT
1070
     0
1002
}
1002
{
1000
NOSEL
1070
     0
1002
}
1002
{
1000
BEHIND
1070
     0
1002
}
1002
{
1000
REACTOR
1002
}
1001
GENIUS_GENOBJ-N-CEN_13
1002
{
1000
OWNER
1000
GEN
1002
}
  0
LINE
  5
E00
330
1F
100
AcDbEntity
  8
AM_0
100
AcDbLine
 10
-69.50000000000006
 20
-3.0
 30
0.0
 11
-30.82460732984324
 21
-3.0
 31
0.0
1001
GENIUS_GENODEF_13
1002
{
1000
HIER
1070
     0
1002
}
1002
{
1000
MANEDIT
1070
     0
1002
}
1002
{
1000
NOSEL
1070
     0
1002
}
1002
{
1000
BEHIND
1070
     0
1002
}
1002
{
1000
REACTOR
1002
}
1001
GENIUS_GENOBJ-N-CEN_13
1002
{
1000
OWNER
1000
GEN
1002
}
  0
DIMENSION
  5
15A7
330
1F
100
AcDbEntity
  8
AM_5
100
AcDbDimension
  2
*D7
 10
-0.0000000000000573
 20
-10.00000101000766
 30
0.0
 11
-15.00000000000006
 21
-8.450001010007664
 31
0.0
 70
    32
  1
<>
  3
AM_JIS
100
AcDbAlignedDimension
 13
-30.00000000000006
 23
-3.0
 33
0.0
 14
-0.0000000000000569
 24
-3.000000000007911
 34
0.0
 50
359.9999999999993
100
AcDbRotatedDimension
1001
GENIUS_GENDTOL_13
1000

1000
H7
1000

1040
0.0
  0
LINE
  5
18B7
330
1F
100
AcDbEntity
  8
AM_0
100
AcDbLine
 10
-51.04856863520305
 20
2.999999999999964
 30
0.0
 11
-52.09231026004887
 21
2.999999999999964
 31
0.0
  0
LINE
  5
18B8
330
1F
100
AcDbEntity
  8
AM_0
100
AcDbLine
 10
-50.6733224918831
 20
-3.000000000000071
 30
0.0
 11
-52.09231026004887
 21
-3.000000000000071
 31
0.0
  0
DIMENSION
  5
1B34
330
1F
100
AcDbEntity
  8
AM_5
100
AcDbDimension
  2
*D8
 10
10.39356115204065
 20
-3.000000000007481
 30
0.0
 11
8.843561152040651
 21
-0.0000000000037419
 31
0.0
 70
    32
  1
%%c<>
  3
AM_JIS
100
AcDbAlignedDimension
 13
-0.0000000000000568
 23
2.999999999999996
 33
0.0
 14
-0.000000000000199
 24
-3.000000000007478
 34
0.0
 50
90.0
100
AcDbRotatedDimension
1001
GENIUS_GENDTOL_13
1000

1000
h7
1000

1040
0.0
  0
LINE
  5
1CF6
330
1F
100
AcDbEntity
  8
AM_11
100
AcDbLine
 10
-30.00000000000005
 20
-3.000000000000003
 30
0.0
 11
-30.00000000000005
 21
2.999999999999998
 31
0.0
  0
LINE
  5
1DB4
330
1F
100
AcDbEntity
  8
AM_0
100
AcDbLine
 10
-0.1060209424084653
 20
2.201856882455466
 30
0.0
 11
-0.7925070752621061
 21
2.549999999999997
 31
0.0
  0
LINE
  5
1DB5
330
1F
100
AcDbEntity
  8
AM_0
100
AcDbLine
 10
-0.7925070752621061
 20
1.272534763472297
 30
0.0
 11
-0.7925070752621061
 21
0.8483849233886289
 31
0.0
  0
SPLINE
  5
1DB6
330
1F
100
AcDbEntity
  8
AM_0
100
AcDbSpline
210
0.0
220
0.0
230
1.0
 70
     8
 71
     3
 72
     8
 73
     4
 74
     0
 42
0.0000000001
 43
0.0000000001
 40
0.0
 40
0.0
 40
0.0
 40
0.0
 40
0.7964627256794639
 40
0.7964627256794639
 40
0.7964627256794639
 40
0.7964627256794639
 10
-0.1060209424084793
 20
1.653758617945946
 30
0.0
 10
-0.1257154560854785
 20
1.389030147709498
 30
0.0
 10
-0.5318844556025967
 20
1.272534763472297
 30
0.0
 10
-0.7925070752621061
 20
1.272534763472297
 30
0.0
  0
LINE
  5
1DB7
330
1F
100
AcDbEntity
  8
AM_0
100
AcDbLine
 10
-0.1060209424084653
 20
2.201856882455466
 30
0.0
 11
-0.000000000000587
 21
1.560029995319084
 31
0.0
  0
LINE
  5
1DB8
330
1F
100
AcDbEntity
  8
AM_0
100
AcDbLine
 10
-0.0000000000001963
 20
0.5699269208101186
 30
0.0
 11
-0.0000000000001963
 21
2.999999999999998
 31
0.0
  0
SPLINE
  5
1DB9
330
1F
100
AcDbEntity
  8
AM_0
100
AcDbSpline
210
0.0
220
0.0
230
1.0
 70
     8
 71
     3
 72
     8
 73
     4
 74
     0
 42
0.0000000001
 43
0.0000000001
 40
0.0
 40
0.0
 40
0.0
 40
0.0
 40
0.8315775647388605
 40
0.8315775647388605
 40
0.8315775647388605
 40
0.8315775647388605
 10
-0.1060209424084793
 20
2.999999999999996
 30
0.0
 10
-0.0928520771306624
 20
2.723132269359057
 30
0.0
 10
-0.5203939977952025
 20
2.549999999999981
 30
0.0
 10
-0.7925070752621061
 20
2.549999999999997
 30
0.0
  0
SPLINE
  5
1DBA
330
1F
100
AcDbEntity
  8
AM_0
100
AcDbSpline
210
0.0
220
0.0
230
1.0
 70
     8
 71
     3
 72
     8
 73
     4
 74
     0
 42
0.0000000001
 43
0.0000000001
 40
0.0
 40
0.0
 40
0.0
 40
0.0
 40
2.345304910305074
 40
2.345304910305074
 40
2.345304910305074
 40
2.345304910305074
 10
-0.0000000000000568
 20
2.999999999999996
 30
0.0
 10
-0.4604656237510459
 20
2.999999999999996
 30
0.0
 10
-0.89368211580817
 20
2.904751274975328
 30
0.0
 10
-1.306515995135447
 20
2.738255587037791
 30
0.0
  0
SPLINE
  5
1DBB
330
1F
100
AcDbEntity
  8
AM_0
100
AcDbSpline
210
0.0
220
0.0
230
1.0
 70
     8
 71
     3
 72
     8
 73
     4
 74
     0
 42
0.0000000001
 43
0.0000000001
 40
0.0
 40
0.0
 40
0.0
 40
0.0
 40
2.345304910305074
 40
2.345304910305074
 40
2.345304910305074
 40
2.345304910305074
 10
-3.082460732984353
 20
2.999999999999996
 30
0.0
 10
-3.542926356735328
 20
2.999999999999996
 30
0.0
 10
-3.976142848792592
 20
2.904751274975328
 30
0.0
 10
-4.388976728119898
 20
2.738255587037791
 30
0.0
  0
SPLINE
  5
1DBC
330
1F
100
AcDbEntity
  8
AM_0
100
AcDbSpline
210
0.0
220
0.0
230
1.0
 70
     8
 71
     3
 72
     8
 73
     4
 74
     0
 42
0.0000000001
 43
0.0000000001
 40
0.0
 40
0.0
 40
0.0
 40
0.0
 40
4.387916526981712
 40
4.387916526981712
 40
4.387916526981712
 40
4.387916526981712
 10
-2.439493932164366
 20
2.932100124759708
 30
0.0
 10
-1.577991996238557
 20
2.932100124759708
 30
0.0
 10
-0.8091220654345033
 20
2.601973234325985
 30
0.0
 10
-0.0889272338485542
 20
2.098375423929493
 30
0.0
  0
SPLINE
  5
1DBD
330
1F
100
AcDbEntity
  8
AM_0
100
AcDbSpline
210
0.0
220
0.0
230
1.0
 70
     8
 71
     3
 72
     8
 73
     4
 74
     0
 42
0.0000000001
 43
0.0000000001
 40
0.0
 40
0.0
 40
0.0
 40
0.0
 40
5.932736810651199
 40
5.932736810651199
 40
5.932736810651199
 40
5.932736810651199
 10
-3.082460732984353
 20
2.999999999999996
 30
0.0
 10
-1.917656385343427
 20
2.999999999999996
 30
0.0
 10
-0.9272190022244949
 20
2.390504209683555
 30
0.0
 10
-0.0000000000006009
 20
1.560029995319084
 30
0.0
  0
SPLINE
  5
1DBE
330
1F
100
AcDbEntity
  8
AM_0
100
AcDbSpline
210
0.0
220
0.0
230
1.0
 70
     8
 71
     3
 72
     8
 73
     4
 74
     0
 42
0.0000000001
 43
0.0000000001
 40
0.0
 40
0.0
 40
0.0
 40
0.0
 40
2.345304910305074
 40
2.345304910305074
 40
2.345304910305074
 40
2.345304910305074
 10
-6.164921465968621
 20
2.999999999999964
 30
0.0
 10
-6.625387089719624
 20
2.999999999999996
 30
0.0
 10
-7.058603581776749
 20
2.904751274975293
 30
0.0
 10
-7.471437461104041
 20
2.738255587037755
 30
0.0
  0
SPLINE
  5
1DBF
330
1F
100
AcDbEntity
  8
AM_0
100
AcDbSpline
210
0.0
220
0.0
230
1.0
 70
     8
 71
     3
 72
     8
 73
     4
 74
     0
 42
0.0000000001
 43
0.0000000001
 40
0.0
 40
0.0
 40
0.0
 40
0.0
 40
2.345304910305074
 40
2.345304910305074
 40
2.345304910305074
 40
2.345304910305074
 10
-12.32984293193714
 20
3.000000000000029
 30
0.0
 10
-12.7903085556881
 20
3.000000000000061
 30
0.0
 10
-13.22352504774538
 20
2.904751274975358
 30
0.0
 10
-13.63635892707268
 20
2.73825558703782
 30
0.0
  0
SPLINE
  5
1DC0
330
1F
100
AcDbEntity
  8
AM_0
100
AcDbSpline
210
0.0
220
0.0
230
1.0
 70
     8
 71
     3
 72
     8
 73
     4
 74
     0
 42
0.0000000001
 43
0.0000000001
 40
0.0
 40
0.0
 40
0.0
 40
0.0
 40
2.345304910305074
 40
2.345304910305074
 40
2.345304910305074
 40
2.345304910305074
 10
-9.247382198952708
 20
3.000000000000095
 30
0.0
 10
-9.707847822703669
 20
3.000000000000127
 30
0.0
 10
-10.14106431476094
 20
2.904751274975423
 30
0.0
 10
-10.55389819408825
 20
2.738255587037886
 30
0.0
  0
LINE
  5
1DC1
330
1F
100
AcDbEntity
  8
AM_11
100
AcDbLine
 10
-0.0000000000007265
 20
2.999999999999998
 30
0.0
 11
-30.00000000000006
 21
3.000000000000003
 31
0.0
  0
LINE
  5
1DC2
330
1F
100
AcDbEntity
  8
AM_0
100
AcDbLine
 10
-0.2484814853711247
 20
-0.0000000000000018
 30
0.0
 11
-0.0000000000001963
 21
-0.5399999999998517
 31
0.0
  0
LINE
  5
1DC3
330
1F
100
AcDbEntity
  8
AM_0
100
AcDbLine
 10
-0.1675895239655226
 20
0.2699999999997527
 30
0.0
 11
-0.2484814853711247
 21
-0.0000000000000018
 31
0.0
  0
LINE
  5
1DC4
330
1F
100
AcDbEntity
  8
AM_0
100
AcDbLine
 10
-0.0000000000001963
 20
-0.5399999999998517
 30
0.0
 11
-0.1060209424084653
 21
-0.3801863329405499
 31
0.0
  0
LINE
  5
1DC5
330
1F
100
AcDbEntity
  8
AM_0
100
AcDbLine
 10
-0.7925070752621061
 20
-1.455770048492471
 30
0.0
 11
-0.7925070752621061
 21
-1.658384923388407
 31
0.0
  0
LINE
  5
1DC6
330
1F
100
AcDbEntity
  8
AM_0
100
AcDbLine
 10
-0.1148503554857999
 20
-1.455770048492471
 30
0.0
 11
-0.7925070752621061
 21
-1.455770048492471
 31
0.0
  0
ELLIPSE
  5
1DC7
330
1F
100
AcDbEntity
  8
AM_0
100
AcDbEllipse
 10
3.142000678497365
 20
-0.7411423960254791
 30
0.0
 11
-0.0000000000000646
 21
3.328282302801905
 31
0.0
210
0.0
220
0.0
230
1.0
 40
0.9816753926701526
 41
1.462131443543802
 42
1.848627269249373
  0
LINE
  5
1DC8
330
1F
100
AcDbEntity
  8
AM_0
100
AcDbLine
 10
-0.0000000000001963
 20
-1.560029995318679
 30
0.0
 11
-0.0000000000001963
 21
-0.5399999999998517
 31
0.0
  0
SPLINE
  5
1DC9
330
1F
100
AcDbEntity
  8
AM_0
100
AcDbSpline
210
0.0
220
0.0
230
1.0
 70
     8
 71
     3
 72
     8
 73
     4
 74
     0
 42
0.0000000001
 43
0.0000000001
 40
5.932736810651414
 40
5.932736810651414
 40
5.932736810651414
 40
5.932736810651414
 40
9.307120929696782
 40
9.307120929696782
 40
9.307120929696782
 40
9.307120929696782
 10
0.0000000000002082
 20
-1.56002999531902
 30
0.0
 10
-0.5273776969784368
 20
-1.087678180352796
 30
0.0
 10
-1.034304031735411
 20
-0.5438390901763804
 30
0.0
 10
-1.541230366492274
 20
-0.0000000000000018
 30
0.0
  0
SPLINE
  5
1DCA
330
1F
100
AcDbEntity
  8
AM_0
100
AcDbSpline
210
0.0
220
0.0
230
1.0
 70
     8
 71
     3
 72
     8
 73
     4
 74
     0
 42
0.0000000001
 43
0.0000000001
 40
7.554568944210345
 40
7.554568944210345
 40
7.554568944210345
 40
7.554568944210345
 40
9.246817942408316
 40
9.246817942408316
 40
9.246817942408316
 40
9.246817942408316
 10
-0.1248497110809799
 20
-0.7959141966850325
 30
0.0
 10
-0.3843352745788573
 20
-0.5366001071551878
 30
0.0
 10
-0.6412994201256425
 20
-0.2683000535775619
 30
0.0
 10
-0.898263565672288
 20
-0.0000000000000018
 30
0.0
  0
ELLIPSE
  5
1DCB
330
1F
100
AcDbEntity
  8
AM_0
100
AcDbEllipse
 10
3.894897518415584
 20
-1.751839899502812
 30
0.0
 11
-0.0000000000016865
 21
4.159299391244806
 31
0.0
210
0.0
220
0.0
230
1.0
 40
0.9816753926701274
 41
1.771747772449494
 42
1.87558230611593
  0
LINE
  5
1DCC
330
1F
100
AcDbEntity
  8
AM_0
100
AcDbLine
 10
-0.0000000000001963
 20
-3.000000000000003
 30
0.0
 11
-0.0000000000001963
 21
-0.5399999999998517
 31
0.0
  0
LINE
  5
1DCD
330
1F
100
AcDbEntity
  8
AM_0
100
AcDbLine
 10
-0.7925070752621061
 20
-1.658384923388407
 30
0.0
 11
-0.1060209424084653
 21
-2.582043215396016
 31
0.0
  0
LINE
  5
1DCE
330
1F
100
AcDbEntity
  8
AM_0
100
AcDbLine
 10
-0.1060209424084653
 20
-2.582043215396016
 30
0.0
 11
-0.0318607657137103
 21
-1.531384848033692
 31
0.0
  0
SPLINE
  5
1DCF
330
1F
100
AcDbEntity
  8
AM_0
100
AcDbSpline
210
0.0
220
0.0
230
1.0
 70
     8
 71
     3
 72
     8
 73
     4
 74
     0
 42
0.0000000001
 43
0.0000000001
 40
0.0
 40
0.0
 40
0.0
 40
0.0
 40
1.168827779863518
 40
1.168827779863518
 40
1.168827779863518
 40
1.168827779863518
 10
-3.082460732984618
 20
-2.999999999999868
 30
0.0
 10
-2.852978839032184
 20
-2.999999999999868
 30
0.0
 10
-2.63026486314426
 20
-2.976342895108317
 30
0.0
 10
-2.413468861421893
 20
-2.931999645044811
 30
0.0
  0
SPLINE
  5
1DD0
330
1F
100
AcDbEntity
  8
AM_0
100
AcDbSpline
210
0.0
220
0.0
230
1.0
 70
     8
 71
     3
 72
     8
 73
     4
 74
     0
 42
0.0000000001
 43
0.0000000001
 40
0.0
 40
0.0
 40
0.0
 40
0.0
 40
2.01589001736573
 40
2.01589001736573
 40
2.01589001736573
 40
2.01589001736573
 10
-5.521954665148551
 20
-2.932100124759483
 30
0.0
 10
-5.12616474027307
 20
-2.932100124759483
 30
0.0
 10
-4.749926222509244
 20
-2.862421775198616
 30
0.0
 10
-4.388976728119674
 20
-2.738255587037596
 30
0.0
  0
SPLINE
  5
1DD1
330
1F
100
AcDbEntity
  8
AM_0
100
AcDbSpline
210
0.0
220
0.0
230
1.0
 70
     8
 71
     3
 72
     8
 73
     4
 74
     0
 42
0.0000000001
 43
0.0000000001
 40
0.0
 40
0.0
 40
0.0
 40
0.0
 40
5.584272557818006
 40
5.584272557818006
 40
5.584272557818006
 40
5.584272557818006
 10
-0.0000000000001963
 20
-3.0
 30
0.0
 10
-1.827314318657914
 20
-2.999999999999999
 30
0.0
 10
-3.225502709067228
 20
-1.5
 30
0.0
 10
-4.623691099476543
 20
-0.0000000000000018
 30
0.0
  0
SPLINE
  5
1DD2
330
1F
100
AcDbEntity
  8
AM_0
100
AcDbSpline
210
0.0
220
0.0
230
1.0
 70
     8
 71
     3
 72
     8
 73
     4
 74
     0
 42
0.0000000001
 43
0.0000000001
 40
1.192975873175178
 40
1.192975873175178
 40
1.192975873175178
 40
1.192975873175178
 40
9.246817942408316
 40
9.246817942408316
 40
9.246817942408316
 40
9.246817942408316
 10
-0.0400442659924053
 20
-2.862042006260189
 30
0.0
 10
-1.534809249638954
 20
-2.553815970323221
 30
0.0
 10
-2.757766774147678
 20
-1.276907985161642
 30
0.0
 10
-3.980724298656696
 20
-0.0000000000000018
 30
0.0
  0
SPLINE
  5
1DD3
330
1F
100
AcDbEntity
  8
AM_0
100
AcDbSpline
210
0.0
220
0.0
230
1.0
 70
     8
 71
     3
 72
     8
 73
     4
 74
     0
 42
0.0000000001
 43
0.0000000001
 40
0.0
 40
0.0
 40
0.0
 40
0.0
 40
2.01589001736573
 40
2.01589001736573
 40
2.01589001736573
 40
2.01589001736573
 10
-2.439493932164506
 20
-2.932100124759614
 30
0.0
 10
-2.043704007289024
 20
-2.932100124759614
 30
0.0
 10
-1.66746548952531
 20
-2.862421775198747
 30
0.0
 10
-1.306515995135601
 20
-2.738255587037727
 30
0.0
  0
SPLINE
  5
1DD4
330
1F
100
AcDbEntity
  8
AM_0
100
AcDbSpline
210
0.0
220
0.0
230
1.0
 70
     8
 71
     3
 72
     8
 73
     4
 74
     0
 42
0.0000000001
 43
0.0000000001
 40
0.0
 40
0.0
 40
0.0
 40
0.0
 40
1.168827779863518
 40
1.168827779863518
 40
1.168827779863518
 40
1.168827779863518
 10
-9.247382198952925
 20
-2.999999999999868
 30
0.0
 10
-9.017900305000491
 20
-2.999999999999868
 30
0.0
 10
-8.795186329112567
 20
-2.976342895108317
 30
0.0
 10
-8.578390327390199
 20
-2.931999645044811
 30
0.0
  0
SPLINE
  5
1DD5
330
1F
100
AcDbEntity
  8
AM_0
100
AcDbSpline
210
0.0
220
0.0
230
1.0
 70
     8
 71
     3
 72
     8
 73
     4
 74
     0
 42
0.0000000001
 43
0.0000000001
 40
0.0
 40
0.0
 40
0.0
 40
0.0
 40
2.01589001736573
 40
2.01589001736573
 40
2.01589001736573
 40
2.01589001736573
 10
-8.604415398132813
 20
-2.932100124759614
 30
0.0
 10
-8.208625473257331
 20
-2.932100124759614
 30
0.0
 10
-7.832386955493617
 20
-2.862421775198747
 30
0.0
 10
-7.471437461103907
 20
-2.738255587037727
 30
0.0
  0
SPLINE
  5
1DD6
330
1F
100
AcDbEntity
  8
AM_0
100
AcDbSpline
210
0.0
220
0.0
230
1.0
 70
     8
 71
     3
 72
     8
 73
     4
 74
     0
 42
0.0000000001
 43
0.0000000001
 40
0.0
 40
0.0
 40
0.0
 40
0.0
 40
2.01589001736573
 40
2.01589001736573
 40
2.01589001736573
 40
2.01589001736573
 10
-11.68687613111685
 20
-2.932100124759483
 30
0.0
 10
-11.29108620624137
 20
-2.932100124759483
 30
0.0
 10
-10.91484768847755
 20
-2.862421775198616
 30
0.0
 10
-10.55389819408798
 20
-2.738255587037596
 30
0.0
  0
SPLINE
  5
1DD7
330
1F
100
AcDbEntity
  8
AM_0
100
AcDbSpline
210
0.0
220
0.0
230
1.0
 70
     8
 71
     3
 72
     8
 73
     4
 74
     0
 42
0.0000000001
 43
0.0000000001
 40
0.0
 40
0.0
 40
0.0
 40
0.0
 40
5.584272557818042
 40
5.584272557818042
 40
5.584272557818042
 40
5.584272557818042
 10
-6.164921465968677
 20
-2.999999999999935
 30
0.0
 10
-7.992235784626406
 20
-2.999999999999934
 30
0.0
 10
-9.390424175035738
 20
-1.499999999999935
 30
0.0
 10
-10.78861256544506
 20
0.0000000000000633
 30
0.0
  0
SPLINE
  5
1DD8
330
1F
100
AcDbEntity
  8
AM_0
100
AcDbSpline
210
0.0
220
0.0
230
1.0
 70
     8
 71
     3
 72
     8
 73
     4
 74
     0
 42
0.0000000001
 43
0.0000000001
 40
0.0
 40
0.0
 40
0.0
 40
0.0
 40
5.584272557818042
 40
5.584272557818042
 40
5.584272557818042
 40
5.584272557818042
 10
-9.247382198952548
 20
-2.999999999999869
 30
0.0
 10
-11.07469651761027
 20
-2.999999999999868
 30
0.0
 10
-12.4728849080196
 20
-1.49999999999987
 30
0.0
 10
-13.87107329842893
 20
0.0000000000001286
 30
0.0
  0
SPLINE
  5
1DD9
330
1F
100
AcDbEntity
  8
AM_0
100
AcDbSpline
210
0.0
220
0.0
230
1.0
 70
     8
 71
     3
 72
     8
 73
     4
 74
     0
 42
0.0000000001
 43
0.0000000001
 40
0.0
 40
0.0
 40
0.0
 40
0.0
 40
5.548090765444937
 40
5.548090765444937
 40
5.548090765444937
 40
5.548090765444937
 10
-8.604415398132589
 20
-2.932100124759618
 30
0.0
 10
-10.41989012504519
 20
-2.932100124759618
 30
0.0
 10
-11.82399831132706
 20
-1.466050062379744
 30
0.0
 10
-13.22810649760893
 20
0.0000000000001286
 30
0.0
  0
LINE
  5
1DDA
330
1F
100
AcDbEntity
  8
AM_11
100
AcDbLine
 10
-30.00000000000005
 20
-2.999999999999994
 30
0.0
 11
-0.0000000000001963
 21
-3.000000000000003
 31
0.0
  0
SPLINE
  5
1DDB
330
1F
100
AcDbEntity
  8
AM_0
100
AcDbSpline
210
0.0
220
0.0
230
1.0
 70
     8
 71
     3
 72
     8
 73
     4
 74
     0
 42
0.0000000001
 43
0.0000000001
 40
0.0
 40
0.0
 40
0.0
 40
0.0
 40
5.548090765444937
 40
5.548090765444937
 40
5.548090765444937
 40
5.548090765444937
 10
-5.521954665148718
 20
-2.932100124759684
 30
0.0
 10
-7.337429392061322
 20
-2.932100124759683
 30
0.0
 10
-8.741537578343194
 20
-1.46605006237981
 30
0.0
 10
-10.14564576462506
 20
0.0000000000000633
 30
0.0
  0
SPLINE
  5
1DDC
330
1F
100
AcDbEntity
  8
AM_0
100
AcDbSpline
210
0.0
220
0.0
230
1.0
 70
     8
 71
     3
 72
     8
 73
     4
 74
     0
 42
0.0000000001
 43
0.0000000001
 40
0.0
 40
0.0
 40
0.0
 40
0.0
 40
5.548090765444937
 40
5.548090765444937
 40
5.548090765444937
 40
5.548090765444937
 10
-2.439493932164282
 20
-2.932100124759618
 30
0.0
 10
-4.254968659076887
 20
-2.932100124759618
 30
0.0
 10
-5.659076845358757
 20
-1.466050062379744
 30
0.0
 10
-7.063185031640629
 20
0.0000000000001286
 30
0.0
  0
SPLINE
  5
1DDD
330
1F
100
AcDbEntity
  8
AM_0
100
AcDbSpline
210
0.0
220
0.0
230
1.0
 70
     8
 71
     3
 72
     8
 73
     4
 74
     0
 42
0.0000000001
 43
0.0000000001
 40
0.0
 40
0.0
 40
0.0
 40
0.0
 40
5.584272557818042
 40
5.584272557818042
 40
5.584272557818042
 40
5.584272557818042
 10
-3.082460732984241
 20
-2.999999999999869
 30
0.0
 10
-4.90977505164197
 20
-2.999999999999868
 30
0.0
 10
-6.307963442051301
 20
-1.49999999999987
 30
0.0
 10
-7.70615183246063
 20
0.0000000000001286
 30
0.0
  0
SPLINE
  5
1DDE
330
1F
100
AcDbEntity
  8
AM_0
100
AcDbSpline
210
0.0
220
0.0
230
1.0
 70
     8
 71
     3
 72
     8
 73
     4
 74
     0
 42
0.0000000001
 43
0.0000000001
 40
0.0
 40
0.0
 40
0.0
 40
0.0
 40
5.584272557818042
 40
5.584272557818042
 40
5.584272557818042
 40
5.584272557818042
 10
-6.164921465968775
 20
2.999999999999996
 30
0.0
 10
-4.337607147311046
 20
2.999999999999996
 30
0.0
 10
-2.939418756901716
 20
1.499999999999997
 30
0.0
 10
-1.541230366492386
 20
-0.0000000000000018
 30
0.0
  0
SPLINE
  5
1DDF
330
1F
100
AcDbEntity
  8
AM_0
100
AcDbSpline
210
0.0
220
0.0
230
1.0
 70
     8
 71
     3
 72
     8
 73
     4
 74
     0
 42
0.0000000001
 43
0.0000000001
 40
0.0
 40
0.0
 40
0.0
 40
0.0
 40
5.548090765444942
 40
5.548090765444942
 40
5.548090765444942
 40
5.548090765444942
 10
-5.521954665148663
 20
2.932100124759708
 30
0.0
 10
-3.706479938236057
 20
2.932100124759708
 30
0.0
 10
-2.302371751954173
 20
1.466050062379853
 30
0.0
 10
-0.898263565672288
 20
-0.0000000000000018
 30
0.0
  0
SPLINE
  5
1DE0
330
1F
100
AcDbEntity
  8
AM_0
100
AcDbSpline
210
0.0
220
0.0
230
1.0
 70
     8
 71
     3
 72
     8
 73
     4
 74
     0
 42
0.0000000001
 43
0.0000000001
 40
0.0
 40
0.0
 40
0.0
 40
0.0
 40
5.548090765444954
 40
5.548090765444954
 40
5.548090765444954
 40
5.548090765444954
 10
-8.604415398133085
 20
2.932100124759708
 30
0.0
 10
-6.788940671220475
 20
2.932100124759708
 30
0.0
 10
-5.384832484938585
 20
1.466050062379853
 30
0.0
 10
-3.980724298656696
 20
-0.0000000000000018
 30
0.0
  0
LINE
  5
1DE1
330
1F
100
AcDbEntity
  8
AM_0
100
AcDbLine
 10
-0.2484814853711247
 20
-0.0000000000000018
 30
0.0
 11
-0.0000000000001963
 21
0.5699269208101186
 31
0.0
  0
LINE
  5
1DE2
330
1F
100
AcDbEntity
  8
AM_0
100
AcDbLine
 10
-0.7925070752621061
 20
0.8483849233886289
 30
0.0
 11
-0.2484814853711247
 21
-0.0000000000000018
 31
0.0
  0
LINE
  5
1DE3
330
1F
100
AcDbEntity
  8
AM_0
100
AcDbLine
 10
-0.1592284232033979
 20
0.2849634604050593
 30
0.0
 11
-0.0000000000001963
 21
0.5699269208101186
 31
0.0
  0
LINE
  5
1DE4
330
1F
100
AcDbEntity
  8
AM_0
100
AcDbLine
 10
-0.7925070752621061
 20
0.8483849233886289
 30
0.0
 11
-0.1060209424084653
 21
-0.3801863329405499
 31
0.0
  0
LINE
  5
1DE5
330
1F
100
AcDbEntity
  8
AM_0
100
AcDbLine
 10
-0.1592284232033979
 20
0.2849634604050593
 30
0.0
 11
-0.7925070752621061
 21
1.272534763472297
 31
0.0
  0
SPLINE
  5
1DE6
330
1F
100
AcDbEntity
  8
AM_0
100
AcDbSpline
210
0.0
220
0.0
230
1.0
 70
     8
 71
     3
 72
     8
 73
     4
 74
     0
 42
0.0000000001
 43
0.0000000001
 40
0.0
 40
0.0
 40
0.0
 40
0.0
 40
5.58427255781815
 40
5.58427255781815
 40
5.58427255781815
 40
5.58427255781815
 10
-9.247382198953058
 20
2.999999999999996
 30
0.0
 10
-7.420067880295293
 20
2.999999999999996
 30
0.0
 10
-6.021879489885917
 20
1.499999999999996
 30
0.0
 10
-4.623691099476543
 20
-0.0000000000000018
 30
0.0
  0
LINE
  5
1DE7
330
1F
100
AcDbEntity
  8
AM_11
100
AcDbLine
 10
-0.0000000000000568
 20
-3.000000000000003
 30
0.0
 11
-0.0000000000000568
 21
2.999999999999998
 31
0.0
  0
SPLINE
  5
1DE8
330
1F
100
AcDbEntity
  8
AM_0
100
AcDbSpline
210
0.0
220
0.0
230
1.0
 70
     8
 71
     3
 72
     8
 73
     4
 74
     0
 42
0.0000000001
 43
0.0000000001
 40
0.0
 40
0.0
 40
0.0
 40
0.0
 40
5.584272557818032
 40
5.584272557818032
 40
5.584272557818032
 40
5.584272557818032
 10
-12.32984293193713
 20
3.00000000000013
 30
0.0
 10
-10.5025286132794
 20
3.00000000000013
 30
0.0
 10
-9.104340222870082
 20
1.500000000000129
 30
0.0
 10
-7.706151832460755
 20
0.0000000000001286
 30
0.0
  0
SPLINE
  5
1DE9
330
1F
100
AcDbEntity
  8
AM_0
100
AcDbSpline
210
0.0
220
0.0
230
1.0
 70
     8
 71
     3
 72
     8
 73
     4
 74
     0
 42
0.0000000001
 43
0.0000000001
 40
0.0
 40
0.0
 40
0.0
 40
0.0
 40
5.548090765444954
 40
5.548090765444954
 40
5.548090765444954
 40
5.548090765444954
 10
-11.68687613111701
 20
2.932100124759839
 30
0.0
 10
-9.871401404204409
 20
2.932100124759838
 30
0.0
 10
-8.467293217922518
 20
1.466050062379983
 30
0.0
 10
-7.063185031640629
 20
0.0000000000001286
 30
0.0
  0
SPLINE
  5
1DEA
330
1F
100
AcDbEntity
  8
AM_0
100
AcDbSpline
210
0.0
220
0.0
230
1.0
 70
     8
 71
     3
 72
     8
 73
     4
 74
     0
 42
0.0000000001
 43
0.0000000001
 40
0.0
 40
0.0
 40
0.0
 40
0.0
 40
2.345304910305074
 40
2.345304910305074
 40
2.345304910305074
 40
2.345304910305074
 10
-15.41230366492101
 20
3.000000000000095
 30
0.0
 10
-15.87276928867197
 20
3.000000000000127
 30
0.0
 10
-16.30598578072925
 20
2.904751274975423
 30
0.0
 10
-16.71881966005656
 20
2.738255587037886
 30
0.0
  0
SPLINE
  5
1DEB
330
1F
100
AcDbEntity
  8
AM_0
100
AcDbSpline
210
0.0
220
0.0
230
1.0
 70
     8
 71
     3
 72
     8
 73
     4
 74
     0
 42
0.0000000001
 43
0.0000000001
 40
0.0
 40
0.0
 40
0.0
 40
0.0
 40
2.345304910305074
 40
2.345304910305074
 40
2.345304910305074
 40
2.345304910305074
 10
-18.49476439790545
 20
3.000000000000029
 30
0.0
 10
-18.95523002165641
 20
3.000000000000061
 30
0.0
 10
-19.38844651371369
 20
2.904751274975358
 30
0.0
 10
-19.80128039304099
 20
2.73825558703782
 30
0.0
  0
SPLINE
  5
1DEC
330
1F
100
AcDbEntity
  8
AM_0
100
AcDbSpline
210
0.0
220
0.0
230
1.0
 70
     8
 71
     3
 72
     8
 73
     4
 74
     0
 42
0.0000000001
 43
0.0000000001
 40
0.0
 40
0.0
 40
0.0
 40
0.0
 40
2.345304910305074
 40
2.345304910305074
 40
2.345304910305074
 40
2.345304910305074
 10
-24.65968586387375
 20
3.000000000000029
 30
0.0
 10
-25.12015148762471
 20
3.000000000000061
 30
0.0
 10
-25.55336797968199
 20
2.904751274975358
 30
0.0
 10
-25.96620185900929
 20
2.73825558703782
 30
0.0
  0
SPLINE
  5
1DED
330
1F
100
AcDbEntity
  8
AM_0
100
AcDbSpline
210
0.0
220
0.0
230
1.0
 70
     8
 71
     3
 72
     8
 73
     4
 74
     0
 42
0.0000000001
 43
0.0000000001
 40
0.0
 40
0.0
 40
0.0
 40
0.0
 40
2.345304910305074
 40
2.345304910305074
 40
2.345304910305074
 40
2.345304910305074
 10
-27.74214659685882
 20
2.999999999999932
 30
0.0
 10
-28.20261222060978
 20
2.999999999999964
 30
0.0
 10
-28.63582871266705
 20
2.904751274975261
 30
0.0
 10
-29.04866259199436
 20
2.738255587037724
 30
0.0
  0
SPLINE
  5
1DEE
330
1F
100
AcDbEntity
  8
AM_0
100
AcDbSpline
210
0.0
220
0.0
230
1.0
 70
     8
 71
     3
 72
     8
 73
     4
 74
     0
 42
0.0000000001
 43
0.0000000001
 40
0.0
 40
0.0
 40
0.0
 40
0.0
 40
2.345304910305074
 40
2.345304910305074
 40
2.345304910305074
 40
2.345304910305074
 10
-21.57722513088931
 20
3.000000000000095
 30
0.0
 10
-22.03769075464027
 20
3.000000000000127
 30
0.0
 10
-22.47090724669755
 20
2.904751274975423
 30
0.0
 10
-22.88374112602486
 20
2.738255587037886
 30
0.0
  0
SPLINE
  5
1DEF
330
1F
100
AcDbEntity
  8
AM_0
100
AcDbSpline
210
0.0
220
0.0
230
1.0
 70
     8
 71
     3
 72
     8
 73
     4
 74
     0
 42
0.0000000001
 43
0.0000000001
 40
0.0
 40
0.0
 40
0.0
 40
0.0
 40
1.168827779863518
 40
1.168827779863518
 40
1.168827779863518
 40
1.168827779863518
 10
-15.41230366492122
 20
-2.999999999999868
 30
0.0
 10
-15.18282177096879
 20
-2.999999999999868
 30
0.0
 10
-14.96010779508086
 20
-2.976342895108317
 30
0.0
 10
-14.7433117933585
 20
-2.931999645044811
 30
0.0
  0
SPLINE
  5
1DF0
330
1F
100
AcDbEntity
  8
AM_0
100
AcDbSpline
210
0.0
220
0.0
230
1.0
 70
     8
 71
     3
 72
     8
 73
     4
 74
     0
 42
0.0000000001
 43
0.0000000001
 40
0.0
 40
0.0
 40
0.0
 40
0.0
 40
2.01589001736573
 40
2.01589001736573
 40
2.01589001736573
 40
2.01589001736573
 10
-17.85179759708515
 20
-2.932100124759483
 30
0.0
 10
-17.45600767220967
 20
-2.932100124759483
 30
0.0
 10
-17.07976915444585
 20
-2.862421775198616
 30
0.0
 10
-16.71881966005628
 20
-2.738255587037596
 30
0.0
  0
SPLINE
  5
1DF1
330
1F
100
AcDbEntity
  8
AM_0
100
AcDbSpline
210
0.0
220
0.0
230
1.0
 70
     8
 71
     3
 72
     8
 73
     4
 74
     0
 42
0.0000000001
 43
0.0000000001
 40
0.0
 40
0.0
 40
0.0
 40
0.0
 40
2.01589001736573
 40
2.01589001736573
 40
2.01589001736573
 40
2.01589001736573
 10
-20.93425833007022
 20
-2.93210012475958
 30
0.0
 10
-20.53846840519474
 20
-2.93210012475958
 30
0.0
 10
-20.16222988743092
 20
-2.862421775198713
 30
0.0
 10
-19.80128039304135
 20
-2.738255587037694
 30
0.0
  0
SPLINE
  5
1DF2
330
1F
100
AcDbEntity
  8
AM_0
100
AcDbSpline
210
0.0
220
0.0
230
1.0
 70
     8
 71
     3
 72
     8
 73
     4
 74
     0
 42
0.0000000001
 43
0.0000000001
 40
0.0
 40
0.0
 40
0.0
 40
0.0
 40
5.548090765444937
 40
5.548090765444937
 40
5.548090765444937
 40
5.548090765444937
 10
-17.85179759708532
 20
-2.932100124759684
 30
0.0
 10
-19.66727232399792
 20
-2.932100124759683
 30
0.0
 10
-21.0713805102798
 20
-1.46605006237981
 30
0.0
 10
-22.47548869656167
 20
0.0000000000000633
 30
0.0
  0
SPLINE
  5
1DF3
330
1F
100
AcDbEntity
  8
AM_0
100
AcDbSpline
210
0.0
220
0.0
230
1.0
 70
     8
 71
     3
 72
     8
 73
     4
 74
     0
 42
0.0000000001
 43
0.0000000001
 40
0.0
 40
0.0
 40
0.0
 40
0.0
 40
5.584272557818042
 40
5.584272557818042
 40
5.584272557818042
 40
5.584272557818042
 10
-15.41230366492085
 20
-2.999999999999869
 30
0.0
 10
-17.23961798357858
 20
-2.999999999999868
 30
0.0
 10
-18.6378063739879
 20
-1.49999999999987
 30
0.0
 10
-20.03599476439724
 20
0.0000000000001286
 30
0.0
  0
SPLINE
  5
1DF4
330
1F
100
AcDbEntity
  8
AM_0
100
AcDbSpline
210
0.0
220
0.0
230
1.0
 70
     8
 71
     3
 72
     8
 73
     4
 74
     0
 42
0.0000000001
 43
0.0000000001
 40
0.0
 40
0.0
 40
0.0
 40
0.0
 40
5.548090765444937
 40
5.548090765444937
 40
5.548090765444937
 40
5.548090765444937
 10
-14.76933686410089
 20
-2.932100124759618
 30
0.0
 10
-16.58481159101349
 20
-2.932100124759618
 30
0.0
 10
-17.98891977729536
 20
-1.466050062379744
 30
0.0
 10
-19.39302796357723
 20
0.0000000000001286
 30
0.0
  0
SPLINE
  5
1DF5
330
1F
100
AcDbEntity
  8
AM_0
100
AcDbSpline
210
0.0
220
0.0
230
1.0
 70
     8
 71
     3
 72
     8
 73
     4
 74
     0
 42
0.0000000001
 43
0.0000000001
 40
0.0
 40
0.0
 40
0.0
 40
0.0
 40
1.168827779863518
 40
1.168827779863518
 40
1.168827779863518
 40
1.168827779863518
 10
-24.65968586387466
 20
-2.9999999999999
 30
0.0
 10
-24.43020396992248
 20
-2.9999999999999
 30
0.0
 10
-24.2074899940343
 20
-2.976342895108348
 30
0.0
 10
-23.99069399231219
 20
-2.931999645044843
 30
0.0
  0
SPLINE
  5
1DF6
330
1F
100
AcDbEntity
  8
AM_0
100
AcDbSpline
210
0.0
220
0.0
230
1.0
 70
     8
 71
     3
 72
     8
 73
     4
 74
     0
 42
0.0000000001
 43
0.0000000001
 40
0.0
 40
0.0
 40
0.0
 40
0.0
 40
2.01589001736573
 40
2.01589001736573
 40
2.01589001736573
 40
2.01589001736573
 10
-24.01671906305466
 20
-2.932100124759645
 30
0.0
 10
-23.62092913817918
 20
-2.932100124759645
 30
0.0
 10
-23.24469062041536
 20
-2.862421775198778
 30
0.0
 10
-22.88374112602578
 20
-2.738255587037758
 30
0.0
  0
SPLINE
  5
1DF7
330
1F
100
AcDbEntity
  8
AM_0
100
AcDbSpline
210
0.0
220
0.0
230
1.0
 70
     8
 71
     3
 72
     8
 73
     4
 74
     0
 42
0.0000000001
 43
0.0000000001
 40
0.0
 40
0.0
 40
0.0
 40
0.0
 40
1.168827779863518
 40
1.168827779863518
 40
1.168827779863518
 40
1.168827779863518
 10
-27.74214659685908
 20
-2.999999999999896
 30
0.0
 10
-27.51266470290664
 20
-2.999999999999928
 30
0.0
 10
-27.28995072701873
 20
-2.976342895108345
 30
0.0
 10
-27.07315472529634
 20
-2.93199964504491
 30
0.0
  0
SPLINE
  5
1DF8
330
1F
100
AcDbEntity
  8
AM_0
100
AcDbSpline
210
0.0
220
0.0
230
1.0
 70
     8
 71
     3
 72
     8
 73
     4
 74
     0
 42
0.0000000001
 43
0.0000000001
 40
0.0
 40
0.0
 40
0.0
 40
0.0
 40
1.168827779863518
 40
1.168827779863518
 40
1.168827779863518
 40
1.168827779863518
 10
-30.82460732984324
 20
-2.999999999999896
 30
0.0
 10
-30.59512543589107
 20
-2.999999999999928
 30
0.0
 10
-30.37241146000301
 20
-2.976342895108345
 30
0.0
 10
-30.15561545828078
 20
-2.93199964504491
 30
0.0
  0
SPLINE
  5
1DF9
330
1F
100
AcDbEntity
  8
AM_0
100
AcDbSpline
210
0.0
220
0.0
230
1.0
 70
     8
 71
     3
 72
     8
 73
     4
 74
     0
 42
0.0000000001
 43
0.0000000001
 40
0.0
 40
0.0
 40
0.0
 40
0.0
 40
1.096583167168162
 40
1.096583167168162
 40
1.096583167168162
 40
1.096583167168162
 10
-30.18164052902339
 20
-2.93210012475978
 30
0.0
 10
-30.3969382712684
 20
-2.93210012475978
 30
0.0
 10
-30.60645069198451
 20
-2.91148208670668
 30
0.0
 10
-30.81086387434574
 20
-2.872691110483454
 30
0.0
  0
SPLINE
  5
1DFA
330
1F
100
AcDbEntity
  8
AM_0
100
AcDbSpline
210
0.0
220
0.0
230
1.0
 70
     8
 71
     3
 72
     8
 73
     4
 74
     0
 42
0.0000000001
 43
0.0000000001
 40
0.0
 40
0.0
 40
0.0
 40
0.0
 40
2.01589001736573
 40
2.01589001736573
 40
2.01589001736573
 40
2.01589001736573
 10
-30.18164052902339
 20
-2.932100124759674
 30
0.0
 10
-29.78585060414777
 20
-2.932100124759709
 30
0.0
 10
-29.40961208638406
 20
-2.862421775198807
 30
0.0
 10
-29.04866259199436
 20
-2.738255587037822
 30
0.0
  0
SPLINE
  5
1DFB
330
1F
100
AcDbEntity
  8
AM_0
100
AcDbSpline
210
0.0
220
0.0
230
1.0
 70
     8
 71
     3
 72
     8
 73
     4
 74
     0
 42
0.0000000001
 43
0.0000000001
 40
0.0
 40
0.0
 40
0.0
 40
0.0
 40
5.903434572215495
 40
5.903434572215495
 40
5.903434572215495
 40
5.903434572215495
 10
-27.74214659685908
 20
-3.000000000000067
 30
0.0
 10
-28.90119788721547
 20
-3.000000000000067
 30
0.0
 10
-29.88760038286497
 20
-2.3965100335059
 30
0.0
 10
-30.81086387434574
 20
-1.572319102519084
 30
0.0
  0
SPLINE
  5
1DFC
330
1F
100
AcDbEntity
  8
AM_0
100
AcDbSpline
210
0.0
220
0.0
230
1.0
 70
     8
 71
     3
 72
     8
 73
     4
 74
     0
 42
0.0000000001
 43
0.0000000001
 40
0.0
 40
0.0
 40
0.0
 40
0.0
 40
2.01589001736573
 40
2.01589001736573
 40
2.01589001736573
 40
2.01589001736573
 10
-27.09917979603897
 20
-2.932100124759674
 30
0.0
 10
-26.70338987116349
 20
-2.932100124759709
 30
0.0
 10
-26.32715135339978
 20
-2.862421775198814
 30
0.0
 10
-25.96620185901007
 20
-2.73825558703783
 30
0.0
  0
SPLINE
  5
1DFD
330
1F
100
AcDbEntity
  8
AM_0
100
AcDbSpline
210
0.0
220
0.0
230
1.0
 70
     8
 71
     3
 72
     8
 73
     4
 74
     0
 42
0.0000000001
 43
0.0000000001
 40
0.0
 40
0.0
 40
0.0
 40
0.0
 40
5.584272557818021
 40
5.584272557818021
 40
5.584272557818021
 40
5.584272557818021
 10
-24.65968586387466
 20
-3.00000000000007
 30
0.0
 10
-26.48700018253238
 20
-3.00000000000007
 30
0.0
 10
-27.88518857294171
 20
-1.500000000000068
 30
0.0
 10
-29.28337696335102
 20
-0.0000000000000669
 30
0.0
  0
SPLINE
  5
1DFE
330
1F
100
AcDbEntity
  8
AM_0
100
AcDbSpline
210
0.0
220
0.0
230
1.0
 70
     8
 71
     3
 72
     8
 73
     4
 74
     0
 42
0.0000000001
 43
0.0000000001
 40
0.0
 40
0.0
 40
0.0
 40
0.0
 40
5.548090765445064
 40
5.548090765445064
 40
5.548090765445064
 40
5.548090765445064
 10
-24.01671906305466
 20
-2.93210012475978
 30
0.0
 10
-25.83219378996731
 20
-2.93210012475978
 30
0.0
 10
-27.23630197624924
 20
-1.466050062379923
 30
0.0
 10
-28.64041016253118
 20
-0.0000000000000669
 30
0.0
  0
SPLINE
  5
1DFF
330
1F
100
AcDbEntity
  8
AM_0
100
AcDbSpline
210
0.0
220
0.0
230
1.0
 70
     8
 71
     3
 72
     8
 73
     4
 74
     0
 42
0.0000000001
 43
0.0000000001
 40
0.0
 40
0.0
 40
0.0
 40
0.0
 40
5.584272557818042
 40
5.584272557818042
 40
5.584272557818042
 40
5.584272557818042
 10
-21.57722513089035
 20
-3.000000000000031
 30
0.0
 10
-23.40453944954808
 20
-3.000000000000031
 30
0.0
 10
-24.80272783995741
 20
-1.500000000000032
 30
0.0
 10
-26.20091623036674
 20
-0.0000000000000331
 30
0.0
  0
SPLINE
  5
1E00
330
1F
100
AcDbEntity
  8
AM_0
100
AcDbSpline
210
0.0
220
0.0
230
1.0
 70
     8
 71
     3
 72
     8
 73
     4
 74
     0
 42
0.0000000001
 43
0.0000000001
 40
0.0
 40
0.0
 40
0.0
 40
0.0
 40
5.548090765444937
 40
5.548090765444937
 40
5.548090765444937
 40
5.548090765444937
 10
-20.93425833007039
 20
-2.93210012475978
 30
0.0
 10
-22.74973305698299
 20
-2.93210012475978
 30
0.0
 10
-24.15384124326487
 20
-1.466050062379906
 30
0.0
 10
-25.55794942954674
 20
-0.0000000000000331
 30
0.0
  0
SPLINE
  5
1E01
330
1F
100
AcDbEntity
  8
AM_0
100
AcDbSpline
210
0.0
220
0.0
230
1.0
 70
     8
 71
     3
 72
     8
 73
     4
 74
     0
 42
0.0000000001
 43
0.0000000001
 40
0.0
 40
0.0
 40
0.0
 40
0.0
 40
5.584272557818042
 40
5.584272557818042
 40
5.584272557818042
 40
5.584272557818042
 10
-18.49476439790528
 20
-2.999999999999935
 30
0.0
 10
-20.32207871656301
 20
-2.999999999999934
 30
0.0
 10
-21.72026710697234
 20
-1.499999999999935
 30
0.0
 10
-23.11845549738167
 20
0.0000000000000633
 30
0.0
  0
SPLINE
  5
1E02
330
1F
100
AcDbEntity
  8
AM_0
100
AcDbSpline
210
0.0
220
0.0
230
1.0
 70
     8
 71
     3
 72
     8
 73
     4
 74
     0
 42
0.0000000001
 43
0.0000000001
 40
0.0
 40
0.0
 40
0.0
 40
0.0
 40
5.584272557818032
 40
5.584272557818032
 40
5.584272557818032
 40
5.584272557818032
 10
-30.82460732984324
 20
2.999999999999968
 30
0.0
 10
-28.99729301118551
 20
2.999999999999968
 30
0.0
 10
-27.59910462077619
 20
1.499999999999967
 30
0.0
 10
-26.20091623036687
 20
-0.0000000000000331
 30
0.0
  0
SPLINE
  5
1E03
330
1F
100
AcDbEntity
  8
AM_0
100
AcDbSpline
210
0.0
220
0.0
230
1.0
 70
     8
 71
     3
 72
     8
 73
     4
 74
     0
 42
0.0000000001
 43
0.0000000001
 40
0.0
 40
0.0
 40
0.0
 40
0.0
 40
5.548090765444954
 40
5.548090765444954
 40
5.548090765444954
 40
5.548090765444954
 10
-30.18164052902313
 20
2.932100124759676
 30
0.0
 10
-28.36616580211052
 20
2.932100124759676
 30
0.0
 10
-26.96205761582863
 20
1.466050062379821
 30
0.0
 10
-25.55794942954674
 20
-0.0000000000000331
 30
0.0
  0
SPLINE
  5
1E04
330
1F
100
AcDbEntity
  8
AM_0
100
AcDbSpline
210
0.0
220
0.0
230
1.0
 70
     8
 71
     3
 72
     8
 73
     4
 74
     0
 42
0.0000000001
 43
0.0000000001
 40
0.0
 40
0.0
 40
0.0
 40
0.0
 40
5.548090765444954
 40
5.548090765444954
 40
5.548090765444954
 40
5.548090765444954
 10
-20.93425833006976
 20
2.932100124759773
 30
0.0
 10
-19.11878360315715
 20
2.932100124759772
 30
0.0
 10
-17.71467541687526
 20
1.466050062379918
 30
0.0
 10
-16.31056723059337
 20
0.0000000000000633
 30
0.0
  0
SPLINE
  5
1E05
330
1F
100
AcDbEntity
  8
AM_0
100
AcDbSpline
210
0.0
220
0.0
230
1.0
 70
     8
 71
     3
 72
     8
 73
     4
 74
     0
 42
0.0000000001
 43
0.0000000001
 40
0.0
 40
0.0
 40
0.0
 40
0.0
 40
5.584272557818032
 40
5.584272557818032
 40
5.584272557818032
 40
5.584272557818032
 10
-21.57722513088987
 20
3.000000000000064
 30
0.0
 10
-19.74991081223214
 20
3.000000000000064
 30
0.0
 10
-18.35172242182282
 20
1.500000000000063
 30
0.0
 10
-16.95353403141349
 20
0.0000000000000633
 30
0.0
  0
SPLINE
  5
1E06
330
1F
100
AcDbEntity
  8
AM_0
100
AcDbSpline
210
0.0
220
0.0
230
1.0
 70
     8
 71
     3
 72
     8
 73
     4
 74
     0
 42
0.0000000001
 43
0.0000000001
 40
0.0
 40
0.0
 40
0.0
 40
0.0
 40
5.548090765444954
 40
5.548090765444954
 40
5.548090765444954
 40
5.548090765444954
 10
-27.09917979603806
 20
2.932100124759773
 30
0.0
 10
-25.28370506912545
 20
2.932100124759772
 30
0.0
 10
-23.87959688284355
 20
1.466050062379918
 30
0.0
 10
-22.47548869656167
 20
0.0000000000000633
 30
0.0
  0
SPLINE
  5
1E07
330
1F
100
AcDbEntity
  8
AM_0
100
AcDbSpline
210
0.0
220
0.0
230
1.0
 70
     8
 71
     3
 72
     8
 73
     4
 74
     0
 42
0.0000000001
 43
0.0000000001
 40
0.0
 40
0.0
 40
0.0
 40
0.0
 40
5.584272557818032
 40
5.584272557818032
 40
5.584272557818032
 40
5.584272557818032
 10
-27.74214659685817
 20
3.000000000000064
 30
0.0
 10
-25.91483227820044
 20
3.000000000000064
 30
0.0
 10
-24.51664388779112
 20
1.500000000000063
 30
0.0
 10
-23.11845549738179
 20
0.0000000000000633
 30
0.0
  0
SPLINE
  5
1E08
330
1F
100
AcDbEntity
  8
AM_0
100
AcDbSpline
210
0.0
220
0.0
230
1.0
 70
     8
 71
     3
 72
     8
 73
     4
 74
     0
 42
0.0000000001
 43
0.0000000001
 40
0.0
 40
0.0
 40
0.0
 40
0.0
 40
5.548090765444954
 40
5.548090765444954
 40
5.548090765444954
 40
5.548090765444954
 10
-24.01671906305362
 20
2.932100124759839
 30
0.0
 10
-22.20124433614101
 20
2.932100124759838
 30
0.0
 10
-20.79713614985912
 20
1.466050062379983
 30
0.0
 10
-19.39302796357723
 20
0.0000000000001286
 30
0.0
  0
SPLINE
  5
1E09
330
1F
100
AcDbEntity
  8
AM_0
100
AcDbSpline
210
0.0
220
0.0
230
1.0
 70
     8
 71
     3
 72
     8
 73
     4
 74
     0
 42
0.0000000001
 43
0.0000000001
 40
0.0
 40
0.0
 40
0.0
 40
0.0
 40
5.584272557818032
 40
5.584272557818032
 40
5.584272557818032
 40
5.584272557818032
 10
-24.65968586387373
 20
3.00000000000013
 30
0.0
 10
-22.83237154521601
 20
3.00000000000013
 30
0.0
 10
-21.43418315480668
 20
1.500000000000129
 30
0.0
 10
-20.03599476439736
 20
0.0000000000001286
 30
0.0
  0
SPLINE
  5
1E0A
330
1F
100
AcDbEntity
  8
AM_0
100
AcDbSpline
210
0.0
220
0.0
230
1.0
 70
     8
 71
     3
 72
     8
 73
     4
 74
     0
 42
0.0000000001
 43
0.0000000001
 40
0.0
 40
0.0
 40
0.0
 40
0.0
 40
5.584272557818032
 40
5.584272557818032
 40
5.584272557818032
 40
5.584272557818032
 10
-15.41230366492156
 20
3.000000000000064
 30
0.0
 10
-13.58498934626384
 20
3.000000000000064
 30
0.0
 10
-12.18680095585451
 20
1.500000000000063
 30
0.0
 10
-10.78861256544519
 20
0.0000000000000633
 30
0.0
  0
SPLINE
  5
1E0B
330
1F
100
AcDbEntity
  8
AM_0
100
AcDbSpline
210
0.0
220
0.0
230
1.0
 70
     8
 71
     3
 72
     8
 73
     4
 74
     0
 42
0.0000000001
 43
0.0000000001
 40
0.0
 40
0.0
 40
0.0
 40
0.0
 40
5.548090765444954
 40
5.548090765444954
 40
5.548090765444954
 40
5.548090765444954
 10
-14.76933686410145
 20
2.932100124759773
 30
0.0
 10
-12.95386213718884
 20
2.932100124759772
 30
0.0
 10
-11.54975395090695
 20
1.466050062379918
 30
0.0
 10
-10.14564576462506
 20
0.0000000000000633
 30
0.0
  0
SPLINE
  5
1E0C
330
1F
100
AcDbEntity
  8
AM_0
100
AcDbSpline
210
0.0
220
0.0
230
1.0
 70
     8
 71
     3
 72
     8
 73
     4
 74
     0
 42
0.0000000001
 43
0.0000000001
 40
0.0
 40
0.0
 40
0.0
 40
0.0
 40
5.548090765444954
 40
5.548090765444954
 40
5.548090765444954
 40
5.548090765444954
 10
-17.85179759708532
 20
2.932100124759839
 30
0.0
 10
-16.03632287017271
 20
2.932100124759838
 30
0.0
 10
-14.63221468389082
 20
1.466050062379983
 30
0.0
 10
-13.22810649760893
 20
0.0000000000001286
 30
0.0
  0
SPLINE
  5
1E0D
330
1F
100
AcDbEntity
  8
AM_0
100
AcDbSpline
210
0.0
220
0.0
230
1.0
 70
     8
 71
     3
 72
     8
 73
     4
 74
     0
 42
0.0000000001
 43
0.0000000001
 40
0.0
 40
0.0
 40
0.0
 40
0.0
 40
5.584272557818032
 40
5.584272557818032
 40
5.584272557818032
 40
5.584272557818032
 10
-18.49476439790543
 20
3.00000000000013
 30
0.0
 10
-16.66745007924771
 20
3.00000000000013
 30
0.0
 10
-15.26926168883838
 20
1.500000000000129
 30
0.0
 10
-13.87107329842906
 20
0.0000000000001286
 30
0.0
  0
SPLINE
  5
1E0E
330
1F
100
AcDbEntity
  8
AM_0
100
AcDbSpline
210
0.0
220
0.0
230
1.0
 70
     8
 71
     3
 72
     8
 73
     4
 74
     0
 42
0.0000000001
 43
0.0000000001
 40
0.0
 40
0.0
 40
0.0
 40
0.0
 40
5.548090765444937
 40
5.548090765444937
 40
5.548090765444937
 40
5.548090765444937
 10
-11.68687613111702
 20
-2.932100124759684
 30
0.0
 10
-13.50235085802963
 20
-2.932100124759683
 30
0.0
 10
-14.9064590443115
 20
-1.46605006237981
 30
0.0
 10
-16.31056723059337
 20
0.0000000000000633
 30
0.0
  0
SPLINE
  5
1E0F
330
1F
100
AcDbEntity
  8
AM_0
100
AcDbSpline
210
0.0
220
0.0
230
1.0
 70
     8
 71
     3
 72
     8
 73
     4
 74
     0
 42
0.0000000001
 43
0.0000000001
 40
0.0
 40
0.0
 40
0.0
 40
0.0
 40
5.584272557818042
 40
5.584272557818042
 40
5.584272557818042
 40
5.584272557818042
 10
-12.32984293193698
 20
-2.999999999999935
 30
0.0
 10
-14.15715725059471
 20
-2.999999999999934
 30
0.0
 10
-15.55534564100404
 20
-1.499999999999935
 30
0.0
 10
-16.95353403141337
 20
0.0000000000000633
 30
0.0
  0
SPLINE
  5
1E10
330
1F
100
AcDbEntity
  8
AM_0
100
AcDbSpline
210
0.0
220
0.0
230
1.0
 70
     8
 71
     3
 72
     8
 73
     4
 74
     0
 42
0.0000000001
 43
0.0000000001
 40
0.0
 40
0.0
 40
0.0
 40
0.0
 40
2.01589001736573
 40
2.01589001736573
 40
2.01589001736573
 40
2.01589001736573
 10
-14.76933686410111
 20
-2.932100124759614
 30
0.0
 10
-14.37354693922563
 20
-2.932100124759614
 30
0.0
 10
-13.99730842146191
 20
-2.862421775198747
 30
0.0
 10
-13.6363589270722
 20
-2.738255587037727
 30
0.0
  0
SPLINE
  5
1E11
330
1F
100
AcDbEntity
  8
AM_0
100
AcDbSpline
210
0.0
220
0.0
230
1.0
 70
     8
 71
     3
 72
     8
 73
     4
 74
     0
 42
0.0000000001
 43
0.0000000001
 40
9.040119728417035
 40
9.040119728417035
 40
9.040119728417035
 40
9.040119728417035
 40
9.307120929696868
 40
9.307120929696868
 40
9.307120929696868
 40
9.307120929696868
 10
-31.84321404396236
 20
0.1290598677049856
 30
0.0
 10
-31.80309290674205
 20
0.086063521672181
 30
0.0
 10
-31.76298190112881
 20
0.0430317608360393
 30
0.0
 10
-31.72287089551533
 20
-0.0000000000000988
 30
0.0
  0
POLYLINE
  5
1E12
330
1F
100
AcDbEntity
  8
AM_0
100
AcDb2dPolyline
 66
     1
 10
0.0
 20
0.0
 30
0.0
 70
     2
  0
VERTEX
  5
1E13
330
1E12
100
AcDbEntity
  8
AM_0
100
AcDbVertex
100
AcDb2dVertex
 10
-31.84321404395902
 20
0.1290598677080552
 30
0.0
 42
-0.0118474845559968
  0
VERTEX
  5
1E14
330
1E12
100
AcDbEntity
  8
AM_0
100
AcDbVertex
100
AcDb2dVertex
 10
-32.19399227004653
 20
0.5236863177065406
 30
0.0
 42
-0.0229587367005704
 70
     1
  0
VERTEX
  5
1E15
330
1E12
100
AcDbEntity
  8
AM_0
100
AcDbVertex
100
AcDb2dVertex
 10
-32.36072876908993
 20
0.7397412931364798
 30
0.0
 42
-0.0074393672839035
  0
VERTEX
  5
1E16
330
1E12
100
AcDbEntity
  8
AM_0
100
AcDbVertex
100
AcDb2dVertex
 10
-32.81871018863724
 20
1.41376499129459
 30
0.0
 42
-0.0137723123631775
 70
     1
  0
VERTEX
  5
1E17
330
1E12
100
AcDbEntity
  8
AM_0
100
AcDbVertex
100
AcDb2dVertex
 10
-33.05074840259774
 20
1.788261192172456
 30
0.0
 42
-0.0384719672123456
  0
VERTEX
  5
1E18
330
1E12
100
AcDbEntity
  8
AM_0
100
AcDbVertex
100
AcDb2dVertex
 10
-33.19827040020621
 20
2.092664956093984
 30
0.0
 42
-0.0969044761549296
 70
     1
  0
VERTEX
  5
1E19
330
1E12
100
AcDbEntity
  8
AM_0
100
AcDbVertex
100
AcDb2dVertex
 10
-33.22325331097476
 20
2.22609966578001
 30
0.0
 42
-0.1871793730324737
  0
VERTEX
  5
1E1A
330
1E12
100
AcDbEntity
  8
AM_0
100
AcDbVertex
100
AcDb2dVertex
 10
-33.19034806364888
 20
2.31129992642135
 30
0.0
 42
-0.0943844175758712
 70
     1
  0
VERTEX
  5
1E1B
330
1E12
100
AcDbEntity
  8
AM_0
100
AcDbVertex
100
AcDb2dVertex
 10
-33.05074840259774
 20
2.416667927252138
 30
0.0
 42
-0.0915329679940561
  0
VERTEX
  5
1E1C
330
1E12
100
AcDbEntity
  8
AM_0
100
AcDbVertex
100
AcDb2dVertex
 10
-32.85125466033331
 20
2.472236587394695
 30
0.0
 42
-0.038326924455418
 70
     1
  0
VERTEX
  5
1E1D
330
1E12
100
AcDbEntity
  8
AM_0
100
AcDbVertex
100
AcDb2dVertex
 10
-32.36072876908993
 20
2.47610697774652
 30
0.0
 42
-0.0437581705911492
  0
VERTEX
  5
1E1E
330
1E12
100
AcDbEntity
  8
AM_0
100
AcDbVertex
100
AcDb2dVertex
 10
-32.12337490077645
 20
2.437997519132988
 30
0.0
 42
-0.0356593958927609
 70
     1
  0
VERTEX
  5
1E1F
330
1E12
100
AcDbEntity
  8
AM_0
100
AcDbVertex
100
AcDb2dVertex
 10
-31.84321404395902
 20
2.344977766768739
 30
0.0
  0
SEQEND
  5
1E20
330
1E12
100
AcDbEntity
  8
AM_0
  0
SPLINE
  5
1E21
330
1F
100
AcDbEntity
  8
AM_0
100
AcDbSpline
210
0.0
220
0.0
230
1.0
 70
     8
 71
     3
 72
     8
 73
     4
 74
     0
 42
0.0000000001
 43
0.0000000001
 40
0.0
 40
0.0
 40
0.0
 40
0.0
 40
5.584272557818067
 40
5.584272557818067
 40
5.584272557818067
 40
5.584272557818067
 10
-33.26410126200755
 20
2.999999999999968
 30
0.0
 10
-31.43678694334981
 20
2.999999999999968
 30
0.0
 10
-30.0385985529405
 20
1.499999999999934
 30
0.0
 10
-28.64041016253118
 20
-0.0000000000000988
 30
0.0
  0
SPLINE
  5
1E22
330
1F
100
AcDbEntity
  8
AM_0
100
AcDbSpline
210
0.0
220
0.0
230
1.0
 70
     8
 71
     3
 72
     8
 73
     4
 74
     0
 42
0.0000000001
 43
0.0000000001
 40
3.822114358298356
 40
3.822114358298356
 40
3.822114358298356
 40
3.822114358298356
 40
9.307120929696807
 40
9.307120929696807
 40
9.307120929696807
 40
9.307120929696807
 10
-31.84321404395902
 20
2.344977766768572
 30
0.0
 10
-30.93137800843861
 20
1.768003213721061
 30
0.0
 10
-30.10737748589482
 20
0.884001606860475
 30
0.0
 10
-29.28337696335102
 20
-0.0000000000000988
 30
0.0
  0
SPLINE
  5
1E23
330
1F
100
AcDbEntity
  8
AM_0
100
AcDbSpline
210
0.0
220
0.0
230
1.0
 70
     8
 71
     3
 72
     8
 73
     4
 74
     0
 42
0.0000000001
 43
0.0000000001
 40
0.0
 40
0.0
 40
0.0
 40
0.0
 40
5.548090765445053
 40
5.548090765445053
 40
5.548090765445053
 40
5.548090765445053
 10
-27.09917979603897
 20
-2.93210012475978
 30
0.0
 10
-28.91465452295161
 20
-2.93210012475978
 30
0.0
 10
-30.31876270923353
 20
-1.466050062379923
 30
0.0
 10
-31.72287089551547
 20
-0.0000000000000669
 30
0.0
  0
POLYLINE
  5
1E24
330
1F
100
AcDbEntity
  8
AM_0
100
AcDb2dPolyline
 66
     1
 10
0.0
 20
0.0
 30
0.0
 70
     2
  0
VERTEX
  5
1E25
330
1E24
100
AcDbEntity
  8
AM_0
100
AcDbVertex
100
AcDb2dVertex
 10
-30.81086387434574
 20
-2.872691110483458
 30
0.0
 42
-0.0185434125079168
  0
VERTEX
  5
1E26
330
1E24
100
AcDbEntity
  8
AM_0
100
AcDbVertex
100
AcDb2dVertex
 10
-31.39949998630362
 20
-2.483796048213775
 30
0.0
 42
-0.0322429997831346
 70
     1
  0
VERTEX
  5
1E27
330
1E24
100
AcDbEntity
  8
AM_0
100
AcDbVertex
100
AcDb2dVertex
 10
-31.71425065445034
 20
-2.226151684146191
 30
0.0
 42
-0.0154837447810757
  0
VERTEX
  5
1E28
330
1E24
100
AcDbEntity
  8
AM_0
100
AcDbVertex
100
AcDb2dVertex
 10
-32.48444125611592
 20
-1.461810293257133
 30
0.0
 42
-0.0252025959969089
 70
     1
  0
VERTEX
  5
1E29
330
1E24
100
AcDbEntity
  8
AM_0
100
AcDbVertex
100
AcDb2dVertex
 10
-32.91876636125667
 20
-0.9544005981516871
 30
0.0
 42
-0.0526924355685501
  0
VERTEX
  5
1E2A
330
1E24
100
AcDbEntity
  8
AM_0
100
AcDbVertex
100
AcDb2dVertex
 10
-33.1984647904615
 20
-0.5013717807738065
 30
0.0
 42
-0.1665203413769803
 70
     1
  0
VERTEX
  5
1E2B
330
1E24
100
AcDbEntity
  8
AM_0
100
AcDbVertex
100
AcDb2dVertex
 10
-33.21989528795825
 20
-0.3291889384944497
 30
0.0
 42
-0.2307572350833865
  0
VERTEX
  5
1E2C
330
1E24
100
AcDbEntity
  8
AM_0
100
AcDbVertex
100
AcDb2dVertex
 10
-33.14286261080111
 20
-0.2275515475558437
 30
0.0
 42
-0.122151321937318
 70
     1
  0
VERTEX
  5
1E2D
330
1E24
100
AcDbEntity
  8
AM_0
100
AcDbVertex
100
AcDb2dVertex
 10
-32.91876636125667
 20
-0.1773063208389882
 30
0.0
 42
-0.1110641781431695
  0
VERTEX
  5
1E2E
330
1E24
100
AcDbEntity
  8
AM_0
100
AcDbVertex
100
AcDb2dVertex
 10
-32.65495070446251
 20
-0.2452604999212203
 30
0.0
 42
-0.0275008346235786
 70
     1
  0
VERTEX
  5
1E2F
330
1E24
100
AcDbEntity
  8
AM_0
100
AcDbVertex
100
AcDb2dVertex
 10
-31.71425065445034
 20
-0.7988714028516484
 30
0.0
 42
-0.030026725591371
  0
VERTEX
  5
1E30
330
1E24
100
AcDbEntity
  8
AM_0
100
AcDbVertex
100
AcDb2dVertex
 10
-31.26654937185297
 20
-1.137649998012182
 30
0.0
 42
-0.0268199095458923
 70
     1
  0
VERTEX
  5
1E31
330
1E24
100
AcDbEntity
  8
AM_0
100
AcDbVertex
100
AcDb2dVertex
 10
-30.81086387434574
 20
-1.572319102519769
 30
0.0
  0
SEQEND
  5
1E32
330
1E24
100
AcDbEntity
  8
AM_0
  0
SPLINE
  5
1E33
330
1F
100
AcDbEntity
  8
AM_0
100
AcDbSpline
210
0.0
220
0.0
230
1.0
 70
     8
 71
     3
 72
     8
 73
     4
 74
     0
 42
0.0000000001
 43
0.0000000001
 40
0.0
 40
0.0
 40
0.0
 40
0.0
 40
2.181562449810529
 40
2.181562449810529
 40
2.181562449810529
 40
2.181562449810529
 10
-30.82460732984324
 20
2.999999999999936
 30
0.0
 10
-31.25292456475356
 20
2.999999999999968
 30
0.0
 10
-31.65766475633831
 20
2.917586977013609
 30
0.0
 10
-32.04435429592513
 20
2.772078307239226
 30
0.0
  0
VIEWPORT
  5
110
330
101
100
AcDbEntity
 67
     1
  8
0
100
AcDbViewport
 10
420.5
 20
297.0
 30
0.0
 40
948.9782706766916
 41
628.452
 68
     1
 69
     1
1001
ACAD
1000
MVIEW
1002
{
1070
    16
1010
0.0
1020
0.0
1030
0.0
1010
0.0
1020
0.0
1030
1.0
1040
0.0
1040
628.452
1040
420.5
1040
297.0
1040
50.0
1040
0.0
1040
0.0
1070
     0
1070
   100
1070
     1
1070
     1
1070
     0
1070
     0
1070
     0
1070
     0
1040
0.0
1040
0.0
1040
0.0
1040
10.0
1040
10.0
1040
10.0
1040
10.0
1070
     0
1002
{
1002
}
1002
}
  0
ENDSEC
  0
SECTION
  2
OBJECTS
  0
DICTIONARY
  5
C
330
0
100
AcDbDictionary
  3
ACAD_GROUP
350
D
  3
ACAD_LAYOUT
350
1A
  3
ACAD_MLINESTYLE
350
17
  3
ACAD_PLOTSETTINGS
350
19
  3
ACAD_PLOTSTYLENAME
350
E
  3
ACDBVARIABLEDICTIONARY
350
34
  3
ACMDICTIONARY
350
43
  3
AMG
350
2B
  3
AMGSNAPSETTINGS
350
6E
  3
DWGPROPS
350
1E4C
  3
ACDBHEADERROUNDTRIPXREC
350
1E58
  0
DICTIONARY
  5
74
330
1F
100
AcDbDictionary
280
     1
  3
ACAD_INDEX
360
1E4E
  3
ACAD_LAYOUTSELFREF
360
1E7B
  0
DICTIONARY
  5
1E80
330
101
100
AcDbDictionary
280
     1
  3
ACAD_LAYOUTSELFREF
360
1E81
  0
DICTIONARY
  5
D
102
{ACAD_REACTORS
330
C
102
}
330
C
100
AcDbDictionary
  0
DICTIONARY
  5
1A
102
{ACAD_REACTORS
330
C
102
}
330
C
100
AcDbDictionary
  0
DICTIONARY
  5
17
102
{ACAD_REACTORS
330
C
102
}
330
C
100
AcDbDictionary
  3
STANDARD
350
18
  0
DICTIONARY
  5
19
102
{ACAD_REACTORS
330
C
102
}
330
C
100
AcDbDictionary
  0
ACDBDICTIONARYWDFLT
  5
E
102
{ACAD_REACTORS
330
C
102
}
330
C
100
AcDbDictionary
281
     1
  3
Normal
350
F
100
AcDbDictionaryWithDefault
340
F
  0
DICTIONARY
  5
34
102
{ACAD_REACTORS
330
C
102
}
330
C
100
AcDbDictionary
  3
INDEXCTL
350
35
  3
SORTENTS
350
B5E
  0
DICTIONARY
  5
43
102
{ACAD_REACTORS
330
C
102
}
330
C
100
AcDbDictionary
  3
ACMSTDDICTIONARY
350
260
  0
DICTIONARY
  5
2B
102
{ACAD_REACTORS
330
C
102
}
330
C
100
AcDbDictionary
  3
ACMGSETTINGS
350
2C
  0
DICTIONARY
  5
6E
102
{ACAD_REACTORS
330
C
102
}
330
C
100
AcDbDictionary
  0
XRECORD
  5
1E4C
102
{ACAD_REACTORS
330
C
102
}
330
C
100
AcDbXrecord
  1
DWGPROPS COOKIE
  2

  3

  4

  6

  7

  8

  9

300
AmdtFileType=82
301
=
302
=
303
=
304
=
305
=
306
=
307
=
308
=
309
=
 40
0.1408316898148148
 41
2452838.620506898
 42
2452839.828195648
  1

 90
        1
  0
DICTIONARY
  5
1E58
102
{ACAD_REACTORS
330
C
102
}
330
C
100
AcDbDictionary
  3
TSTACKALIGN
350
1E59
  3
TSTACKSIZE
350
1E5A
  3
HYPERLINKBASE
350
1E5B
  3
STYLESHEET
350
1E5C
  3
LAYOUTDICT
350
1E5D
  3
PLOTSETDICT
350
1E5E
  3
PLOTSTYLNAMDICT
350
1E5F
  3
LWETCUNION
350
1E60
  3
INSUNITS
350
1E61
  3
CEPSNTYPE
350
1E62
  3
FINGERPRINTGUID
350
1E63
  3
VERSIONGUID
350
1E64
  3
PSVPSCALE
350
1E65
  3
DIMSTYLEDATA
350
1E66
  3
PUCSORTHOREF
350
1E67
  3
PUCSORTHOVIEW
350
1E68
  3
PUCSBASE
350
1E69
  3
PUCSORGTOP
350
1E6A
  3
PUCSORGBOTTOM
350
1E6B
  3
PUCSORGLEFT
350
1E6C
  3
PUCSORGRIGHT
350
1E6D
  3
PUCSORGFRONT
350
1E6E
  3
PUCSORGBACK
350
1E6F
  3
UCSORTHOREF
350
1E70
  3
UCSORTHOVIEW
350
1E71
  3
UCSBASE
350
1E72
  3
UCSORGTOP
350
1E73
  3
UCSORGBOTTOM
350
1E74
  3
UCSORGLEFT
350
1E75
  3
UCSORGRIGHT
350
1E76
  3
UCSORGFRONT
350
1E77
  3
UCSORGBACK
350
1E78
  0
DICTIONARY
  5
1E4E
102
{ACAD_REACTORS
330
74
102
}
330
74
100
AcDbDictionary
  3
*A1
350
1E4F
  0
XRECORD
  5
1E7B
102
{ACAD_REACTORS
330
74
102
}
330
74
100
AcDbXrecord
340
1F
  0
XRECORD
  5
1E81
102
{ACAD_REACTORS
330
1E80
102
}
330
1E80
100
AcDbXrecord
340
101
  0
MLINESTYLE
  5
18
102
{ACAD_REACTORS
330
17
102
}
330
17
100
AcDbMlineStyle
  2
STANDARD
 70
     0
  3

 62
   256
 51
90.0
 52
90.0
 71
     2
 49
0.5
 62
   256
  6
BYLAYER
 49
-0.5
 62
   256
  6
BYLAYER
  0
ACDBPLACEHOLDER
  5
F
102
{ACAD_REACTORS
330
E
102
}
330
E
100
AcDbPlaceHolder
280
     0
  0
DICTIONARYVAR
  5
35
102
{ACAD_REACTORS
330
34
102
}
330
34
100
DictionaryVariables
280
     0
  1
1
  0
DICTIONARYVAR
  5
B5E
102
{ACAD_REACTORS
330
34
102
}
330
34
100
DictionaryVariables
280
     0
  1
96
  0
DICTIONARY
  5
260
102
{ACAD_REACTORS
330
43
102
}
330
43
100
AcDbDictionary
  0
DICTIONARY
  5
2C
102
{ACAD_REACTORS
330
2B
102
}
330
2B
100
AcDbDictionary
  3
DWGSETTINGS
350
2D
  0
XRECORD
  5
1E59
102
{ACAD_REACTORS
330
1E58
102
}
330
1E58
100
AcDbXrecord
 90
        1
  0
XRECORD
  5
1E5A
102
{ACAD_REACTORS
330
1E58
102
}
330
1E58
100
AcDbXrecord
 90
       70
  0
XRECORD
  5
1E5B
102
{ACAD_REACTORS
330
1E58
102
}
330
1E58
100
AcDbXrecord
  1

  0
XRECORD
  5
1E5C
102
{ACAD_REACTORS
330
1E58
102
}
330
1E58
100
AcDbXrecord
  1
ACAD_M_9400.ctb
  0
XRECORD
  5
1E5D
102
{ACAD_REACTORS
330
1E58
102
}
330
1E58
100
AcDbXrecord
340
1A
  0
XRECORD
  5
1E5E
102
{ACAD_REACTORS
330
1E58
102
}
330
1E58
100
AcDbXrecord
340
19
  0
XRECORD
  5
1E5F
102
{ACAD_REACTORS
330
1E58
102
}
330
1E58
100
AcDbXrecord
340
E
  0
XRECORD
  5
1E60
102
{ACAD_REACTORS
330
1E58
102
}
330
1E58
100
AcDbXrecord
 90
    10781
  0
XRECORD
  5
1E61
102
{ACAD_REACTORS
330
1E58
102
}
330
1E58
100
AcDbXrecord
 90
        4
  0
XRECORD
  5
1E62
102
{ACAD_REACTORS
330
1E58
102
}
330
1E58
100
AcDbXrecord
 90
        0
  0
XRECORD
  5
1E63
102
{ACAD_REACTORS
330
1E58
102
}
330
1E58
100
AcDbXrecord
  1
{AFB28963-8C59-40AE-9337-C84526B81ACE}
  0
XRECORD
  5
1E64
102
{ACAD_REACTORS
330
1E58
102
}
330
1E58
100
AcDbXrecord
  1
{B042D7DA-E441-48EA-B498-32A332497770}
  0
XRECORD
  5
1E65
102
{ACAD_REACTORS
330
1E58
102
}
330
1E58
100
AcDbXrecord
 40
0.0
  0
XRECORD
  5
1E66
102
{ACAD_REACTORS
330
1E58
102
}
330
1E58
100
AcDbXrecord
1000
DSTYLE
1002
{
1070
    79
 70
     2
1070
   341
340
59
1070
   342
340
59
1070
   371
 70
    -1
1070
   372
 70
    -1
1002
}
  0
XRECORD
  5
1E67
102
{ACAD_REACTORS
330
1E58
102
}
330
1E58
100
AcDbXrecord
340
0
  0
XRECORD
  5
1E68
102
{ACAD_REACTORS
330
1E58
102
}
330
1E58
100
AcDbXrecord
 70
     0
  0
XRECORD
  5
1E69
102
{ACAD_REACTORS
330
1E58
102
}
330
1E58
100
AcDbXrecord
340
0
  0
XRECORD
  5
1E6A
102
{ACAD_REACTORS
330
1E58
102
}
330
1E58
100
AcDbXrecord
 10
0.0
 20
0.0
 30
0.0
  0
XRECORD
  5
1E6B
102
{ACAD_REACTORS
330
1E58
102
}
330
1E58
100
AcDbXrecord
 10
0.0
 20
0.0
 30
0.0
  0
XRECORD
  5
1E6C
102
{ACAD_REACTORS
330
1E58
102
}
330
1E58
100
AcDbXrecord
 10
0.0
 20
0.0
 30
0.0
  0
XRECORD
  5
1E6D
102
{ACAD_REACTORS
330
1E58
102
}
330
1E58
100
AcDbXrecord
 10
0.0
 20
0.0
 30
0.0
  0
XRECORD
  5
1E6E
102
{ACAD_REACTORS
330
1E58
102
}
330
1E58
100
AcDbXrecord
 10
0.0
 20
0.0
 30
0.0
  0
XRECORD
  5
1E6F
102
{ACAD_REACTORS
330
1E58
102
}
330
1E58
100
AcDbXrecord
 10
0.0
 20
0.0
 30
0.0
  0
XRECORD
  5
1E70
102
{ACAD_REACTORS
330
1E58
102
}
330
1E58
100
AcDbXrecord
340
0
  0
XRECORD
  5
1E71
102
{ACAD_REACTORS
330
1E58
102
}
330
1E58
100
AcDbXrecord
 70
     0
  0
XRECORD
  5
1E72
102
{ACAD_REACTORS
330
1E58
102
}
330
1E58
100
AcDbXrecord
340
0
  0
XRECORD
  5
1E73
102
{ACAD_REACTORS
330
1E58
102
}
330
1E58
100
AcDbXrecord
 10
0.0
 20
0.0
 30
0.0
  0
XRECORD
  5
1E74
102
{ACAD_REACTORS
330
1E58
102
}
330
1E58
100
AcDbXrecord
 10
0.0
 20
0.0
 30
0.0
  0
XRECORD
  5
1E75
102
{ACAD_REACTORS
330
1E58
102
}
330
1E58
100
AcDbXrecord
 10
0.0
 20
0.0
 30
0.0
  0
XRECORD
  5
1E76
102
{ACAD_REACTORS
330
1E58
102
}
330
1E58
100
AcDbXrecord
 10
0.0
 20
0.0
 30
0.0
  0
XRECORD
  5
1E77
102
{ACAD_REACTORS
330
1E58
102
}
330
1E58
100
AcDbXrecord
 10
0.0
 20
0.0
 30
0.0
  0
XRECORD
  5
1E78
102
{ACAD_REACTORS
330
1E58
102
}
330
1E58
100
AcDbXrecord
 10
0.0
 20
0.0
 30
0.0
  0
LAYER_INDEX
  5
1E4F
102
{ACAD_REACTORS
330
1E4E
102
}
330
1E4E
100
AcDbIndex
 40
2453152.359378009
100
AcDbLayerIndex
  8
0
360
1E50
 90
        1
  8
AM_0
360
1E51
 90
      104
  8
AM_11
360
1E52
 90
        4
  8
AM_7
360
1E53
 90
        1
  8
AM_5
360
1E54
 90
        4
  8
Defpoints
360
1E55
 90
        0
  8
AM_6
360
1E56
 90
        1
  0
XRECORD
  5
2D
102
{ACAD_REACTORS
330
2C
102
}
330
2C
100
AcDbXrecord
  1
VERSION
140
15.0
  1
PRODUCT
  2
AutoCAD Mechanical 2000
  0
IDBUFFER
  5
1E50
330
0
100
AcDbIdBuffer
330
DFD
  0
IDBUFFER
  5
1E51
330
0
100
AcDbIdBuffer
330
1DDF
330
1DE0
330
1DE1
330
1DE2
330
1DE3
330
1DE4
330
1DE5
330
1DE6
330
1DE8
330
1DE9
330
1DEA
330
1DEB
330
1DEC
330
1DED
330
1DEE
330
1DEF
330
1DF0
330
1DF1
330
1DF2
330
1DF3
330
1DF4
330
1DF5
330
1DF6
330
1DF7
330
1DF8
330
1DF9
330
1DFA
330
1DFB
330
1DFC
330
1DFD
330
1DFE
330
1DFF
330
1E00
330
1E01
330
1E02
330
1E03
330
1E04
330
1E05
330
1E06
330
1E07
330
1E08
330
1E09
330
1E0A
330
1E0B
330
1E0C
330
1E0D
330
1E0E
330
1E0F
330
1E10
330
1E11
330
1E12
330
1E21
330
1E22
330
1E23
330
1E24
330
1E33
330
DFB
330
DFC
330
DFE
330
DFF
330
E00
330
18B7
330
18B8
330
1DB4
330
1DB5
330
1DB6
330
1DB7
330
1DB8
330
1DB9
330
1DBA
330
1DBB
330
1DBC
330
1DBD
330
1DBE
330
1DBF
330
1DC0
330
1DC2
330
1DC3
330
1DC4
330
1DC5
330
1DC6
330
1DC7
330
1DC8
330
1DC9
330
1DCA
330
1DCB
330
1DCC
330
1DCD
330
1DCE
330
1DCF
330
1DD0
330
1DD1
330
1DD2
330
1DD3
330
1DD4
330
1DD5
330
1DD6
330
1DD7
330
1DD8
330
1DD9
330
1DDB
330
1DDC
330
1DDD
330
1DDE
  0
IDBUFFER
  5
1E52
330
0
100
AcDbIdBuffer
330
1CF6
330
1DC1
330
1DDA
330
1DE7
  0
IDBUFFER
  5
1E53
330
0
100
AcDbIdBuffer
330
C50
  0
IDBUFFER
  5
1E54
330
0
100
AcDbIdBuffer
330
C4F
330
C53
330
15A7
330
1B34
  0
IDBUFFER
  5
1E55
330
0
100
AcDbIdBuffer
  0
IDBUFFER
  5
1E56
330
0
100
AcDbIdBuffer
330
C58
  0
ENDSEC
  0
EOF
