  0
SECTION
  2
HEADER
  9
$ACADVER
  1
AC1014
  9
$ACADMAINTVER
 70
     9
  9
$DWGCODEPAGE
  3
ANSI_932
  9
$INSBASE
 10
0.0
 20
0.0
 30
0.0
  9
$EXTMIN
 10
-189.111794214966
 20
-58.50000099999943
 30
-0.00000001
  9
$EXTMAX
 10
19.61718915779354
 20
12.02431983792421
 30
0.00000001
  9
$LIMMIN
 10
-230.6871883733475
 20
-104.9242005557426
  9
$LIMMAX
 10
64.84104104996823
 20
65.2136416996413
  9
$ORTHOMODE
 70
     0
  9
$REGENMODE
 70
     1
  9
$FILLMODE
 70
     1
  9
$QTEXTMODE
 70
     0
  9
$MIRRTEXT
 70
     0
  9
$DRAGMODE
 70
     2
  9
$LTSCALE
 40
1.0
  9
$OSMODE
 70
    55
  9
$ATTMODE
 70
     1
  9
$TEXTSIZE
 40
2.5
  9
$TRACEWID
 40
1.0
  9
$TEXTSTYLE
  7
STANDARD
  9
$CLAYER
  8
AM_0
  9
$CELTYPE
  6
BYLAYER
  9
$CECOLOR
 62
   256
  9
$CELTSCALE
 40
1.0
  9
$DELOBJ
 70
     1
  9
$DISPSILH
 70
     0
  9
$DIMSCALE
 40
1.0
  9
$DIMASZ
 40
2.5
  9
$DIMEXO
 40
1.0
  9
$DIMDLI
 40
12.0
  9
$DIMRND
 40
0.0
  9
$DIMDLE
 40
0.0
  9
$DIMEXE
 40
1.0
  9
$DIMTP
 40
0.1
  9
$DIMTM
 40
0.1
  9
$DIMTXT
 40
3.2
  9
$DIMCEN
 40
0.0
  9
$DIMTSZ
 40
0.0
  9
$DIMTOL
 70
     0
  9
$DIMLIM
 70
     0
  9
$DIMTIH
 70
     0
  9
$DIMTOH
 70
     0
  9
$DIMSE1
 70
     0
  9
$DIMSE2
 70
     0
  9
$DIMTAD
 70
     3
  9
$DIMZIN
 70
     8
  9
$DIMBLK
  1
OPEN30
  9
$DIMASO
 70
     1
  9
$DIMSHO
 70
     1
  9
$DIMPOST
  1

  9
$DIMAPOST
  1
"
  9
$DIMALT
 70
     0
  9
$DIMALTD
 70
     2
  9
$DIMALTF
 40
0.0393701
  9
$DIMLFAC
 40
1.0
  9
$DIMTOFL
 70
     1
  9
$DIMTVP
 40
0.0
  9
$DIMTIX
 70
     0
  9
$DIMSOXD
 70
     0
  9
$DIMSAH
 70
     0
  9
$DIMBLK1
  1

  9
$DIMBLK2
  1

  9
$DIMSTYLE
  2
AM_JIS
  9
$DIMCLRD
 70
   256
  9
$DIMCLRE
 70
   256
  9
$DIMCLRT
 70
     2
  9
$DIMTFAC
 40
0.71
  9
$DIMGAP
 40
1.5
  9
$DIMJUST
 70
     0
  9
$DIMSD1
 70
     0
  9
$DIMSD2
 70
     0
  9
$DIMTOLJ
 70
     0
  9
$DIMTZIN
 70
     0
  9
$DIMALTZ
 70
     0
  9
$DIMALTTZ
 70
     0
  9
$DIMFIT
 70
     3
  9
$DIMUPT
 70
     0
  9
$DIMUNIT
 70
     2
  9
$DIMDEC
 70
     3
  9
$DIMTDEC
 70
     3
  9
$DIMALTU
 70
     2
  9
$DIMALTTD
 70
     2
  9
$DIMTXSTY
  7
ASAMI
  9
$DIMAUNIT
 70
     0
  9
$LUNITS
 70
     2
  9
$LUPREC
 70
     2
  9
$SKETCHINC
 40
1.0
  9
$FILLETRAD
 40
2.5
  9
$AUNITS
 70
     0
  9
$AUPREC
 70
     0
  9
$MENU
  1
.
  9
$ELEVATION
 40
0.0
  9
$PELEVATION
 40
0.0
  9
$THICKNESS
 40
0.0
  9
$LIMCHECK
 70
     0
  9
$BLIPMODE
 70
     0
  9
$CHAMFERA
 40
2.5
  9
$CHAMFERB
 40
2.5
  9
$CHAMFERC
 40
20.0
  9
$CHAMFERD
 40
0.0
  9
$SKPOLY
 70
     0
  9
$TDCREATE
 40
2452838.620506898
  9
$TDUPDATE
 40
2453152.359075081
  9
$TDINDWG
 40
0.1785260532
  9
$TDUSRTIMER
 40
0.1785260532
  9
$USRTIMER
 70
     1
  9
$ANGBASE
 50
0.0
  9
$ANGDIR
 70
     0
  9
$PDMODE
 70
     0
  9
$PDSIZE
 40
0.0
  9
$PLINEWID
 40
0.0
  9
$COORDS
 70
     1
  9
$SPLFRAME
 70
     0
  9
$SPLINETYPE
 70
     6
  9
$SPLINESEGS
 70
     8
  9
$ATTDIA
 70
     1
  9
$ATTREQ
 70
     1
  9
$HANDLING
 70
 12289
  9
$HANDSEED
  5
2F03
  9
$SURFTAB1
 70
     6
  9
$SURFTAB2
 70
     6
  9
$SURFTYPE
 70
     6
  9
$SURFU
 70
     6
  9
$SURFV
 70
     6
  9
$UCSNAME
  2

  9
$UCSORG
 10
-0.0000000000000711
 20
-0.0000000000000036
 30
0.0
  9
$UCSXDIR
 10
1.0
 20
0.0
 30
0.0
  9
$UCSYDIR
 10
0.0
 20
1.0
 30
0.0
  9
$PUCSNAME
  2

  9
$PUCSORG
 10
0.0
 20
0.0
 30
0.0
  9
$PUCSXDIR
 10
1.0
 20
0.0
 30
0.0
  9
$PUCSYDIR
 10
0.0
 20
1.0
 30
0.0
  9
$USERI1
 70
     0
  9
$USERI2
 70
     0
  9
$USERI3
 70
     0
  9
$USERI4
 70
     0
  9
$USERI5
 70
     0
  9
$USERR1
 40
0.0
  9
$USERR2
 40
0.0
  9
$USERR3
 40
0.0
  9
$USERR4
 40
0.0
  9
$USERR5
 40
0.0
  9
$WORLDVIEW
 70
     1
  9
$SHADEDGE
 70
     3
  9
$SHADEDIF
 70
    70
  9
$TILEMODE
 70
     1
  9
$MAXACTVP
 70
    64
  9
$PINSBASE
 10
0.0
 20
0.0
 30
0.0
  9
$PLIMCHECK
 70
     0
  9
$PEXTMIN
 10
1.000000000000000E+20
 20
1.000000000000000E+20
 30
1.000000000000000E+20
  9
$PEXTMAX
 10
-1.000000000000000E+20
 20
-1.000000000000000E+20
 30
-1.000000000000000E+20
  9
$PLIMMIN
 10
0.0
 20
0.0
  9
$PLIMMAX
 10
841.0
 20
594.0
  9
$UNITMODE
 70
     0
  9
$VISRETAIN
 70
     1
  9
$PLINEGEN
 70
     0
  9
$PSLTSCALE
 70
     0
  9
$TREEDEPTH
 70
  3020
  9
$PICKSTYLE
 70
     0
  9
$CMLSTYLE
  2
STANDARD
  9
$CMLJUST
 70
     0
  9
$CMLSCALE
 40
20.0
  9
$PROXYGRAPHICS
 70
     1
  9
$MEASUREMENT
 70
     1
  0
ENDSEC
  0
SECTION
  2
CLASSES
  0
CLASS
  1
ACDBDICTIONARYWDFLT
  2
AcDbDictionaryWithDefault
  3
AutoCAD 2000
 90
        0
280
     0
281
     0
  0
CLASS
  1
ACDBPLACEHOLDER
  2
AcDbPlaceHolder
  3
AutoCAD 2000
 90
        0
280
     0
281
     0
  0
CLASS
  1
LAYOUT
  2
AcDbLayout
  3
AutoCAD 2000
 90
        0
280
     0
281
     0
  0
CLASS
  1
AMGSETTINGSOBJ
  2
AmgSettingsObj
  3
"AcadM|Product Description: AutoCAD Mechanical 2000|Company: Autodesk"
 90
        0
280
     0
281
     0
  0
CLASS
  1
ACME_DOCUMENT
  2
AcMeDbDoc
  3
AcMeServices
 90
        0
280
     0
281
     0
  0
CLASS
  1
ACMESCOPE
  2
AcMeScope
  3
AcMeServices
 90
        0
280
     0
281
     0
  0
CLASS
  1
ACMECOMMANDHISTORY
  2
AcMeCommandHistory
  3
AcMeServices
 90
        0
280
     0
281
     0
  0
CLASS
  1
DICTIONARYVAR
  2
AcDbDictionaryVar
  3
AutoCAD 2000
 90
        0
280
     0
281
     0
  0
CLASS
  1
ACIMSYSVARMAN
  2
AcImSysVarManager
  3
AcMeServices
 90
        0
280
     0
281
     0
  0
CLASS
  1
ACIMREALSYSVAR
  2
AcImRealSysVar
  3
AcMeServices
 90
        0
280
     0
281
     0
  0
CLASS
  1
ACIMINTSYSVAR
  2
AcImIntSysVar
  3
AcMeServices
 90
        0
280
     0
281
     0
  0
CLASS
  1
ACMEDRAWINGMAN
  2
AcMeDrawingMan
  3
AcMeServices
 90
        0
280
     0
281
     0
  0
CLASS
  1
ACMEVIEW
  2
AcMeView
  3
AcMeServices
 90
        0
280
     0
281
     0
  0
CLASS
  1
ACDBENTITYCACHE
  2
AcMeEntityCache
  3
AcMeServices
 90
        0
280
     0
281
     0
  0
CLASS
  1
GSMANAGER
  2
AcMeGSManager
  3
AcMeServices
 90
        0
280
     0
281
     0
  0
CLASS
  1
AmdtInternalReactor
  2
AmdtInternalReactor
  3
AcMeServices
 90
        0
280
     0
281
     0
  0
CLASS
  1
ACMESTATEMGR
  2
AcMeStateMgr
  3
AcMeServices
 90
        0
280
     0
281
     0
  0
CLASS
  1
ACME_DATABASE
  2
AcMeDbDatabase
  3
AcMeServices
 90
        0
280
     0
281
     0
  0
CLASS
  1
ACRFINSADJUSTERMGR
  2
AcRfInsAdjusterMgr
  3
AcMeServices
 90
        0
280
     0
281
     0
  0
CLASS
  1
ACMDATADICTIONARY
  2
AcmDataDictionary
  3
"AcmSymBB|Product Description: AutoCAD Mechanical 2000|Company: Autodesk"
 90
        0
280
     0
281
     0
  0
CLASS
  1
ACMDATAENTRYBLOCK
  2
AcmDataEntryBlock
  3
"AcmSymBB|Product Description: AutoCAD Mechanical 2000|Company: Autodesk"
 90
        0
280
     0
281
     0
  0
CLASS
  1
AMGOBJPROPCFG
  2
AmgObjPropCfg
  3
"AmgLay|Product Description: AutoCAD Mechanical 2000|Company: Autodesk"
 90
        1
280
     0
281
     0
  0
CLASS
  1
ACAMGFILTERDAT
  2
AcAmgFilterDat
  3
"AcadM|Product Description: AutoCAD Mechanical 2000|Company: Autodesk"
 90
        0
280
     0
281
     0
  0
CLASS
  1
LAYER_INDEX
  2
AcDbLayerIndex
  3
AutoCAD 2000
 90
        0
280
     0
281
     0
  0
CLASS
  1
IDBUFFER
  2
AcDbIdBuffer
  3
AutoCAD 2000
 90
        0
280
     0
281
     0
  0
CLASS
  1
ACIMSTRSYSVAR
  2
AcImStrSysVar
  3
AcMeServices
 90
        0
280
     0
281
     0
  0
CLASS
  1
ACMSTANDARDJIS
  2
AcmStandardJIS
  3
"AcmSymBB|Product Description: AutoCAD Mechanical 2000|Company: Autodesk"
 90
        0
280
     0
281
     0
  0
CLASS
  1
ACMSURFSTANDARDJIS
  2
AcmSurfTextStdJIS
  3
"AcmSymBB|Product Description: AutoCAD Mechanical 2000|Company: Autodesk"
 90
        0
280
     0
281
     0
  0
CLASS
  1
ACMFCFSTANDARDJIS
  2
AcmFCFStdJIS
  3
"AcmSymBB|Product Description: AutoCAD Mechanical 2000|Company: Autodesk"
 90
        0
280
     0
281
     0
  0
CLASS
  1
ACMWELDSTANDARDJIS
  2
AcmWeldingStdJIS
  3
"AcmSymBB|Product Description: AutoCAD Mechanical 2000|Company: Autodesk"
 90
        0
280
     0
281
     0
  0
CLASS
  1
ACMIDSTANDARDJIS
  2
AcmIdStdJIS
  3
"AcmSymBB|Product Description: AutoCAD Mechanical 2000|Company: Autodesk"
 90
        0
280
     0
281
     0
  0
CLASS
  1
ACMDATUMSTANDARDJIS
  2
AcmDatumStdJIS
  3
"AcmSymBB|Product Description: AutoCAD Mechanical 2000|Company: Autodesk"
 90
        0
280
     0
281
     0
  0
CLASS
  1
ACMBOMSTANDARDJIS
  2
AcmBOMStdJIS
  3
"AcmSymBB|Product Description: AutoCAD Mechanical 2000|Company: Autodesk"
 90
        0
280
     0
281
     0
  0
CLASS
  1
ACMSTANDARDANSI
  2
AcmStandardANSI
  3
"AcmSymBB|Product Description: AutoCAD Mechanical 2000|Company: Autodesk"
 90
        0
280
     0
281
     0
  0
CLASS
  1
ACMSURFSTANDARDANSI
  2
AcmSurfTextStdANSI
  3
"AcmSymBB|Product Description: AutoCAD Mechanical 2000|Company: Autodesk"
 90
        0
280
     0
281
     0
  0
CLASS
  1
ACMFCFSTANDARDANSI
  2
AcmFCFStdANSI
  3
"AcmSymBB|Product Description: AutoCAD Mechanical 2000|Company: Autodesk"
 90
        0
280
     0
281
     0
  0
CLASS
  1
ACMWELDSTANDARDANSI
  2
AcmWeldingStdANSI
  3
"AcmSymBB|Product Description: AutoCAD Mechanical 2000|Company: Autodesk"
 90
        0
280
     0
281
     0
  0
CLASS
  1
ACMIDSTANDARDANSI
  2
AcmIdStdANSI
  3
"AcmSymBB|Product Description: AutoCAD Mechanical 2000|Company: Autodesk"
 90
        0
280
     0
281
     0
  0
CLASS
  1
ACMDATUMSTANDARDANSI
  2
AcmDatumStdANSI
  3
"AcmSymBB|Product Description: AutoCAD Mechanical 2000|Company: Autodesk"
 90
        0
280
     0
281
     0
  0
CLASS
  1
ACMBOMSTANDARDANSI
  2
AcmBOMStdANSI
  3
"AcmSymBB|Product Description: AutoCAD Mechanical 2000|Company: Autodesk"
 90
        0
280
     0
281
     0
  0
CLASS
  1
ACMSTANDARDBSI
  2
AcmStandardBSI
  3
"AcmSymBB|Product Description: AutoCAD Mechanical 2000|Company: Autodesk"
 90
        0
280
     0
281
     0
  0
CLASS
  1
ACMSURFSTANDARDBSI
  2
AcmSurfTextStdBSI
  3
"AcmSymBB|Product Description: AutoCAD Mechanical 2000|Company: Autodesk"
 90
        0
280
     0
281
     0
  0
CLASS
  1
ACMFCFSTANDARDBSI
  2
AcmFCFStdBSI
  3
"AcmSymBB|Product Description: AutoCAD Mechanical 2000|Company: Autodesk"
 90
        0
280
     0
281
     0
  0
CLASS
  1
ACMWELDSTANDARDBSI
  2
AcmWeldingStdBSI
  3
"AcmSymBB|Product Description: AutoCAD Mechanical 2000|Company: Autodesk"
 90
        0
280
     0
281
     0
  0
CLASS
  1
ACMIDSTANDARDBSI
  2
AcmIdStdBSI
  3
"AcmSymBB|Product Description: AutoCAD Mechanical 2000|Company: Autodesk"
 90
        0
280
     0
281
     0
  0
CLASS
  1
ACMDATUMSTANDARDBSI
  2
AcmDatumStdBSI
  3
"AcmSymBB|Product Description: AutoCAD Mechanical 2000|Company: Autodesk"
 90
        0
280
     0
281
     0
  0
CLASS
  1
ACMBOMSTANDARDBSI
  2
AcmBOMStdBSI
  3
"AcmSymBB|Product Description: AutoCAD Mechanical 2000|Company: Autodesk"
 90
        0
280
     0
281
     0
  0
CLASS
  1
LONG_TRANSACTION
  2
AcDbLongTransaction
  3
AutoCAD 2000
 90
        0
280
     0
281
     0
  0
CLASS
  1
LWPOLYLINE
  2
AcDbPolyline
  3
AutoCAD 2000
 90
        0
280
     0
281
     1
  0
CLASS
  1
HATCH
  2
AcDbHatch
  3
AutoCAD 2000
 90
        0
280
     0
281
     1
  0
CLASS
  1
XRECORD
  2
AcDbXrecord
  3
AutoCAD 2000
 90
        0
280
     0
281
     0
  0
ENDSEC
  0
SECTION
  2
TABLES
  0
TABLE
  2
VPORT
  5
8
330
0
100
AcDbSymbolTable
 70
     3
  0
VPORT
  5
2ED8
330
8
100
AcDbSymbolTableRecord
100
AcDbViewportTableRecord
  2
*ACTIVE
 70
     0
 10
0.0
 20
0.0
 11
1.0
 21
1.0
 12
-73.33957924831063
 22
-9.764699564626056
 13
0.0
 23
0.0
 14
2.5
 24
2.5
 15
10.0
 25
10.0
 16
0.0
 26
0.0
 36
1.0
 17
0.0
 27
0.0
 37
0.0
 40
259.3539896979257
 41
1.56570841889117
 42
50.0
 43
0.0
 44
0.0
 50
0.0
 51
0.0
 71
     0
 72
   100
 73
     1
 74
     3
 75
     0
 76
     0
 77
     0
 78
     0
  0
ENDTAB
  0
TABLE
  2
LTYPE
  5
5
330
0
100
AcDbSymbolTable
 70
    10
  0
LTYPE
  5
14
330
5
100
AcDbSymbolTableRecord
100
AcDbLinetypeTableRecord
  2
BYBLOCK
 70
     0
  3

 72
    65
 73
     0
 40
0.0
  0
LTYPE
  5
15
330
5
100
AcDbSymbolTableRecord
100
AcDbLinetypeTableRecord
  2
BYLAYER
 70
     0
  3

 72
    65
 73
     0
 40
0.0
  0
LTYPE
  5
16
330
5
100
AcDbSymbolTableRecord
100
AcDbLinetypeTableRecord
  2
CONTINUOUS
 70
     0
  3
Solid line
 72
    65
 73
     0
 40
0.0
  0
LTYPE
  5
4B
330
5
100
AcDbSymbolTableRecord
100
AcDbLinetypeTableRecord
  2
AM_ISO02W050
 70
     0
  3
__ __ __ __ __ __ __ __ __ __ __ __ __ __ __
 72
    65
 73
     2
 40
7.5
 49
6.0
 74
     0
 49
-1.5
 74
     0
  0
LTYPE
  5
4C
330
5
100
AcDbSymbolTableRecord
100
AcDbLinetypeTableRecord
  2
AM_ISO08W050
 70
     0
  3
____ . ____ . ____ . ____ . ____ . ____ . ____
 72
    65
 73
     4
 40
18.0
 49
12.0
 74
     0
 49
-1.5
 74
     0
 49
3.0
 74
     0
 49
-1.5
 74
     0
  0
LTYPE
  5
4D
330
5
100
AcDbSymbolTableRecord
100
AcDbLinetypeTableRecord
  2
AM_ISO09W050
 70
     0
  3
_____ . . _____ . . _____ . . ____ .. ____
 72
    65
 73
     6
 40
22.5
 49
12.0
 74
     0
 49
-1.5
 74
     0
 49
3.0
 74
     0
 49
-1.5
 74
     0
 49
3.0
 74
     0
 49
-1.5
 74
     0
  0
LTYPE
  5
4E
330
5
100
AcDbSymbolTableRecord
100
AcDbLinetypeTableRecord
  2
AMCONSTR
 70
     0
  3
_______________________
 72
    65
 73
     2
 40
9999.0
 49
9999.0
 74
     0
 49
0.0
 74
     0
  0
LTYPE
  5
4F
330
5
100
AcDbSymbolTableRecord
100
AcDbLinetypeTableRecord
  2
AM_ISO02W050X2
 70
     0
  3
 _ _ _ _ _ _ _ _ _ _ _ _
 72
    65
 73
     2
 40
3.75
 49
3.0
 74
     0
 49
-0.75
 74
     0
  0
LTYPE
  5
50
330
5
100
AcDbSymbolTableRecord
100
AcDbLinetypeTableRecord
  2
AM_ISO08W050X2
 70
     0
  3
__ . __ . __ . __ . __ . __
 72
    65
 73
     4
 40
9.0
 49
6.0
 74
     0
 49
-0.75
 74
     0
 49
1.5
 74
     0
 49
-0.75
 74
     0
  0
LTYPE
  5
53
330
5
100
AcDbSymbolTableRecord
100
AcDbLinetypeTableRecord
  2
AMZIGZAG
 70
     0
  3
/\/-/\/-/\/-/\/-/\/-/\/
 72
    65
 73
     2
 40
11.00009999999999
 49
0.0001
 74
     4
 75
   135
340
52
 46
0.04
 50
0.0
 44
0.0
 45
0.0
 49
-11.0
 74
     0
  0
LTYPE
  5
166
330
5
100
AcDbSymbolTableRecord
100
AcDbLinetypeTableRecord
  2
ACJISTGL
 70
     0
  3
_ _ _ _ _
 72
    65
 73
     2
 40
3.0
 49
2.0
 74
     0
 49
-1.0
 74
     0
  0
LTYPE
  5
26A
330
5
100
AcDbSymbolTableRecord
100
AcDbLinetypeTableRecord
  2
ACJISTGB
 70
     0
  3
__ . . __ . .
 72
    65
 73
     6
 40
9.0
 49
4.0
 74
     0
 49
-1.0
 74
     0
 49
1.0
 74
     0
 49
-1.0
 74
     0
 49
1.0
 74
     0
 49
-1.0
 74
     0
  0
ENDTAB
  0
TABLE
  2
LAYER
  5
2
330
0
100
AcDbSymbolTable
 70
     8
  0
LAYER
  5
10
330
2
100
AcDbSymbolTableRecord
100
AcDbLayerTableRecord
  2
0
 70
     0
 62
     7
  6
CONTINUOUS
  0
LAYER
  5
3F9
330
2
100
AcDbSymbolTableRecord
100
AcDbLayerTableRecord
  2
AM_0
 70
     0
 62
     7
  6
CONTINUOUS
  0
LAYER
  5
BD6
330
2
100
AcDbSymbolTableRecord
100
AcDbLayerTableRecord
  2
AM_11
 70
     0
 62
     3
  6
AM_ISO09W050
  0
LAYER
  5
BD7
330
2
100
AcDbSymbolTableRecord
100
AcDbLayerTableRecord
  2
AM_7
 70
     0
 62
     4
  6
AM_ISO08W050
  0
LAYER
  5
BD8
330
2
100
AcDbSymbolTableRecord
100
AcDbLayerTableRecord
  2
AM_5
 70
     0
 62
     3
  6
CONTINUOUS
  0
LAYER
  5
BD9
330
2
100
AcDbSymbolTableRecord
100
AcDbLayerTableRecord
  2
DEFPOINTS
 70
     0
 62
     7
  6
CONTINUOUS
  0
LAYER
  5
BDA
330
2
100
AcDbSymbolTableRecord
100
AcDbLayerTableRecord
  2
AM_6
 70
     0
 62
     2
  6
CONTINUOUS
  0
LAYER
  5
26DC
330
2
100
AcDbSymbolTableRecord
100
AcDbLayerTableRecord
  2
AM_CL
 70
     0
 62
     1
  6
AMCONSTR
  0
ENDTAB
  0
TABLE
  2
STYLE
  5
3
330
0
100
AcDbSymbolTable
 70
     5
  0
STYLE
  5
11
330
3
100
AcDbSymbolTableRecord
100
AcDbTextStyleTableRecord
  2
STANDARD
 70
     0
 40
0.0
 41
1.0
 50
0.0
 71
     0
 42
2.5
  3
simplex.shx
  4
EXTFONT.SHX
  0
STYLE
  5
52
330
3
100
AcDbSymbolTableRecord
100
AcDbTextStyleTableRecord
  2

 70
     1
 40
0.0
 41
1.0
 50
0.0
 71
     0
 42
2.5
  3
ltypeshp.shx
  4

  0
STYLE
  5
6B
330
3
100
AcDbSymbolTableRecord
100
AcDbTextStyleTableRecord
  2
ASAMI
 70
     0
 40
0.0
 41
1.0
 50
0.0
 71
     0
 42
2.5
  3
simplex.shx
  4
EXTFONT.SHX
  0
STYLE
  5
262
330
3
100
AcDbSymbolTableRecord
100
AcDbTextStyleTableRecord
  2
ACJISTS
 70
     0
 40
1.0
 41
1.0
 50
0.0
 71
     0
 42
2.5
  3
simplex.shx
  4
bigfont.shx
  0
STYLE
  5
269
330
3
100
AcDbSymbolTableRecord
100
AcDbTextStyleTableRecord
  2
ACJISGDT
 70
     0
 40
0.0
 41
1.0
 50
0.0
 71
     0
 42
2.5
  3
amgdtans.shx
  4

  0
ENDTAB
  0
TABLE
  2
VIEW
  5
6
330
0
100
AcDbSymbolTable
 70
     0
  0
ENDTAB
  0
TABLE
  2
UCS
  5
7
330
0
100
AcDbSymbolTable
 70
     0
  0
ENDTAB
  0
TABLE
  2
APPID
  5
9
330
0
100
AcDbSymbolTable
 70
    13
  0
APPID
  5
12
330
9
100
AcDbSymbolTableRecord
100
AcDbRegAppTableRecord
  2
ACAD
 70
     0
  0
APPID
  5
30
330
9
100
AcDbSymbolTableRecord
100
AcDbRegAppTableRecord
  2
MCAD_NO_VIS
 70
     0
  0
APPID
  5
31
330
9
100
AcDbSymbolTableRecord
100
AcDbRegAppTableRecord
  2
ACAD_TEMP_GRAPHIC
 70
     0
  0
APPID
  5
2C2
330
9
100
AcDbSymbolTableRecord
100
AcDbRegAppTableRecord
  2
GENIUS_GENDTOL_13
 70
     0
  0
APPID
  5
339
330
9
100
AcDbSymbolTableRecord
100
AcDbRegAppTableRecord
  2
GENIUS_GENODEF_13
 70
     0
  0
APPID
  5
33A
330
9
100
AcDbSymbolTableRecord
100
AcDbRegAppTableRecord
  2
GENIUS_GENOBJ-N-RSBK_13
 70
     0
  0
APPID
  5
33B
330
9
100
AcDbSymbolTableRecord
100
AcDbRegAppTableRecord
  2
GENIUS_GENOBJ-N-LIB_13
 70
     0
  0
APPID
  5
33C
330
9
100
AcDbSymbolTableRecord
100
AcDbRegAppTableRecord
  2
GENIUS_GENSCALE_13
 70
     0
  0
APPID
  5
378
330
9
100
AcDbSymbolTableRecord
100
AcDbRegAppTableRecord
  2
GENIUS_GENDIMSH_14
 70
     0
  0
APPID
  5
BDB
330
9
100
AcDbSymbolTableRecord
100
AcDbRegAppTableRecord
  2
GENIUS_GENOBJ-N-CEN_13
 70
     0
  0
APPID
  5
BDC
330
9
100
AcDbSymbolTableRecord
100
AcDbRegAppTableRecord
  2
GENIUS_GENFIL_13
 70
     0
  0
APPID
  5
BDD
330
9
100
AcDbSymbolTableRecord
100
AcDbRegAppTableRecord
  2
GENIUS_GENOBJ-N-FIL_13
 70
     0
  0
APPID
  5
12AD
330
9
100
AcDbSymbolTableRecord
100
AcDbRegAppTableRecord
  2
GENIUS_GENOREF_13
 70
     0
  0
ENDTAB
  0
TABLE
  2
DIMSTYLE
  5
A
330
0
100
AcDbSymbolTable
 70
     8
  0
DIMSTYLE
105
58
102
{ACAD_REACTORS
330
2895
330
28E9
330
2904
330
2A25
102
}
330
A
100
AcDbSymbolTableRecord
100
AcDbDimStyleTableRecord
  2
AM_JIS
 70
     0
  3

  4
"
  5
OPEN30
  6

  7

 40
1.0
 41
2.5
 42
1.0
 43
12.0
 44
1.0
 45
0.0
 46
0.0
 47
0.1
 48
0.1
140
3.2
141
0.0
142
0.0
143
0.0393701
144
1.0
145
0.0
146
0.71
147
1.5
 71
     0
 72
     0
 73
     0
 74
     0
 75
     0
 76
     0
 77
     3
 78
     8
170
     0
171
     2
172
     1
173
     0
174
     0
175
     0
176
   256
177
   256
178
     2
270
     2
271
     3
272
     3
273
     2
274
     2
340
6B
275
     0
280
     0
281
     0
282
     0
283
     0
284
     0
285
     0
286
     0
287
     3
288
     0
  0
DIMSTYLE
105
5F
330
A
100
AcDbSymbolTableRecord
100
AcDbDimStyleTableRecord
  2
AM_JIS$3
 70
     0
  3

  4
"
  5
OPEN30
  6

  7

 40
1.0
 41
2.5
 42
1.0
 43
10.0
 44
1.0
 45
0.0
 46
0.0
 47
0.1
 48
0.1
140
3.2
141
0.0
142
0.0
143
0.0393701
144
1.0
145
0.0
146
0.71
147
1.5
 71
     0
 72
     0
 73
     0
 74
     1
 75
     0
 76
     0
 77
     3
 78
     8
170
     0
171
     2
172
     0
173
     0
174
     0
175
     0
176
   256
177
   256
178
     2
270
     2
271
     2
272
     3
273
     2
274
     2
340
6B
275
     0
280
     0
281
     0
282
     0
283
     0
284
     0
285
     0
286
     0
287
     0
288
     1
  0
DIMSTYLE
105
60
330
A
100
AcDbSymbolTableRecord
100
AcDbDimStyleTableRecord
  2
AM_JIS$4
 70
     0
  3

  4
"
  5
OPEN30
  6

  7

 40
1.0
 41
2.5
 42
1.0
 43
10.0
 44
1.0
 45
0.0
 46
0.0
 47
0.1
 48
0.1
140
3.2
141
0.0
142
0.0
143
0.0393701
144
1.0
145
0.0
146
0.71
147
1.5
 71
     0
 72
     0
 73
     0
 74
     1
 75
     0
 76
     0
 77
     3
 78
     8
170
     0
171
     2
172
     0
173
     0
174
     0
175
     0
176
   256
177
   256
178
     2
270
     2
271
     2
272
     3
273
     2
274
     2
340
6B
275
     0
280
     0
281
     0
282
     0
283
     0
284
     0
285
     0
286
     0
287
     0
288
     1
  0
DIMSTYLE
105
61
330
A
100
AcDbSymbolTableRecord
100
AcDbDimStyleTableRecord
  2
AM_JIS$6
 70
     0
  3

  4
"
  5
OPEN30
  6

  7

 40
1.0
 41
2.5
 42
1.0
 43
10.0
 44
1.0
 45
0.0
 46
0.0
 47
0.1
 48
0.1
140
3.2
141
0.0
142
0.0
143
0.0393701
144
1.0
145
0.0
146
0.71
147
1.5
 71
     0
 72
     0
 73
     0
 74
     0
 75
     0
 76
     0
 77
     0
 78
     8
170
     0
171
     2
172
     1
173
     0
174
     0
175
     0
176
   256
177
   256
178
     2
270
     2
271
     2
272
     2
273
     2
274
     2
340
6B
275
     0
280
     0
281
     0
282
     0
283
     0
284
     0
285
     0
286
     0
287
     3
288
     0
  0
DIMSTYLE
105
62
330
A
100
AcDbSymbolTableRecord
100
AcDbDimStyleTableRecord
  2
AM_JIS$7
 70
     0
  3

  4
"
  5
OPEN30
  6

  7

 40
1.0
 41
2.5
 42
1.0
 43
10.0
 44
1.0
 45
0.0
 46
0.0
 47
0.1
 48
0.1
140
3.2
141
0.0
142
0.0
143
0.0393701
144
1.0
145
0.0
146
0.71
147
1.5
 71
     0
 72
     0
 73
     0
 74
     0
 75
     0
 76
     0
 77
     3
 78
     8
170
     0
171
     2
172
     1
173
     0
174
     0
175
     0
176
   256
177
   256
178
     2
270
     2
271
     2
272
     3
273
     2
274
     2
340
6B
275
     0
280
     0
281
     0
282
     0
283
     0
284
     0
285
     0
286
     0
287
     3
288
     0
  0
DIMSTYLE
105
63
330
A
100
AcDbSymbolTableRecord
100
AcDbDimStyleTableRecord
  2
AM_JIS$SF
 70
     0
  3

  4
"
  5
OPEN30
  6

  7

 40
1.0
 41
2.5
 42
1.0
 43
10.0
 44
1.0
 45
0.0
 46
0.0
 47
0.1
 48
0.1
140
3.2
141
0.0
142
0.0
143
0.0393701
144
1.0
145
0.0
146
0.71
147
1.5
 71
     0
 72
     0
 73
     0
 74
     0
 75
     1
 76
     1
 77
     3
 78
     8
170
     0
171
     2
172
     1
173
     0
174
     0
175
     0
176
   256
177
   256
178
     2
270
     2
271
     2
272
     2
273
     2
274
     2
340
6B
275
     0
280
     0
281
     0
282
     0
283
     0
284
     0
285
     0
286
     0
287
     3
288
     0
  0
DIMSTYLE
105
68
330
A
100
AcDbSymbolTableRecord
100
AcDbDimStyleTableRecord
  2
AM_JIS$SH
 70
     0
  3

  4
"
  5

  6
GENAXEH
  7
OPEN30
 40
1.0
 41
2.5
 42
1.0
 43
10.0
 44
1.0
 45
0.0
 46
0.0
 47
0.1
 48
0.1
140
3.2
141
0.0
142
0.0
143
0.0393701
144
2.0
145
0.0
146
0.71
147
1.5
 71
     0
 72
     0
 73
     0
 74
     0
 75
     1
 76
     1
 77
     3
 78
     8
170
     0
171
     2
172
     1
173
     1
174
     0
175
     0
176
   256
177
   256
178
     2
270
     2
271
     2
272
     2
273
     2
274
     2
340
6B
275
     0
280
     0
281
     0
282
     0
283
     0
284
     0
285
     0
286
     0
287
     3
288
     0
  0
DIMSTYLE
105
B34
330
A
100
AcDbSymbolTableRecord
100
AcDbDimStyleTableRecord
  2
AM_JIS$2
 70
     0
  3

  4
"
  5
OPEN30
  6

  7

 40
1.0
 41
2.5
 42
1.0
 43
12.0
 44
1.0
 45
0.0
 46
0.0
 47
0.1
 48
0.1
140
3.2
141
0.0
142
0.0
143
0.0393701
144
1.0
145
0.0
146
0.71
147
1.5
 71
     0
 72
     0
 73
     0
 74
     0
 75
     0
 76
     0
 77
     3
 78
     8
170
     0
171
     2
172
     1
173
     0
174
     0
175
     0
176
   256
177
   256
178
     2
270
     2
271
     3
272
     3
273
     2
274
     2
340
6B
275
     0
280
     0
281
     0
282
     0
283
     0
284
     0
285
     0
286
     0
287
     3
288
     0
  0
ENDTAB
  0
TABLE
  2
BLOCK_RECORD
  5
1
330
0
100
AcDbSymbolTable
 70
    10
  0
BLOCK_RECORD
  5
1F
102
{ACAD_XDICTIONARY
360
74
102
}
330
1
100
AcDbSymbolTableRecord
100
AcDbBlockTableRecord
  2
*MODEL_SPACE
  0
BLOCK_RECORD
  5
101
102
{ACAD_XDICTIONARY
360
2F01
102
}
330
1
100
AcDbSymbolTableRecord
100
AcDbBlockTableRecord
  2
*PAPER_SPACE
  0
BLOCK_RECORD
  5
59
330
1
100
AcDbSymbolTableRecord
100
AcDbBlockTableRecord
  2
_OPEN30
  0
BLOCK_RECORD
  5
64
330
1
100
AcDbSymbolTableRecord
100
AcDbBlockTableRecord
  2
GENAXEH
  0
BLOCK_RECORD
  5
2896
330
1
100
AcDbSymbolTableRecord
100
AcDbBlockTableRecord
  2
*D5
  0
BLOCK_RECORD
  5
28EA
330
1
100
AcDbSymbolTableRecord
100
AcDbBlockTableRecord
  2
*D6
  0
BLOCK_RECORD
  5
2905
330
1
100
AcDbSymbolTableRecord
100
AcDbBlockTableRecord
  2
*D7
  0
BLOCK_RECORD
  5
2A26
330
1
100
AcDbSymbolTableRecord
100
AcDbBlockTableRecord
  2
*D8
  0
ENDTAB
  0
ENDSEC
  0
SECTION
  2
BLOCKS
  0
BLOCK
  5
20
330
1F
100
AcDbEntity
  8
0
100
AcDbBlockBegin
  2
*MODEL_SPACE
 70
     0
 10
0.0
 20
0.0
 30
0.0
  3
*MODEL_SPACE
  1

  0
ENDBLK
  5
21
330
1F
100
AcDbEntity
  8
0
100
AcDbBlockEnd
  0
BLOCK
  5
103
330
101
100
AcDbEntity
 67
     1
  8
0
100
AcDbBlockBegin
  2
*PAPER_SPACE
 70
     0
 10
0.0
 20
0.0
 30
0.0
  3
*PAPER_SPACE
  1

  0
ENDBLK
  5
104
330
101
100
AcDbEntity
 67
     1
  8
0
100
AcDbBlockEnd
  0
BLOCK
  5
5D
330
59
100
AcDbEntity
  8
0
100
AcDbBlockBegin
  2
_OPEN30
 70
     0
 10
0.0
 20
0.0
 30
0.0
  3
_OPEN30
  1

  0
LINE
  5
5A
330
59
100
AcDbEntity
  8
0
 62
     0
100
AcDbLine
 10
-1.0
 20
0.26794919
 30
0.0
 11
0.0
 21
0.0
 31
0.0
  0
LINE
  5
5B
330
59
100
AcDbEntity
  8
0
 62
     0
100
AcDbLine
 10
0.0
 20
0.0
 30
0.0
 11
-1.0
 21
-0.26794919
 31
0.0
  0
LINE
  5
5C
330
59
100
AcDbEntity
  8
0
 62
     0
100
AcDbLine
 10
0.0
 20
0.0
 30
0.0
 11
-1.0
 21
0.0
 31
0.0
  0
ENDBLK
  5
5E
330
59
100
AcDbEntity
  8
0
100
AcDbBlockEnd
  0
BLOCK
  5
66
330
64
100
AcDbEntity
  8
0
100
AcDbBlockBegin
  2
GENAXEH
 70
     0
 10
0.0
 20
0.0
 30
0.0
  3
GENAXEH
  1

  0
LINE
  5
65
330
64
100
AcDbEntity
  8
0
100
AcDbLine
 10
-1.0
 20
0.0
 30
0.0
 11
1.0
 21
0.0
 31
0.0
  0
ENDBLK
  5
67
330
64
100
AcDbEntity
  8
0
100
AcDbBlockEnd
  0
BLOCK
  5
28A0
330
2896
100
AcDbEntity
  8
0
100
AcDbBlockBegin
  2
*D5
 70
     1
 10
0.0
 20
0.0
 30
0.0
  3
*D5
  1

  0
LINE
  5
2D1D
330
2896
100
AcDbEntity
  8
AM_5
100
AcDbLine
 10
0.9999999999999456
 20
9.999999999999996
 30
0.0
 11
19.61718915779354
 21
9.999999999999991
 31
0.0
  0
LINE
  5
2D1E
330
2896
100
AcDbEntity
  8
AM_5
100
AcDbLine
 10
0.9999999999996443
 20
-10.00000000002492
 30
0.0
 11
19.61718915779353
 21
-10.00000000002492
 31
0.0
  0
LINE
  5
2D1F
330
2896
100
AcDbEntity
  8
AM_5
100
AcDbLine
 10
18.61718915779354
 20
7.49999999999999
 30
0.0
 11
18.61718915779354
 21
-7.500000000024924
 31
0.0
  0
INSERT
  5
2D20
330
2896
100
AcDbEntity
  8
AM_5
100
AcDbBlockReference
  2
_OPEN30
 10
18.61718915779354
 20
9.999999999999991
 30
0.0
 41
2.5
 42
2.5
 43
2.5
 50
90.0
  0
INSERT
  5
2D21
330
2896
100
AcDbEntity
  8
AM_5
100
AcDbBlockReference
  2
_OPEN30
 10
18.61718915779354
 20
-10.00000000002492
 30
0.0
 41
2.5
 42
2.5
 43
2.5
 50
270.0
  0
MTEXT
  5
2D22
330
2896
100
AcDbEntity
  8
AM_5
 62
     2
100
AcDbMText
 10
15.51718915779354
 20
-0.0000000000124637
 30
0.0
 40
3.2
 41
0.0
 71
     5
 72
     1
  1
%%c20
  7
ASAMI
 11
0.0000000000000001
 21
1.0
 31
0.0
1001
ACAD
1000
MTEXTBEGIN
1070
    73
1070
     1
1070
    44
1040
1.0
1070
    74
1070
     0
1000
MTEXTEND
  0
POINT
  5
2D23
330
2896
100
AcDbEntity
  8
DEFPOINTS
 62
     0
100
AcDbPoint
 10
-0.0000000000000543
 20
9.999999999999996
 30
0.0
  0
POINT
  5
2D24
330
2896
100
AcDbEntity
  8
DEFPOINTS
 62
     0
100
AcDbPoint
 10
-0.0000000000003556
 20
-10.00000000002492
 30
0.0
  0
POINT
  5
2D25
330
2896
100
AcDbEntity
  8
DEFPOINTS
 62
     0
100
AcDbPoint
 10
18.61718915779354
 20
-10.00000000002492
 30
0.0
  0
ENDBLK
  5
28A1
330
2896
100
AcDbEntity
  8
0
100
AcDbBlockEnd
  0
BLOCK
  5
28F4
330
28EA
100
AcDbEntity
  8
0
100
AcDbBlockBegin
  2
*D6
 70
     1
 10
0.0
 20
0.0
 30
0.0
  3
*D6
  1

  0
LINE
  5
2D43
330
28EA
100
AcDbEntity
  8
AM_5
100
AcDbLine
 10
-164.94
 20
-9.999999999999998
 30
0.0
 11
-185.4117942149661
 21
-9.999999999999992
 31
0.0
  0
LINE
  5
2D44
330
28EA
100
AcDbEntity
  8
AM_5
100
AcDbLine
 10
-164.94
 20
10.0
 30
0.0
 11
-185.4117942149661
 21
10.0
 31
0.0
  0
LINE
  5
2D45
330
28EA
100
AcDbEntity
  8
AM_5
100
AcDbLine
 10
-184.4117942149661
 20
-7.499999999999992
 30
0.0
 11
-184.4117942149661
 21
7.500000000000005
 31
0.0
  0
INSERT
  5
2D46
330
28EA
100
AcDbEntity
  8
AM_5
100
AcDbBlockReference
  2
_OPEN30
 10
-184.4117942149661
 20
-9.999999999999992
 30
0.0
 41
2.5
 42
2.5
 43
2.5
 50
270.0
  0
INSERT
  5
2D47
330
28EA
100
AcDbEntity
  8
AM_5
100
AcDbBlockReference
  2
_OPEN30
 10
-184.4117942149661
 20
10.0
 30
0.0
 41
2.5
 42
2.5
 43
2.5
 50
90.0
  0
MTEXT
  5
2D48
330
28EA
100
AcDbEntity
  8
AM_5
 62
     2
100
AcDbMText
 10
-187.5117942149661
 20
-0.0000000000000185
 30
0.0
 40
3.2
 41
0.0
 71
     5
 72
     1
  1
%%c20
  7
ASAMI
 11
0.0000000000000001
 21
1.0
 31
0.0
1001
ACAD
1000
MTEXTBEGIN
1070
    73
1070
     1
1070
    44
1040
1.0
1070
    74
1070
     0
1000
MTEXTEND
  0
POINT
  5
2D49
330
28EA
100
AcDbEntity
  8
DEFPOINTS
 62
     0
100
AcDbPoint
 10
-163.94
 20
-10.0
 30
0.0
  0
POINT
  5
2D4A
330
28EA
100
AcDbEntity
  8
DEFPOINTS
 62
     0
100
AcDbPoint
 10
-163.94
 20
9.999999999999998
 30
0.0
  0
POINT
  5
2D4B
330
28EA
100
AcDbEntity
  8
DEFPOINTS
 62
     0
100
AcDbPoint
 10
-184.4117942149661
 20
10.0
 30
0.0
  0
ENDBLK
  5
28F5
330
28EA
100
AcDbEntity
  8
0
100
AcDbBlockEnd
  0
BLOCK
  5
290F
330
2905
100
AcDbEntity
  8
0
100
AcDbBlockBegin
  2
*D7
 70
     1
 10
0.0
 20
0.0
 30
0.0
  3
*D7
  1

  0
LINE
  5
2D4C
330
2905
100
AcDbEntity
  8
AM_5
100
AcDbLine
 10
-165.0
 20
-8.499999999999991
 30
0.0
 11
-165.0
 21
-37.00000099999934
 31
0.0
  0
LINE
  5
2D4D
330
2905
100
AcDbEntity
  8
AM_5
100
AcDbLine
 10
-0.0000000000000545
 20
-11.00000000002636
 30
0.0
 11
-0.0000000000000561
 21
-37.00000099999934
 31
0.0
  0
LINE
  5
2D4E
330
2905
100
AcDbEntity
  8
AM_5
100
AcDbLine
 10
-162.5
 20
-36.00000099999934
 30
0.0
 11
-2.500000000000055
 21
-36.00000099999934
 31
0.0
  0
INSERT
  5
2D4F
330
2905
100
AcDbEntity
  8
AM_5
100
AcDbBlockReference
  2
_OPEN30
 10
-165.0
 20
-36.00000099999934
 30
0.0
 41
2.5
 42
2.5
 43
2.5
 50
180.0
  0
INSERT
  5
2D50
330
2905
100
AcDbEntity
  8
AM_5
100
AcDbBlockReference
  2
_OPEN30
 10
-0.000000000000056
 20
-36.00000099999934
 30
0.0
 41
2.5
 42
2.5
 43
2.5
  0
MTEXT
  5
2D51
330
2905
100
AcDbEntity
  8
AM_5
 62
     2
100
AcDbMText
 10
-82.50000000000005
 20
-32.90000099999934
 30
0.0
 40
3.2
 41
0.0
 71
     5
 72
     1
  1
165
  7
ASAMI
1001
ACAD
1000
MTEXTBEGIN
1070
    73
1070
     1
1070
    44
1040
1.0
1070
    74
1070
     0
1000
MTEXTEND
  0
POINT
  5
2D52
330
2905
100
AcDbEntity
  8
DEFPOINTS
 62
     0
100
AcDbPoint
 10
-165.0
 20
-7.499999999999991
 30
0.0
  0
POINT
  5
2D53
330
2905
100
AcDbEntity
  8
DEFPOINTS
 62
     0
100
AcDbPoint
 10
-0.0000000000000544
 20
-10.00000000002636
 30
0.0
  0
POINT
  5
2D54
330
2905
100
AcDbEntity
  8
DEFPOINTS
 62
     0
100
AcDbPoint
 10
-0.000000000000056
 20
-36.00000099999934
 30
0.0
  0
ENDBLK
  5
2910
330
2905
100
AcDbEntity
  8
0
100
AcDbBlockEnd
  0
BLOCK
  5
2A30
330
2A26
100
AcDbEntity
  8
0
100
AcDbBlockBegin
  2
*D8
 70
     1
 10
0.0
 20
0.0
 30
0.0
  3
*D8
  1

  0
LINE
  5
2D56
330
2A26
100
AcDbEntity
  8
AM_5
100
AcDbLine
 10
-85.00081679616631
 20
-11.00000000000008
 30
0.0
 11
-85.00081679616631
 21
-25.00000100000153
 31
0.0
  0
LINE
  5
2D57
330
2A26
100
AcDbEntity
  8
AM_5
100
AcDbLine
 10
-0.0003804425583138
 20
-11.00000000002636
 30
0.0
 11
-0.0003804425583147
 21
-25.00000100000153
 31
0.0
  0
LINE
  5
2D58
330
2A26
100
AcDbEntity
  8
AM_5
100
AcDbLine
 10
-82.50081679616631
 20
-24.00000100000153
 30
0.0
 11
-2.500380442558314
 21
-24.00000100000153
 31
0.0
  0
INSERT
  5
2D59
330
2A26
100
AcDbEntity
  8
AM_5
100
AcDbBlockReference
  2
_OPEN30
 10
-85.00081679616631
 20
-24.00000100000153
 30
0.0
 41
2.5
 42
2.5
 43
2.5
 50
180.0
  0
INSERT
  5
2D5A
330
2A26
100
AcDbEntity
  8
AM_5
100
AcDbBlockReference
  2
_OPEN30
 10
-0.0003804425583146
 20
-24.00000100000153
 30
0.0
 41
2.5
 42
2.5
 43
2.5
  0
MTEXT
  5
2D5B
330
2A26
100
AcDbEntity
  8
AM_5
 62
     2
100
AcDbMText
 10
-42.50059861936231
 20
-20.90000100000153
 30
0.0
 40
3.2
 41
0.0
 71
     5
 72
     1
  1
85
  7
ASAMI
1001
ACAD
1000
MTEXTBEGIN
1070
    73
1070
     1
1070
    44
1040
1.0
1070
    74
1070
     0
1000
MTEXTEND
  0
POINT
  5
2D5C
330
2A26
100
AcDbEntity
  8
DEFPOINTS
 62
     0
100
AcDbPoint
 10
-85.00081679616631
 20
-10.00000000000008
 30
0.0
  0
POINT
  5
2D5D
330
2A26
100
AcDbEntity
  8
DEFPOINTS
 62
     0
100
AcDbPoint
 10
-0.0003804425583138
 20
-10.00000000002636
 30
0.0
  0
POINT
  5
2D5E
330
2A26
100
AcDbEntity
  8
DEFPOINTS
 62
     0
100
AcDbPoint
 10
-0.0003804425583146
 20
-24.00000100000153
 30
0.0
  0
ENDBLK
  5
2A31
330
2A26
100
AcDbEntity
  8
0
100
AcDbBlockEnd
  0
ENDSEC
  0
SECTION
  2
ENTITIES
  0
TEXT
  5
C58
330
1F
100
AcDbEntity
  8
AM_6
100
AcDbText
 10
-106.4285714285714
 20
-58.50000099999943
 30
0.0
 40
5.0
  1
EHHM8200ZX
 50
0.0000000000002036
 72
     4
 11
-82.50000000000005
 21
-56.00000099999935
 31
0.0
100
AcDbText
  0
DIMENSION
  5
2895
330
1F
100
AcDbEntity
  8
AM_5
100
AcDbDimension
  2
*D5
 10
18.61718915779354
 20
-10.00000000002492
 30
0.0
 11
15.51718915779354
 21
-0.0000000000124637
 31
0.0
 70
    32
  1
%%c<>
  3
AM_JIS
100
AcDbAlignedDimension
 13
-0.0000000000000543
 23
9.999999999999996
 33
0.0
 14
-0.0000000000003556
 24
-10.00000000002492
 34
0.0
 50
90.0
100
AcDbRotatedDimension
1001
GENIUS_GENDTOL_13
1000

1000
h7
1000

1040
0.0
  0
LINE
  5
28E4
330
1F
100
AcDbEntity
  8
AM_0
100
AcDbLine
 10
-165.0
 20
7.500000000000007
 30
0.0
 11
-163.94
 21
9.999999999999996
 31
0.0
1001
GENIUS_GENFIL_13
1070
     0
1040
0.5
1040
0.5
1040
0.4999999999999716
1040
45.0
1002
{
1002
}
  0
LINE
  5
28E6
330
1F
100
AcDbEntity
  8
AM_0
100
AcDbLine
 10
-165.0
 20
-7.499999999999991
 30
0.0
 11
-163.94
 21
-9.999999999999991
 31
0.0
1001
GENIUS_GENFIL_13
1070
     0
1040
0.5
1040
0.5
1040
0.4999999999999716
1040
45.00000000000036
1002
{
1002
}
  0
LINE
  5
28E7
330
1F
100
AcDbEntity
  8
0
100
AcDbLine
 10
-163.94
 20
-9.999999999999991
 30
0.0
 11
-163.94
 21
9.999999999999996
 31
0.0
  0
LINE
  5
28E8
330
1F
100
AcDbEntity
  8
AM_0
100
AcDbLine
 10
-165.0
 20
-7.499999999999991
 30
0.0
 11
-165.0
 21
7.500000000000007
 31
0.0
  0
DIMENSION
  5
28E9
330
1F
100
AcDbEntity
  8
AM_5
100
AcDbDimension
  2
*D6
 10
-184.4117942149661
 20
10.0
 30
0.0
 11
-184.4117942149661
 21
-0.0000000000000189
 31
0.0
 70
   160
  1
%%c<>
  3
AM_JIS
100
AcDbAlignedDimension
 13
-163.94
 23
-10.0
 33
0.0
 14
-163.94
 24
9.999999999999998
 34
0.0
 50
270.0
100
AcDbRotatedDimension
1001
ACAD
1000
DSTYLE
1002
{
1070
    48
1040
0.1
1070
    47
1040
0.1
1070
   274
1070
     2
1070
   272
1070
     3
1002
}
1001
GENIUS_GENDTOL_13
1000

1000
h6
1000

1040
0.0
  0
LINE
  5
28F6
330
1F
100
AcDbEntity
  8
AM_0
100
AcDbLine
 10
-163.94
 20
9.999999999999996
 30
0.0
 11
-100.8492568218492
 21
9.999999999999996
 31
0.0
1001
GENIUS_GENODEF_13
1002
{
1000
HIER
1070
     0
1002
}
1002
{
1000
MANEDIT
1070
     0
1002
}
1002
{
1000
NOSEL
1070
     0
1002
}
1002
{
1000
BEHIND
1070
     0
1002
}
1002
{
1000
REACTOR
1002
}
1001
GENIUS_GENOBJ-N-CEN_13
1002
{
1000
OWNER
1000
GEN
1002
}
  0
LINE
  5
28F7
330
1F
100
AcDbEntity
  8
AM_0
100
AcDbLine
 10
-163.94
 20
-9.999999999999991
 30
0.0
 11
-87.2502410167446
 21
-9.999999999999991
 31
0.0
1001
GENIUS_GENODEF_13
1002
{
1000
HIER
1070
     0
1002
}
1002
{
1000
MANEDIT
1070
     0
1002
}
1002
{
1000
NOSEL
1070
     0
1002
}
1002
{
1000
BEHIND
1070
     0
1002
}
1002
{
1000
REACTOR
1002
}
1001
GENIUS_GENOBJ-N-CEN_13
1002
{
1000
OWNER
1000
GEN
1002
}
  0
LINE
  5
28F8
330
1F
100
AcDbEntity
  8
AM_7
100
AcDbLine
 10
-170.4117932149659
 20
-0.0000000000000036
 30
0.0
 11
4.61718815779341
 21
-0.0000000000000036
 31
0.0
1001
GENIUS_GENODEF_13
1002
{
1000
HIER
1070
     0
1002
}
1002
{
1000
MANEDIT
1070
     0
1002
}
1002
{
1000
NOSEL
1070
     0
1002
}
1002
{
1000
BEHIND
1070
     0
1002
}
1002
{
1000
REACTOR
1002
}
1001
GENIUS_GENOBJ-N-CEN_13
1002
{
1000
OWNER
1000
GEN
1002
}
  0
DIMENSION
  5
2904
330
1F
100
AcDbEntity
  8
AM_5
100
AcDbDimension
  2
*D7
 10
-0.000000000000056
 20
-36.00000099999934
 30
0.0
 11
-82.50000000000005
 21
-32.90000099999934
 31
0.0
 70
    32
  1
<>
  3
AM_JIS
100
AcDbAlignedDimension
 13
-165.0
 23
-7.499999999999991
 33
0.0
 14
-0.0000000000000544
 24
-10.00000000002636
 34
0.0
 50
0.0000000000003201
100
AcDbRotatedDimension
1001
GENIUS_GENDTOL_13
1000

1000
H7
1000

1040
0.0
  0
DIMENSION
  5
2A25
330
1F
100
AcDbEntity
  8
AM_5
100
AcDbDimension
  2
*D8
 10
-0.0003804425583146
 20
-24.00000100000153
 30
0.0
 11
-42.50059861936231
 21
-20.90000100000153
 31
0.0
 70
    32
  1
<>
  3
AM_JIS
100
AcDbAlignedDimension
 13
-85.00081679616631
 23
-10.00000000000008
 33
0.0
 14
-0.0003804425583138
 24
-10.00000000002636
 34
0.0
 50
359.9999999999992
100
AcDbRotatedDimension
1001
GENIUS_GENDTOL_13
1000

1000
H7
1000

1040
0.0
  0
LINE
  5
2D55
330
1F
100
AcDbEntity
  8
AM_11
 48
0.5
100
AcDbLine
 10
-85.00081679616634
 20
10.00661353877754
 30
0.0
 11
-85.00081679616631
 21
-9.993386461222454
 31
0.0
  0
LINE
  5
2E29
330
1F
100
AcDbEntity
  8
AM_0
100
AcDbLine
 10
-0.6026624261627687
 20
10.00661353877923
 30
0.0
 11
-0.0003804425583144
 21
9.900817350354049
 31
0.0
  0
SPLINE
  5
2E2A
330
1F
100
AcDbEntity
  8
AM_0
100
AcDbSpline
210
0.0
220
0.0
230
1.0
 70
     8
 71
     3
 72
     8
 73
     4
 74
     0
 42
0.0000000001
 43
0.0000000001
 40
0.0
 40
0.0
 40
0.0
 40
0.0
 40
0.5596836519003795
 40
0.5596836519003795
 40
0.5596836519003795
 40
0.5596836519003795
 10
-0.6026624261536391
 20
10.00661353877753
 30
0.0
 10
-0.6381774518874455
 20
9.635172326686774
 30
0.0
 10
-1.04449568768265
 20
9.143832195604449
 30
0.0
 10
-1.490558373291146
 20
8.779797583080513
 30
0.0
  0
LINE
  5
2E2B
330
1F
100
AcDbEntity
  8
AM_0
100
AcDbLine
 10
-0.6026624261627687
 20
7.270748617630281
 30
0.0
 11
-0.0003804425583144
 21
7.270748617630281
 31
0.0
  0
LINE
  5
2E2C
330
1F
100
AcDbEntity
  8
AM_0
100
AcDbLine
 10
-2.616697382083568
 20
5.138537962870165
 30
0.0
 11
-2.616697382083568
 21
6.220623656575886
 31
0.0
  0
SPLINE
  5
2E2D
330
1F
100
AcDbEntity
  8
AM_0
100
AcDbSpline
210
0.0
220
0.0
230
1.0
 70
     8
 71
     3
 72
     8
 73
     4
 74
     0
 42
0.0000000001
 43
0.0000000001
 40
0.0
 40
0.0
 40
0.0
 40
0.0
 40
1.132300688333841
 40
1.132300688333841
 40
1.132300688333841
 40
1.132300688333841
 10
-0.6026624261627687
 20
7.270748617630281
 30
0.0
 10
-0.7992572381230201
 20
6.541730661532808
 30
0.0
 10
-1.858959265853551
 20
6.220623656575886
 30
0.0
 10
-2.616697382083568
 20
6.220623656575886
 30
0.0
  0
LINE
  5
2E2E
330
1F
100
AcDbEntity
  8
AM_0
100
AcDbLine
 10
-0.0003804425583144
 20
7.270748617630281
 30
0.0
 11
-0.296901038211446
 21
8.219054995051369
 31
0.0
  0
SPLINE
  5
2E2F
330
1F
100
AcDbEntity
  8
AM_0
100
AcDbSpline
210
0.0
220
0.0
230
1.0
 70
     8
 71
     3
 72
     8
 73
     4
 74
     0
 42
0.0000000001
 43
0.0000000001
 40
0.0
 40
0.0
 40
0.0
 40
0.0
 40
1.707928658540872
 40
1.707928658540872
 40
1.707928658540872
 40
1.707928658540872
 10
-0.6026624261536391
 20
10.00661353877753
 30
0.0
 10
-1.745612048733108
 20
10.00661353877753
 30
0.0
 10
-2.839306372719008
 20
9.838238099217068
 30
0.0
 10
-3.892784126272672
 20
9.532385415229914
 30
0.0
  0
SPLINE
  5
2E30
330
1F
100
AcDbEntity
  8
AM_0
100
AcDbSpline
210
0.0
220
0.0
230
1.0
 70
     8
 71
     3
 72
     8
 73
     4
 74
     0
 42
0.0000000001
 43
0.0000000001
 40
0.0
 40
0.0
 40
0.0
 40
0.0
 40
3.208811545131809
 40
3.208811545131809
 40
3.208811545131809
 40
3.208811545131809
 10
-6.290985395923968
 20
9.780280621310016
 30
0.0
 10
-4.14364163768331
 20
9.780280621310016
 30
0.0
 10
-2.165144446738056
 20
9.191801098943319
 30
0.0
 10
-0.296901038211446
 20
8.219054995051369
 30
0.0
  0
LINE
  5
2E31
330
1F
100
AcDbEntity
  8
AM_0
100
AcDbLine
 10
-0.0003804425583144
 20
0.0066135387775332
 30
0.0
 11
-2.704567339504353
 21
0.0066135387775332
 31
0.0
  0
LINE
  5
2E32
330
1F
100
AcDbEntity
  8
AM_0
100
AcDbLine
 10
-0.0003804425583144
 20
2.350995133069678
 30
0.0
 11
-0.174027324947374
 21
1.705391573315201
 31
0.0
  0
LINE
  5
2E33
330
1F
100
AcDbEntity
  8
AM_0
100
AcDbLine
 10
-0.0003804425583144
 20
0.05951163299007
 30
0.0
 11
-0.2715912006166385
 21
2.630132770248242
 31
0.0
  0
LINE
  5
2E34
330
1F
100
AcDbEntity
  8
AM_0
100
AcDbLine
 10
-0.0003804425583144
 20
2.350995133069449
 30
0.0
 11
-0.0003804425583144
 21
9.900817350354049
 31
0.0
  0
LINE
  5
2E35
330
1F
100
AcDbEntity
  8
AM_0
100
AcDbLine
 10
-2.616697382083568
 20
6.220623656575886
 30
0.0
 11
-0.9738098415955276
 21
3.381249670330493
 31
0.0
  0
LINE
  5
2E36
330
1F
100
AcDbEntity
  8
AM_0
100
AcDbLine
 10
-0.2715912006166385
 20
2.630132770248242
 30
0.0
 11
-2.616697382083568
 21
5.138537962870165
 31
0.0
  0
SPLINE
  5
2E37
330
1F
100
AcDbEntity
  8
AM_0
100
AcDbSpline
210
0.0
220
0.0
230
1.0
 70
     8
 71
     3
 72
     8
 73
     4
 74
     0
 42
0.0000000001
 43
0.0000000001
 40
0.0
 40
0.0
 40
0.0
 40
0.0
 40
1.707928658540872
 40
1.707928658540872
 40
1.707928658540872
 40
1.707928658540872
 10
-8.482518378313967
 20
10.00661353877753
 30
0.0
 10
-9.625468000893439
 20
10.00661353877753
 30
0.0
 10
-10.71916232487933
 20
9.838238099217072
 30
0.0
 10
-11.772640078433
 20
9.532385415229917
 30
0.0
  0
SPLINE
  5
2E38
330
1F
100
AcDbEntity
  8
AM_0
100
AcDbSpline
210
0.0
220
0.0
230
1.0
 70
     8
 71
     3
 72
     8
 73
     4
 74
     0
 42
0.0000000001
 43
0.0000000001
 40
0.0
 40
0.0
 40
0.0
 40
0.0
 40
4.323648603744882
 40
4.323648603744882
 40
4.323648603744882
 40
4.323648603744882
 10
-8.482518378332684
 20
10.00661353877753
 30
0.0
 10
-5.589123203360883
 20
10.00661353877753
 30
0.0
 10
-3.011384199942554
 20
8.927567260462769
 30
0.0
 10
-0.6026624261627687
 20
7.270748617630281
 30
0.0
  0
SPLINE
  5
2E39
330
1F
100
AcDbEntity
  8
AM_0
100
AcDbSpline
210
0.0
220
0.0
230
1.0
 70
     8
 71
     3
 72
     8
 73
     4
 74
     0
 42
0.0000000001
 43
0.0000000001
 40
0.0
 40
0.0
 40
0.0
 40
0.0
 40
8.106327806688073
 40
8.106327806688073
 40
8.106327806688073
 40
8.106327806688073
 10
-14.17084134808521
 20
9.780280621309902
 30
0.0
 10
-8.746068913457985
 20
9.780280621309902
 30
0.0
 10
-4.398882965336651
 20
6.024577493641932
 30
0.0
 10
-0.1846050906631484
 20
1.805650974265194
 30
0.0
  0
SPLINE
  5
2E3A
330
1F
100
AcDbEntity
  8
AM_0
100
AcDbSpline
210
0.0
220
0.0
230
1.0
 70
     8
 71
     3
 72
     8
 73
     4
 74
     0
 42
0.0000000001
 43
0.0000000001
 40
0.0
 40
0.0
 40
0.0
 40
0.0
 40
1.707928658540872
 40
1.707928658540872
 40
1.707928658540872
 40
1.707928658540872
 10
-16.36237433047429
 20
10.00661353877753
 30
0.0
 10
-17.50532395305376
 20
10.00661353877753
 30
0.0
 10
-18.59901827703966
 20
9.838238099217072
 30
0.0
 10
-19.65249603059332
 20
9.532385415229917
 30
0.0
  0
SPLINE
  5
2E3B
330
1F
100
AcDbEntity
  8
AM_0
100
AcDbSpline
210
0.0
220
0.0
230
1.0
 70
     8
 71
     3
 72
     8
 73
     4
 74
     0
 42
0.0000000001
 43
0.0000000001
 40
0.0
 40
0.0
 40
0.0
 40
0.0
 40
1.707928658540872
 40
1.707928658540872
 40
1.707928658540872
 40
1.707928658540872
 10
-24.24223028263463
 20
10.00661353877753
 30
0.0
 10
-25.38517990521409
 20
10.00661353877753
 30
0.0
 10
-26.47887422919999
 20
9.838238099217072
 30
0.0
 10
-27.53235198275366
 20
9.532385415229917
 30
0.0
  0
SPLINE
  5
2E3C
330
1F
100
AcDbEntity
  8
AM_0
100
AcDbSpline
210
0.0
220
0.0
230
1.0
 70
     8
 71
     3
 72
     8
 73
     4
 74
     0
 42
0.0000000001
 43
0.0000000001
 40
0.0
 40
0.0
 40
0.0
 40
0.0
 40
9.307120929696711
 40
9.307120929696711
 40
9.307120929696711
 40
9.307120929696711
 10
-16.36237433049346
 20
10.00661353877753
 30
0.0
 10
-10.13402849139417
 20
10.00661353877753
 30
0.0
 10
-5.36834545877847
 20
5.006613538777534
 30
0.0
 10
-0.6026624261627687
 20
0.0066135387775332
 30
0.0
  0
SPLINE
  5
2E3D
330
1F
100
AcDbEntity
  8
AM_0
100
AcDbSpline
210
0.0
220
0.0
230
1.0
 70
     8
 71
     3
 72
     8
 73
     4
 74
     0
 42
0.0000000001
 43
0.0000000001
 40
0.0
 40
0.0
 40
0.0
 40
0.0
 40
9.246817942408423
 40
9.246817942408423
 40
9.246817942408423
 40
9.246817942408423
 10
-22.05069730024599
 20
9.780280621309907
 30
0.0
 10
-15.86270635314814
 20
9.780280621309902
 30
0.0
 10
-11.07684587453148
 20
4.893447080043719
 30
0.0
 10
-6.290985395914838
 20
0.0066135387775343
 30
0.0
  0
SPLINE
  5
2E3E
330
1F
100
AcDbEntity
  8
AM_0
100
AcDbSpline
210
0.0
220
0.0
230
1.0
 70
     8
 71
     3
 72
     8
 73
     4
 74
     0
 42
0.0000000001
 43
0.0000000001
 40
0.0
 40
0.0
 40
0.0
 40
0.0
 40
9.307120929696711
 40
9.307120929696711
 40
9.307120929696711
 40
9.307120929696711
 10
-24.24223028265471
 20
10.00661353877753
 30
0.0
 10
-18.01388444355541
 20
10.00661353877753
 30
0.0
 10
-13.24820141093971
 20
5.006613538777534
 30
0.0
 10
-8.482518378324012
 20
0.0066135387775343
 30
0.0
  0
SPLINE
  5
2E3F
330
1F
100
AcDbEntity
  8
AM_0
100
AcDbSpline
210
0.0
220
0.0
230
1.0
 70
     8
 71
     3
 72
     8
 73
     4
 74
     0
 42
0.0000000001
 43
0.0000000001
 40
0.0
 40
0.0
 40
0.0
 40
0.0
 40
9.246817942408229
 40
9.246817942408229
 40
9.246817942408229
 40
9.246817942408229
 10
-29.93055325240632
 20
9.780280621309907
 30
0.0
 10
-23.7425623053086
 20
9.780280621309902
 30
0.0
 10
-18.95670182669211
 20
4.893447080043719
 30
0.0
 10
-14.17084134807562
 20
0.0066135387775355
 30
0.0
  0
LINE
  5
2E40
330
1F
100
AcDbEntity
  8
AM_0
100
AcDbLine
 10
-0.0003804425583144
 20
-2.291483500079475
 30
0.0
 11
-0.2715912006166385
 21
-4.414667718076637
 31
0.0
  0
LINE
  5
2E41
330
1F
100
AcDbEntity
  8
AM_0
100
AcDbLine
 10
-0.2715912006166385
 20
-4.414667718076637
 30
0.0
 11
-2.704567339504353
 21
-1.193386461221829
 31
0.0
  0
LINE
  5
2E42
330
1F
100
AcDbEntity
  8
AM_0
100
AcDbLine
 10
-0.2715912006166385
 20
-8.86954160920207
 30
0.0
 11
-0.1938832147085349
 21
-7.257521540074758
 31
0.0
  0
LINE
  5
2E43
330
1F
100
AcDbEntity
  8
AM_0
100
AcDbLine
 10
-0.6026624261636813
 20
-7.257521540074758
 30
0.0
 11
-0.0003804425583144
 21
-7.257521540074758
 31
0.0
  0
LINE
  5
2E44
330
1F
100
AcDbEntity
  8
AM_0
100
AcDbLine
 10
-2.725759156148193
 20
-6.542796973441095
 30
0.0
 11
-1.507235658939924
 21
-6.542796973441095
 31
0.0
  0
LINE
  5
2E45
330
1F
100
AcDbEntity
  8
AM_0
100
AcDbLine
 10
-2.725759156148193
 20
-6.983824455130029
 30
0.0
 11
-2.725759156148193
 21
-6.542796973441095
 31
0.0
  0
LINE
  5
2E46
330
1F
100
AcDbEntity
  8
AM_0
100
AcDbLine
 10
-0.2887098491001123
 20
-8.858185959355392
 30
0.0
 11
-2.725759156148193
 21
-6.983824455130029
 31
0.0
  0
LINE
  5
2E47
330
1F
100
AcDbEntity
  8
AM_0
100
AcDbLine
 10
-0.6026624261536391
 20
-9.993386461222467
 30
0.0
 11
-0.0003804425583144
 21
-9.887590272797392
 31
0.0
  0
ELLIPSE
  5
2E48
330
1F
100
AcDbEntity
  8
AM_0
100
AcDbEllipse
 10
1.276303056938474
 20
-8.894176900568803
 30
0.0
 11
-1.568819762560817
 21
0.0000000000000349
 31
0.0
210
0.0
220
0.0
230
1.0
 40
0.9962111043213603
 41
-0.1635122756005625
 42
0.6201591718990663
  0
SPLINE
  5
2E49
330
1F
100
AcDbEntity
  8
AM_0
100
AcDbSpline
210
0.0
220
0.0
230
1.0
 70
     8
 71
     3
 72
     8
 73
     4
 74
     0
 42
0.0000000001
 43
0.0000000001
 40
0.0
 40
0.0
 40
0.0
 40
0.0
 40
1.229985673975173
 40
1.229985673975173
 40
1.229985673975173
 40
1.229985673975173
 10
-6.290985395923968
 20
-9.767053543754951
 30
0.0
 10
-5.467876272004583
 20
-9.767053543754951
 30
0.0
 10
-4.669575843025183
 20
-9.680588007719602
 30
0.0
 10
-3.892784126272672
 20
-9.519158337674962
 30
0.0
  0
ELLIPSE
  5
2E4A
330
1F
100
AcDbEntity
  8
AM_0
100
AcDbEllipse
 10
11.97255492857931
 20
-4.689666198154879
 30
0.0
 11
12.24725744543349
 21
0.0000000000007105
 31
0.0
210
0.0
220
0.0
230
1.0
 40
0.9962111043213633
 41
3.119051463232096
 42
3.353643463775182
  0
LINE
  5
2E4B
330
1F
100
AcDbEntity
  8
AM_0
100
AcDbLine
 10
-0.0003804425583144
 20
-9.802465069000032
 30
0.0
 11
-0.0003804425583144
 21
-2.291483500079475
 31
0.0
  0
SPLINE
  5
2E4C
330
1F
100
AcDbEntity
  8
AM_0
100
AcDbSpline
210
0.0
220
0.0
230
1.0
 70
     8
 71
     3
 72
     8
 73
     4
 74
     0
 42
0.0000000001
 43
0.0000000001
 40
0.0
 40
0.0
 40
0.0
 40
0.0
 40
1.229985673975173
 40
1.229985673975173
 40
1.229985673975173
 40
1.229985673975173
 10
-14.17714495452561
 20
-9.760440004977411
 30
0.0
 10
-13.35403583060623
 20
-9.760440004977411
 30
0.0
 10
-12.55573540162728
 20
-9.673974468942063
 30
0.0
 10
-11.77894368487432
 20
-9.512544798897422
 30
0.0
  0
SPLINE
  5
2E4D
330
1F
100
AcDbEntity
  8
AM_0
100
AcDbSpline
210
0.0
220
0.0
230
1.0
 70
     8
 71
     3
 72
     8
 73
     4
 74
     0
 42
0.0000000001
 43
0.0000000001
 40
0.0
 40
0.0
 40
0.0
 40
0.0
 40
1.168827779827945
 40
1.168827779827945
 40
1.168827779827945
 40
1.168827779827945
 10
-8.482518378332684
 20
-9.993386461222465
 30
0.0
 10
-7.700336251968708
 20
-9.993386461222465
 30
0.0
 10
-6.941222370559544
 20
-9.914529444922077
 30
0.0
 10
-6.202279725917725
 20
-9.766718611385822
 30
0.0
  0
SPLINE
  5
2E4E
330
1F
100
AcDbEntity
  8
AM_0
100
AcDbSpline
210
0.0
220
0.0
230
1.0
 70
     8
 71
     3
 72
     8
 73
     4
 74
     0
 42
0.0000000001
 43
0.0000000001
 40
0.0
 40
0.0
 40
0.0
 40
0.0
 40
1.229985673975173
 40
1.229985673975173
 40
1.229985673975173
 40
1.229985673975173
 10
-22.0506973002446
 20
-9.767053543754951
 30
0.0
 10
-21.22758817632522
 20
-9.767053543754951
 30
0.0
 10
-20.42928774734627
 20
-9.680588007719602
 30
0.0
 10
-19.6524960305933
 20
-9.519158337674962
 30
0.0
  0
SPLINE
  5
2E4F
330
1F
100
AcDbEntity
  8
AM_0
100
AcDbSpline
210
0.0
220
0.0
230
1.0
 70
     8
 71
     3
 72
     8
 73
     4
 74
     0
 42
0.0000000001
 43
0.0000000001
 40
0.0
 40
0.0
 40
0.0
 40
0.0
 40
1.229985673975173
 40
1.229985673975173
 40
1.229985673975173
 40
1.229985673975173
 10
-29.93703014104211
 20
-9.760440004977413
 30
0.0
 10
-29.11392101712273
 20
-9.760440004977413
 30
0.0
 10
-28.31562058814378
 20
-9.673974468942065
 30
0.0
 10
-27.53882887139082
 20
-9.512544798897424
 30
0.0
  0
SPLINE
  5
2E50
330
1F
100
AcDbEntity
  8
AM_0
100
AcDbSpline
210
0.0
220
0.0
230
1.0
 70
     8
 71
     3
 72
     8
 73
     4
 74
     0
 42
0.0000000001
 43
0.0000000001
 40
0.0
 40
0.0
 40
0.0
 40
0.0
 40
1.168827779827945
 40
1.168827779827945
 40
1.168827779827945
 40
1.168827779827945
 10
-24.24223028265377
 20
-9.993386461222467
 30
0.0
 10
-23.4600481562898
 20
-9.993386461222467
 30
0.0
 10
-22.70093427488064
 20
-9.914529444922077
 30
0.0
 10
-21.96199163023836
 20
-9.766718611385822
 30
0.0
  0
SPLINE
  5
2E51
330
1F
100
AcDbEntity
  8
AM_0
100
AcDbSpline
210
0.0
220
0.0
230
1.0
 70
     8
 71
     3
 72
     8
 73
     4
 74
     0
 42
0.0000000001
 43
0.0000000001
 40
0.0
 40
0.0
 40
0.0
 40
0.0
 40
1.168827779827945
 40
1.168827779827945
 40
1.168827779827945
 40
1.168827779827945
 10
-16.36867793693479
 20
-9.986772922444927
 30
0.0
 10
-15.58649581057081
 20
-9.986772922444927
 30
0.0
 10
-14.82738192916165
 20
-9.907915906144538
 30
0.0
 10
-14.08843928451937
 20
-9.760105072608283
 30
0.0
  0
LINE
  5
2E52
330
1F
100
AcDbEntity
  8
AM_0
100
AcDbLine
 10
-2.704567339504353
 20
-1.193386461221829
 30
0.0
 11
-2.704567339504353
 21
0.0066135387775332
 31
0.0
  0
LINE
  5
2E53
330
1F
100
AcDbEntity
  8
AM_0
100
AcDbLine
 10
-0.0003804425583144
 20
-2.291483500079475
 30
0.0
 11
-0.624720201086383
 21
0.0297558164951581
 31
0.0
  0
LINE
  5
2E54
330
1F
100
AcDbEntity
  8
AM_0
100
AcDbLine
 10
-0.0003804425583144
 20
0.0000000000001319
 30
0.0
 11
-0.174027324947374
 21
-1.645879940324884
 31
0.0
  0
SPLINE
  5
2E55
330
1F
100
AcDbEntity
  8
AM_0
100
AcDbSpline
210
0.0
220
0.0
230
1.0
 70
     8
 71
     3
 72
     8
 73
     4
 74
     0
 42
0.0000000001
 43
0.0000000001
 40
0.0
 40
0.0
 40
0.0
 40
0.0
 40
9.246817942408453
 40
9.246817942408453
 40
9.246817942408453
 40
9.246817942408453
 10
-14.16453774162423
 20
-9.77366708253249
 30
0.0
 10
-20.3525286887221
 20
-9.77366708253249
 30
0.0
 10
-25.13838916733874
 20
-4.886833541266247
 30
0.0
 10
-29.92424964595539
 20
-0.0000000000000038
 30
0.0
  0
SPLINE
  5
2E56
330
1F
100
AcDbEntity
  8
AM_0
100
AcDbSpline
210
0.0
220
0.0
230
1.0
 70
     8
 71
     3
 72
     8
 73
     4
 74
     0
 42
0.0000000001
 43
0.0000000001
 40
0.8586800831860527
 40
0.8586800831860527
 40
0.8586800831860527
 40
0.8586800831860527
 40
9.246817942408316
 40
9.246817942408316
 40
9.246817942408316
 40
9.246817942408316
 10
-0.0998706997499943
 20
-9.64454360414707
 30
0.0
 10
-5.487971690714639
 20
-8.859449077469076
 30
0.0
 10
-9.829406519395128
 20
-4.42641776934577
 30
0.0
 10
-14.17084134807562
 20
0.0066135387775355
 30
0.0
  0
SPLINE
  5
2E57
330
1F
100
AcDbEntity
  8
AM_0
100
AcDbSpline
210
0.0
220
0.0
230
1.0
 70
     8
 71
     3
 72
     8
 73
     4
 74
     0
 42
0.0000000001
 43
0.0000000001
 40
0.0
 40
0.0
 40
0.0
 40
0.0
 40
9.307120929696711
 40
9.307120929696711
 40
9.307120929696711
 40
9.307120929696711
 10
-0.6026624261536391
 20
-9.993386461222467
 30
0.0
 10
-6.831008265252931
 20
-9.993386461222467
 30
0.0
 10
-11.59669129786863
 20
-4.993386461222465
 30
0.0
 10
-16.36237433048433
 20
0.0066135387775355
 30
0.0
  0
SPLINE
  5
2E58
330
1F
100
AcDbEntity
  8
AM_0
100
AcDbSpline
210
0.0
220
0.0
230
1.0
 70
     8
 71
     3
 72
     8
 73
     4
 74
     0
 42
0.0000000001
 43
0.0000000001
 40
4.323648603745047
 40
4.323648603745047
 40
4.323648603745047
 40
4.323648603745047
 40
9.307120929696758
 40
9.307120929696758
 40
9.307120929696758
 40
9.307120929696758
 10
-0.6026624261627687
 20
-7.257521540074758
 30
0.0
 10
-3.378974610772858
 20
-5.347858981344737
 30
0.0
 10
-5.930746494548663
 20
-2.670622721283602
 30
0.0
 10
-8.482518378324012
 20
0.0066135387775343
 30
0.0
  0
SPLINE
  5
2E59
330
1F
100
AcDbEntity
  8
AM_0
100
AcDbSpline
210
0.0
220
0.0
230
1.0
 70
     8
 71
     3
 72
     8
 73
     4
 74
     0
 42
0.0000000001
 43
0.0000000001
 40
5.407991289528681
 40
5.407991289528681
 40
5.407991289528681
 40
5.407991289528681
 40
9.246817942408341
 40
9.246817942408341
 40
9.246817942408341
 40
9.246817942408341
 10
-0.2300951485613337
 20
-5.730049299977604
 30
0.0
 10
-2.317274898595808
 20
-4.050935114876079
 30
0.0
 10
-4.304130147255322
 20
-2.022160788049272
 30
0.0
 10
-6.290985395915294
 20
0.0066135387775343
 30
0.0
  0
SPLINE
  5
2E5A
330
1F
100
AcDbEntity
  8
AM_0
100
AcDbSpline
210
0.0
220
0.0
230
1.0
 70
     8
 71
     3
 72
     8
 73
     4
 74
     0
 42
0.0000000001
 43
0.0000000001
 40
0.0
 40
0.0
 40
0.0
 40
0.0
 40
9.246817942408453
 40
9.246817942408453
 40
9.246817942408453
 40
9.246817942408453
 10
-6.290985395905252
 20
-9.767053543754951
 30
0.0
 10
-12.47897634300312
 20
-9.767053543754951
 30
0.0
 10
-17.26483682161976
 20
-4.880220002488707
 30
0.0
 10
-22.05069730023641
 20
0.0066135387775355
 30
0.0
  0
SPLINE
  5
2E5B
330
1F
100
AcDbEntity
  8
AM_0
100
AcDbSpline
210
0.0
220
0.0
230
1.0
 70
     8
 71
     3
 72
     8
 73
     4
 74
     0
 42
0.0000000001
 43
0.0000000001
 40
0.0
 40
0.0
 40
0.0
 40
0.0
 40
9.307120929696711
 40
9.307120929696711
 40
9.307120929696711
 40
9.307120929696711
 10
-8.482518378313967
 20
-9.993386461222465
 30
0.0
 10
-14.71086421741325
 20
-9.993386461222465
 30
0.0
 10
-19.47654725002896
 20
-4.993386461222464
 30
0.0
 10
-24.24223028264467
 20
0.0066135387775366
 30
0.0
  0
LINE
  5
2E5C
330
1F
100
AcDbEntity
  8
AM_11
100
AcDbLine
 10
-0.0003804425583412
 20
10.00661353877753
 30
0.0
 11
-0.0003804425583144
 21
-9.99338646122247
 31
0.0
  0
SPLINE
  5
2E5D
330
1F
100
AcDbEntity
  8
AM_0
100
AcDbSpline
210
0.0
220
0.0
230
1.0
 70
     8
 71
     3
 72
     8
 73
     4
 74
     0
 42
0.0000000001
 43
0.0000000001
 40
0.0
 40
0.0
 40
0.0
 40
0.0
 40
1.707928658540872
 40
1.707928658540872
 40
1.707928658540872
 40
1.707928658540872
 10
-32.12208623479495
 20
10.00661353877753
 30
0.0
 10
-33.26503585737442
 20
10.00661353877753
 30
0.0
 10
-34.35873018136032
 20
9.838238099217072
 30
0.0
 10
-35.41220793491399
 20
9.532385415229917
 30
0.0
  0
SPLINE
  5
2E5E
330
1F
100
AcDbEntity
  8
AM_0
100
AcDbSpline
210
0.0
220
0.0
230
1.0
 70
     8
 71
     3
 72
     8
 73
     4
 74
     0
 42
0.0000000001
 43
0.0000000001
 40
0.0
 40
0.0
 40
0.0
 40
0.0
 40
1.707928658540872
 40
1.707928658540872
 40
1.707928658540872
 40
1.707928658540872
 10
-39.99563858051394
 20
9.999999999999996
 30
0.0
 10
-41.1385882030934
 20
9.999999999999996
 30
0.0
 10
-42.2322825270793
 20
9.831624560439532
 30
0.0
 10
-43.28576028063298
 20
9.525771876452377
 30
0.0
  0
SPLINE
  5
2E5F
330
1F
100
AcDbEntity
  8
AM_0
100
AcDbSpline
210
0.0
220
0.0
230
1.0
 70
     8
 71
     3
 72
     8
 73
     4
 74
     0
 42
0.0000000001
 43
0.0000000001
 40
0.0
 40
0.0
 40
0.0
 40
0.0
 40
1.707928658540872
 40
1.707928658540872
 40
1.707928658540872
 40
1.707928658540872
 10
-47.87532125047794
 20
9.999999999999996
 30
0.0
 10
-49.01827087305741
 20
9.999999999999996
 30
0.0
 10
-50.11196519704331
 20
9.831624560439532
 30
0.0
 10
-51.16544295059698
 20
9.525771876452377
 30
0.0
  0
SPLINE
  5
2E60
330
1F
100
AcDbEntity
  8
AM_0
100
AcDbSpline
210
0.0
220
0.0
230
1.0
 70
     8
 71
     3
 72
     8
 73
     4
 74
     0
 42
0.0000000001
 43
0.0000000001
 40
0.0
 40
0.0
 40
0.0
 40
0.0
 40
1.707928658540872
 40
1.707928658540872
 40
1.707928658540872
 40
1.707928658540872
 10
-55.75552376703043
 20
9.999999999999994
 30
0.0
 10
-56.8984733896099
 20
9.999999999999994
 30
0.0
 10
-57.99216771359581
 20
9.83162456043953
 30
0.0
 10
-59.04564546714947
 20
9.525771876452376
 30
0.0
  0
SPLINE
  5
2E61
330
1F
100
AcDbEntity
  8
AM_0
100
AcDbSpline
210
0.0
220
0.0
230
1.0
 70
     8
 71
     3
 72
     8
 73
     4
 74
     0
 42
0.0000000001
 43
0.0000000001
 40
0.0
 40
0.0
 40
0.0
 40
0.0
 40
9.307120929696711
 40
9.307120929696711
 40
9.307120929696711
 40
9.307120929696711
 10
-63.63537971921085
 20
9.999999999999998
 30
0.0
 10
-57.40703388011155
 20
9.999999999999994
 30
0.0
 10
-52.64135084749584
 20
4.999999999999994
 30
0.0
 10
-47.87566781488014
 20
-0.0000000000000041
 30
0.0
  0
SPLINE
  5
2E62
330
1F
100
AcDbEntity
  8
AM_0
100
AcDbSpline
210
0.0
220
0.0
230
1.0
 70
     8
 71
     3
 72
     8
 73
     4
 74
     0
 42
0.0000000001
 43
0.0000000001
 40
0.0
 40
0.0
 40
0.0
 40
0.0
 40
9.246817942408423
 40
9.246817942408423
 40
9.246817942408423
 40
9.246817942408423
 10
-53.56381750244643
 20
9.773667082532368
 30
0.0
 10
-47.37582655534858
 20
9.773667082532368
 30
0.0
 10
-42.58996607673192
 20
4.886833541266182
 30
0.0
 10
-37.80410559811527
 20
-0.0000000000000032
 30
0.0
  0
SPLINE
  5
2E63
330
1F
100
AcDbEntity
  8
AM_0
100
AcDbSpline
210
0.0
220
0.0
230
1.0
 70
     8
 71
     3
 72
     8
 73
     4
 74
     0
 42
0.0000000001
 43
0.0000000001
 40
0.0
 40
0.0
 40
0.0
 40
0.0
 40
9.307120929696711
 40
9.307120929696711
 40
9.307120929696711
 40
9.307120929696711
 10
-55.7553504848547
 20
10.0
 30
0.0
 10
-49.52700464575539
 20
9.999999999999996
 30
0.0
 10
-44.76132161313969
 20
4.999999999999997
 30
0.0
 10
-39.99563858052399
 20
-0.0000000000000021
 30
0.0
  0
SPLINE
  5
2E64
330
1F
100
AcDbEntity
  8
AM_0
100
AcDbSpline
210
0.0
220
0.0
230
1.0
 70
     8
 71
     3
 72
     8
 73
     4
 74
     0
 42
0.0000000001
 43
0.0000000001
 40
0.0
 40
0.0
 40
0.0
 40
0.0
 40
9.307120929696711
 40
9.307120929696711
 40
9.307120929696711
 40
9.307120929696711
 10
-47.87549453269435
 20
10.0
 30
0.0
 10
-41.64714869359505
 20
9.999999999999996
 30
0.0
 10
-36.88146566097935
 20
4.999999999999996
 30
0.0
 10
-32.11578262836365
 20
-0.0000000000000027
 30
0.0
  0
SPLINE
  5
2E65
330
1F
100
AcDbEntity
  8
AM_0
100
AcDbSpline
210
0.0
220
0.0
230
1.0
 70
     8
 71
     3
 72
     8
 73
     4
 74
     0
 42
0.0000000001
 43
0.0000000001
 40
0.0
 40
0.0
 40
0.0
 40
0.0
 40
9.246817942408423
 40
9.246817942408423
 40
9.246817942408423
 40
9.246817942408423
 10
-61.44384673680259
 20
9.773667082532366
 30
0.0
 10
-55.25585578970474
 20
9.773667082532366
 30
0.0
 10
-50.46999531108808
 20
4.886833541266179
 30
0.0
 10
-45.68413483247142
 20
-0.0000000000000052
 30
0.0
  0
SPLINE
  5
2E66
330
1F
100
AcDbEntity
  8
AM_0
100
AcDbSpline
210
0.0
220
0.0
230
1.0
 70
     8
 71
     3
 72
     8
 73
     4
 74
     0
 42
0.0000000001
 43
0.0000000001
 40
0.0
 40
0.0
 40
0.0
 40
0.0
 40
1.229985673975173
 40
1.229985673975173
 40
1.229985673975173
 40
1.229985673975173
 10
-37.8105824867611
 20
-9.767053543754952
 30
0.0
 10
-36.98747336284172
 20
-9.767053543754952
 30
0.0
 10
-36.18917293386277
 20
-9.680588007719604
 30
0.0
 10
-35.4123812171098
 20
-9.519158337674964
 30
0.0
  0
SPLINE
  5
2E67
330
1F
100
AcDbEntity
  8
AM_0
100
AcDbSpline
210
0.0
220
0.0
230
1.0
 70
     8
 71
     3
 72
     8
 73
     4
 74
     0
 42
0.0000000001
 43
0.0000000001
 40
0.0
 40
0.0
 40
0.0
 40
0.0
 40
1.229985673975173
 40
1.229985673975173
 40
1.229985673975173
 40
1.229985673975173
 10
-45.6969153275586
 20
-9.760440004977413
 30
0.0
 10
-44.87380620363921
 20
-9.760440004977413
 30
0.0
 10
-44.07550577466028
 20
-9.673974468942065
 30
0.0
 10
-43.29871405790731
 20
-9.512544798897424
 30
0.0
  0
SPLINE
  5
2E68
330
1F
100
AcDbEntity
  8
AM_0
100
AcDbSpline
210
0.0
220
0.0
230
1.0
 70
     8
 71
     3
 72
     8
 73
     4
 74
     0
 42
0.0000000001
 43
0.0000000001
 40
0.0
 40
0.0
 40
0.0
 40
0.0
 40
1.168827779827945
 40
1.168827779827945
 40
1.168827779827945
 40
1.168827779827945
 10
-40.00211546917028
 20
-9.993386461222469
 30
0.0
 10
-39.21993334280629
 20
-9.993386461222469
 30
0.0
 10
-38.46081946139714
 20
-9.914529444922079
 30
0.0
 10
-37.72187681675486
 20
-9.766718611385824
 30
0.0
  0
SPLINE
  5
2E69
330
1F
100
AcDbEntity
  8
AM_0
100
AcDbSpline
210
0.0
220
0.0
230
1.0
 70
     8
 71
     3
 72
     8
 73
     4
 74
     0
 42
0.0000000001
 43
0.0000000001
 40
0.0
 40
0.0
 40
0.0
 40
0.0
 40
1.229985673975173
 40
1.229985673975173
 40
1.229985673975173
 40
1.229985673975173
 10
-53.57046767327759
 20
-9.767053543754952
 30
0.0
 10
-52.7473585493582
 20
-9.767053543754952
 30
0.0
 10
-51.94905812037927
 20
-9.680588007719604
 30
0.0
 10
-51.17226640362629
 20
-9.519158337674964
 30
0.0
  0
SPLINE
  5
2E6A
330
1F
100
AcDbEntity
  8
AM_0
100
AcDbSpline
210
0.0
220
0.0
230
1.0
 70
     8
 71
     3
 72
     8
 73
     4
 74
     0
 42
0.0000000001
 43
0.0000000001
 40
0.0
 40
0.0
 40
0.0
 40
0.0
 40
1.168827779827945
 40
1.168827779827945
 40
1.168827779827945
 40
1.168827779827945
 10
-63.64151004345543
 20
-9.993386461222465
 30
0.0
 10
-62.85932791709143
 20
-9.993386461222465
 30
0.0
 10
-62.10021403568227
 20
-9.914529444922077
 30
0.0
 10
-61.36127139103999
 20
-9.766718611385822
 30
0.0
  0
SPLINE
  5
2E6B
330
1F
100
AcDbEntity
  8
AM_0
100
AcDbSpline
210
0.0
220
0.0
230
1.0
 70
     8
 71
     3
 72
     8
 73
     4
 74
     0
 42
0.0000000001
 43
0.0000000001
 40
0.0
 40
0.0
 40
0.0
 40
0.0
 40
1.229985673975173
 40
1.229985673975173
 40
1.229985673975173
 40
1.229985673975173
 10
-61.44997706104623
 20
-9.767053543754951
 30
0.0
 10
-60.62686793712686
 20
-9.767053543754951
 30
0.0
 10
-59.8285675081479
 20
-9.680588007719601
 30
0.0
 10
-59.05177579139493
 20
-9.51915833767496
 30
0.0
  0
SPLINE
  5
2E6C
330
1F
100
AcDbEntity
  8
AM_0
100
AcDbSpline
210
0.0
220
0.0
230
1.0
 70
     8
 71
     3
 72
     8
 73
     4
 74
     0
 42
0.0000000001
 43
0.0000000001
 40
0.0
 40
0.0
 40
0.0
 40
0.0
 40
1.168827779827945
 40
1.168827779827945
 40
1.168827779827945
 40
1.168827779827945
 10
-55.76200065568675
 20
-9.993386461222469
 30
0.0
 10
-54.97981852932278
 20
-9.993386461222469
 30
0.0
 10
-54.22070464791362
 20
-9.914529444922079
 30
0.0
 10
-53.48176200327134
 20
-9.766718611385824
 30
0.0
  0
SPLINE
  5
2E6D
330
1F
100
AcDbEntity
  8
AM_0
100
AcDbSpline
210
0.0
220
0.0
230
1.0
 70
     8
 71
     3
 72
     8
 73
     4
 74
     0
 42
0.0000000001
 43
0.0000000001
 40
0.0
 40
0.0
 40
0.0
 40
0.0
 40
1.168827779827945
 40
1.168827779827945
 40
1.168827779827945
 40
1.168827779827945
 10
-47.88844830996777
 20
-9.986772922444929
 30
0.0
 10
-47.1062661836038
 20
-9.986772922444929
 30
0.0
 10
-46.34715230219463
 20
-9.907915906144539
 30
0.0
 10
-45.60820965755236
 20
-9.760105072608284
 30
0.0
  0
SPLINE
  5
2E6E
330
1F
100
AcDbEntity
  8
AM_0
100
AcDbSpline
210
0.0
220
0.0
230
1.0
 70
     8
 71
     3
 72
     8
 73
     4
 74
     0
 42
0.0000000001
 43
0.0000000001
 40
0.0
 40
0.0
 40
0.0
 40
0.0
 40
9.307120929696711
 40
9.307120929696711
 40
9.307120929696711
 40
9.307120929696711
 10
-39.99581186270978
 20
-10.0
 30
0.0
 10
-46.22415770180906
 20
-10.0
 30
0.0
 10
-50.98984073442477
 20
-5.000000000000004
 30
0.0
 10
-55.75552376704049
 20
-0.0000000000000035
 30
0.0
  0
SPLINE
  5
2E6F
330
1F
100
AcDbEntity
  8
AM_0
100
AcDbSpline
210
0.0
220
0.0
230
1.0
 70
     8
 71
     3
 72
     8
 73
     4
 74
     0
 42
0.0000000001
 43
0.0000000001
 40
0.0
 40
0.0
 40
0.0
 40
0.0
 40
9.246817942408453
 40
9.246817942408453
 40
9.246817942408453
 40
9.246817942408453
 10
-37.80427888030106
 20
-9.773667082532492
 30
0.0
 10
-43.99226982739894
 20
-9.773667082532492
 30
0.0
 10
-48.77813030601558
 20
-4.886833541266248
 30
0.0
 10
-53.56399078463223
 20
-0.0000000000000047
 30
0.0
  0
SPLINE
  5
2E70
330
1F
100
AcDbEntity
  8
AM_0
100
AcDbSpline
210
0.0
220
0.0
230
1.0
 70
     8
 71
     3
 72
     8
 73
     4
 74
     0
 42
0.0000000001
 43
0.0000000001
 40
0.0
 40
0.0
 40
0.0
 40
0.0
 40
9.307120929696711
 40
9.307120929696711
 40
9.307120929696711
 40
9.307120929696711
 10
-32.11595591054944
 20
-10.0
 30
0.0
 10
-38.34430174964874
 20
-10.0
 30
0.0
 10
-43.10998478226444
 20
-5.000000000000005
 30
0.0
 10
-47.87566781488014
 20
-0.0000000000000041
 30
0.0
  0
SPLINE
  5
2E71
330
1F
100
AcDbEntity
  8
AM_0
100
AcDbSpline
210
0.0
220
0.0
230
1.0
 70
     8
 71
     3
 72
     8
 73
     4
 74
     0
 42
0.0000000001
 43
0.0000000001
 40
0.0
 40
0.0
 40
0.0
 40
0.0
 40
9.246817942408453
 40
9.246817942408453
 40
9.246817942408453
 40
9.246817942408453
 10
-45.68430811465722
 20
-9.773667082532492
 30
0.0
 10
-51.8722990617551
 20
-9.773667082532492
 30
0.0
 10
-56.65815954037173
 20
-4.886833541266248
 30
0.0
 10
-61.44402001898837
 20
-0.0000000000000056
 30
0.0
  0
SPLINE
  5
2E72
330
1F
100
AcDbEntity
  8
AM_0
100
AcDbSpline
210
0.0
220
0.0
230
1.0
 70
     8
 71
     3
 72
     8
 73
     4
 74
     0
 42
0.0000000001
 43
0.0000000001
 40
0.0
 40
0.0
 40
0.0
 40
0.0
 40
9.307120929696711
 40
9.307120929696711
 40
9.307120929696711
 40
9.307120929696711
 10
-47.87584109706594
 20
-10.0
 30
0.0
 10
-54.10418693616523
 20
-10.0
 30
0.0
 10
-58.86986996878093
 20
-5.000000000000005
 30
0.0
 10
-63.63555300139665
 20
-0.0000000000000044
 30
0.0
  0
SPLINE
  5
2E73
330
1F
100
AcDbEntity
  8
AM_0
100
AcDbSpline
210
0.0
220
0.0
230
1.0
 70
     8
 71
     3
 72
     8
 73
     4
 74
     0
 42
0.0000000001
 43
0.0000000001
 40
0.0
 40
0.0
 40
0.0
 40
0.0
 40
9.307120929696711
 40
9.307120929696711
 40
9.307120929696711
 40
9.307120929696711
 10
-32.12208623481503
 20
10.00661353877753
 30
0.0
 10
-25.89374039571575
 20
10.00661353877753
 30
0.0
 10
-21.12805736310005
 20
5.006613538777534
 30
0.0
 10
-16.36237433048433
 20
0.0066135387775355
 30
0.0
  0
SPLINE
  5
2E74
330
1F
100
AcDbEntity
  8
AM_0
100
AcDbSpline
210
0.0
220
0.0
230
1.0
 70
     8
 71
     3
 72
     8
 73
     4
 74
     0
 42
0.0000000001
 43
0.0000000001
 40
0.0
 40
0.0
 40
0.0
 40
0.0
 40
9.307120929696711
 40
9.307120929696711
 40
9.307120929696711
 40
9.307120929696711
 10
-16.35607072403295
 20
-10.0
 30
0.0
 10
-22.58441656313224
 20
-10.0
 30
0.0
 10
-27.35009959574794
 20
-5.000000000000003
 30
0.0
 10
-32.11578262836365
 20
-0.0000000000000027
 30
0.0
  0
SPLINE
  5
2E75
330
1F
100
AcDbEntity
  8
AM_0
100
AcDbSpline
210
0.0
220
0.0
230
1.0
 70
     8
 71
     3
 72
     8
 73
     4
 74
     0
 42
0.0000000001
 43
0.0000000001
 40
0.0
 40
0.0
 40
0.0
 40
0.0
 40
9.246817942408453
 40
9.246817942408453
 40
9.246817942408453
 40
9.246817942408453
 10
-22.04439369378457
 20
-9.77366708253249
 30
0.0
 10
-28.23238464088244
 20
-9.77366708253249
 30
0.0
 10
-33.01824511949908
 20
-4.886833541266246
 30
0.0
 10
-37.80410559811572
 20
-0.0000000000000032
 30
0.0
  0
SPLINE
  5
2E76
330
1F
100
AcDbEntity
  8
AM_0
100
AcDbSpline
210
0.0
220
0.0
230
1.0
 70
     8
 71
     3
 72
     8
 73
     4
 74
     0
 42
0.0000000001
 43
0.0000000001
 40
0.0
 40
0.0
 40
0.0
 40
0.0
 40
9.307120929696711
 40
9.307120929696711
 40
9.307120929696711
 40
9.307120929696711
 10
-24.23592667619328
 20
-10.0
 30
0.0
 10
-30.46427251529257
 20
-10.0
 30
0.0
 10
-35.22995554790827
 20
-5.000000000000002
 30
0.0
 10
-39.99563858052399
 20
-0.0000000000000021
 30
0.0
  0
SPLINE
  5
2E77
330
1F
100
AcDbEntity
  8
AM_0
100
AcDbSpline
210
0.0
220
0.0
230
1.0
 70
     8
 71
     3
 72
     8
 73
     4
 74
     0
 42
0.0000000001
 43
0.0000000001
 40
0.0
 40
0.0
 40
0.0
 40
0.0
 40
9.246817942408423
 40
9.246817942408423
 40
9.246817942408423
 40
9.246817942408423
 10
-45.68396155028609
 20
9.773667082532368
 30
0.0
 10
-39.49597060318824
 20
9.773667082532368
 30
0.0
 10
-34.71011012457158
 20
4.886833541266181
 30
0.0
 10
-29.92424964595493
 20
-0.0000000000000038
 30
0.0
  0
LINE
  5
2E78
330
1F
100
AcDbEntity
  8
AM_11
100
AcDbLine
 10
-85.00081679616629
 20
-9.993386461222447
 30
0.0
 11
-0.0003804425583144
 21
-9.99338646122247
 31
0.0
  0
LINE
  5
2E79
330
1F
100
AcDbEntity
  8
AM_11
100
AcDbLine
 10
-0.0003804425583412
 20
10.00661353877753
 30
0.0
 11
-85.00081679616634
 21
10.00661353877755
 31
0.0
  0
SPLINE
  5
2E7A
330
1F
100
AcDbEntity
  8
AM_0
100
AcDbSpline
210
0.0
220
0.0
230
1.0
 70
     8
 71
     3
 72
     8
 73
     4
 74
     0
 42
0.0000000001
 43
0.0000000001
 40
0.0
 40
0.0
 40
0.0
 40
0.0
 40
9.246817942408423
 40
9.246817942408423
 40
9.246817942408423
 40
9.246817942408423
 10
-37.8104092045671
 20
9.780280621309907
 30
0.0
 10
-31.62241825746925
 20
9.780280621309907
 30
0.0
 10
-26.8365577788526
 20
4.893447080043721
 30
0.0
 10
-22.05069730023595
 20
0.0066135387775355
 30
0.0
  0
SPLINE
  5
2E7B
330
1F
100
AcDbEntity
  8
AM_0
100
AcDbSpline
210
0.0
220
0.0
230
1.0
 70
     8
 71
     3
 72
     8
 73
     4
 74
     0
 42
0.0000000001
 43
0.0000000001
 40
0.0
 40
0.0
 40
0.0
 40
0.0
 40
9.307120929696711
 40
9.307120929696711
 40
9.307120929696711
 40
9.307120929696711
 10
-40.00194218697537
 20
10.00661353877754
 30
0.0
 10
-33.77359634787607
 20
10.00661353877753
 30
0.0
 10
-29.00791331526036
 20
5.006613538777536
 30
0.0
 10
-24.24223028264467
 20
0.0066135387775366
 30
0.0
  0
SPLINE
  5
2E7C
330
1F
100
AcDbEntity
  8
AM_0
100
AcDbSpline
210
0.0
220
0.0
230
1.0
 70
     8
 71
     3
 72
     8
 73
     4
 74
     0
 42
0.0000000001
 43
0.0000000001
 40
0.0
 40
0.0
 40
0.0
 40
0.0
 40
9.246817942408453
 40
9.246817942408453
 40
9.246817942408453
 40
9.246817942408453
 10
-29.92442292814073
 20
-9.773667082532492
 30
0.0
 10
-36.1124138752386
 20
-9.773667082532492
 30
0.0
 10
-40.89827435385525
 20
-4.886833541266248
 30
0.0
 10
-45.68413483247189
 20
-0.0000000000000052
 30
0.0
  0
SPLINE
  5
2E7D
330
1F
100
AcDbEntity
  8
AM_0
100
AcDbSpline
210
0.0
220
0.0
230
1.0
 70
     8
 71
     3
 72
     8
 73
     4
 74
     0
 42
0.0000000001
 43
0.0000000001
 40
0.0
 40
0.0
 40
0.0
 40
0.0
 40
1.168827779827945
 40
1.168827779827945
 40
1.168827779827945
 40
1.168827779827945
 10
-32.12856312345128
 20
-9.986772922444929
 30
0.0
 10
-31.3463809970873
 20
-9.986772922444929
 30
0.0
 10
-30.58726711567814
 20
-9.907915906144539
 30
0.0
 10
-29.84832447103586
 20
-9.760105072608284
 30
0.0
  0
SPLINE
  5
2E7E
330
1F
100
AcDbEntity
  8
AM_0
100
AcDbSpline
210
0.0
220
0.0
230
1.0
 70
     8
 71
     3
 72
     8
 73
     4
 74
     0
 42
0.0000000001
 43
0.0000000001
 40
0.0
 40
0.0
 40
0.0
 40
0.0
 40
1.707928658540872
 40
1.707928658540872
 40
1.707928658540872
 40
1.707928658540872
 10
-71.51540895354692
 20
9.999999999999994
 30
0.0
 10
-72.65835857612637
 20
9.999999999999994
 30
0.0
 10
-73.75205290011229
 20
9.83162456043953
 30
0.0
 10
-74.80553065366596
 20
9.525771876452376
 30
0.0
  0
SPLINE
  5
2E7F
330
1F
100
AcDbEntity
  8
AM_0
100
AcDbSpline
210
0.0
220
0.0
230
1.0
 70
     8
 71
     3
 72
     8
 73
     4
 74
     0
 42
0.0000000001
 43
0.0000000001
 40
8.753189425647919
 40
8.753189425647919
 40
8.753189425647919
 40
8.753189425647919
 40
9.307120929696711
 40
9.307120929696711
 40
9.307120929696711
 40
9.307120929696711
 10
-96.01215905575514
 20
0.8983137492050694
 30
0.0
 10
-95.7282117439338
 20
0.6017830957577206
 30
0.0
 10
-95.44457279801068
 20
0.3041983172676308
 30
0.0
 10
-95.1609338520876
 20
0.0066135387775388
 30
0.0
  0
SPLINE
  5
2E80
330
1F
100
AcDbEntity
  8
AM_0
100
AcDbSpline
210
0.0
220
0.0
230
1.0
 70
     8
 71
     3
 72
     8
 73
     4
 74
     0
 42
0.0000000001
 43
0.0000000001
 40
0.0
 40
0.0
 40
0.0
 40
0.0
 40
1.707928658540872
 40
1.707928658540872
 40
1.707928658540872
 40
1.707928658540872
 10
-87.28107789991723
 20
10.00661353877754
 30
0.0
 10
-88.42402752249666
 20
10.00661353877754
 30
0.0
 10
-89.51772184648259
 20
9.838238099217074
 30
0.0
 10
-90.57119960003623
 20
9.532385415229921
 30
0.0
  0
SPLINE
  5
2E81
330
1F
100
AcDbEntity
  8
AM_0
100
AcDbSpline
210
0.0
220
0.0
230
1.0
 70
     8
 71
     3
 72
     8
 73
     4
 74
     0
 42
0.0000000001
 43
0.0000000001
 40
0.0
 40
0.0
 40
0.0
 40
0.0
 40
9.246817942408423
 40
9.246817942408423
 40
9.246817942408423
 40
9.246817942408423
 10
-92.96940086968893
 20
9.780280621309907
 30
0.0
 10
-86.78140992259107
 20
9.780280621309907
 30
0.0
 10
-81.99554944397441
 20
4.893447080043721
 30
0.0
 10
-77.20968896535776
 20
0.0066135387775366
 30
0.0
  0
SPLINE
  5
2E82
330
1F
100
AcDbEntity
  8
AM_0
100
AcDbSpline
210
0.0
220
0.0
230
1.0
 70
     8
 71
     3
 72
     8
 73
     4
 74
     0
 42
0.0000000001
 43
0.0000000001
 40
0.0
 40
0.0
 40
0.0
 40
0.0
 40
9.307120929696711
 40
9.307120929696711
 40
9.307120929696711
 40
9.307120929696711
 10
-95.16093385209762
 20
10.00661353877754
 30
0.0
 10
-88.93258801299834
 20
10.00661353877753
 30
0.0
 10
-84.16690498038263
 20
5.006613538777536
 30
0.0
 10
-79.40122194776693
 20
0.0066135387775377
 30
0.0
  0
SPLINE
  5
2E83
330
1F
100
AcDbEntity
  8
AM_0
100
AcDbSpline
210
0.0
220
0.0
230
1.0
 70
     8
 71
     3
 72
     8
 73
     4
 74
     0
 42
0.0000000001
 43
0.0000000001
 40
0.0
 40
0.0
 40
0.0
 40
0.0
 40
9.307120929696711
 40
9.307120929696711
 40
9.307120929696711
 40
9.307120929696711
 10
-87.27512085788767
 20
9.999999999999998
 30
0.0
 10
-81.04677501878837
 20
9.999999999999994
 30
0.0
 10
-76.28109198617266
 20
4.999999999999995
 30
0.0
 10
-71.51540895355698
 20
-0.0000000000000039
 30
0.0
  0
SPLINE
  5
2E84
330
1F
100
AcDbEntity
  8
AM_0
100
AcDbSpline
210
0.0
220
0.0
230
1.0
 70
     8
 71
     3
 72
     8
 73
     4
 74
     0
 42
0.0000000001
 43
0.0000000001
 40
0.0
 40
0.0
 40
0.0
 40
0.0
 40
9.246817942408423
 40
9.246817942408423
 40
9.246817942408423
 40
9.246817942408423
 10
-85.08358787547942
 20
9.773667082532366
 30
0.0
 10
-78.89559692838155
 20
9.773667082532366
 30
0.0
 10
-74.10973644976491
 20
4.88683354126618
 30
0.0
 10
-69.32387597114825
 20
-0.000000000000005
 30
0.0
  0
SPLINE
  5
2E85
330
1F
100
AcDbEntity
  8
AM_0
100
AcDbSpline
210
0.0
220
0.0
230
1.0
 70
     8
 71
     3
 72
     8
 73
     4
 74
     0
 42
0.0000000001
 43
0.0000000001
 40
0.0
 40
0.0
 40
0.0
 40
0.0
 40
1.707928658540872
 40
1.707928658540872
 40
1.707928658540872
 40
1.707928658540872
 10
-79.39509162351092
 20
9.999999999999994
 30
0.0
 10
-80.53804124609039
 20
9.999999999999994
 30
0.0
 10
-81.63173557007629
 20
9.83162456043953
 30
0.0
 10
-82.68521332362997
 20
9.525771876452376
 30
0.0
  0
SPLINE
  5
2E86
330
1F
100
AcDbEntity
  8
AM_0
100
AcDbSpline
210
0.0
220
0.0
230
1.0
 70
     8
 71
     3
 72
     8
 73
     4
 74
     0
 42
0.0000000001
 43
0.0000000001
 40
0.0
 40
0.0
 40
0.0
 40
0.0
 40
1.168827779827945
 40
1.168827779827945
 40
1.168827779827945
 40
1.168827779827945
 10
-71.52136599561528
 20
-9.993386461222463
 30
0.0
 10
-70.7391838692513
 20
-9.993386461222463
 30
0.0
 10
-69.98006998784214
 20
-9.914529444922074
 30
0.0
 10
-69.24112734320033
 20
-9.766718611385819
 30
0.0
  0
SPLINE
  5
2E87
330
1F
100
AcDbEntity
  8
AM_0
100
AcDbSpline
210
0.0
220
0.0
230
1.0
 70
     8
 71
     3
 72
     8
 73
     4
 74
     0
 42
0.0000000001
 43
0.0000000001
 40
0.0
 40
0.0
 40
0.0
 40
0.0
 40
1.229985673975173
 40
1.229985673975173
 40
1.229985673975173
 40
1.229985673975173
 10
-69.32983301320657
 20
-9.767053543754947
 30
0.0
 10
-68.50672388928718
 20
-9.767053543754947
 30
0.0
 10
-67.70842346030777
 20
-9.680588007719601
 30
0.0
 10
-66.93163174355525
 20
-9.51915833767496
 30
0.0
  0
SPLINE
  5
2E88
330
1F
100
AcDbEntity
  8
AM_0
100
AcDbSpline
210
0.0
220
0.0
230
1.0
 70
     8
 71
     3
 72
     8
 73
     4
 74
     0
 42
0.0000000001
 43
0.0000000001
 40
0.0
 40
0.0
 40
0.0
 40
0.0
 40
1.168827779827945
 40
1.168827779827945
 40
1.168827779827945
 40
1.168827779827945
 10
-79.40122194777562
 20
-9.993386461222463
 30
0.0
 10
-78.61903982141164
 20
-9.993386461222463
 30
0.0
 10
-77.85992594000248
 20
-9.914529444922074
 30
0.0
 10
-77.12098329536066
 20
-9.766718611385819
 30
0.0
  0
SPLINE
  5
2E89
330
1F
100
AcDbEntity
  8
AM_0
100
AcDbSpline
210
0.0
220
0.0
230
1.0
 70
     8
 71
     3
 72
     8
 73
     4
 74
     0
 42
0.0000000001
 43
0.0000000001
 40
0.0
 40
0.0
 40
0.0
 40
0.0
 40
1.229985673975173
 40
1.229985673975173
 40
1.229985673975173
 40
1.229985673975173
 10
-77.20968896536688
 20
-9.767053543754947
 30
0.0
 10
-76.38657984144753
 20
-9.767053543754947
 30
0.0
 10
-75.58827941246811
 20
-9.680588007719599
 30
0.0
 10
-74.8114876957156
 20
-9.519158337674959
 30
0.0
  0
SPLINE
  5
2E8A
330
1F
100
AcDbEntity
  8
AM_0
100
AcDbSpline
210
0.0
220
0.0
230
1.0
 70
     8
 71
     3
 72
     8
 73
     4
 74
     0
 42
0.0000000001
 43
0.0000000001
 40
0.0
 40
0.0
 40
0.0
 40
0.0
 40
1.168827779827945
 40
1.168827779827945
 40
1.168827779827945
 40
1.168827779827945
 10
-87.28107789993641
 20
-9.99338646122246
 30
0.0
 10
-86.49889577357242
 20
-9.99338646122246
 30
0.0
 10
-85.73978189216326
 20
-9.914529444922072
 30
0.0
 10
-85.00083924752098
 20
-9.766718611385817
 30
0.0
  0
SPLINE
  5
2E8B
330
1F
100
AcDbEntity
  8
AM_0
100
AcDbSpline
210
0.0
220
0.0
230
1.0
 70
     8
 71
     3
 72
     8
 73
     4
 74
     0
 42
0.0000000001
 43
0.0000000001
 40
0.0
 40
0.0
 40
0.0
 40
0.0
 40
1.229985673975173
 40
1.229985673975173
 40
1.229985673975173
 40
1.229985673975173
 10
-85.08954491752723
 20
-9.767053543754945
 30
0.0
 10
-84.26643579360783
 20
-9.767053543754945
 30
0.0
 10
-83.46813536462889
 20
-9.680588007719599
 30
0.0
 10
-82.69134364787593
 20
-9.519158337674959
 30
0.0
  0
SPLINE
  5
2E8C
330
1F
100
AcDbEntity
  8
AM_0
100
AcDbSpline
210
0.0
220
0.0
230
1.0
 70
     8
 71
     3
 72
     8
 73
     4
 74
     0
 42
0.0000000001
 43
0.0000000001
 40
0.0
 40
0.0
 40
0.0
 40
0.0
 40
6.164977837388276
 40
6.164977837388276
 40
6.164977837388276
 40
6.164977837388276
 10
-85.08954491750806
 20
-9.767053543754945
 30
0.0
 10
-89.215161673934
 20
-9.767053543754945
 30
0.0
 10
-92.71752187942807
 20
-7.594822723319997
 30
0.0
 10
-96.01215905562279
 20
-4.698616574131708
 30
0.0
  0
SPLINE
  5
2E8D
330
1F
100
AcDbEntity
  8
AM_0
100
AcDbSpline
210
0.0
220
0.0
230
1.0
 70
     8
 71
     3
 72
     8
 73
     4
 74
     0
 42
0.0000000001
 43
0.0000000001
 40
0.0
 40
0.0
 40
0.0
 40
0.0
 40
9.246817942408453
 40
9.246817942408453
 40
9.246817942408453
 40
9.246817942408453
 10
-69.32983301318739
 20
-9.767053543754947
 30
0.0
 10
-75.51782396028527
 20
-9.767053543754947
 30
0.0
 10
-80.30368443890189
 20
-4.880220002488704
 30
0.0
 10
-85.08954491751856
 20
0.0066135387775377
 30
0.0
  0
SPLINE
  5
2E8E
330
1F
100
AcDbEntity
  8
AM_0
100
AcDbSpline
210
0.0
220
0.0
230
1.0
 70
     8
 71
     3
 72
     8
 73
     4
 74
     0
 42
0.0000000001
 43
0.0000000001
 40
0.0
 40
0.0
 40
0.0
 40
0.0
 40
9.307120929696711
 40
9.307120929696711
 40
9.307120929696711
 40
9.307120929696711
 10
-71.52136599559657
 20
-9.993386461222463
 30
0.0
 10
-77.74971183469587
 20
-9.993386461222463
 30
0.0
 10
-82.51539486731157
 20
-4.993386461222463
 30
0.0
 10
-87.28107789992726
 20
0.0066135387775377
 30
0.0
  0
SPLINE
  5
2E8F
330
1F
100
AcDbEntity
  8
AM_0
100
AcDbSpline
210
0.0
220
0.0
230
1.0
 70
     8
 71
     3
 72
     8
 73
     4
 74
     0
 42
0.0000000001
 43
0.0000000001
 40
0.0
 40
0.0
 40
0.0
 40
0.0
 40
9.307120929696711
 40
9.307120929696711
 40
9.307120929696711
 40
9.307120929696711
 10
-79.40122194775689
 20
-9.993386461222463
 30
0.0
 10
-85.62956778685618
 20
-9.993386461222463
 30
0.0
 10
-90.39525081947191
 20
-4.993386461222462
 30
0.0
 10
-95.1609338520876
 20
0.0066135387775388
 30
0.0
  0
SPLINE
  5
2E90
330
1F
100
AcDbEntity
  8
AM_0
100
AcDbSpline
210
0.0
220
0.0
230
1.0
 70
     8
 71
     3
 72
     8
 73
     4
 74
     0
 42
0.0000000001
 43
0.0000000001
 40
0.0
 40
0.0
 40
0.0
 40
0.0
 40
9.246817942408453
 40
9.246817942408453
 40
9.246817942408453
 40
9.246817942408453
 10
-77.20968896534819
 20
-9.767053543754947
 30
0.0
 10
-83.39767991244604
 20
-9.767053543754947
 30
0.0
 10
-88.18354039106267
 20
-4.880220002488703
 30
0.0
 10
-92.96940086967934
 20
0.0066135387775388
 30
0.0
  0
POLYLINE
  5
2E91
330
1F
100
AcDbEntity
  8
AM_0
100
AcDb2dPolyline
 66
     1
 10
0.0
 20
0.0
 30
0.0
 70
     2
  0
VERTEX
  5
2E92
330
2E91
100
AcDbEntity
  8
AM_0
100
AcDbVertex
100
AcDb2dVertex
 10
-99.00270357157271
 20
5.721057450737273
 30
0.0
 42
-0.0153886058442494
  0
VERTEX
  5
2E93
330
2E91
100
AcDbEntity
  8
AM_0
100
AcDbVertex
100
AcDb2dVertex
 10
-99.60792744411946
 20
6.225104826238206
 30
0.0
 42
-0.0281494516019314
 70
     1
  0
VERTEX
  5
2E94
330
2E91
100
AcDbEntity
  8
AM_0
100
AcDbVertex
100
AcDb2dVertex
 10
-99.91365507154638
 20
6.528438812066182
 30
0.0
 42
-0.0114908448640856
  0
VERTEX
  5
2E95
330
2E91
100
AcDbEntity
  8
AM_0
100
AcDbVertex
100
AcDb2dVertex
 10
-100.715953686333
 20
7.461777479354988
 30
0.0
 42
-0.0206431175108691
 70
     1
  0
VERTEX
  5
2E96
330
2E91
100
AcDbEntity
  8
AM_0
100
AcDbVertex
100
AcDb2dVertex
 10
-101.1282570715873
 20
8.008972526459185
 30
0.0
 42
-0.0451023741462838
  0
VERTEX
  5
2E97
330
2E91
100
AcDbEntity
  8
AM_0
100
AcDbVertex
100
AcDb2dVertex
 10
-101.3844303988113
 20
8.462569715857993
 30
0.0
 42
-0.1054664772963733
 70
     1
  0
VERTEX
  5
2E98
330
2E91
100
AcDbEntity
  8
AM_0
100
AcDbVertex
100
AcDb2dVertex
 10
-101.4319075716546
 20
8.682124879523282
 30
0.0
 42
-0.1705263347115351
  0
VERTEX
  5
2E99
330
2E91
100
AcDbEntity
  8
AM_0
100
AcDbVertex
100
AcDb2dVertex
 10
-101.3764265594945
 20
8.840496464435002
 30
0.0
 42
-0.0844781481462491
 70
     1
  0
VERTEX
  5
2E9A
330
2E91
100
AcDbEntity
  8
AM_0
100
AcDbVertex
100
AcDb2dVertex
 10
-101.1282570715873
 20
9.061149520069561
 30
0.0
 42
-0.0786463695672426
  0
VERTEX
  5
2E9B
330
2E91
100
AcDbEntity
  8
AM_0
100
AcDbVertex
100
AcDb2dVertex
 10
-100.7546064786041
 20
9.219904176386901
 30
0.0
 42
-0.0372523989117619
 70
     1
  0
VERTEX
  5
2E9C
330
2E91
100
AcDbEntity
  8
AM_0
100
AcDbVertex
100
AcDb2dVertex
 10
-99.91365507131725
 20
9.365172384670726
 30
0.0
 42
-0.0449505637244585
  0
VERTEX
  5
2E9D
330
2E91
100
AcDbEntity
  8
AM_0
100
AcDbVertex
100
AcDb2dVertex
 10
-99.51454725603497
 20
9.36810727808179
 30
0.0
 42
-0.0346201416961743
 70
     1
  0
VERTEX
  5
2E9E
330
2E91
100
AcDbEntity
  8
AM_0
100
AcDbVertex
100
AcDb2dVertex
 10
-99.00270357111441
 20
9.290170608725501
 30
0.0
  0
SEQEND
  5
2E9F
330
2E91
100
AcDbEntity
  8
AM_0
  0
LINE
  5
2EA0
330
1F
100
AcDbEntity
  8
AM_0
100
AcDbLine
 10
-97.45864160408757
 20
-10.00000000000022
 30
0.0
 11
-100.3837917698317
 21
-10.00000000000022
 31
0.0
  0
SPLINE
  5
2EA1
330
1F
100
AcDbEntity
  8
AM_0
100
AcDbSpline
210
0.0
220
0.0
230
1.0
 70
     8
 71
     3
 72
     8
 73
     4
 74
     0
 42
0.0000000001
 43
0.0000000001
 40
0.0
 40
0.0
 40
0.0
 40
0.0
 40
9.307120929696704
 40
9.307120929696704
 40
9.307120929696704
 40
9.307120929696704
 10
-100.8492568218492
 20
10.00661353877754
 30
0.0
 10
-94.62091098274994
 20
10.00661353877754
 30
0.0
 10
-89.85522795013425
 20
5.006613538777538
 30
0.0
 10
-85.08954491751856
 20
0.0066135387775377
 30
0.0
  0
SPLINE
  5
2EA2
330
1F
100
AcDbEntity
  8
AM_0
100
AcDbSpline
210
0.0
220
0.0
230
1.0
 70
     8
 71
     3
 72
     8
 73
     4
 74
     0
 42
0.0000000001
 43
0.0000000001
 40
2.115787571663744
 40
2.115787571663744
 40
2.115787571663744
 40
2.115787571663744
 40
9.307120929696807
 40
9.307120929696807
 40
9.307120929696807
 40
9.307120929696807
 10
-99.00270357111441
 20
9.290170608725386
 30
0.0
 10
-94.64567875235831
 20
7.733313785131056
 30
0.0
 10
-90.96337832614279
 20
3.869963661954239
 30
0.0
 10
-87.28107789992726
 20
0.0066135387775377
 30
0.0
  0
SPLINE
  5
2EA3
330
1F
100
AcDbEntity
  8
AM_0
100
AcDbSpline
210
0.0
220
0.0
230
1.0
 70
     8
 71
     3
 72
     8
 73
     4
 74
     0
 42
0.0000000001
 43
0.0000000001
 40
5.424908244817789
 40
5.424908244817789
 40
5.424908244817789
 40
5.424908244817789
 40
9.246817942408325
 40
9.246817942408325
 40
9.246817942408325
 40
9.246817942408325
 10
-99.00270357933282
 20
5.721057456804966
 30
0.0
 10
-96.92560000509184
 20
4.046281372231671
 30
0.0
 10
-94.94750043738534
 20
2.026447455504603
 30
0.0
 10
-92.96940086967888
 20
0.0066135387775388
 30
0.0
  0
SPLINE
  5
2EA4
330
1F
100
AcDbEntity
  8
AM_0
100
AcDbSpline
210
0.0
220
0.0
230
1.0
 70
     8
 71
     3
 72
     8
 73
     4
 74
     0
 42
0.0000000001
 43
0.0000000001
 40
0.0
 40
0.0
 40
0.0
 40
0.0
 40
1.468225230606809
 40
1.468225230606809
 40
1.468225230606809
 40
1.468225230606809
 10
-95.16093385207708
 20
10.00661353877754
 30
0.0
 10
-96.14347341237571
 20
10.00661353877754
 30
0.0
 10
-97.08961318334191
 20
9.882183666181415
 30
0.0
 10
-98.00509533696361
 20
9.65295309307876
 30
0.0
  0
POLYLINE
  5
2EA5
330
1F
100
AcDbEntity
  8
AM_0
100
AcDb2dPolyline
 66
     1
 10
0.0
 20
0.0
 30
0.0
 70
     2
  0
VERTEX
  5
2EA6
330
2EA5
100
AcDbEntity
  8
AM_0
100
AcDbVertex
100
AcDb2dVertex
 10
-96.01215905562279
 20
-4.698616574131596
 30
0.0
 42
-0.0119583190993231
  0
VERTEX
  5
2EA7
330
2EA5
100
AcDbEntity
  8
AM_0
100
AcDbVertex
100
AcDb2dVertex
 10
-97.40239224928082
 20
-3.182555402793784
 30
0.0
 42
-0.0231314362402824
 70
     1
  0
VERTEX
  5
2EA8
330
2EA5
100
AcDbEntity
  8
AM_0
100
AcDbVertex
100
AcDb2dVertex
 10
-98.06443491475086
 20
-2.350196060429968
 30
0.0
 42
-0.0075575501505489
  0
VERTEX
  5
2EA9
330
2EA5
100
AcDbEntity
  8
AM_0
100
AcDbVertex
100
AcDb2dVertex
 10
-99.83411882153689
 20
0.179237493984967
 30
0.0
 42
-0.0130089343126809
 70
     1
  0
VERTEX
  5
2EAA
330
2EA5
100
AcDbEntity
  8
AM_0
100
AcDbVertex
100
AcDb2dVertex
 10
-100.8008027269233
 20
1.689755171479784
 30
0.0
 42
-0.0396601587107602
  0
VERTEX
  5
2EAB
330
2EA5
100
AcDbEntity
  8
AM_0
100
AcDbVertex
100
AcDb2dVertex
 10
-101.4308966008194
 20
2.949492373008436
 30
0.0
 42
-0.1302552165930482
 70
     1
  0
VERTEX
  5
2EAC
330
2EA5
100
AcDbEntity
  8
AM_0
100
AcDbVertex
100
AcDb2dVertex
 10
-101.4848946799681
 20
3.381285889688026
 30
0.0
 42
-0.2386227764452401
  0
VERTEX
  5
2EAD
330
2EA5
100
AcDbEntity
  8
AM_0
100
AcDbVertex
100
AcDb2dVertex
 10
-101.3228252919892
 20
3.615474064983826
 30
0.0
 42
-0.121168591673844
 70
     1
  0
VERTEX
  5
2EAE
330
2EA5
100
AcDbEntity
  8
AM_0
100
AcDbVertex
100
AcDb2dVertex
 10
-100.8008027269233
 20
3.752457282347815
 30
0.0
 42
-0.1113949166525614
  0
VERTEX
  5
2EAF
330
2EA5
100
AcDbEntity
  8
AM_0
100
AcDbVertex
100
AcDb2dVertex
 10
-100.1865973437205
 20
3.624928427047987
 30
0.0
 42
-0.0288027903717024
 70
     1
  0
VERTEX
  5
2EB0
330
2EA5
100
AcDbEntity
  8
AM_0
100
AcDbVertex
100
AcDb2dVertex
 10
-98.06443491481568
 20
2.510971212104689
 30
0.0
 42
-0.031341807302757
  0
VERTEX
  5
2EB1
330
2EA5
100
AcDbEntity
  8
AM_0
100
AcDbVertex
100
AcDb2dVertex
 10
-97.04905653764951
 20
1.811199191801416
 30
0.0
 42
-0.027958764183412
 70
     1
  0
VERTEX
  5
2EB2
330
2EA5
100
AcDbEntity
  8
AM_0
100
AcDbVertex
100
AcDb2dVertex
 10
-96.01215905575243
 20
0.8983137492019984
 30
0.0
  0
SEQEND
  5
2EB3
330
2EA5
100
AcDbEntity
  8
AM_0
  0
SPLINE
  5
2EB4
330
1F
100
AcDbEntity
  8
AM_0
100
AcDbSpline
210
0.0
220
0.0
230
1.0
 70
     8
 71
     3
 72
     8
 73
     4
 74
     0
 42
0.0000000001
 43
0.0000000001
 40
0.0
 40
0.0
 40
0.0
 40
0.0
 40
9.246817942408453
 40
9.246817942408453
 40
9.246817942408453
 40
9.246817942408453
 10
-61.44997706102707
 20
-9.767053543754951
 30
0.0
 10
-67.63796800812494
 20
-9.767053543754951
 30
0.0
 10
-72.42382848674158
 20
-4.880220002488705
 30
0.0
 10
-77.20968896535821
 20
0.0066135387775366
 30
0.0
  0
SPLINE
  5
2EB5
330
1F
100
AcDbEntity
  8
AM_0
100
AcDbSpline
210
0.0
220
0.0
230
1.0
 70
     8
 71
     3
 72
     8
 73
     4
 74
     0
 42
0.0000000001
 43
0.0000000001
 40
0.0
 40
0.0
 40
0.0
 40
0.0
 40
9.307120929696711
 40
9.307120929696711
 40
9.307120929696711
 40
9.307120929696711
 10
-63.64151004343625
 20
-9.993386461222465
 30
0.0
 10
-69.86985588253553
 20
-9.993386461222465
 30
0.0
 10
-74.63553891515123
 20
-4.993386461222464
 30
0.0
 10
-79.40122194776693
 20
0.0066135387775377
 30
0.0
  0
SPLINE
  5
2EB6
330
1F
100
AcDbEntity
  8
AM_0
100
AcDbSpline
210
0.0
220
0.0
230
1.0
 70
     8
 71
     3
 72
     8
 73
     4
 74
     0
 42
0.0000000001
 43
0.0000000001
 40
0.0
 40
0.0
 40
0.0
 40
0.0
 40
9.307120929696711
 40
9.307120929696711
 40
9.307120929696711
 40
9.307120929696711
 10
-71.51523567137118
 20
9.999999999999998
 30
0.0
 10
-65.28688983227188
 20
9.999999999999994
 30
0.0
 10
-60.52120679965618
 20
4.999999999999995
 30
0.0
 10
-55.75552376704049
 20
-0.0000000000000035
 30
0.0
  0
SPLINE
  5
2EB7
330
1F
100
AcDbEntity
  8
AM_0
100
AcDbSpline
210
0.0
220
0.0
230
1.0
 70
     8
 71
     3
 72
     8
 73
     4
 74
     0
 42
0.0000000001
 43
0.0000000001
 40
0.0
 40
0.0
 40
0.0
 40
0.0
 40
9.246817942408423
 40
9.246817942408423
 40
9.246817942408423
 40
9.246817942408423
 10
-69.32370268896292
 20
9.773667082532366
 30
0.0
 10
-63.13571174186508
 20
9.773667082532366
 30
0.0
 10
-58.34985126324841
 20
4.88683354126618
 30
0.0
 10
-53.56399078463176
 20
-0.0000000000000047
 30
0.0
  0
SPLINE
  5
2EB8
330
1F
100
AcDbEntity
  8
AM_0
100
AcDbSpline
210
0.0
220
0.0
230
1.0
 70
     8
 71
     3
 72
     8
 73
     4
 74
     0
 42
0.0000000001
 43
0.0000000001
 40
0.0
 40
0.0
 40
0.0
 40
0.0
 40
1.707928658540872
 40
1.707928658540872
 40
1.707928658540872
 40
1.707928658540872
 10
-63.63520643699444
 20
9.999999999999994
 30
0.0
 10
-64.7781560595739
 20
9.999999999999994
 30
0.0
 10
-65.87185038355982
 20
9.83162456043953
 30
0.0
 10
-66.92532813711348
 20
9.525771876452376
 30
0.0
  0
SPLINE
  5
2EB9
330
1F
100
AcDbEntity
  8
AM_0
100
AcDbSpline
210
0.0
220
0.0
230
1.0
 70
     8
 71
     3
 72
     8
 73
     4
 74
     0
 42
0.0000000001
 43
0.0000000001
 40
0.0
 40
0.0
 40
0.0
 40
0.0
 40
9.307120929696711
 40
9.307120929696711
 40
9.307120929696711
 40
9.307120929696711
 10
-55.75569704922627
 20
-10.0
 30
0.0
 10
-61.98404288832556
 20
-10.0
 30
0.0
 10
-66.74972592094126
 20
-5.000000000000004
 30
0.0
 10
-71.51540895355698
 20
-0.0000000000000039
 30
0.0
  0
SPLINE
  5
2EBA
330
1F
100
AcDbEntity
  8
AM_0
100
AcDbSpline
210
0.0
220
0.0
230
1.0
 70
     8
 71
     3
 72
     8
 73
     4
 74
     0
 42
0.0000000001
 43
0.0000000001
 40
0.0
 40
0.0
 40
0.0
 40
0.0
 40
9.246817942408453
 40
9.246817942408453
 40
9.246817942408453
 40
9.246817942408453
 10
-53.56416406681756
 20
-9.773667082532492
 30
0.0
 10
-59.75215501391542
 20
-9.773667082532492
 30
0.0
 10
-64.53801549253205
 20
-4.886833541266248
 30
0.0
 10
-69.32387597114871
 20
-0.000000000000005
 30
0.0
  0
SPLINE
  5
2EBB
330
1F
100
AcDbEntity
  8
AM_0
100
AcDbSpline
210
0.0
220
0.0
230
1.0
 70
     8
 71
     3
 72
     8
 73
     4
 74
     0
 42
0.0000000001
 43
0.0000000001
 40
0.0
 40
0.0
 40
0.0
 40
0.0
 40
9.246817942408423
 40
9.246817942408423
 40
9.246817942408423
 40
9.246817942408423
 10
-77.20373192331908
 20
9.773667082532366
 30
0.0
 10
-71.01574097622123
 20
9.773667082532366
 30
0.0
 10
-66.22988049760457
 20
4.886833541266179
 30
0.0
 10
-61.44402001898792
 20
-0.0000000000000056
 30
0.0
  0
SPLINE
  5
2EBC
330
1F
100
AcDbEntity
  8
AM_0
100
AcDbSpline
210
0.0
220
0.0
230
1.0
 70
     8
 71
     3
 72
     8
 73
     4
 74
     0
 42
0.0000000001
 43
0.0000000001
 40
0.0
 40
0.0
 40
0.0
 40
0.0
 40
9.307120929696711
 40
9.307120929696711
 40
9.307120929696711
 40
9.307120929696711
 10
-79.39526490572733
 20
9.999999999999998
 30
0.0
 10
-73.16691906662804
 20
9.999999999999994
 30
0.0
 10
-68.40123603401234
 20
4.999999999999994
 30
0.0
 10
-63.63555300139665
 20
-0.0000000000000044
 30
0.0
  0
VIEWPORT
  5
110
330
101
100
AcDbEntity
 67
     1
  8
0
100
AcDbViewport
 10
420.5
 20
297.0
 30
0.0
 40
948.9782706766916
 41
628.452
 68
     1
 69
     1
1001
ACAD
1000
MVIEW
1002
{
1070
    16
1010
0.0
1020
0.0
1030
0.0
1010
0.0
1020
0.0
1030
1.0
1040
0.0
1040
628.452
1040
420.5
1040
297.0
1040
50.0
1040
0.0
1040
0.0
1070
     0
1070
   100
1070
     1
1070
     1
1070
     0
1070
     0
1070
     0
1070
     0
1040
0.0
1040
0.0
1040
0.0
1040
10.0
1040
10.0
1040
10.0
1040
10.0
1070
     0
1002
{
1002
}
1002
}
  0
ENDSEC
  0
SECTION
  2
OBJECTS
  0
DICTIONARY
  5
C
330
0
100
AcDbDictionary
  3
ACAD_GROUP
350
D
  3
ACAD_LAYOUT
350
1A
  3
ACAD_MLINESTYLE
350
17
  3
ACAD_PLOTSETTINGS
350
19
  3
ACAD_PLOTSTYLENAME
350
E
  3
ACDBVARIABLEDICTIONARY
350
34
  3
ACMDICTIONARY
350
43
  3
AMG
350
2B
  3
AMGSNAPSETTINGS
350
6E
  3
DWGPROPS
350
2ECC
  3
ACDBHEADERROUNDTRIPXREC
350
2ED9
  0
DICTIONARY
  5
74
330
1F
100
AcDbDictionary
280
     1
  3
ACAD_INDEX
360
2ECE
  3
ACAD_LAYOUTSELFREF
360
2EFC
  0
DICTIONARY
  5
2F01
330
101
100
AcDbDictionary
280
     1
  3
ACAD_LAYOUTSELFREF
360
2F02
  0
DICTIONARY
  5
D
102
{ACAD_REACTORS
330
C
102
}
330
C
100
AcDbDictionary
  0
DICTIONARY
  5
1A
102
{ACAD_REACTORS
330
C
102
}
330
C
100
AcDbDictionary
  0
DICTIONARY
  5
17
102
{ACAD_REACTORS
330
C
102
}
330
C
100
AcDbDictionary
  3
STANDARD
350
18
  0
DICTIONARY
  5
19
102
{ACAD_REACTORS
330
C
102
}
330
C
100
AcDbDictionary
  0
ACDBDICTIONARYWDFLT
  5
E
102
{ACAD_REACTORS
330
C
102
}
330
C
100
AcDbDictionary
281
     1
  3
Normal
350
F
100
AcDbDictionaryWithDefault
340
F
  0
DICTIONARY
  5
34
102
{ACAD_REACTORS
330
C
102
}
330
C
100
AcDbDictionary
  3
INDEXCTL
350
35
  3
SORTENTS
350
B5E
  0
DICTIONARY
  5
43
102
{ACAD_REACTORS
330
C
102
}
330
C
100
AcDbDictionary
  3
ACMSTDDICTIONARY
350
260
  0
DICTIONARY
  5
2B
102
{ACAD_REACTORS
330
C
102
}
330
C
100
AcDbDictionary
  3
ACMGSETTINGS
350
2C
  0
DICTIONARY
  5
6E
102
{ACAD_REACTORS
330
C
102
}
330
C
100
AcDbDictionary
  0
XRECORD
  5
2ECC
102
{ACAD_REACTORS
330
C
102
}
330
C
100
AcDbXrecord
  1
DWGPROPS COOKIE
  2

  3

  4

  6

  7

  8

  9

300
AmdtFileType=82
301
=
302
=
303
=
304
=
305
=
306
=
307
=
308
=
309
=
 40
0.1784799421296296
 41
2452838.620506898
 42
2452839.892394097
  1

 90
        1
  0
DICTIONARY
  5
2ED9
102
{ACAD_REACTORS
330
C
102
}
330
C
100
AcDbDictionary
  3
TSTACKALIGN
350
2EDA
  3
TSTACKSIZE
350
2EDB
  3
HYPERLINKBASE
350
2EDC
  3
STYLESHEET
350
2EDD
  3
LAYOUTDICT
350
2EDE
  3
PLOTSETDICT
350
2EDF
  3
PLOTSTYLNAMDICT
350
2EE0
  3
LWETCUNION
350
2EE1
  3
INSUNITS
350
2EE2
  3
CEPSNTYPE
350
2EE3
  3
FINGERPRINTGUID
350
2EE4
  3
VERSIONGUID
350
2EE5
  3
PSVPSCALE
350
2EE6
  3
DIMSTYLEDATA
350
2EE7
  3
PUCSORTHOREF
350
2EE8
  3
PUCSORTHOVIEW
350
2EE9
  3
PUCSBASE
350
2EEA
  3
PUCSORGTOP
350
2EEB
  3
PUCSORGBOTTOM
350
2EEC
  3
PUCSORGLEFT
350
2EED
  3
PUCSORGRIGHT
350
2EEE
  3
PUCSORGFRONT
350
2EEF
  3
PUCSORGBACK
350
2EF0
  3
UCSORTHOREF
350
2EF1
  3
UCSORTHOVIEW
350
2EF2
  3
UCSBASE
350
2EF3
  3
UCSORGTOP
350
2EF4
  3
UCSORGBOTTOM
350
2EF5
  3
UCSORGLEFT
350
2EF6
  3
UCSORGRIGHT
350
2EF7
  3
UCSORGFRONT
350
2EF8
  3
UCSORGBACK
350
2EF9
  0
DICTIONARY
  5
2ECE
102
{ACAD_REACTORS
330
74
102
}
330
74
100
AcDbDictionary
  3
*A1
350
2ECF
  0
XRECORD
  5
2EFC
102
{ACAD_REACTORS
330
74
102
}
330
74
100
AcDbXrecord
340
1F
  0
XRECORD
  5
2F02
102
{ACAD_REACTORS
330
2F01
102
}
330
2F01
100
AcDbXrecord
340
101
  0
MLINESTYLE
  5
18
102
{ACAD_REACTORS
330
17
102
}
330
17
100
AcDbMlineStyle
  2
STANDARD
 70
     0
  3

 62
   256
 51
90.0
 52
90.0
 71
     2
 49
0.5
 62
   256
  6
BYLAYER
 49
-0.5
 62
   256
  6
BYLAYER
  0
ACDBPLACEHOLDER
  5
F
102
{ACAD_REACTORS
330
E
102
}
330
E
100
AcDbPlaceHolder
280
     0
  0
DICTIONARYVAR
  5
35
102
{ACAD_REACTORS
330
34
102
}
330
34
100
DictionaryVariables
280
     0
  1
1
  0
DICTIONARYVAR
  5
B5E
102
{ACAD_REACTORS
330
34
102
}
330
34
100
DictionaryVariables
280
     0
  1
96
  0
DICTIONARY
  5
260
102
{ACAD_REACTORS
330
43
102
}
330
43
100
AcDbDictionary
  0
DICTIONARY
  5
2C
102
{ACAD_REACTORS
330
2B
102
}
330
2B
100
AcDbDictionary
  3
DWGSETTINGS
350
2D
  0
XRECORD
  5
2EDA
102
{ACAD_REACTORS
330
2ED9
102
}
330
2ED9
100
AcDbXrecord
 90
        1
  0
XRECORD
  5
2EDB
102
{ACAD_REACTORS
330
2ED9
102
}
330
2ED9
100
AcDbXrecord
 90
       70
  0
XRECORD
  5
2EDC
102
{ACAD_REACTORS
330
2ED9
102
}
330
2ED9
100
AcDbXrecord
  1

  0
XRECORD
  5
2EDD
102
{ACAD_REACTORS
330
2ED9
102
}
330
2ED9
100
AcDbXrecord
  1
ACAD_M_9400.ctb
  0
XRECORD
  5
2EDE
102
{ACAD_REACTORS
330
2ED9
102
}
330
2ED9
100
AcDbXrecord
340
1A
  0
XRECORD
  5
2EDF
102
{ACAD_REACTORS
330
2ED9
102
}
330
2ED9
100
AcDbXrecord
340
19
  0
XRECORD
  5
2EE0
102
{ACAD_REACTORS
330
2ED9
102
}
330
2ED9
100
AcDbXrecord
340
E
  0
XRECORD
  5
2EE1
102
{ACAD_REACTORS
330
2ED9
102
}
330
2ED9
100
AcDbXrecord
 90
    10781
  0
XRECORD
  5
2EE2
102
{ACAD_REACTORS
330
2ED9
102
}
330
2ED9
100
AcDbXrecord
 90
        4
  0
XRECORD
  5
2EE3
102
{ACAD_REACTORS
330
2ED9
102
}
330
2ED9
100
AcDbXrecord
 90
        0
  0
XRECORD
  5
2EE4
102
{ACAD_REACTORS
330
2ED9
102
}
330
2ED9
100
AcDbXrecord
  1
{AFB28963-8C59-40AE-9337-C84526B81ACE}
  0
XRECORD
  5
2EE5
102
{ACAD_REACTORS
330
2ED9
102
}
330
2ED9
100
AcDbXrecord
  1
{F81B18FF-A7DD-458C-8EF4-4CBE8E22998F}
  0
XRECORD
  5
2EE6
102
{ACAD_REACTORS
330
2ED9
102
}
330
2ED9
100
AcDbXrecord
 40
0.0
  0
XRECORD
  5
2EE7
102
{ACAD_REACTORS
330
2ED9
102
}
330
2ED9
100
AcDbXrecord
1000
DSTYLE
1002
{
1070
    79
 70
     2
1070
   341
340
59
1070
   342
340
59
1070
   371
 70
    -1
1070
   372
 70
    -1
1002
}
  0
XRECORD
  5
2EE8
102
{ACAD_REACTORS
330
2ED9
102
}
330
2ED9
100
AcDbXrecord
340
0
  0
XRECORD
  5
2EE9
102
{ACAD_REACTORS
330
2ED9
102
}
330
2ED9
100
AcDbXrecord
 70
     0
  0
XRECORD
  5
2EEA
102
{ACAD_REACTORS
330
2ED9
102
}
330
2ED9
100
AcDbXrecord
340
0
  0
XRECORD
  5
2EEB
102
{ACAD_REACTORS
330
2ED9
102
}
330
2ED9
100
AcDbXrecord
 10
0.0
 20
0.0
 30
0.0
  0
XRECORD
  5
2EEC
102
{ACAD_REACTORS
330
2ED9
102
}
330
2ED9
100
AcDbXrecord
 10
0.0
 20
0.0
 30
0.0
  0
XRECORD
  5
2EED
102
{ACAD_REACTORS
330
2ED9
102
}
330
2ED9
100
AcDbXrecord
 10
0.0
 20
0.0
 30
0.0
  0
XRECORD
  5
2EEE
102
{ACAD_REACTORS
330
2ED9
102
}
330
2ED9
100
AcDbXrecord
 10
0.0
 20
0.0
 30
0.0
  0
XRECORD
  5
2EEF
102
{ACAD_REACTORS
330
2ED9
102
}
330
2ED9
100
AcDbXrecord
 10
0.0
 20
0.0
 30
0.0
  0
XRECORD
  5
2EF0
102
{ACAD_REACTORS
330
2ED9
102
}
330
2ED9
100
AcDbXrecord
 10
0.0
 20
0.0
 30
0.0
  0
XRECORD
  5
2EF1
102
{ACAD_REACTORS
330
2ED9
102
}
330
2ED9
100
AcDbXrecord
340
0
  0
XRECORD
  5
2EF2
102
{ACAD_REACTORS
330
2ED9
102
}
330
2ED9
100
AcDbXrecord
 70
     0
  0
XRECORD
  5
2EF3
102
{ACAD_REACTORS
330
2ED9
102
}
330
2ED9
100
AcDbXrecord
340
0
  0
XRECORD
  5
2EF4
102
{ACAD_REACTORS
330
2ED9
102
}
330
2ED9
100
AcDbXrecord
 10
0.0
 20
0.0
 30
0.0
  0
XRECORD
  5
2EF5
102
{ACAD_REACTORS
330
2ED9
102
}
330
2ED9
100
AcDbXrecord
 10
0.0
 20
0.0
 30
0.0
  0
XRECORD
  5
2EF6
102
{ACAD_REACTORS
330
2ED9
102
}
330
2ED9
100
AcDbXrecord
 10
0.0
 20
0.0
 30
0.0
  0
XRECORD
  5
2EF7
102
{ACAD_REACTORS
330
2ED9
102
}
330
2ED9
100
AcDbXrecord
 10
0.0
 20
0.0
 30
0.0
  0
XRECORD
  5
2EF8
102
{ACAD_REACTORS
330
2ED9
102
}
330
2ED9
100
AcDbXrecord
 10
0.0
 20
0.0
 30
0.0
  0
XRECORD
  5
2EF9
102
{ACAD_REACTORS
330
2ED9
102
}
330
2ED9
100
AcDbXrecord
 10
0.0
 20
0.0
 30
0.0
  0
LAYER_INDEX
  5
2ECF
102
{ACAD_REACTORS
330
2ECE
102
}
330
2ECE
100
AcDbIndex
 40
2453152.359075081
100
AcDbLayerIndex
  8
0
360
2ED0
 90
        1
  8
AM_0
360
2ED1
 90
      122
  8
AM_11
360
2ED2
 90
        4
  8
AM_7
360
2ED3
 90
        1
  8
AM_5
360
2ED4
 90
        4
  8
Defpoints
360
2ED5
 90
        0
  8
AM_6
360
2ED6
 90
        1
  8
AM_CL
360
2ED7
 90
        0
  0
XRECORD
  5
2D
102
{ACAD_REACTORS
330
2C
102
}
330
2C
100
AcDbXrecord
  1
VERSION
140
15.0
  1
PRODUCT
  2
AutoCAD Mechanical 2000
  0
IDBUFFER
  5
2ED0
330
0
100
AcDbIdBuffer
330
28E7
  0
IDBUFFER
  5
2ED1
330
0
100
AcDbIdBuffer
330
2EA5
330
2EB4
330
2EB5
330
2EB6
330
2EB7
330
2EB8
330
2EB9
330
2EBA
330
2EBB
330
2EBC
330
28E4
330
28E6
330
28E8
330
28F6
330
28F7
330
2E29
330
2E2A
330
2E2B
330
2E2C
330
2E2D
330
2E2E
330
2E2F
330
2E30
330
2E31
330
2E32
330
2E33
330
2E34
330
2E35
330
2E36
330
2E37
330
2E38
330
2E39
330
2E3A
330
2E3B
330
2E3C
330
2E3D
330
2E3E
330
2E3F
330
2E40
330
2E41
330
2E42
330
2E43
330
2E44
330
2E45
330
2E46
330
2E47
330
2E48
330
2E49
330
2E4A
330
2E4B
330
2E4C
330
2E4D
330
2E4E
330
2E4F
330
2E50
330
2E51
330
2E52
330
2E53
330
2E54
330
2E55
330
2E56
330
2E57
330
2E58
330
2E59
330
2E5A
330
2E5B
330
2E5D
330
2E5E
330
2E5F
330
2E60
330
2E61
330
2E62
330
2E63
330
2E64
330
2E65
330
2E66
330
2E67
330
2E68
330
2E69
330
2E6A
330
2E6B
330
2E6C
330
2E6D
330
2E6E
330
2E6F
330
2E70
330
2E71
330
2E72
330
2E73
330
2E74
330
2E75
330
2E76
330
2E77
330
2E7A
330
2E7B
330
2E7C
330
2E7D
330
2E7E
330
2E7F
330
2E80
330
2E81
330
2E82
330
2E83
330
2E84
330
2E85
330
2E86
330
2E87
330
2E88
330
2E89
330
2E8A
330
2E8B
330
2E8C
330
2E8D
330
2E8E
330
2E8F
330
2E90
330
2E91
330
2EA0
330
2EA1
330
2EA2
330
2EA3
330
2EA4
  0
IDBUFFER
  5
2ED2
330
0
100
AcDbIdBuffer
330
2D55
330
2E5C
330
2E78
330
2E79
  0
IDBUFFER
  5
2ED3
330
0
100
AcDbIdBuffer
330
28F8
  0
IDBUFFER
  5
2ED4
330
0
100
AcDbIdBuffer
330
2895
330
28E9
330
2904
330
2A25
  0
IDBUFFER
  5
2ED5
330
0
100
AcDbIdBuffer
  0
IDBUFFER
  5
2ED6
330
0
100
AcDbIdBuffer
330
C58
  0
IDBUFFER
  5
2ED7
330
0
100
AcDbIdBuffer
  0
ENDSEC
  0
EOF
