  0
SECTION
  2
HEADER
  9
$ACADVER
  1
AC1014
  9
$ACADMAINTVER
 70
     9
  9
$DWGCODEPAGE
  3
ANSI_932
  9
$INSBASE
 10
0.0
 20
0.0
 30
0.0
  9
$EXTMIN
 10
-161.4882312597197
 20
-56.50000099999788
 30
-0.00000001
  9
$EXTMAX
 10
19.55776903085494
 20
9.085048994926157
 30
0.00000001
  9
$LIMMIN
 10
-171.8353405538371
 20
-80.15405804115658
  9
$LIMMAX
 10
34.20126362626786
 20
35.21199888891158
  9
$ORTHOMODE
 70
     0
  9
$REGENMODE
 70
     1
  9
$FILLMODE
 70
     1
  9
$QTEXTMODE
 70
     0
  9
$MIRRTEXT
 70
     0
  9
$DRAGMODE
 70
     2
  9
$LTSCALE
 40
1.0
  9
$OSMODE
 70
    55
  9
$ATTMODE
 70
     1
  9
$TEXTSIZE
 40
2.5
  9
$TRACEWID
 40
1.0
  9
$TEXTSTYLE
  7
STANDARD
  9
$CLAYER
  8
AM_0
  9
$CELTYPE
  6
BYLAYER
  9
$CECOLOR
 62
   256
  9
$CELTSCALE
 40
1.0
  9
$DELOBJ
 70
     1
  9
$DISPSILH
 70
     0
  9
$DIMSCALE
 40
1.0
  9
$DIMASZ
 40
2.5
  9
$DIMEXO
 40
1.0
  9
$DIMDLI
 40
12.0
  9
$DIMRND
 40
0.0
  9
$DIMDLE
 40
0.0
  9
$DIMEXE
 40
1.0
  9
$DIMTP
 40
0.1
  9
$DIMTM
 40
0.1
  9
$DIMTXT
 40
3.2
  9
$DIMCEN
 40
0.0
  9
$DIMTSZ
 40
0.0
  9
$DIMTOL
 70
     0
  9
$DIMLIM
 70
     0
  9
$DIMTIH
 70
     0
  9
$DIMTOH
 70
     0
  9
$DIMSE1
 70
     0
  9
$DIMSE2
 70
     0
  9
$DIMTAD
 70
     3
  9
$DIMZIN
 70
     8
  9
$DIMBLK
  1
OPEN30
  9
$DIMASO
 70
     1
  9
$DIMSHO
 70
     1
  9
$DIMPOST
  1

  9
$DIMAPOST
  1
"
  9
$DIMALT
 70
     0
  9
$DIMALTD
 70
     2
  9
$DIMALTF
 40
0.0393701
  9
$DIMLFAC
 40
1.0
  9
$DIMTOFL
 70
     1
  9
$DIMTVP
 40
0.0
  9
$DIMTIX
 70
     0
  9
$DIMSOXD
 70
     0
  9
$DIMSAH
 70
     0
  9
$DIMBLK1
  1

  9
$DIMBLK2
  1

  9
$DIMSTYLE
  2
AM_JIS
  9
$DIMCLRD
 70
   256
  9
$DIMCLRE
 70
   256
  9
$DIMCLRT
 70
     2
  9
$DIMTFAC
 40
0.71
  9
$DIMGAP
 40
1.5
  9
$DIMJUST
 70
     0
  9
$DIMSD1
 70
     0
  9
$DIMSD2
 70
     0
  9
$DIMTOLJ
 70
     0
  9
$DIMTZIN
 70
     0
  9
$DIMALTZ
 70
     0
  9
$DIMALTTZ
 70
     0
  9
$DIMFIT
 70
     3
  9
$DIMUPT
 70
     0
  9
$DIMUNIT
 70
     2
  9
$DIMDEC
 70
     3
  9
$DIMTDEC
 70
     3
  9
$DIMALTU
 70
     2
  9
$DIMALTTD
 70
     2
  9
$DIMTXSTY
  7
ASAMI
  9
$DIMAUNIT
 70
     0
  9
$LUNITS
 70
     2
  9
$LUPREC
 70
     2
  9
$SKETCHINC
 40
1.0
  9
$FILLETRAD
 40
2.5
  9
$AUNITS
 70
     0
  9
$AUPREC
 70
     0
  9
$MENU
  1
.
  9
$ELEVATION
 40
0.0
  9
$PELEVATION
 40
0.0
  9
$THICKNESS
 40
0.0
  9
$LIMCHECK
 70
     0
  9
$BLIPMODE
 70
     0
  9
$CHAMFERA
 40
1.0
  9
$CHAMFERB
 40
1.0
  9
$CHAMFERC
 40
20.0
  9
$CHAMFERD
 40
0.0
  9
$SKPOLY
 70
     0
  9
$TDCREATE
 40
2452836.771637361
  9
$TDUPDATE
 40
2453152.358612650
  9
$TDINDWG
 40
0.0525499074
  9
$TDUSRTIMER
 40
0.0525499074
  9
$USRTIMER
 70
     1
  9
$ANGBASE
 50
0.0
  9
$ANGDIR
 70
     0
  9
$PDMODE
 70
     0
  9
$PDSIZE
 40
0.0
  9
$PLINEWID
 40
0.0
  9
$COORDS
 70
     1
  9
$SPLFRAME
 70
     0
  9
$SPLINETYPE
 70
     6
  9
$SPLINESEGS
 70
     8
  9
$ATTDIA
 70
     1
  9
$ATTREQ
 70
     1
  9
$HANDLING
 70
 12289
  9
$HANDSEED
  5
1C97
  9
$SURFTAB1
 70
     6
  9
$SURFTAB2
 70
     6
  9
$SURFTYPE
 70
     6
  9
$SURFU
 70
     6
  9
$SURFV
 70
     6
  9
$UCSNAME
  2

  9
$UCSORG
 10
0.0
 20
0.0
 30
0.0
  9
$UCSXDIR
 10
1.0
 20
0.0
 30
0.0
  9
$UCSYDIR
 10
0.0
 20
1.0
 30
0.0
  9
$PUCSNAME
  2

  9
$PUCSORG
 10
0.0
 20
0.0
 30
0.0
  9
$PUCSXDIR
 10
1.0
 20
0.0
 30
0.0
  9
$PUCSYDIR
 10
0.0
 20
1.0
 30
0.0
  9
$USERI1
 70
     0
  9
$USERI2
 70
     0
  9
$USERI3
 70
     0
  9
$USERI4
 70
     0
  9
$USERI5
 70
     0
  9
$USERR1
 40
0.0
  9
$USERR2
 40
0.0
  9
$USERR3
 40
0.0
  9
$USERR4
 40
0.0
  9
$USERR5
 40
0.0
  9
$WORLDVIEW
 70
     1
  9
$SHADEDGE
 70
     3
  9
$SHADEDIF
 70
    70
  9
$TILEMODE
 70
     1
  9
$MAXACTVP
 70
    64
  9
$PINSBASE
 10
0.0
 20
0.0
 30
0.0
  9
$PLIMCHECK
 70
     0
  9
$PEXTMIN
 10
1.000000000000000E+20
 20
1.000000000000000E+20
 30
1.000000000000000E+20
  9
$PEXTMAX
 10
-1.000000000000000E+20
 20
-1.000000000000000E+20
 30
-1.000000000000000E+20
  9
$PLIMMIN
 10
0.0
 20
0.0
  9
$PLIMMAX
 10
841.0
 20
594.0
  9
$UNITMODE
 70
     0
  9
$VISRETAIN
 70
     1
  9
$PLINEGEN
 70
     0
  9
$PSLTSCALE
 70
     0
  9
$TREEDEPTH
 70
  3020
  9
$PICKSTYLE
 70
     0
  9
$CMLSTYLE
  2
STANDARD
  9
$CMLJUST
 70
     0
  9
$CMLSCALE
 40
20.0
  9
$PROXYGRAPHICS
 70
     1
  9
$MEASUREMENT
 70
     1
  0
ENDSEC
  0
SECTION
  2
CLASSES
  0
CLASS
  1
ACDBDICTIONARYWDFLT
  2
AcDbDictionaryWithDefault
  3
AutoCAD 2000
 90
        0
280
     0
281
     0
  0
CLASS
  1
ACDBPLACEHOLDER
  2
AcDbPlaceHolder
  3
AutoCAD 2000
 90
        0
280
     0
281
     0
  0
CLASS
  1
LAYOUT
  2
AcDbLayout
  3
AutoCAD 2000
 90
        0
280
     0
281
     0
  0
CLASS
  1
AMGSETTINGSOBJ
  2
AmgSettingsObj
  3
"AcadM|Product Description: AutoCAD Mechanical 2000|Company: Autodesk"
 90
        0
280
     0
281
     0
  0
CLASS
  1
ACME_DOCUMENT
  2
AcMeDbDoc
  3
AcMeServices
 90
        0
280
     0
281
     0
  0
CLASS
  1
ACMESCOPE
  2
AcMeScope
  3
AcMeServices
 90
        0
280
     0
281
     0
  0
CLASS
  1
ACMECOMMANDHISTORY
  2
AcMeCommandHistory
  3
AcMeServices
 90
        0
280
     0
281
     0
  0
CLASS
  1
DICTIONARYVAR
  2
AcDbDictionaryVar
  3
AutoCAD 2000
 90
        0
280
     0
281
     0
  0
CLASS
  1
ACIMSYSVARMAN
  2
AcImSysVarManager
  3
AcMeServices
 90
        0
280
     0
281
     0
  0
CLASS
  1
ACIMREALSYSVAR
  2
AcImRealSysVar
  3
AcMeServices
 90
        0
280
     0
281
     0
  0
CLASS
  1
ACIMINTSYSVAR
  2
AcImIntSysVar
  3
AcMeServices
 90
        0
280
     0
281
     0
  0
CLASS
  1
ACMEDRAWINGMAN
  2
AcMeDrawingMan
  3
AcMeServices
 90
        0
280
     0
281
     0
  0
CLASS
  1
ACMEVIEW
  2
AcMeView
  3
AcMeServices
 90
        0
280
     0
281
     0
  0
CLASS
  1
ACDBENTITYCACHE
  2
AcMeEntityCache
  3
AcMeServices
 90
        0
280
     0
281
     0
  0
CLASS
  1
GSMANAGER
  2
AcMeGSManager
  3
AcMeServices
 90
        0
280
     0
281
     0
  0
CLASS
  1
AmdtInternalReactor
  2
AmdtInternalReactor
  3
AcMeServices
 90
        0
280
     0
281
     0
  0
CLASS
  1
ACMESTATEMGR
  2
AcMeStateMgr
  3
AcMeServices
 90
        0
280
     0
281
     0
  0
CLASS
  1
ACME_DATABASE
  2
AcMeDbDatabase
  3
AcMeServices
 90
        0
280
     0
281
     0
  0
CLASS
  1
ACRFINSADJUSTERMGR
  2
AcRfInsAdjusterMgr
  3
AcMeServices
 90
        0
280
     0
281
     0
  0
CLASS
  1
ACMDATADICTIONARY
  2
AcmDataDictionary
  3
"AcmSymBB|Product Description: AutoCAD Mechanical 2000|Company: Autodesk"
 90
        0
280
     0
281
     0
  0
CLASS
  1
ACMDATAENTRYBLOCK
  2
AcmDataEntryBlock
  3
"AcmSymBB|Product Description: AutoCAD Mechanical 2000|Company: Autodesk"
 90
        0
280
     0
281
     0
  0
CLASS
  1
AMGOBJPROPCFG
  2
AmgObjPropCfg
  3
"AmgLay|Product Description: AutoCAD Mechanical 2000|Company: Autodesk"
 90
        1
280
     0
281
     0
  0
CLASS
  1
ACAMGFILTERDAT
  2
AcAmgFilterDat
  3
"AcadM|Product Description: AutoCAD Mechanical 2000|Company: Autodesk"
 90
        0
280
     0
281
     0
  0
CLASS
  1
LAYER_INDEX
  2
AcDbLayerIndex
  3
AutoCAD 2000
 90
        0
280
     0
281
     0
  0
CLASS
  1
IDBUFFER
  2
AcDbIdBuffer
  3
AutoCAD 2000
 90
        0
280
     0
281
     0
  0
CLASS
  1
ACIMSTRSYSVAR
  2
AcImStrSysVar
  3
AcMeServices
 90
        0
280
     0
281
     0
  0
CLASS
  1
ACMSTANDARDJIS
  2
AcmStandardJIS
  3
"AcmSymBB|Product Description: AutoCAD Mechanical 2000|Company: Autodesk"
 90
        0
280
     0
281
     0
  0
CLASS
  1
ACMSURFSTANDARDJIS
  2
AcmSurfTextStdJIS
  3
"AcmSymBB|Product Description: AutoCAD Mechanical 2000|Company: Autodesk"
 90
        0
280
     0
281
     0
  0
CLASS
  1
ACMFCFSTANDARDJIS
  2
AcmFCFStdJIS
  3
"AcmSymBB|Product Description: AutoCAD Mechanical 2000|Company: Autodesk"
 90
        0
280
     0
281
     0
  0
CLASS
  1
ACMWELDSTANDARDJIS
  2
AcmWeldingStdJIS
  3
"AcmSymBB|Product Description: AutoCAD Mechanical 2000|Company: Autodesk"
 90
        0
280
     0
281
     0
  0
CLASS
  1
ACMIDSTANDARDJIS
  2
AcmIdStdJIS
  3
"AcmSymBB|Product Description: AutoCAD Mechanical 2000|Company: Autodesk"
 90
        0
280
     0
281
     0
  0
CLASS
  1
ACMDATUMSTANDARDJIS
  2
AcmDatumStdJIS
  3
"AcmSymBB|Product Description: AutoCAD Mechanical 2000|Company: Autodesk"
 90
        0
280
     0
281
     0
  0
CLASS
  1
ACMBOMSTANDARDJIS
  2
AcmBOMStdJIS
  3
"AcmSymBB|Product Description: AutoCAD Mechanical 2000|Company: Autodesk"
 90
        0
280
     0
281
     0
  0
CLASS
  1
ACMSTANDARDANSI
  2
AcmStandardANSI
  3
"AcmSymBB|Product Description: AutoCAD Mechanical 2000|Company: Autodesk"
 90
        0
280
     0
281
     0
  0
CLASS
  1
ACMSURFSTANDARDANSI
  2
AcmSurfTextStdANSI
  3
"AcmSymBB|Product Description: AutoCAD Mechanical 2000|Company: Autodesk"
 90
        0
280
     0
281
     0
  0
CLASS
  1
ACMFCFSTANDARDANSI
  2
AcmFCFStdANSI
  3
"AcmSymBB|Product Description: AutoCAD Mechanical 2000|Company: Autodesk"
 90
        0
280
     0
281
     0
  0
CLASS
  1
ACMWELDSTANDARDANSI
  2
AcmWeldingStdANSI
  3
"AcmSymBB|Product Description: AutoCAD Mechanical 2000|Company: Autodesk"
 90
        0
280
     0
281
     0
  0
CLASS
  1
ACMIDSTANDARDANSI
  2
AcmIdStdANSI
  3
"AcmSymBB|Product Description: AutoCAD Mechanical 2000|Company: Autodesk"
 90
        0
280
     0
281
     0
  0
CLASS
  1
ACMDATUMSTANDARDANSI
  2
AcmDatumStdANSI
  3
"AcmSymBB|Product Description: AutoCAD Mechanical 2000|Company: Autodesk"
 90
        0
280
     0
281
     0
  0
CLASS
  1
ACMBOMSTANDARDANSI
  2
AcmBOMStdANSI
  3
"AcmSymBB|Product Description: AutoCAD Mechanical 2000|Company: Autodesk"
 90
        0
280
     0
281
     0
  0
CLASS
  1
ACMSTANDARDBSI
  2
AcmStandardBSI
  3
"AcmSymBB|Product Description: AutoCAD Mechanical 2000|Company: Autodesk"
 90
        0
280
     0
281
     0
  0
CLASS
  1
ACMSURFSTANDARDBSI
  2
AcmSurfTextStdBSI
  3
"AcmSymBB|Product Description: AutoCAD Mechanical 2000|Company: Autodesk"
 90
        0
280
     0
281
     0
  0
CLASS
  1
ACMFCFSTANDARDBSI
  2
AcmFCFStdBSI
  3
"AcmSymBB|Product Description: AutoCAD Mechanical 2000|Company: Autodesk"
 90
        0
280
     0
281
     0
  0
CLASS
  1
ACMWELDSTANDARDBSI
  2
AcmWeldingStdBSI
  3
"AcmSymBB|Product Description: AutoCAD Mechanical 2000|Company: Autodesk"
 90
        0
280
     0
281
     0
  0
CLASS
  1
ACMIDSTANDARDBSI
  2
AcmIdStdBSI
  3
"AcmSymBB|Product Description: AutoCAD Mechanical 2000|Company: Autodesk"
 90
        0
280
     0
281
     0
  0
CLASS
  1
ACMDATUMSTANDARDBSI
  2
AcmDatumStdBSI
  3
"AcmSymBB|Product Description: AutoCAD Mechanical 2000|Company: Autodesk"
 90
        0
280
     0
281
     0
  0
CLASS
  1
ACMBOMSTANDARDBSI
  2
AcmBOMStdBSI
  3
"AcmSymBB|Product Description: AutoCAD Mechanical 2000|Company: Autodesk"
 90
        0
280
     0
281
     0
  0
CLASS
  1
LONG_TRANSACTION
  2
AcDbLongTransaction
  3
AutoCAD 2000
 90
        0
280
     0
281
     0
  0
CLASS
  1
LWPOLYLINE
  2
AcDbPolyline
  3
AutoCAD 2000
 90
        0
280
     0
281
     1
  0
CLASS
  1
HATCH
  2
AcDbHatch
  3
AutoCAD 2000
 90
        0
280
     0
281
     1
  0
CLASS
  1
XRECORD
  2
AcDbXrecord
  3
AutoCAD 2000
 90
        0
280
     0
281
     0
  0
ENDSEC
  0
SECTION
  2
TABLES
  0
TABLE
  2
VPORT
  5
8
330
0
100
AcDbSymbolTable
 70
     3
  0
VPORT
  5
1C6C
330
8
100
AcDbSymbolTableRecord
100
AcDbViewportTableRecord
  2
*ACTIVE
 70
     0
 10
0.0
 20
0.0
 11
1.0
 21
1.0
 12
-56.80873893303209
 22
-9.4965125282054
 13
0.0
 23
0.0
 14
2.5
 24
2.5
 15
10.0
 25
10.0
 16
0.0
 26
0.0
 36
1.0
 17
0.0
 27
0.0
 37
0.0
 40
162.0869820940747
 41
1.56570841889117
 42
50.0
 43
0.0
 44
0.0
 50
0.0
 51
0.0
 71
     0
 72
   100
 73
     1
 74
     3
 75
     0
 76
     0
 77
     0
 78
     0
  0
ENDTAB
  0
TABLE
  2
LTYPE
  5
5
330
0
100
AcDbSymbolTable
 70
    10
  0
LTYPE
  5
14
330
5
100
AcDbSymbolTableRecord
100
AcDbLinetypeTableRecord
  2
BYBLOCK
 70
     0
  3

 72
    65
 73
     0
 40
0.0
  0
LTYPE
  5
15
330
5
100
AcDbSymbolTableRecord
100
AcDbLinetypeTableRecord
  2
BYLAYER
 70
     0
  3

 72
    65
 73
     0
 40
0.0
  0
LTYPE
  5
16
330
5
100
AcDbSymbolTableRecord
100
AcDbLinetypeTableRecord
  2
CONTINUOUS
 70
     0
  3
Solid line
 72
    65
 73
     0
 40
0.0
  0
LTYPE
  5
4B
330
5
100
AcDbSymbolTableRecord
100
AcDbLinetypeTableRecord
  2
AM_ISO02W050
 70
     0
  3
__ __ __ __ __ __ __ __ __ __ __ __ __ __ __
 72
    65
 73
     2
 40
7.5
 49
6.0
 74
     0
 49
-1.5
 74
     0
  0
LTYPE
  5
4C
330
5
100
AcDbSymbolTableRecord
100
AcDbLinetypeTableRecord
  2
AM_ISO08W050
 70
     0
  3
____ . ____ . ____ . ____ . ____ . ____ . ____
 72
    65
 73
     4
 40
18.0
 49
12.0
 74
     0
 49
-1.5
 74
     0
 49
3.0
 74
     0
 49
-1.5
 74
     0
  0
LTYPE
  5
4D
330
5
100
AcDbSymbolTableRecord
100
AcDbLinetypeTableRecord
  2
AM_ISO09W050
 70
     0
  3
_____ . . _____ . . _____ . . ____ .. ____
 72
    65
 73
     6
 40
22.5
 49
12.0
 74
     0
 49
-1.5
 74
     0
 49
3.0
 74
     0
 49
-1.5
 74
     0
 49
3.0
 74
     0
 49
-1.5
 74
     0
  0
LTYPE
  5
4E
330
5
100
AcDbSymbolTableRecord
100
AcDbLinetypeTableRecord
  2
AMCONSTR
 70
     0
  3
_______________________
 72
    65
 73
     2
 40
9999.0
 49
9999.0
 74
     0
 49
0.0
 74
     0
  0
LTYPE
  5
4F
330
5
100
AcDbSymbolTableRecord
100
AcDbLinetypeTableRecord
  2
AM_ISO02W050X2
 70
     0
  3
 _ _ _ _ _ _ _ _ _ _ _ _
 72
    65
 73
     2
 40
3.75
 49
3.0
 74
     0
 49
-0.75
 74
     0
  0
LTYPE
  5
50
330
5
100
AcDbSymbolTableRecord
100
AcDbLinetypeTableRecord
  2
AM_ISO08W050X2
 70
     0
  3
__ . __ . __ . __ . __ . __
 72
    65
 73
     4
 40
9.0
 49
6.0
 74
     0
 49
-0.75
 74
     0
 49
1.5
 74
     0
 49
-0.75
 74
     0
  0
LTYPE
  5
53
330
5
100
AcDbSymbolTableRecord
100
AcDbLinetypeTableRecord
  2
AMZIGZAG
 70
     0
  3
/\/-/\/-/\/-/\/-/\/-/\/
 72
    65
 73
     2
 40
11.00009999999999
 49
0.0001
 74
     4
 75
   135
340
52
 46
0.04
 50
0.0
 44
0.0
 45
0.0
 49
-11.0
 74
     0
  0
LTYPE
  5
166
330
5
100
AcDbSymbolTableRecord
100
AcDbLinetypeTableRecord
  2
ACJISTGL
 70
     0
  3
_ _ _ _ _
 72
    65
 73
     2
 40
3.0
 49
2.0
 74
     0
 49
-1.0
 74
     0
  0
LTYPE
  5
26A
330
5
100
AcDbSymbolTableRecord
100
AcDbLinetypeTableRecord
  2
ACJISTGB
 70
     0
  3
__ . . __ . .
 72
    65
 73
     6
 40
9.0
 49
4.0
 74
     0
 49
-1.0
 74
     0
 49
1.0
 74
     0
 49
-1.0
 74
     0
 49
1.0
 74
     0
 49
-1.0
 74
     0
  0
ENDTAB
  0
TABLE
  2
LAYER
  5
2
330
0
100
AcDbSymbolTable
 70
     7
  0
LAYER
  5
10
330
2
100
AcDbSymbolTableRecord
100
AcDbLayerTableRecord
  2
0
 70
     0
 62
     7
  6
CONTINUOUS
  0
LAYER
  5
3F9
330
2
100
AcDbSymbolTableRecord
100
AcDbLayerTableRecord
  2
AM_0
 70
     0
 62
     7
  6
CONTINUOUS
  0
LAYER
  5
BD4
330
2
100
AcDbSymbolTableRecord
100
AcDbLayerTableRecord
  2
AM_11
 70
     0
 62
     3
  6
AM_ISO09W050
  0
LAYER
  5
BD5
330
2
100
AcDbSymbolTableRecord
100
AcDbLayerTableRecord
  2
AM_7
 70
     0
 62
     4
  6
AM_ISO08W050
  0
LAYER
  5
BD6
330
2
100
AcDbSymbolTableRecord
100
AcDbLayerTableRecord
  2
AM_5
 70
     0
 62
     3
  6
CONTINUOUS
  0
LAYER
  5
BD7
330
2
100
AcDbSymbolTableRecord
100
AcDbLayerTableRecord
  2
DEFPOINTS
 70
     0
 62
     7
  6
CONTINUOUS
  0
LAYER
  5
E59
330
2
100
AcDbSymbolTableRecord
100
AcDbLayerTableRecord
  2
AM_6
 70
     0
 62
     2
  6
CONTINUOUS
  0
ENDTAB
  0
TABLE
  2
STYLE
  5
3
330
0
100
AcDbSymbolTable
 70
     5
  0
STYLE
  5
11
330
3
100
AcDbSymbolTableRecord
100
AcDbTextStyleTableRecord
  2
STANDARD
 70
     0
 40
0.0
 41
1.0
 50
0.0
 71
     0
 42
2.5
  3
simplex.shx
  4
EXTFONT.SHX
  0
STYLE
  5
52
330
3
100
AcDbSymbolTableRecord
100
AcDbTextStyleTableRecord
  2

 70
     1
 40
0.0
 41
1.0
 50
0.0
 71
     0
 42
2.5
  3
ltypeshp.shx
  4

  0
STYLE
  5
6B
330
3
100
AcDbSymbolTableRecord
100
AcDbTextStyleTableRecord
  2
ASAMI
 70
     0
 40
0.0
 41
1.0
 50
0.0
 71
     0
 42
2.5
  3
simplex.shx
  4
EXTFONT.SHX
  0
STYLE
  5
262
330
3
100
AcDbSymbolTableRecord
100
AcDbTextStyleTableRecord
  2
ACJISTS
 70
     0
 40
1.0
 41
1.0
 50
0.0
 71
     0
 42
2.5
  3
simplex.shx
  4
bigfont.shx
  0
STYLE
  5
269
330
3
100
AcDbSymbolTableRecord
100
AcDbTextStyleTableRecord
  2
ACJISGDT
 70
     0
 40
0.0
 41
1.0
 50
0.0
 71
     0
 42
2.5
  3
amgdtans.shx
  4

  0
ENDTAB
  0
TABLE
  2
VIEW
  5
6
330
0
100
AcDbSymbolTable
 70
     0
  0
ENDTAB
  0
TABLE
  2
UCS
  5
7
330
0
100
AcDbSymbolTable
 70
     0
  0
ENDTAB
  0
TABLE
  2
APPID
  5
9
330
0
100
AcDbSymbolTable
 70
    12
  0
APPID
  5
12
330
9
100
AcDbSymbolTableRecord
100
AcDbRegAppTableRecord
  2
ACAD
 70
     0
  0
APPID
  5
30
330
9
100
AcDbSymbolTableRecord
100
AcDbRegAppTableRecord
  2
MCAD_NO_VIS
 70
     0
  0
APPID
  5
31
330
9
100
AcDbSymbolTableRecord
100
AcDbRegAppTableRecord
  2
ACAD_TEMP_GRAPHIC
 70
     0
  0
APPID
  5
2C2
330
9
100
AcDbSymbolTableRecord
100
AcDbRegAppTableRecord
  2
GENIUS_GENDTOL_13
 70
     0
  0
APPID
  5
339
330
9
100
AcDbSymbolTableRecord
100
AcDbRegAppTableRecord
  2
GENIUS_GENODEF_13
 70
     0
  0
APPID
  5
33A
330
9
100
AcDbSymbolTableRecord
100
AcDbRegAppTableRecord
  2
GENIUS_GENOBJ-N-RSBK_13
 70
     0
  0
APPID
  5
33B
330
9
100
AcDbSymbolTableRecord
100
AcDbRegAppTableRecord
  2
GENIUS_GENOBJ-N-LIB_13
 70
     0
  0
APPID
  5
33C
330
9
100
AcDbSymbolTableRecord
100
AcDbRegAppTableRecord
  2
GENIUS_GENSCALE_13
 70
     0
  0
APPID
  5
378
330
9
100
AcDbSymbolTableRecord
100
AcDbRegAppTableRecord
  2
GENIUS_GENDIMSH_14
 70
     0
  0
APPID
  5
BD8
330
9
100
AcDbSymbolTableRecord
100
AcDbRegAppTableRecord
  2
GENIUS_GENOBJ-N-CEN_13
 70
     0
  0
APPID
  5
BD9
330
9
100
AcDbSymbolTableRecord
100
AcDbRegAppTableRecord
  2
GENIUS_GENFIL_13
 70
     0
  0
APPID
  5
BDA
330
9
100
AcDbSymbolTableRecord
100
AcDbRegAppTableRecord
  2
GENIUS_GENOBJ-N-CHA_13
 70
     0
  0
ENDTAB
  0
TABLE
  2
DIMSTYLE
  5
A
330
0
100
AcDbSymbolTable
 70
     8
  0
DIMSTYLE
105
58
102
{ACAD_REACTORS
330
105F
330
10EF
330
1180
330
19C9
102
}
330
A
100
AcDbSymbolTableRecord
100
AcDbDimStyleTableRecord
  2
AM_JIS
 70
     0
  3

  4
"
  5
OPEN30
  6

  7

 40
1.0
 41
2.5
 42
1.0
 43
12.0
 44
1.0
 45
0.0
 46
0.0
 47
0.1
 48
0.1
140
3.2
141
0.0
142
0.0
143
0.0393701
144
1.0
145
0.0
146
0.71
147
1.5
 71
     0
 72
     0
 73
     0
 74
     0
 75
     0
 76
     0
 77
     3
 78
     8
170
     0
171
     2
172
     1
173
     0
174
     0
175
     0
176
   256
177
   256
178
     2
270
     2
271
     3
272
     3
273
     2
274
     2
340
6B
275
     0
280
     0
281
     0
282
     0
283
     0
284
     0
285
     0
286
     0
287
     3
288
     0
  0
DIMSTYLE
105
5F
330
A
100
AcDbSymbolTableRecord
100
AcDbDimStyleTableRecord
  2
AM_JIS$3
 70
     0
  3

  4
"
  5
OPEN30
  6

  7

 40
1.0
 41
2.5
 42
1.0
 43
10.0
 44
1.0
 45
0.0
 46
0.0
 47
0.1
 48
0.1
140
3.2
141
0.0
142
0.0
143
0.0393701
144
1.0
145
0.0
146
0.71
147
1.5
 71
     0
 72
     0
 73
     0
 74
     1
 75
     0
 76
     0
 77
     3
 78
     8
170
     0
171
     2
172
     0
173
     0
174
     0
175
     0
176
   256
177
   256
178
     2
270
     2
271
     2
272
     3
273
     2
274
     2
340
6B
275
     0
280
     0
281
     0
282
     0
283
     0
284
     0
285
     0
286
     0
287
     0
288
     1
  0
DIMSTYLE
105
60
330
A
100
AcDbSymbolTableRecord
100
AcDbDimStyleTableRecord
  2
AM_JIS$4
 70
     0
  3

  4
"
  5
OPEN30
  6

  7

 40
1.0
 41
2.5
 42
1.0
 43
10.0
 44
1.0
 45
0.0
 46
0.0
 47
0.1
 48
0.1
140
3.2
141
0.0
142
0.0
143
0.0393701
144
1.0
145
0.0
146
0.71
147
1.5
 71
     0
 72
     0
 73
     0
 74
     1
 75
     0
 76
     0
 77
     3
 78
     8
170
     0
171
     2
172
     0
173
     0
174
     0
175
     0
176
   256
177
   256
178
     2
270
     2
271
     2
272
     3
273
     2
274
     2
340
6B
275
     0
280
     0
281
     0
282
     0
283
     0
284
     0
285
     0
286
     0
287
     0
288
     1
  0
DIMSTYLE
105
61
330
A
100
AcDbSymbolTableRecord
100
AcDbDimStyleTableRecord
  2
AM_JIS$6
 70
     0
  3

  4
"
  5
OPEN30
  6

  7

 40
1.0
 41
2.5
 42
1.0
 43
10.0
 44
1.0
 45
0.0
 46
0.0
 47
0.1
 48
0.1
140
3.2
141
0.0
142
0.0
143
0.0393701
144
1.0
145
0.0
146
0.71
147
1.5
 71
     0
 72
     0
 73
     0
 74
     0
 75
     0
 76
     0
 77
     0
 78
     8
170
     0
171
     2
172
     1
173
     0
174
     0
175
     0
176
   256
177
   256
178
     2
270
     2
271
     2
272
     2
273
     2
274
     2
340
6B
275
     0
280
     0
281
     0
282
     0
283
     0
284
     0
285
     0
286
     0
287
     3
288
     0
  0
DIMSTYLE
105
62
330
A
100
AcDbSymbolTableRecord
100
AcDbDimStyleTableRecord
  2
AM_JIS$7
 70
     0
  3

  4
"
  5
OPEN30
  6

  7

 40
1.0
 41
2.5
 42
1.0
 43
10.0
 44
1.0
 45
0.0
 46
0.0
 47
0.1
 48
0.1
140
3.2
141
0.0
142
0.0
143
0.0393701
144
1.0
145
0.0
146
0.71
147
1.5
 71
     0
 72
     0
 73
     0
 74
     0
 75
     0
 76
     0
 77
     3
 78
     8
170
     0
171
     2
172
     1
173
     0
174
     0
175
     0
176
   256
177
   256
178
     2
270
     2
271
     2
272
     3
273
     2
274
     2
340
6B
275
     0
280
     0
281
     0
282
     0
283
     0
284
     0
285
     0
286
     0
287
     3
288
     0
  0
DIMSTYLE
105
63
330
A
100
AcDbSymbolTableRecord
100
AcDbDimStyleTableRecord
  2
AM_JIS$SF
 70
     0
  3

  4
"
  5
OPEN30
  6

  7

 40
1.0
 41
2.5
 42
1.0
 43
10.0
 44
1.0
 45
0.0
 46
0.0
 47
0.1
 48
0.1
140
3.2
141
0.0
142
0.0
143
0.0393701
144
1.0
145
0.0
146
0.71
147
1.5
 71
     0
 72
     0
 73
     0
 74
     0
 75
     1
 76
     1
 77
     3
 78
     8
170
     0
171
     2
172
     1
173
     0
174
     0
175
     0
176
   256
177
   256
178
     2
270
     2
271
     2
272
     2
273
     2
274
     2
340
6B
275
     0
280
     0
281
     0
282
     0
283
     0
284
     0
285
     0
286
     0
287
     3
288
     0
  0
DIMSTYLE
105
68
330
A
100
AcDbSymbolTableRecord
100
AcDbDimStyleTableRecord
  2
AM_JIS$SH
 70
     0
  3

  4
"
  5

  6
GENAXEH
  7
OPEN30
 40
1.0
 41
2.5
 42
1.0
 43
10.0
 44
1.0
 45
0.0
 46
0.0
 47
0.1
 48
0.1
140
3.2
141
0.0
142
0.0
143
0.0393701
144
2.0
145
0.0
146
0.71
147
1.5
 71
     0
 72
     0
 73
     0
 74
     0
 75
     1
 76
     1
 77
     3
 78
     8
170
     0
171
     2
172
     1
173
     1
174
     0
175
     0
176
   256
177
   256
178
     2
270
     2
271
     2
272
     2
273
     2
274
     2
340
6B
275
     0
280
     0
281
     0
282
     0
283
     0
284
     0
285
     0
286
     0
287
     3
288
     0
  0
DIMSTYLE
105
B34
330
A
100
AcDbSymbolTableRecord
100
AcDbDimStyleTableRecord
  2
AM_JIS$2
 70
     0
  3

  4
"
  5
OPEN30
  6

  7

 40
1.0
 41
2.5
 42
1.0
 43
12.0
 44
1.0
 45
0.0
 46
0.0
 47
0.1
 48
0.1
140
3.2
141
0.0
142
0.0
143
0.0393701
144
1.0
145
0.0
146
0.71
147
1.5
 71
     0
 72
     0
 73
     0
 74
     0
 75
     0
 76
     0
 77
     3
 78
     8
170
     0
171
     2
172
     1
173
     0
174
     0
175
     0
176
   256
177
   256
178
     2
270
     2
271
     3
272
     3
273
     2
274
     2
340
6B
275
     0
280
     0
281
     0
282
     0
283
     0
284
     0
285
     0
286
     0
287
     3
288
     0
  0
ENDTAB
  0
TABLE
  2
BLOCK_RECORD
  5
1
330
0
100
AcDbSymbolTable
 70
     9
  0
BLOCK_RECORD
  5
1F
102
{ACAD_XDICTIONARY
360
74
102
}
330
1
100
AcDbSymbolTableRecord
100
AcDbBlockTableRecord
  2
*MODEL_SPACE
  0
BLOCK_RECORD
  5
101
102
{ACAD_XDICTIONARY
360
1C95
102
}
330
1
100
AcDbSymbolTableRecord
100
AcDbBlockTableRecord
  2
*PAPER_SPACE
  0
BLOCK_RECORD
  5
59
330
1
100
AcDbSymbolTableRecord
100
AcDbBlockTableRecord
  2
_OPEN30
  0
BLOCK_RECORD
  5
64
330
1
100
AcDbSymbolTableRecord
100
AcDbBlockTableRecord
  2
GENAXEH
  0
BLOCK_RECORD
  5
1060
330
1
100
AcDbSymbolTableRecord
100
AcDbBlockTableRecord
  2
*D5
  0
BLOCK_RECORD
  5
10F0
330
1
100
AcDbSymbolTableRecord
100
AcDbBlockTableRecord
  2
*D6
  0
BLOCK_RECORD
  5
1181
330
1
100
AcDbSymbolTableRecord
100
AcDbBlockTableRecord
  2
*D7
  0
BLOCK_RECORD
  5
19CA
330
1
100
AcDbSymbolTableRecord
100
AcDbBlockTableRecord
  2
*D8
  0
ENDTAB
  0
ENDSEC
  0
SECTION
  2
BLOCKS
  0
BLOCK
  5
20
330
1F
100
AcDbEntity
  8
0
100
AcDbBlockBegin
  2
*MODEL_SPACE
 70
     0
 10
0.0
 20
0.0
 30
0.0
  3
*MODEL_SPACE
  1

  0
ENDBLK
  5
21
330
1F
100
AcDbEntity
  8
0
100
AcDbBlockEnd
  0
BLOCK
  5
103
330
101
100
AcDbEntity
 67
     1
  8
0
100
AcDbBlockBegin
  2
*PAPER_SPACE
 70
     0
 10
0.0
 20
0.0
 30
0.0
  3
*PAPER_SPACE
  1

  0
ENDBLK
  5
104
330
101
100
AcDbEntity
 67
     1
  8
0
100
AcDbBlockEnd
  0
BLOCK
  5
5D
330
59
100
AcDbEntity
  8
0
100
AcDbBlockBegin
  2
_OPEN30
 70
     0
 10
0.0
 20
0.0
 30
0.0
  3
_OPEN30
  1

  0
LINE
  5
5A
330
59
100
AcDbEntity
  8
0
 62
     0
100
AcDbLine
 10
-1.0
 20
0.26794919
 30
0.0
 11
0.0
 21
0.0
 31
0.0
  0
LINE
  5
5B
330
59
100
AcDbEntity
  8
0
 62
     0
100
AcDbLine
 10
0.0
 20
0.0
 30
0.0
 11
-1.0
 21
-0.26794919
 31
0.0
  0
LINE
  5
5C
330
59
100
AcDbEntity
  8
0
 62
     0
100
AcDbLine
 10
0.0
 20
0.0
 30
0.0
 11
-1.0
 21
0.0
 31
0.0
  0
ENDBLK
  5
5E
330
59
100
AcDbEntity
  8
0
100
AcDbBlockEnd
  0
BLOCK
  5
66
330
64
100
AcDbEntity
  8
0
100
AcDbBlockBegin
  2
GENAXEH
 70
     0
 10
0.0
 20
0.0
 30
0.0
  3
GENAXEH
  1

  0
LINE
  5
65
330
64
100
AcDbEntity
  8
0
100
AcDbLine
 10
-1.0
 20
0.0
 30
0.0
 11
1.0
 21
0.0
 31
0.0
  0
ENDBLK
  5
67
330
64
100
AcDbEntity
  8
0
100
AcDbBlockEnd
  0
BLOCK
  5
106A
330
1060
100
AcDbEntity
  8
0
100
AcDbBlockBegin
  2
*D5
 70
     1
 10
0.0
 20
0.0
 30
0.0
  3
*D5
  1

  0
LINE
  5
1C0E
330
1060
100
AcDbEntity
  8
AM_5
100
AcDbLine
 10
-70.00000000000118
 20
-8.499999999999859
 30
0.0
 11
-70.00000000000118
 21
-23.00000099999787
 31
0.0
  0
LINE
  5
1C0F
330
1060
100
AcDbEntity
  8
AM_5
100
AcDbLine
 10
-0.0000000000007639
 20
-8.500000000000005
 30
0.0
 11
-0.0000000000007648
 21
-23.00000099999787
 31
0.0
  0
LINE
  5
1C10
330
1060
100
AcDbEntity
  8
AM_5
100
AcDbLine
 10
-67.50000000000118
 20
-22.00000099999787
 30
0.0
 11
-2.500000000000764
 21
-22.00000099999787
 31
0.0
  0
INSERT
  5
1C11
330
1060
100
AcDbEntity
  8
AM_5
100
AcDbBlockReference
  2
_OPEN30
 10
-70.00000000000118
 20
-22.00000099999787
 30
0.0
 41
2.5
 42
2.5
 43
2.5
 50
180.0
  0
INSERT
  5
1C12
330
1060
100
AcDbEntity
  8
AM_5
100
AcDbBlockReference
  2
_OPEN30
 10
-0.0000000000007647
 20
-22.00000099999787
 30
0.0
 41
2.5
 42
2.5
 43
2.5
  0
MTEXT
  5
1C13
330
1060
100
AcDbEntity
  8
AM_5
 62
     2
100
AcDbMText
 10
-35.00000000000097
 20
-18.90000099999787
 30
0.0
 40
3.2
 41
0.0
 71
     5
 72
     1
  1
70
  7
ASAMI
1001
ACAD
1000
MTEXTBEGIN
1070
    73
1070
     1
1070
    44
1040
1.0
1070
    74
1070
     0
1000
MTEXTEND
  0
POINT
  5
1C14
330
1060
100
AcDbEntity
  8
DEFPOINTS
 62
     0
100
AcDbPoint
 10
-70.00000000000118
 20
-7.499999999999859
 30
0.0
  0
POINT
  5
1C15
330
1060
100
AcDbEntity
  8
DEFPOINTS
 62
     0
100
AcDbPoint
 10
-0.0000000000007638
 20
-7.500000000000005
 30
0.0
  0
POINT
  5
1C16
330
1060
100
AcDbEntity
  8
DEFPOINTS
 62
     0
100
AcDbPoint
 10
-0.0000000000007647
 20
-22.00000099999787
 30
0.0
  0
ENDBLK
  5
106B
330
1060
100
AcDbEntity
  8
0
100
AcDbBlockEnd
  0
BLOCK
  5
10FA
330
10F0
100
AcDbEntity
  8
0
100
AcDbBlockBegin
  2
*D6
 70
     1
 10
0.0
 20
0.0
 30
0.0
  3
*D6
  1

  0
LINE
  5
1C17
330
10F0
100
AcDbEntity
  8
AM_5
100
AcDbLine
 10
-140.0
 20
-7.999999999998123
 30
0.0
 11
-140.0
 21
-35.00000099999787
 31
0.0
  0
LINE
  5
1C18
330
10F0
100
AcDbEntity
  8
AM_5
100
AcDbLine
 10
0.0000000000000141
 20
-8.500000000000005
 30
0.0
 11
0.0000000000000125
 21
-35.00000099999787
 31
0.0
  0
LINE
  5
1C19
330
10F0
100
AcDbEntity
  8
AM_5
100
AcDbLine
 10
-137.5
 20
-34.00000099999787
 30
0.0
 11
-2.499999999999987
 21
-34.00000099999787
 31
0.0
  0
INSERT
  5
1C1A
330
10F0
100
AcDbEntity
  8
AM_5
100
AcDbBlockReference
  2
_OPEN30
 10
-140.0
 20
-34.00000099999787
 30
0.0
 41
2.5
 42
2.5
 43
2.5
 50
180.0
  0
INSERT
  5
1C1B
330
10F0
100
AcDbEntity
  8
AM_5
100
AcDbBlockReference
  2
_OPEN30
 10
0.0000000000000126
 20
-34.00000099999787
 30
0.0
 41
2.5
 42
2.5
 43
2.5
  0
MTEXT
  5
1C1C
330
10F0
100
AcDbEntity
  8
AM_5
 62
     2
100
AcDbMText
 10
-70.0
 20
-30.90000099999787
 30
0.0
 40
3.2
 41
0.0
 71
     5
 72
     1
  1
140
  7
ASAMI
1001
ACAD
1000
MTEXTBEGIN
1070
    73
1070
     1
1070
    44
1040
1.0
1070
    74
1070
     0
1000
MTEXTEND
  0
POINT
  5
1C1D
330
10F0
100
AcDbEntity
  8
DEFPOINTS
 62
     0
100
AcDbPoint
 10
-140.0
 20
-6.999999999998123
 30
0.0
  0
POINT
  5
1C1E
330
10F0
100
AcDbEntity
  8
DEFPOINTS
 62
     0
100
AcDbPoint
 10
0.0000000000000142
 20
-7.500000000000005
 30
0.0
  0
POINT
  5
1C1F
330
10F0
100
AcDbEntity
  8
DEFPOINTS
 62
     0
100
AcDbPoint
 10
0.0000000000000126
 20
-34.00000099999787
 30
0.0
  0
ENDBLK
  5
10FB
330
10F0
100
AcDbEntity
  8
0
100
AcDbBlockEnd
  0
BLOCK
  5
118B
330
1181
100
AcDbEntity
  8
0
100
AcDbBlockBegin
  2
*D7
 70
     1
 10
0.0
 20
0.0
 30
0.0
  3
*D7
  1

  0
LINE
  5
1C21
330
1181
100
AcDbEntity
  8
AM_5
100
AcDbLine
 10
1.000000000000002
 20
7.5
 30
0.0
 11
19.55776903085494
 21
7.499999999999994
 31
0.0
  0
LINE
  5
1C22
330
1181
100
AcDbEntity
  8
AM_5
100
AcDbLine
 10
1.0
 20
-7.5
 30
0.0
 11
19.55776903085494
 21
-7.500000000000005
 31
0.0
  0
LINE
  5
1C23
330
1181
100
AcDbEntity
  8
AM_5
100
AcDbLine
 10
18.55776903085494
 20
4.999999999999994
 30
0.0
 11
18.55776903085494
 21
-5.000000000000005
 31
0.0
  0
INSERT
  5
1C24
330
1181
100
AcDbEntity
  8
AM_5
100
AcDbBlockReference
  2
_OPEN30
 10
18.55776903085494
 20
7.499999999999994
 30
0.0
 41
2.5
 42
2.5
 43
2.5
 50
90.0
  0
INSERT
  5
1C25
330
1181
100
AcDbEntity
  8
AM_5
100
AcDbBlockReference
  2
_OPEN30
 10
18.55776903085494
 20
-7.500000000000005
 30
0.0
 41
2.5
 42
2.5
 43
2.5
 50
270.0
  0
MTEXT
  5
1C26
330
1181
100
AcDbEntity
  8
AM_5
 62
     2
100
AcDbMText
 10
15.45776903085494
 20
-0.0000000000000016
 30
0.0
 40
3.2
 41
0.0
 71
     5
 72
     1
  1
%%c15
  7
ASAMI
 11
0.0000000000000001
 21
1.0
 31
0.0
1001
ACAD
1000
MTEXTBEGIN
1070
    73
1070
     1
1070
    44
1040
1.0
1070
    74
1070
     0
1000
MTEXTEND
  0
POINT
  5
1C27
330
1181
100
AcDbEntity
  8
DEFPOINTS
 62
     0
100
AcDbPoint
 10
0.0000000000000027
 20
7.5
 30
0.0
  0
POINT
  5
1C28
330
1181
100
AcDbEntity
  8
DEFPOINTS
 62
     0
100
AcDbPoint
 10
0.0
 20
-7.5
 30
0.0
  0
POINT
  5
1C29
330
1181
100
AcDbEntity
  8
DEFPOINTS
 62
     0
100
AcDbPoint
 10
18.55776903085494
 20
-7.500000000000005
 30
0.0
  0
ENDBLK
  5
118C
330
1181
100
AcDbEntity
  8
0
100
AcDbBlockEnd
  0
BLOCK
  5
19D4
330
19CA
100
AcDbEntity
  8
0
100
AcDbBlockBegin
  2
*D8
 70
     1
 10
0.0
 20
0.0
 30
0.0
  3
*D8
  1

  0
LINE
  5
19F9
330
19CA
100
AcDbEntity
  8
AM_5
100
AcDbLine
 10
-140.0
 20
7.999999999999827
 30
0.0
 11
-157.7882312597197
 21
7.999999999999832
 31
0.0
  0
LINE
  5
19FA
330
19CA
100
AcDbEntity
  8
AM_5
100
AcDbLine
 10
-140.0
 20
-7.999999999998123
 30
0.0
 11
-157.7882312597197
 21
-7.999999999998118
 31
0.0
  0
LINE
  5
19FB
330
19CA
100
AcDbEntity
  8
AM_5
100
AcDbLine
 10
-156.7882312597197
 20
5.499999999999832
 30
0.0
 11
-156.7882312597197
 21
-5.499999999998118
 31
0.0
  0
INSERT
  5
19FC
330
19CA
100
AcDbEntity
  8
AM_5
100
AcDbBlockReference
  2
_OPEN30
 10
-156.7882312597197
 20
7.999999999999832
 30
0.0
 41
2.5
 42
2.5
 43
2.5
 50
90.0
  0
INSERT
  5
19FD
330
19CA
100
AcDbEntity
  8
AM_5
100
AcDbBlockReference
  2
_OPEN30
 10
-156.7882312597197
 20
-7.999999999998118
 30
0.0
 41
2.5
 42
2.5
 43
2.5
 50
270.0
  0
MTEXT
  5
19FE
330
19CA
100
AcDbEntity
  8
AM_5
 62
     2
100
AcDbMText
 10
-159.8882312597197
 20
0.000000000000832
 30
0.0
 40
3.2
 41
0.0
 71
     5
 72
     1
  1
%%c16
  7
ASAMI
 11
0.0000000000000001
 21
1.0
 31
0.0
1001
ACAD
1000
MTEXTBEGIN
1070
    73
1070
     1
1070
    44
1040
1.0
1070
    74
1070
     0
1000
MTEXTEND
  0
POINT
  5
19FF
330
19CA
100
AcDbEntity
  8
DEFPOINTS
 62
     0
100
AcDbPoint
 10
-139.0
 20
7.999999999999827
 30
0.0
  0
POINT
  5
1A00
330
19CA
100
AcDbEntity
  8
DEFPOINTS
 62
     0
100
AcDbPoint
 10
-139.0
 20
-7.999999999998123
 30
0.0
  0
POINT
  5
1A01
330
19CA
100
AcDbEntity
  8
DEFPOINTS
 62
     0
100
AcDbPoint
 10
-156.7882312597197
 20
-7.999999999998118
 30
0.0
  0
ENDBLK
  5
19D5
330
19CA
100
AcDbEntity
  8
0
100
AcDbBlockEnd
  0
ENDSEC
  0
SECTION
  2
ENTITIES
  0
TEXT
  5
E5A
330
1F
100
AcDbEntity
  8
AM_6
100
AcDbText
 10
-87.85714285714245
 20
-56.50000099999787
 30
0.0
 40
5.0
  1
ELSM2150
 72
     4
 11
-69.99999999999959
 21
-54.00000099999787
 31
0.0
100
AcDbText
  0
LINE
  5
F47
330
1F
100
AcDbEntity
  8
AM_7
  6
AM_ISO08W050X2
100
AcDbLine
 10
4.557768030854958
 20
0.0
 30
0.0
 11
-142.7882302597198
 21
-0.0000000000000581
 31
0.0
1001
GENIUS_GENODEF_13
1002
{
1000
HIER
1070
     0
1002
}
1002
{
1000
MANEDIT
1070
     0
1002
}
1002
{
1000
NOSEL
1070
     0
1002
}
1002
{
1000
BEHIND
1070
     0
1002
}
1002
{
1000
REACTOR
1002
}
1001
GENIUS_GENOBJ-N-CEN_13
1002
{
1000
OWNER
1000
GEN
1002
}
  0
DIMENSION
  5
105F
330
1F
100
AcDbEntity
  8
AM_5
100
AcDbDimension
  2
*D5
 10
-0.0000000000007647
 20
-22.00000099999787
 30
0.0
 11
-35.00000000000097
 21
-18.90000099999787
 31
0.0
 70
    32
  1
<>
  3
AM_JIS
100
AcDbAlignedDimension
 13
-70.00000000000118
 23
-7.499999999999859
 33
0.0
 14
-0.0000000000007638
 24
-7.500000000000005
 34
0.0
 50
0.0000000000001132
100
AcDbRotatedDimension
1001
GENIUS_GENDTOL_13
1000

1000
h7
1000

1040
0.0
  0
DIMENSION
  5
10EF
330
1F
100
AcDbEntity
  8
AM_5
100
AcDbDimension
  2
*D6
 10
0.0000000000000126
 20
-34.00000099999787
 30
0.0
 11
-70.0
 21
-30.90000099999787
 31
0.0
 70
    32
  1
<>
  3
AM_JIS
100
AcDbAlignedDimension
 13
-140.0
 23
-6.999999999998123
 33
0.0
 14
0.0000000000000142
 24
-7.500000000000005
 34
0.0
 50
0.0000000000001132
100
AcDbRotatedDimension
1001
GENIUS_GENDTOL_13
1000

1000
h7
1000

1040
0.0
  0
DIMENSION
  5
1180
330
1F
100
AcDbEntity
  8
AM_5
100
AcDbDimension
  2
*D7
 10
18.55776903085494
 20
-7.500000000000005
 30
0.0
 11
15.45776903085494
 21
-0.0000000000000016
 31
0.0
 70
    32
  1
%%c<>
  3
AM_JIS
100
AcDbAlignedDimension
 13
0.0000000000000027
 23
7.5
 33
0.0
 14
0.0
 24
-7.5
 34
0.0
 50
90.0
100
AcDbRotatedDimension
1001
GENIUS_GENDTOL_13
1000

1000
h7
1000

1040
0.0
  0
LINE
  5
13FD
330
1F
100
AcDbEntity
  8
AM_0
100
AcDbLine
 10
-0.1575000000000166
 20
-7.100161736432744
 30
0.0
 11
-0.1575000000000273
 21
0.4877011908335707
 31
0.0
  0
LINE
  5
13FE
330
1F
100
AcDbEntity
  8
AM_0
100
AcDbLine
 10
0.0000000000000107
 20
-7.500000000000005
 30
0.0
 11
0.0
 21
0.2999999999999776
 31
0.0
  0
ARC
  5
13FF
330
1F
100
AcDbEntity
  8
AM_0
100
AcDbCircle
 10
21.31015266357401
 20
0.0315559675625643
 30
0.0
 40
22.69878058486777
100
AcDbArc
 50
175.3635181775062
 51
195.5055110014725
  0
SPLINE
  5
1400
330
1F
100
AcDbEntity
  8
AM_0
100
AcDbSpline
210
0.0
220
0.0
230
1.0
 70
     8
 71
     3
 72
     8
 73
     4
 74
     0
 42
0.0000000001
 43
0.0000000001
 40
4.219358800530717
 40
4.219358800530717
 40
4.219358800530717
 40
4.219358800530717
 40
14.36247867694493
 40
14.36247867694493
 40
14.36247867694493
 40
14.36247867694493
 10
-0.562499999999904
 20
-6.117330276769569
 30
0.0
 10
-5.431625635335237
 20
-4.891421687533214
 30
0.0
 10
-10.09932530693615
 20
-2.445710843766578
 30
0.0
 10
-14.76702497853706
 20
0.0000000000000693
 30
0.0
  0
SPLINE
  5
1401
330
1F
100
AcDbEntity
  8
AM_0
100
AcDbSpline
210
0.0
220
0.0
230
1.0
 70
     8
 71
     3
 72
     8
 73
     4
 74
     0
 42
0.0000000001
 43
0.0000000001
 40
1.870660592686466
 40
1.870660592686466
 40
1.870660592686466
 40
1.870660592686466
 40
14.43901837670146
 40
14.43901837670146
 40
14.43901837670146
 40
14.43901837670146
 10
-0.157499999999974
 20
-7.100161736432657
 30
0.0
 10
-6.308946886843219
 20
-6.332850918152222
 30
0.0
 10
-12.04538685692567
 20
-3.166425459076081
 30
0.0
 10
-17.78182682700807
 20
0.0000000000000693
 30
0.0
  0
SPLINE
  5
1402
330
1F
100
AcDbEntity
  8
AM_0
100
AcDbSpline
210
0.0
220
0.0
230
1.0
 70
     8
 71
     3
 72
     8
 73
     4
 74
     2
 42
0.0000000001
 43
0.0000000001
 44
0.0000000001
 12
-1.0
 22
-0.0000000000000008
 32
0.0
 40
0.0
 40
0.0
 40
0.0
 40
0.0
 40
21.73499482401595
 40
21.73499482401595
 40
21.73499482401595
 40
21.73499482401595
 10
0.0000000000000107
 20
-7.500000000000005
 30
0.0
 10
-7.244998274671972
 20
-7.50000000000001
 30
0.0
 10
-13.82249913733598
 20
-3.750000000000013
 30
0.0
 10
-20.39999999999999
 20
-0.000000000000016
 30
0.0
 11
0.0000000000000107
 21
-7.500000000000005
 31
0.0
 11
-20.39999999999999
 21
-0.000000000000016
 31
0.0
  0
SPLINE
  5
1404
330
1F
100
AcDbEntity
  8
AM_0
100
AcDbSpline
210
0.0
220
0.0
230
1.0
 70
     8
 71
     3
 72
     8
 73
     4
 74
     0
 42
0.0000000001
 43
0.0000000001
 40
0.7142832446738512
 40
0.7142832446738512
 40
0.7142832446738512
 40
0.7142832446738512
 40
14.36247867694493
 40
14.36247867694493
 40
14.36247867694493
 40
14.36247867694493
 10
-34.0997729587066
 20
6.900896684736411
 30
0.0
 10
-27.32838245303399
 20
6.58171055321327
 30
0.0
 10
-21.04770371578553
 20
3.290855276606674
 30
0.0
 10
-14.76702497853706
 20
0.0000000000000693
 30
0.0
  0
SPLINE
  5
1405
330
1F
100
AcDbEntity
  8
AM_0
100
AcDbSpline
210
0.0
220
0.0
230
1.0
 70
     8
 71
     3
 72
     8
 73
     4
 74
     0
 42
0.0000000001
 43
0.0000000001
 40
0.0
 40
0.0
 40
0.0
 40
0.0
 40
7.57842115059705
 40
7.57842115059705
 40
7.57842115059705
 40
7.57842115059705
 10
0.0
 20
7.499999999999994
 30
0.0
 10
-3.789210575298525
 20
7.499999999999994
 30
0.0
 10
-7.395833880743793
 20
6.47422484397358
 30
0.0
 10
-10.91536498584622
 20
4.959165766526224
 30
0.0
  0
SPLINE
  5
1406
330
1F
100
AcDbEntity
  8
AM_0
100
AcDbSpline
210
0.0
220
0.0
230
1.0
 70
     8
 71
     3
 72
     8
 73
     4
 74
     2
 42
0.0000000001
 43
0.0000000001
 44
0.0000000001
 12
-0.6417012268563095
 22
-0.7669547153848832
 32
0.0
 13
-0.990099942783104
 23
-0.1403641809753971
 33
0.0
 40
0.0
 40
0.0
 40
0.0
 40
0.0
 40
3.879847985425109
 40
3.879847985425109
 40
3.879847985425109
 40
3.879847985425109
 10
0.0
 20
6.112054030025939
 30
0.0
 10
-0.8299010707544244
 20
5.120164794226496
 30
0.0
 10
-2.254379257074023
 20
4.694210695386523
 30
0.0
 10
-3.53485834653287
 20
4.51268013379211
 30
0.0
 11
0.0
 21
6.112054030025939
 31
0.0
 11
-3.53485834653287
 21
4.51268013379211
 31
0.0
  0
SPLINE
  5
1407
330
1F
100
AcDbEntity
  8
AM_0
100
AcDbSpline
210
0.0
220
0.0
230
1.0
 70
     8
 71
     3
 72
     8
 73
     4
 74
     0
 42
0.0000000001
 43
0.0000000001
 40
0.3581103616548037
 40
0.3581103616548037
 40
0.3581103616548037
 40
0.3581103616548037
 40
14.43901837670146
 40
14.43901837670146
 40
14.43901837670146
 40
14.43901837670146
 10
-37.64581289898328
 20
7.268768134278976
 30
0.0
 10
-30.63542073969893
 20
7.094983512079808
 30
0.0
 10
-24.2086237833535
 20
3.547491756039934
 30
0.0
 10
-17.78182682700807
 20
0.0000000000000693
 30
0.0
  0
SPLINE
  5
1408
330
1F
100
AcDbEntity
  8
AM_0
100
AcDbSpline
210
0.0
220
0.0
230
1.0
 70
     8
 71
     3
 72
     8
 73
     4
 74
     2
 42
0.0000000001
 43
0.0000000001
 44
0.0000000001
 12
1.0
 22
0.0000000000000006
 32
0.0
 40
0.0
 40
0.0
 40
0.0
 40
0.0
 40
21.73499482401593
 40
21.73499482401593
 40
21.73499482401593
 40
21.73499482401593
 10
-40.79999999999999
 20
7.500000000000133
 30
0.0
 10
-33.55500172532801
 20
7.500000000000137
 30
0.0
 10
-26.977500862664
 20
3.750000000000146
 30
0.0
 10
-20.39999999999999
 20
0.0000000000001545
 30
0.0
 11
-40.79999999999999
 21
7.500000000000133
 31
0.0
 11
-20.39999999999999
 21
0.0000000000001545
 31
0.0
  0
LINE
  5
140B
330
1F
100
AcDbEntity
  8
AM_0
100
AcDbLine
 10
-28.637631849821
 20
6.03127882338535
 30
0.0
 11
-3.53485834653287
 21
4.51268013379211
 31
0.0
  0
LINE
  5
140C
330
1F
100
AcDbEntity
  8
AM_11
100
AcDbLine
 10
-0.0000000000011511
 20
7.499999999999994
 30
0.0
 11
-70.00000000000118
 21
7.499999999999935
 31
0.0
  0
LINE
  5
140D
330
1F
100
AcDbEntity
  8
AM_0
100
AcDbLine
 10
0.0
 20
1.499999999999994
 30
0.0
 11
0.0
 21
7.499999999999994
 31
0.0
  0
LINE
  5
140E
330
1F
100
AcDbEntity
  8
AM_0
100
AcDbLine
 10
0.0
 20
0.2999999999999776
 30
0.0
 11
-3.53485834653287
 21
4.51268013379211
 31
0.0
  0
LINE
  5
140F
330
1F
100
AcDbEntity
  8
AM_0
100
AcDbLine
 10
-0.5034597787064002
 20
0.8999999999999435
 30
0.0
 11
0.0
 21
1.499999999999994
 31
0.0
  0
LINE
  5
1415
330
1F
100
AcDbEntity
  8
AM_11
100
AcDbLine
 10
-70.00000000000118
 20
-7.499999999999859
 30
0.0
 11
0.0000000000000107
 21
-7.500000000000005
 31
0.0
  0
LINE
  5
1416
330
1F
100
AcDbEntity
  8
AM_0
100
AcDbLine
 10
-0.5624999999999894
 20
-6.11733027676991
 30
0.0
 11
-0.5624999999999894
 21
-6.036533146698934
 31
0.0
  0
LINE
  5
1417
330
1F
100
AcDbEntity
  8
AM_0
100
AcDbLine
 10
0.0000000000000107
 20
-7.500000000000005
 30
0.0
 11
-0.1575000000000166
 21
-7.100161736432744
 31
0.0
  0
LINE
  5
1418
330
1F
100
AcDbEntity
  8
AM_0
100
AcDbLine
 10
-0.1575000000000166
 20
-7.100161736432744
 30
0.0
 11
-0.5624999999999894
 21
-6.11733027676991
 31
0.0
  0
SPLINE
  5
14D2
330
1F
100
AcDbEntity
  8
AM_0
100
AcDbSpline
210
0.0
220
0.0
230
1.0
 70
     8
 71
     3
 72
     8
 73
     4
 74
     0
 42
0.0000000001
 43
0.0000000001
 40
0.7142832446738512
 40
0.7142832446738512
 40
0.7142832446738512
 40
0.7142832446738512
 40
14.36247867694493
 40
14.36247867694493
 40
14.36247867694493
 40
14.36247867694493
 10
-40.38772298027959
 20
-6.900896684736501
 30
0.0
 10
-47.1591134859522
 20
-6.581710553213367
 30
0.0
 10
-53.43979222320066
 20
-3.290855276606777
 30
0.0
 10
-59.72047096044914
 20
-0.0000000000001759
 30
0.0
  0
SPLINE
  5
14D3
330
1F
100
AcDbEntity
  8
AM_0
100
AcDbSpline
210
0.0
220
0.0
230
1.0
 70
     8
 71
     3
 72
     8
 73
     4
 74
     0
 42
0.0000000001
 43
0.0000000001
 40
0.3581103616548037
 40
0.3581103616548037
 40
0.3581103616548037
 40
0.3581103616548037
 40
14.43901837670146
 40
14.43901837670146
 40
14.43901837670146
 40
14.43901837670146
 10
-36.84168304000292
 20
-7.268768134279062
 30
0.0
 10
-43.85207519928727
 20
-7.094983512079904
 30
0.0
 10
-50.2788721556327
 20
-3.547491756040029
 30
0.0
 10
-57.10229778745761
 20
-0.000000000000048
 30
0.0
  0
SPLINE
  5
14D4
330
1F
100
AcDbEntity
  8
AM_0
100
AcDbSpline
210
0.0
220
0.0
230
1.0
 70
     8
 71
     3
 72
     8
 73
     4
 74
     2
 42
0.0000000001
 43
0.0000000001
 44
0.0000000001
 12
-1.0
 22
-0.0000000000000014
 32
0.0
 40
0.0
 40
0.0
 40
0.0
 40
0.0
 40
21.73499482401591
 40
21.73499482401591
 40
21.73499482401591
 40
21.73499482401591
 10
-33.68749593898622
 20
-7.500000000000218
 30
0.0
 10
-40.93249421365818
 20
-7.500000000000228
 30
0.0
 10
-47.50999507632219
 20
-3.750000000000242
 30
0.0
 10
-54.0874959389862
 20
-0.0000000000002558
 30
0.0
 11
-33.68749593898622
 21
-7.500000000000218
 31
0.0
 11
-54.0874959389862
 21
-0.0000000000002558
 31
0.0
  0
SPLINE
  5
14D6
330
1F
100
AcDbEntity
  8
AM_0
100
AcDbSpline
210
0.0
220
0.0
230
1.0
 70
     8
 71
     3
 72
     8
 73
     4
 74
     0
 42
0.0000000001
 43
0.0000000001
 40
0.0
 40
0.0
 40
0.0
 40
0.0
 40
2.238610194515266
 40
2.238610194515266
 40
2.238610194515266
 40
2.238610194515266
 10
-33.68749593898745
 20
-7.49999999999815
 30
0.0
 10
-31.49278006170469
 20
-7.49999999999815
 30
0.0
 10
-29.33783172564425
 20
-7.217841027843602
 30
0.0
 10
-25.71629469775751
 20
-6.152083217110455
 30
0.0
  0
LINE
  5
14EC
330
1F
100
AcDbEntity
  8
AM_11
100
AcDbLine
 10
0.0
 20
-7.49999999999823
 30
0.0
 11
0.0
 21
7.499999999999893
 31
0.0
  0
SPLINE
  5
18A4
330
1F
100
AcDbEntity
  8
AM_0
100
AcDbSpline
210
0.0
220
0.0
230
1.0
 70
     8
 71
     3
 72
     8
 73
     4
 74
     0
 42
0.0000000001
 43
0.0000000001
 40
0.0
 40
0.0
 40
0.0
 40
0.0
 40
7.57842115059705
 40
7.57842115059705
 40
7.57842115059705
 40
7.57842115059705
 10
-40.79999999999888
 20
7.499999999999964
 30
0.0
 10
-44.58921057529741
 20
7.499999999999964
 30
0.0
 10
-48.19583388074267
 20
6.474224843973549
 30
0.0
 10
-51.71536498584512
 20
4.959165766526193
 30
0.0
  0
LINE
  5
18A5
330
1F
100
AcDbEntity
  8
AM_0
100
AcDbLine
 10
-65.27658810702087
 20
5.326643052759749
 30
0.0
 11
-44.33485834653176
 21
4.512680133792079
 31
0.0
  0
LINE
  5
18AB
330
1F
100
AcDbEntity
  8
AM_0
100
AcDbLine
 10
-10.29815357905297
 20
-5.219358835250361
 30
0.0
 11
-25.71629469775751
 21
-6.152083217110455
 31
0.0
  0
LINE
  5
19C3
330
1F
100
AcDbEntity
  8
AM_0
100
AcDbLine
 10
-85.00000000000001
 20
-7.999999999998037
 30
0.0
 11
-139.0
 21
-7.999999999998121
 31
0.0
  0
LINE
  5
19C6
330
1F
100
AcDbEntity
  8
AM_0
100
AcDbLine
 10
-85.0
 20
7.999999999999955
 30
0.0
 11
-138.9999999999999
 21
7.999999999999856
 31
0.0
  0
LINE
  5
19C7
330
1F
100
AcDbEntity
  8
AM_0
100
AcDbLine
 10
-139.0
 20
7.999999999999857
 30
0.0
 11
-139.0
 21
-7.999999999998123
 31
0.0
  0
LINE
  5
19C8
330
1F
100
AcDbEntity
  8
AM_0
100
AcDbLine
 10
-139.9999999999999
 20
6.999999999999854
 30
0.0
 11
-140.0
 21
-6.999999999998123
 31
0.0
  0
DIMENSION
  5
19C9
330
1F
100
AcDbEntity
  8
AM_5
100
AcDbDimension
  2
*D8
 10
-156.7882312597197
 20
-7.999999999998118
 30
0.0
 11
-159.8882312597197
 21
0.000000000000832
 31
0.0
 70
    32
  1
%%c<>
  3
AM_JIS
100
AcDbAlignedDimension
 13
-139.0
 23
7.999999999999827
 33
0.0
 14
-139.0
 24
-7.999999999998123
 34
0.0
 50
270.0
100
AcDbRotatedDimension
1001
GENIUS_GENDTOL_13
1000

1000
h7
1000

1040
0.0
  0
LINE
  5
19E1
330
1F
100
AcDbEntity
  8
AM_0
100
AcDbLine
 10
-138.9999999999999
 20
7.999999999999856
 30
0.0
 11
-139.9999999999999
 21
6.999999999999854
 31
0.0
1001
GENIUS_GENFIL_13
1070
     0
1040
1.0
1040
1.0
1040
20.0
1040
0.0
1002
{
1002
}
1001
GENIUS_GENODEF_13
1002
{
1000
HIER
1070
     0
1002
}
1002
{
1000
MANEDIT
1070
     0
1002
}
1002
{
1000
NOSEL
1070
     0
1002
}
1002
{
1000
BEHIND
1070
     0
1002
}
1002
{
1000
REACTOR
1002
}
1001
GENIUS_GENOBJ-N-CHA_13
1002
{
1000
OWNER
1000
GEN
1002
}
  0
LINE
  5
19E4
330
1F
100
AcDbEntity
  8
AM_0
100
AcDbLine
 10
-140.0
 20
-6.999999999998123
 30
0.0
 11
-139.0
 21
-7.999999999998121
 31
0.0
1001
GENIUS_GENFIL_13
1070
     0
1040
1.0
1040
1.0
1040
20.0
1040
0.0
1002
{
1002
}
1001
GENIUS_GENODEF_13
1002
{
1000
HIER
1070
     0
1002
}
1002
{
1000
MANEDIT
1070
     0
1002
}
1002
{
1000
NOSEL
1070
     0
1002
}
1002
{
1000
BEHIND
1070
     0
1002
}
1002
{
1000
REACTOR
1002
}
1001
GENIUS_GENOBJ-N-CHA_13
1002
{
1000
OWNER
1000
GEN
1002
}
  0
LINE
  5
1A74
330
1F
100
AcDbEntity
  8
AM_0
100
AcDbLine
 10
-84.99999999999998
 20
7.999999999999956
 30
0.0
 11
-85.00000000000001
 21
-7.999999999998038
 31
0.0
  0
SPLINE
  5
1AEA
330
1F
100
AcDbEntity
  8
AM_0
100
AcDbSpline
210
0.0
220
0.0
230
1.0
 70
     8
 71
     3
 72
     8
 73
     4
 74
     0
 42
0.0000000001
 43
0.0000000001
 40
0.7142832446738512
 40
0.7142832446738512
 40
0.7142832446738512
 40
0.7142832446738512
 40
14.36247867694493
 40
14.36247867694493
 40
14.36247867694493
 40
14.36247867694493
 10
-73.42024391915629
 20
6.900896684736377
 30
0.0
 10
-66.64885341348366
 20
6.581710553213238
 30
0.0
 10
-60.36817467623521
 20
3.290855276606631
 30
0.0
 10
-54.08749593898674
 20
0.0000000000000249
 30
0.0
  0
SPLINE
  5
1AEB
330
1F
100
AcDbEntity
  8
AM_0
100
AcDbSpline
210
0.0
220
0.0
230
1.0
 70
     8
 71
     3
 72
     8
 73
     4
 74
     0
 42
0.0000000001
 43
0.0000000001
 40
0.485186849710007
 40
0.485186849710007
 40
0.485186849710007
 40
0.485186849710007
 40
14.43901837670146
 40
14.43901837670146
 40
14.43901837670146
 40
14.43901837670146
 10
-76.77662519345453
 20
7.263241209073735
 30
0.0
 10
-69.83989139877832
 20
7.03095315362837
 30
0.0
 10
-63.47109459311804
 20
3.515476576814198
 30
0.0
 10
-57.10229778745775
 20
0.0000000000000249
 30
0.0
  0
SPLINE
  5
1AEC
330
1F
100
AcDbEntity
  8
AM_0
100
AcDbSpline
210
0.0
220
0.0
230
1.0
 70
     8
 71
     3
 72
     8
 73
     4
 74
     0
 42
0.0000000001
 43
0.0000000001
 40
1.16917364052307
 40
1.16917364052307
 40
1.16917364052307
 40
1.16917364052307
 40
21.73499482401593
 40
21.73499482401593
 40
21.73499482401593
 40
21.73499482401593
 10
-78.95698783930756
 20
7.499999999986737
 30
0.0
 10
-72.16783592842753
 20
7.096558344047471
 30
0.0
 10
-65.94415344443859
 20
3.54827917202379
 30
0.0
 10
-59.72047096044967
 20
0.0000000000001101
 30
0.0
  0
LINE
  5
1AF8
330
1F
100
AcDbEntity
  8
AM_11
100
AcDbLine
 10
-70.00000000000119
 20
-7.499999999998156
 30
0.0
 11
-70.00000000000117
 21
7.499999999999968
 31
0.0
  0
SPLINE
  5
1B02
330
1F
100
AcDbEntity
  8
AM_0
100
AcDbSpline
210
0.0
220
0.0
230
1.0
 70
     8
 71
     3
 72
     8
 73
     4
 74
     0
 42
0.0000000001
 43
0.0000000001
 40
0.7746206611826578
 40
0.7746206611826578
 40
0.7746206611826578
 40
0.7746206611826578
 40
5.192508374738713
 40
5.192508374738713
 40
5.192508374738713
 40
5.192508374738713
 10
-78.95698783906786
 20
7.499999999999992
 30
0.0
 10
-81.14861914953019
 20
7.346822350204334
 30
0.0
 10
-83.30356203880809
 20
6.882924958231424
 30
0.0
 10
-84.50835801243853
 20
6.110034960050857
 30
0.0
  0
ARC
  5
1B03
330
1F
100
AcDbEntity
  8
AM_0
100
AcDbCircle
 10
-58.5082930975902
 20
37.59805832267854
 30
0.0
 40
40.83502162190837
100
AcDbArc
 50
230.4530754322581
 51
247.0331411289927
  0
ARC
  5
1B07
330
1F
100
AcDbEntity
  8
AM_0
100
AcDbCircle
 10
-70.75704481789919
 20
10.51621390850396
 30
0.0
 40
18.06880500099758
100
AcDbArc
 50
231.9711497740364
 51
265.6274538140337
  0
ARC
  5
1B08
330
1F
100
AcDbEntity
  8
AM_0
100
AcDbCircle
 10
-70.03467323676914
 20
-8.343956283359869
 30
0.0
 40
12.72498343480085
100
AcDbArc
 50
128.1688561196303
 51
158.6758590676204
  0
ARC
  5
1B09
330
1F
100
AcDbEntity
  8
AM_0
100
AcDbCircle
 10
-71.65572060002367
 20
11.94067453272958
 30
0.0
 40
18.70453076332106
100
AcDbArc
 50
236.8335032680028
 51
275.078455765087
  0
LINE
  5
1B0A
330
1F
100
AcDbEntity
  8
AM_0
100
AcDbLine
 10
-54.29430025387832
 20
-5.755043188094937
 30
0.0
 11
-70.00000000000119
 21
-6.690430114356848
 31
0.0
  0
ARC
  5
1B0B
330
1F
100
AcDbEntity
  8
AM_0
100
AcDbCircle
 10
-71.94249587421919
 20
0.340797642124957
 30
0.0
 40
7.843151441265408
100
AcDbArc
 50
268.5962560692248
 51
297.9556635923618
  0
SPLINE
  5
1B0E
330
1F
100
AcDbEntity
  8
AM_0
100
AcDbSpline
210
0.0
220
0.0
230
1.0
 70
     8
 71
     3
 72
     8
 73
     4
 74
     0
 42
0.0000000001
 43
0.0000000001
 40
0.0
 40
0.0
 40
0.0
 40
0.0
 40
13.97258598406841
 40
13.97258598406841
 40
13.97258598406841
 40
13.97258598406841
 10
-54.29430025387832
 20
-5.755043188094937
 30
0.0
 10
-61.28059324591257
 20
-5.755043188094937
 30
0.0
 10
-67.86392272929147
 20
-2.895933323042108
 30
0.0
 10
-74.44206230723394
 20
0.0000000000000497
 30
0.0
  0
SPLINE
  5
1B0F
330
1F
100
AcDbEntity
  8
AM_0
100
AcDbSpline
210
0.0
220
0.0
230
1.0
 70
     8
 71
     3
 72
     8
 73
     4
 74
     0
 42
0.0000000001
 43
0.0000000001
 40
0.0
 40
0.0
 40
0.0
 40
0.0
 40
2.238610194515266
 40
2.238610194515266
 40
2.238610194515266
 40
2.238610194515266
 10
-54.29430025387832
 20
-5.755043188094937
 30
0.0
 10
-52.09958437659556
 20
-5.755043188094937
 30
0.0
 10
-49.94463604053511
 20
-5.472884215940389
 30
0.0
 10
-47.81712333161398
 20
-4.996063765699155
 30
0.0
  0
LINE
  5
1B10
330
1F
100
AcDbEntity
  8
AM_0
100
AcDbLine
 10
-78.95698783906787
 20
7.499999999999992
 30
0.0
 11
-83.62626129027276
 21
7.499999999999989
 31
0.0
  0
LINE
  5
1B11
330
1F
100
AcDbEntity
  8
AM_0
100
AcDbLine
 10
-83.62626129027276
 20
7.499999999999989
 30
0.0
 11
-84.99999999999998
 21
7.999999999999955
 31
0.0
  0
LINE
  5
1B12
330
1F
100
AcDbEntity
  8
AM_0
100
AcDbLine
 10
-72.13463349636623
 20
-7.500000000001199
 30
0.0
 11
-83.62626129027773
 21
-7.49999999999987
 31
0.0
  0
LINE
  5
1B13
330
1F
100
AcDbEntity
  8
AM_0
100
AcDbLine
 10
-83.62626129027773
 20
-7.49999999999987
 30
0.0
 11
-83.62626129027345
 21
5.401992340433501
 31
0.0
  0
LINE
  5
1B14
330
1F
100
AcDbEntity
  8
AM_0
100
AcDbLine
 10
-85.00000000000001
 20
-7.999999999998038
 30
0.0
 11
-83.62626129027773
 21
-7.49999999999987
 31
0.0
  0
LINE
  5
1B1B
330
1F
100
AcDbEntity
  8
AM_0
100
AcDbLine
 10
-83.62626129027308
 20
6.558153513483119
 30
0.0
 11
-83.62626129027276
 21
7.499999999999989
 31
0.0
  0
VIEWPORT
  5
110
330
101
100
AcDbEntity
 67
     1
  8
0
100
AcDbViewport
 10
420.5
 20
297.0
 30
0.0
 40
948.9782706766916
 41
628.452
 68
     1
 69
     1
1001
ACAD
1000
MVIEW
1002
{
1070
    16
1010
0.0
1020
0.0
1030
0.0
1010
0.0
1020
0.0
1030
1.0
1040
0.0
1040
628.452
1040
420.5
1040
297.0
1040
50.0
1040
0.0
1040
0.0
1070
     0
1070
   100
1070
     1
1070
     1
1070
     0
1070
     0
1070
     0
1070
     0
1040
0.0
1040
0.0
1040
0.0
1040
10.0
1040
10.0
1040
10.0
1040
10.0
1070
     0
1002
{
1002
}
1002
}
  0
ENDSEC
  0
SECTION
  2
OBJECTS
  0
DICTIONARY
  5
C
330
0
100
AcDbDictionary
  3
ACAD_GROUP
350
D
  3
ACAD_LAYOUT
350
1A
  3
ACAD_MLINESTYLE
350
17
  3
ACAD_PLOTSETTINGS
350
19
  3
ACAD_PLOTSTYLENAME
350
E
  3
ACDBVARIABLEDICTIONARY
350
34
  3
ACMDICTIONARY
350
43
  3
AMG
350
2B
  3
AMGSNAPSETTINGS
350
6E
  3
DWGPROPS
350
1C61
  3
ACDBHEADERROUNDTRIPXREC
350
1C6D
  0
DICTIONARY
  5
74
330
1F
100
AcDbDictionary
280
     1
  3
ACAD_INDEX
360
1C63
  3
ACAD_LAYOUTSELFREF
360
1C90
  0
DICTIONARY
  5
1C95
330
101
100
AcDbDictionary
280
     1
  3
ACAD_LAYOUTSELFREF
360
1C96
  0
DICTIONARY
  5
D
102
{ACAD_REACTORS
330
C
102
}
330
C
100
AcDbDictionary
  0
DICTIONARY
  5
1A
102
{ACAD_REACTORS
330
C
102
}
330
C
100
AcDbDictionary
  0
DICTIONARY
  5
17
102
{ACAD_REACTORS
330
C
102
}
330
C
100
AcDbDictionary
  3
STANDARD
350
18
  0
DICTIONARY
  5
19
102
{ACAD_REACTORS
330
C
102
}
330
C
100
AcDbDictionary
  0
ACDBDICTIONARYWDFLT
  5
E
102
{ACAD_REACTORS
330
C
102
}
330
C
100
AcDbDictionary
281
     1
  3
Normal
350
F
100
AcDbDictionaryWithDefault
340
F
  0
DICTIONARY
  5
34
102
{ACAD_REACTORS
330
C
102
}
330
C
100
AcDbDictionary
  3
INDEXCTL
350
35
  3
SORTENTS
350
B5E
  0
DICTIONARY
  5
43
102
{ACAD_REACTORS
330
C
102
}
330
C
100
AcDbDictionary
  3
ACMSTDDICTIONARY
350
260
  0
DICTIONARY
  5
2B
102
{ACAD_REACTORS
330
C
102
}
330
C
100
AcDbDictionary
  3
ACMGSETTINGS
350
2C
  0
DICTIONARY
  5
6E
102
{ACAD_REACTORS
330
C
102
}
330
C
100
AcDbDictionary
  0
XRECORD
  5
1C61
102
{ACAD_REACTORS
330
C
102
}
330
C
100
AcDbXrecord
  1
DWGPROPS COOKIE
  2

  3

  4

  6

  7

  8

  9

300
AmdtFileType=82
301
=
302
=
303
=
304
=
305
=
306
=
307
=
308
=
309
=
 40
0.0525043287037037
 41
2452836.771637361
 42
2453045.460722361
  1

 90
        1
  0
DICTIONARY
  5
1C6D
102
{ACAD_REACTORS
330
C
102
}
330
C
100
AcDbDictionary
  3
TSTACKALIGN
350
1C6E
  3
TSTACKSIZE
350
1C6F
  3
HYPERLINKBASE
350
1C70
  3
STYLESHEET
350
1C71
  3
LAYOUTDICT
350
1C72
  3
PLOTSETDICT
350
1C73
  3
PLOTSTYLNAMDICT
350
1C74
  3
LWETCUNION
350
1C75
  3
INSUNITS
350
1C76
  3
CEPSNTYPE
350
1C77
  3
FINGERPRINTGUID
350
1C78
  3
VERSIONGUID
350
1C79
  3
PSVPSCALE
350
1C7A
  3
DIMSTYLEDATA
350
1C7B
  3
PUCSORTHOREF
350
1C7C
  3
PUCSORTHOVIEW
350
1C7D
  3
PUCSBASE
350
1C7E
  3
PUCSORGTOP
350
1C7F
  3
PUCSORGBOTTOM
350
1C80
  3
PUCSORGLEFT
350
1C81
  3
PUCSORGRIGHT
350
1C82
  3
PUCSORGFRONT
350
1C83
  3
PUCSORGBACK
350
1C84
  3
UCSORTHOREF
350
1C85
  3
UCSORTHOVIEW
350
1C86
  3
UCSBASE
350
1C87
  3
UCSORGTOP
350
1C88
  3
UCSORGBOTTOM
350
1C89
  3
UCSORGLEFT
350
1C8A
  3
UCSORGRIGHT
350
1C8B
  3
UCSORGFRONT
350
1C8C
  3
UCSORGBACK
350
1C8D
  0
DICTIONARY
  5
1C63
102
{ACAD_REACTORS
330
74
102
}
330
74
100
AcDbDictionary
  3
*A1
350
1C64
  0
XRECORD
  5
1C90
102
{ACAD_REACTORS
330
74
102
}
330
74
100
AcDbXrecord
340
1F
  0
XRECORD
  5
1C96
102
{ACAD_REACTORS
330
1C95
102
}
330
1C95
100
AcDbXrecord
340
101
  0
MLINESTYLE
  5
18
102
{ACAD_REACTORS
330
17
102
}
330
17
100
AcDbMlineStyle
  2
STANDARD
 70
     0
  3

 62
   256
 51
90.0
 52
90.0
 71
     2
 49
0.5
 62
   256
  6
BYLAYER
 49
-0.5
 62
   256
  6
BYLAYER
  0
ACDBPLACEHOLDER
  5
F
102
{ACAD_REACTORS
330
E
102
}
330
E
100
AcDbPlaceHolder
280
     0
  0
DICTIONARYVAR
  5
35
102
{ACAD_REACTORS
330
34
102
}
330
34
100
DictionaryVariables
280
     0
  1
1
  0
DICTIONARYVAR
  5
B5E
102
{ACAD_REACTORS
330
34
102
}
330
34
100
DictionaryVariables
280
     0
  1
96
  0
DICTIONARY
  5
260
102
{ACAD_REACTORS
330
43
102
}
330
43
100
AcDbDictionary
  0
DICTIONARY
  5
2C
102
{ACAD_REACTORS
330
2B
102
}
330
2B
100
AcDbDictionary
  3
DWGSETTINGS
350
2D
  0
XRECORD
  5
1C6E
102
{ACAD_REACTORS
330
1C6D
102
}
330
1C6D
100
AcDbXrecord
 90
        1
  0
XRECORD
  5
1C6F
102
{ACAD_REACTORS
330
1C6D
102
}
330
1C6D
100
AcDbXrecord
 90
       70
  0
XRECORD
  5
1C70
102
{ACAD_REACTORS
330
1C6D
102
}
330
1C6D
100
AcDbXrecord
  1

  0
XRECORD
  5
1C71
102
{ACAD_REACTORS
330
1C6D
102
}
330
1C6D
100
AcDbXrecord
  1
ASAMI.ctb
  0
XRECORD
  5
1C72
102
{ACAD_REACTORS
330
1C6D
102
}
330
1C6D
100
AcDbXrecord
340
1A
  0
XRECORD
  5
1C73
102
{ACAD_REACTORS
330
1C6D
102
}
330
1C6D
100
AcDbXrecord
340
19
  0
XRECORD
  5
1C74
102
{ACAD_REACTORS
330
1C6D
102
}
330
1C6D
100
AcDbXrecord
340
E
  0
XRECORD
  5
1C75
102
{ACAD_REACTORS
330
1C6D
102
}
330
1C6D
100
AcDbXrecord
 90
    10781
  0
XRECORD
  5
1C76
102
{ACAD_REACTORS
330
1C6D
102
}
330
1C6D
100
AcDbXrecord
 90
        4
  0
XRECORD
  5
1C77
102
{ACAD_REACTORS
330
1C6D
102
}
330
1C6D
100
AcDbXrecord
 90
        0
  0
XRECORD
  5
1C78
102
{ACAD_REACTORS
330
1C6D
102
}
330
1C6D
100
AcDbXrecord
  1
{AFB28963-8C59-40AE-9337-C84526B81ACE}
  0
XRECORD
  5
1C79
102
{ACAD_REACTORS
330
1C6D
102
}
330
1C6D
100
AcDbXrecord
  1
{2FB9DE2E-BC5E-4FDE-BD85-A894CA234B32}
  0
XRECORD
  5
1C7A
102
{ACAD_REACTORS
330
1C6D
102
}
330
1C6D
100
AcDbXrecord
 40
0.0
  0
XRECORD
  5
1C7B
102
{ACAD_REACTORS
330
1C6D
102
}
330
1C6D
100
AcDbXrecord
1000
DSTYLE
1002
{
1070
    79
 70
     2
1070
   341
340
59
1070
   342
340
59
1070
   371
 70
    -1
1070
   372
 70
    -1
1002
}
  0
XRECORD
  5
1C7C
102
{ACAD_REACTORS
330
1C6D
102
}
330
1C6D
100
AcDbXrecord
340
0
  0
XRECORD
  5
1C7D
102
{ACAD_REACTORS
330
1C6D
102
}
330
1C6D
100
AcDbXrecord
 70
     0
  0
XRECORD
  5
1C7E
102
{ACAD_REACTORS
330
1C6D
102
}
330
1C6D
100
AcDbXrecord
340
0
  0
XRECORD
  5
1C7F
102
{ACAD_REACTORS
330
1C6D
102
}
330
1C6D
100
AcDbXrecord
 10
0.0
 20
0.0
 30
0.0
  0
XRECORD
  5
1C80
102
{ACAD_REACTORS
330
1C6D
102
}
330
1C6D
100
AcDbXrecord
 10
0.0
 20
0.0
 30
0.0
  0
XRECORD
  5
1C81
102
{ACAD_REACTORS
330
1C6D
102
}
330
1C6D
100
AcDbXrecord
 10
0.0
 20
0.0
 30
0.0
  0
XRECORD
  5
1C82
102
{ACAD_REACTORS
330
1C6D
102
}
330
1C6D
100
AcDbXrecord
 10
0.0
 20
0.0
 30
0.0
  0
XRECORD
  5
1C83
102
{ACAD_REACTORS
330
1C6D
102
}
330
1C6D
100
AcDbXrecord
 10
0.0
 20
0.0
 30
0.0
  0
XRECORD
  5
1C84
102
{ACAD_REACTORS
330
1C6D
102
}
330
1C6D
100
AcDbXrecord
 10
0.0
 20
0.0
 30
0.0
  0
XRECORD
  5
1C85
102
{ACAD_REACTORS
330
1C6D
102
}
330
1C6D
100
AcDbXrecord
340
0
  0
XRECORD
  5
1C86
102
{ACAD_REACTORS
330
1C6D
102
}
330
1C6D
100
AcDbXrecord
 70
     0
  0
XRECORD
  5
1C87
102
{ACAD_REACTORS
330
1C6D
102
}
330
1C6D
100
AcDbXrecord
340
0
  0
XRECORD
  5
1C88
102
{ACAD_REACTORS
330
1C6D
102
}
330
1C6D
100
AcDbXrecord
 10
0.0
 20
0.0
 30
0.0
  0
XRECORD
  5
1C89
102
{ACAD_REACTORS
330
1C6D
102
}
330
1C6D
100
AcDbXrecord
 10
0.0
 20
0.0
 30
0.0
  0
XRECORD
  5
1C8A
102
{ACAD_REACTORS
330
1C6D
102
}
330
1C6D
100
AcDbXrecord
 10
0.0
 20
0.0
 30
0.0
  0
XRECORD
  5
1C8B
102
{ACAD_REACTORS
330
1C6D
102
}
330
1C6D
100
AcDbXrecord
 10
0.0
 20
0.0
 30
0.0
  0
XRECORD
  5
1C8C
102
{ACAD_REACTORS
330
1C6D
102
}
330
1C6D
100
AcDbXrecord
 10
0.0
 20
0.0
 30
0.0
  0
XRECORD
  5
1C8D
102
{ACAD_REACTORS
330
1C6D
102
}
330
1C6D
100
AcDbXrecord
 10
0.0
 20
0.0
 30
0.0
  0
LAYER_INDEX
  5
1C64
102
{ACAD_REACTORS
330
1C63
102
}
330
1C63
100
AcDbIndex
 40
2453152.35861265
100
AcDbLayerIndex
  8
0
360
1C65
 90
        0
  8
AM_0
360
1C66
 90
       50
  8
AM_11
360
1C67
 90
        4
  8
AM_7
360
1C68
 90
        1
  8
AM_5
360
1C69
 90
        4
  8
Defpoints
360
1C6A
 90
        0
  8
AM_6
360
1C6B
 90
        1
  0
XRECORD
  5
2D
102
{ACAD_REACTORS
330
2C
102
}
330
2C
100
AcDbXrecord
  1
VERSION
140
15.0
  1
PRODUCT
  2
AutoCAD Mechanical 2000
  0
IDBUFFER
  5
1C65
330
0
100
AcDbIdBuffer
  0
IDBUFFER
  5
1C66
330
0
100
AcDbIdBuffer
330
1B14
330
1B1B
330
13FD
330
13FE
330
13FF
330
1400
330
1401
330
1402
330
1404
330
1405
330
1406
330
1407
330
1408
330
140B
330
140D
330
140E
330
140F
330
1416
330
1417
330
1418
330
14D2
330
14D3
330
14D4
330
14D6
330
18A4
330
18A5
330
18AB
330
19C3
330
19C6
330
19C7
330
19C8
330
19E1
330
19E4
330
1A74
330
1AEA
330
1AEB
330
1AEC
330
1B02
330
1B03
330
1B07
330
1B08
330
1B09
330
1B0A
330
1B0B
330
1B0E
330
1B0F
330
1B10
330
1B11
330
1B12
330
1B13
  0
IDBUFFER
  5
1C67
330
0
100
AcDbIdBuffer
330
140C
330
1415
330
14EC
330
1AF8
  0
IDBUFFER
  5
1C68
330
0
100
AcDbIdBuffer
330
F47
  0
IDBUFFER
  5
1C69
330
0
100
AcDbIdBuffer
330
105F
330
10EF
330
1180
330
19C9
  0
IDBUFFER
  5
1C6A
330
0
100
AcDbIdBuffer
  0
IDBUFFER
  5
1C6B
330
0
100
AcDbIdBuffer
330
E5A
  0
ENDSEC
  0
EOF
