  0
SECTION
  2
HEADER
  9
$ACADVER
  1
AC1014
  9
$ACADMAINTVER
 70
     9
  9
$DWGCODEPAGE
  3
ANSI_932
  9
$INSBASE
 10
0.0
 20
0.0
 30
0.0
  9
$EXTMIN
 10
-72.13823125971977
 20
-27.25000099999971
 30
-0.00000001
  9
$EXTMAX
 10
12.05776903085495
 20
2.999999999999994
 30
0.00000001
  9
$LIMMIN
 10
-82.91661408112446
 20
-36.81261475268769
  9
$LIMMAX
 10
13.911115079164
 20
16.62547651269625
  9
$ORTHOMODE
 70
     0
  9
$REGENMODE
 70
     1
  9
$FILLMODE
 70
     1
  9
$QTEXTMODE
 70
     0
  9
$MIRRTEXT
 70
     0
  9
$DRAGMODE
 70
     2
  9
$LTSCALE
 40
1.0
  9
$OSMODE
 70
    55
  9
$ATTMODE
 70
     1
  9
$TEXTSIZE
 40
2.5
  9
$TRACEWID
 40
1.0
  9
$TEXTSTYLE
  7
STANDARD
  9
$CLAYER
  8
AM_0
  9
$CELTYPE
  6
BYLAYER
  9
$CECOLOR
 62
   256
  9
$CELTSCALE
 40
1.0
  9
$DELOBJ
 70
     1
  9
$DISPSILH
 70
     0
  9
$DIMSCALE
 40
0.5
  9
$DIMASZ
 40
2.5
  9
$DIMEXO
 40
1.0
  9
$DIMDLI
 40
12.0
  9
$DIMRND
 40
0.0
  9
$DIMDLE
 40
0.0
  9
$DIMEXE
 40
1.0
  9
$DIMTP
 40
0.1
  9
$DIMTM
 40
0.1
  9
$DIMTXT
 40
3.2
  9
$DIMCEN
 40
0.0
  9
$DIMTSZ
 40
0.0
  9
$DIMTOL
 70
     0
  9
$DIMLIM
 70
     0
  9
$DIMTIH
 70
     0
  9
$DIMTOH
 70
     0
  9
$DIMSE1
 70
     0
  9
$DIMSE2
 70
     0
  9
$DIMTAD
 70
     3
  9
$DIMZIN
 70
     8
  9
$DIMBLK
  1
OPEN30
  9
$DIMASO
 70
     1
  9
$DIMSHO
 70
     1
  9
$DIMPOST
  1

  9
$DIMAPOST
  1
"
  9
$DIMALT
 70
     0
  9
$DIMALTD
 70
     2
  9
$DIMALTF
 40
0.0393701
  9
$DIMLFAC
 40
1.0
  9
$DIMTOFL
 70
     1
  9
$DIMTVP
 40
0.0
  9
$DIMTIX
 70
     0
  9
$DIMSOXD
 70
     0
  9
$DIMSAH
 70
     0
  9
$DIMBLK1
  1

  9
$DIMBLK2
  1

  9
$DIMSTYLE
  2
AM_JIS
  9
$DIMCLRD
 70
   256
  9
$DIMCLRE
 70
   256
  9
$DIMCLRT
 70
     2
  9
$DIMTFAC
 40
0.71
  9
$DIMGAP
 40
1.5
  9
$DIMJUST
 70
     0
  9
$DIMSD1
 70
     0
  9
$DIMSD2
 70
     0
  9
$DIMTOLJ
 70
     0
  9
$DIMTZIN
 70
     0
  9
$DIMALTZ
 70
     0
  9
$DIMALTTZ
 70
     0
  9
$DIMFIT
 70
     3
  9
$DIMUPT
 70
     0
  9
$DIMUNIT
 70
     2
  9
$DIMDEC
 70
     3
  9
$DIMTDEC
 70
     3
  9
$DIMALTU
 70
     2
  9
$DIMALTTD
 70
     2
  9
$DIMTXSTY
  7
ASAMI
  9
$DIMAUNIT
 70
     0
  9
$LUNITS
 70
     2
  9
$LUPREC
 70
     2
  9
$SKETCHINC
 40
1.0
  9
$FILLETRAD
 40
2.5
  9
$AUNITS
 70
     0
  9
$AUPREC
 70
     0
  9
$MENU
  1
.
  9
$ELEVATION
 40
0.0
  9
$PELEVATION
 40
0.0
  9
$THICKNESS
 40
0.0
  9
$LIMCHECK
 70
     0
  9
$BLIPMODE
 70
     0
  9
$CHAMFERA
 40
0.5
  9
$CHAMFERB
 40
0.5
  9
$CHAMFERC
 40
20.0
  9
$CHAMFERD
 40
0.0
  9
$SKPOLY
 70
     0
  9
$TDCREATE
 40
2452836.771637361
  9
$TDUPDATE
 40
2453152.357011956
  9
$TDINDWG
 40
0.0580244907
  9
$TDUSRTIMER
 40
0.0580244907
  9
$USRTIMER
 70
     1
  9
$ANGBASE
 50
0.0
  9
$ANGDIR
 70
     0
  9
$PDMODE
 70
     0
  9
$PDSIZE
 40
0.0
  9
$PLINEWID
 40
0.0
  9
$COORDS
 70
     1
  9
$SPLFRAME
 70
     0
  9
$SPLINETYPE
 70
     6
  9
$SPLINESEGS
 70
     8
  9
$ATTDIA
 70
     1
  9
$ATTREQ
 70
     1
  9
$HANDLING
 70
 12289
  9
$HANDSEED
  5
1FEB
  9
$SURFTAB1
 70
     6
  9
$SURFTAB2
 70
     6
  9
$SURFTYPE
 70
     6
  9
$SURFU
 70
     6
  9
$SURFV
 70
     6
  9
$UCSNAME
  2

  9
$UCSORG
 10
0.0
 20
0.0
 30
0.0
  9
$UCSXDIR
 10
1.0
 20
0.0
 30
0.0
  9
$UCSYDIR
 10
0.0
 20
1.0
 30
0.0
  9
$PUCSNAME
  2

  9
$PUCSORG
 10
0.0
 20
0.0
 30
0.0
  9
$PUCSXDIR
 10
1.0
 20
0.0
 30
0.0
  9
$PUCSYDIR
 10
0.0
 20
1.0
 30
0.0
  9
$USERI1
 70
     0
  9
$USERI2
 70
     0
  9
$USERI3
 70
     0
  9
$USERI4
 70
     0
  9
$USERI5
 70
     0
  9
$USERR1
 40
0.0
  9
$USERR2
 40
0.0
  9
$USERR3
 40
0.0
  9
$USERR4
 40
0.0
  9
$USERR5
 40
0.0
  9
$WORLDVIEW
 70
     1
  9
$SHADEDGE
 70
     3
  9
$SHADEDIF
 70
    70
  9
$TILEMODE
 70
     1
  9
$MAXACTVP
 70
    64
  9
$PINSBASE
 10
0.0
 20
0.0
 30
0.0
  9
$PLIMCHECK
 70
     0
  9
$PEXTMIN
 10
1.000000000000000E+20
 20
1.000000000000000E+20
 30
1.000000000000000E+20
  9
$PEXTMAX
 10
-1.000000000000000E+20
 20
-1.000000000000000E+20
 30
-1.000000000000000E+20
  9
$PLIMMIN
 10
0.0
 20
0.0
  9
$PLIMMAX
 10
841.0
 20
594.0
  9
$UNITMODE
 70
     0
  9
$VISRETAIN
 70
     1
  9
$PLINEGEN
 70
     0
  9
$PSLTSCALE
 70
     0
  9
$TREEDEPTH
 70
  3020
  9
$PICKSTYLE
 70
     0
  9
$CMLSTYLE
  2
STANDARD
  9
$CMLJUST
 70
     0
  9
$CMLSCALE
 40
20.0
  9
$PROXYGRAPHICS
 70
     1
  9
$MEASUREMENT
 70
     1
  0
ENDSEC
  0
SECTION
  2
CLASSES
  0
CLASS
  1
ACDBDICTIONARYWDFLT
  2
AcDbDictionaryWithDefault
  3
AutoCAD 2000
 90
        0
280
     0
281
     0
  0
CLASS
  1
ACDBPLACEHOLDER
  2
AcDbPlaceHolder
  3
AutoCAD 2000
 90
        0
280
     0
281
     0
  0
CLASS
  1
LAYOUT
  2
AcDbLayout
  3
AutoCAD 2000
 90
        0
280
     0
281
     0
  0
CLASS
  1
AMGSETTINGSOBJ
  2
AmgSettingsObj
  3
"AcadM|Product Description: AutoCAD Mechanical 2000|Company: Autodesk"
 90
        0
280
     0
281
     0
  0
CLASS
  1
ACME_DOCUMENT
  2
AcMeDbDoc
  3
AcMeServices
 90
        0
280
     0
281
     0
  0
CLASS
  1
ACMESCOPE
  2
AcMeScope
  3
AcMeServices
 90
        0
280
     0
281
     0
  0
CLASS
  1
ACMECOMMANDHISTORY
  2
AcMeCommandHistory
  3
AcMeServices
 90
        0
280
     0
281
     0
  0
CLASS
  1
DICTIONARYVAR
  2
AcDbDictionaryVar
  3
AutoCAD 2000
 90
        0
280
     0
281
     0
  0
CLASS
  1
ACIMSYSVARMAN
  2
AcImSysVarManager
  3
AcMeServices
 90
        0
280
     0
281
     0
  0
CLASS
  1
ACIMREALSYSVAR
  2
AcImRealSysVar
  3
AcMeServices
 90
        0
280
     0
281
     0
  0
CLASS
  1
ACIMINTSYSVAR
  2
AcImIntSysVar
  3
AcMeServices
 90
        0
280
     0
281
     0
  0
CLASS
  1
ACMEDRAWINGMAN
  2
AcMeDrawingMan
  3
AcMeServices
 90
        0
280
     0
281
     0
  0
CLASS
  1
ACMEVIEW
  2
AcMeView
  3
AcMeServices
 90
        0
280
     0
281
     0
  0
CLASS
  1
ACDBENTITYCACHE
  2
AcMeEntityCache
  3
AcMeServices
 90
        0
280
     0
281
     0
  0
CLASS
  1
GSMANAGER
  2
AcMeGSManager
  3
AcMeServices
 90
        0
280
     0
281
     0
  0
CLASS
  1
AmdtInternalReactor
  2
AmdtInternalReactor
  3
AcMeServices
 90
        0
280
     0
281
     0
  0
CLASS
  1
ACMESTATEMGR
  2
AcMeStateMgr
  3
AcMeServices
 90
        0
280
     0
281
     0
  0
CLASS
  1
ACME_DATABASE
  2
AcMeDbDatabase
  3
AcMeServices
 90
        0
280
     0
281
     0
  0
CLASS
  1
ACRFINSADJUSTERMGR
  2
AcRfInsAdjusterMgr
  3
AcMeServices
 90
        0
280
     0
281
     0
  0
CLASS
  1
ACMDATADICTIONARY
  2
AcmDataDictionary
  3
"AcmSymBB|Product Description: AutoCAD Mechanical 2000|Company: Autodesk"
 90
        0
280
     0
281
     0
  0
CLASS
  1
ACMDATAENTRYBLOCK
  2
AcmDataEntryBlock
  3
"AcmSymBB|Product Description: AutoCAD Mechanical 2000|Company: Autodesk"
 90
        0
280
     0
281
     0
  0
CLASS
  1
AMGOBJPROPCFG
  2
AmgObjPropCfg
  3
"AmgLay|Product Description: AutoCAD Mechanical 2000|Company: Autodesk"
 90
        1
280
     0
281
     0
  0
CLASS
  1
ACAMGFILTERDAT
  2
AcAmgFilterDat
  3
"AcadM|Product Description: AutoCAD Mechanical 2000|Company: Autodesk"
 90
        0
280
     0
281
     0
  0
CLASS
  1
LAYER_INDEX
  2
AcDbLayerIndex
  3
AutoCAD 2000
 90
        0
280
     0
281
     0
  0
CLASS
  1
IDBUFFER
  2
AcDbIdBuffer
  3
AutoCAD 2000
 90
        0
280
     0
281
     0
  0
CLASS
  1
ACIMSTRSYSVAR
  2
AcImStrSysVar
  3
AcMeServices
 90
        0
280
     0
281
     0
  0
CLASS
  1
ACMSTANDARDJIS
  2
AcmStandardJIS
  3
"AcmSymBB|Product Description: AutoCAD Mechanical 2000|Company: Autodesk"
 90
        0
280
     0
281
     0
  0
CLASS
  1
ACMSURFSTANDARDJIS
  2
AcmSurfTextStdJIS
  3
"AcmSymBB|Product Description: AutoCAD Mechanical 2000|Company: Autodesk"
 90
        0
280
     0
281
     0
  0
CLASS
  1
ACMFCFSTANDARDJIS
  2
AcmFCFStdJIS
  3
"AcmSymBB|Product Description: AutoCAD Mechanical 2000|Company: Autodesk"
 90
        0
280
     0
281
     0
  0
CLASS
  1
ACMWELDSTANDARDJIS
  2
AcmWeldingStdJIS
  3
"AcmSymBB|Product Description: AutoCAD Mechanical 2000|Company: Autodesk"
 90
        0
280
     0
281
     0
  0
CLASS
  1
ACMIDSTANDARDJIS
  2
AcmIdStdJIS
  3
"AcmSymBB|Product Description: AutoCAD Mechanical 2000|Company: Autodesk"
 90
        0
280
     0
281
     0
  0
CLASS
  1
ACMDATUMSTANDARDJIS
  2
AcmDatumStdJIS
  3
"AcmSymBB|Product Description: AutoCAD Mechanical 2000|Company: Autodesk"
 90
        0
280
     0
281
     0
  0
CLASS
  1
ACMBOMSTANDARDJIS
  2
AcmBOMStdJIS
  3
"AcmSymBB|Product Description: AutoCAD Mechanical 2000|Company: Autodesk"
 90
        0
280
     0
281
     0
  0
CLASS
  1
ACMSTANDARDANSI
  2
AcmStandardANSI
  3
"AcmSymBB|Product Description: AutoCAD Mechanical 2000|Company: Autodesk"
 90
        0
280
     0
281
     0
  0
CLASS
  1
ACMSURFSTANDARDANSI
  2
AcmSurfTextStdANSI
  3
"AcmSymBB|Product Description: AutoCAD Mechanical 2000|Company: Autodesk"
 90
        0
280
     0
281
     0
  0
CLASS
  1
ACMFCFSTANDARDANSI
  2
AcmFCFStdANSI
  3
"AcmSymBB|Product Description: AutoCAD Mechanical 2000|Company: Autodesk"
 90
        0
280
     0
281
     0
  0
CLASS
  1
ACMWELDSTANDARDANSI
  2
AcmWeldingStdANSI
  3
"AcmSymBB|Product Description: AutoCAD Mechanical 2000|Company: Autodesk"
 90
        0
280
     0
281
     0
  0
CLASS
  1
ACMIDSTANDARDANSI
  2
AcmIdStdANSI
  3
"AcmSymBB|Product Description: AutoCAD Mechanical 2000|Company: Autodesk"
 90
        0
280
     0
281
     0
  0
CLASS
  1
ACMDATUMSTANDARDANSI
  2
AcmDatumStdANSI
  3
"AcmSymBB|Product Description: AutoCAD Mechanical 2000|Company: Autodesk"
 90
        0
280
     0
281
     0
  0
CLASS
  1
ACMBOMSTANDARDANSI
  2
AcmBOMStdANSI
  3
"AcmSymBB|Product Description: AutoCAD Mechanical 2000|Company: Autodesk"
 90
        0
280
     0
281
     0
  0
CLASS
  1
ACMSTANDARDBSI
  2
AcmStandardBSI
  3
"AcmSymBB|Product Description: AutoCAD Mechanical 2000|Company: Autodesk"
 90
        0
280
     0
281
     0
  0
CLASS
  1
ACMSURFSTANDARDBSI
  2
AcmSurfTextStdBSI
  3
"AcmSymBB|Product Description: AutoCAD Mechanical 2000|Company: Autodesk"
 90
        0
280
     0
281
     0
  0
CLASS
  1
ACMFCFSTANDARDBSI
  2
AcmFCFStdBSI
  3
"AcmSymBB|Product Description: AutoCAD Mechanical 2000|Company: Autodesk"
 90
        0
280
     0
281
     0
  0
CLASS
  1
ACMWELDSTANDARDBSI
  2
AcmWeldingStdBSI
  3
"AcmSymBB|Product Description: AutoCAD Mechanical 2000|Company: Autodesk"
 90
        0
280
     0
281
     0
  0
CLASS
  1
ACMIDSTANDARDBSI
  2
AcmIdStdBSI
  3
"AcmSymBB|Product Description: AutoCAD Mechanical 2000|Company: Autodesk"
 90
        0
280
     0
281
     0
  0
CLASS
  1
ACMDATUMSTANDARDBSI
  2
AcmDatumStdBSI
  3
"AcmSymBB|Product Description: AutoCAD Mechanical 2000|Company: Autodesk"
 90
        0
280
     0
281
     0
  0
CLASS
  1
ACMBOMSTANDARDBSI
  2
AcmBOMStdBSI
  3
"AcmSymBB|Product Description: AutoCAD Mechanical 2000|Company: Autodesk"
 90
        0
280
     0
281
     0
  0
CLASS
  1
LONG_TRANSACTION
  2
AcDbLongTransaction
  3
AutoCAD 2000
 90
        0
280
     0
281
     0
  0
CLASS
  1
LWPOLYLINE
  2
AcDbPolyline
  3
AutoCAD 2000
 90
        0
280
     0
281
     1
  0
CLASS
  1
HATCH
  2
AcDbHatch
  3
AutoCAD 2000
 90
        0
280
     0
281
     1
  0
CLASS
  1
XRECORD
  2
AcDbXrecord
  3
AutoCAD 2000
 90
        0
280
     0
281
     0
  0
ENDSEC
  0
SECTION
  2
TABLES
  0
TABLE
  2
VPORT
  5
8
330
0
100
AcDbSymbolTable
 70
     3
  0
VPORT
  5
1FC0
330
8
100
AcDbSymbolTableRecord
100
AcDbViewportTableRecord
  2
*ACTIVE
 70
     0
 10
0.0
 20
0.0
 11
1.0
 21
1.0
 12
-28.92680178529292
 22
-8.015768622199374
 13
0.0
 23
0.0
 14
2.5
 24
2.5
 15
10.0
 25
10.0
 16
0.0
 26
0.0
 36
1.0
 17
0.0
 27
0.0
 37
0.0
 40
80.52194693306988
 41
1.56570841889117
 42
50.0
 43
0.0
 44
0.0
 50
0.0
 51
0.0
 71
     0
 72
   100
 73
     1
 74
     3
 75
     0
 76
     0
 77
     0
 78
     0
  0
ENDTAB
  0
TABLE
  2
LTYPE
  5
5
330
0
100
AcDbSymbolTable
 70
    10
  0
LTYPE
  5
14
330
5
100
AcDbSymbolTableRecord
100
AcDbLinetypeTableRecord
  2
BYBLOCK
 70
     0
  3

 72
    65
 73
     0
 40
0.0
  0
LTYPE
  5
15
330
5
100
AcDbSymbolTableRecord
100
AcDbLinetypeTableRecord
  2
BYLAYER
 70
     0
  3

 72
    65
 73
     0
 40
0.0
  0
LTYPE
  5
16
330
5
100
AcDbSymbolTableRecord
100
AcDbLinetypeTableRecord
  2
CONTINUOUS
 70
     0
  3
Solid line
 72
    65
 73
     0
 40
0.0
  0
LTYPE
  5
4B
330
5
100
AcDbSymbolTableRecord
100
AcDbLinetypeTableRecord
  2
AM_ISO02W050
 70
     0
  3
__ __ __ __ __ __ __ __ __ __ __ __ __ __ __
 72
    65
 73
     2
 40
7.5
 49
6.0
 74
     0
 49
-1.5
 74
     0
  0
LTYPE
  5
4C
330
5
100
AcDbSymbolTableRecord
100
AcDbLinetypeTableRecord
  2
AM_ISO08W050
 70
     0
  3
____ . ____ . ____ . ____ . ____ . ____ . ____
 72
    65
 73
     4
 40
18.0
 49
12.0
 74
     0
 49
-1.5
 74
     0
 49
3.0
 74
     0
 49
-1.5
 74
     0
  0
LTYPE
  5
4D
330
5
100
AcDbSymbolTableRecord
100
AcDbLinetypeTableRecord
  2
AM_ISO09W050
 70
     0
  3
_____ . . _____ . . _____ . . ____ .. ____
 72
    65
 73
     6
 40
22.5
 49
12.0
 74
     0
 49
-1.5
 74
     0
 49
3.0
 74
     0
 49
-1.5
 74
     0
 49
3.0
 74
     0
 49
-1.5
 74
     0
  0
LTYPE
  5
4E
330
5
100
AcDbSymbolTableRecord
100
AcDbLinetypeTableRecord
  2
AMCONSTR
 70
     0
  3
_______________________
 72
    65
 73
     2
 40
9999.0
 49
9999.0
 74
     0
 49
0.0
 74
     0
  0
LTYPE
  5
4F
330
5
100
AcDbSymbolTableRecord
100
AcDbLinetypeTableRecord
  2
AM_ISO02W050X2
 70
     0
  3
 _ _ _ _ _ _ _ _ _ _ _ _
 72
    65
 73
     2
 40
3.75
 49
3.0
 74
     0
 49
-0.75
 74
     0
  0
LTYPE
  5
50
330
5
100
AcDbSymbolTableRecord
100
AcDbLinetypeTableRecord
  2
AM_ISO08W050X2
 70
     0
  3
__ . __ . __ . __ . __ . __
 72
    65
 73
     4
 40
9.0
 49
6.0
 74
     0
 49
-0.75
 74
     0
 49
1.5
 74
     0
 49
-0.75
 74
     0
  0
LTYPE
  5
53
330
5
100
AcDbSymbolTableRecord
100
AcDbLinetypeTableRecord
  2
AMZIGZAG
 70
     0
  3
/\/-/\/-/\/-/\/-/\/-/\/
 72
    65
 73
     2
 40
11.00009999999999
 49
0.0001
 74
     4
 75
   135
340
52
 46
0.04
 50
0.0
 44
0.0
 45
0.0
 49
-11.0
 74
     0
  0
LTYPE
  5
166
330
5
100
AcDbSymbolTableRecord
100
AcDbLinetypeTableRecord
  2
ACJISTGL
 70
     0
  3
_ _ _ _ _
 72
    65
 73
     2
 40
3.0
 49
2.0
 74
     0
 49
-1.0
 74
     0
  0
LTYPE
  5
26A
330
5
100
AcDbSymbolTableRecord
100
AcDbLinetypeTableRecord
  2
ACJISTGB
 70
     0
  3
__ . . __ . .
 72
    65
 73
     6
 40
9.0
 49
4.0
 74
     0
 49
-1.0
 74
     0
 49
1.0
 74
     0
 49
-1.0
 74
     0
 49
1.0
 74
     0
 49
-1.0
 74
     0
  0
ENDTAB
  0
TABLE
  2
LAYER
  5
2
330
0
100
AcDbSymbolTable
 70
     7
  0
LAYER
  5
10
330
2
100
AcDbSymbolTableRecord
100
AcDbLayerTableRecord
  2
0
 70
     0
 62
     7
  6
CONTINUOUS
  0
LAYER
  5
3F9
330
2
100
AcDbSymbolTableRecord
100
AcDbLayerTableRecord
  2
AM_0
 70
     0
 62
     7
  6
CONTINUOUS
  0
LAYER
  5
BD4
330
2
100
AcDbSymbolTableRecord
100
AcDbLayerTableRecord
  2
AM_11
 70
     0
 62
     3
  6
AM_ISO09W050
  0
LAYER
  5
BD5
330
2
100
AcDbSymbolTableRecord
100
AcDbLayerTableRecord
  2
AM_7
 70
     0
 62
     4
  6
AM_ISO08W050
  0
LAYER
  5
BD6
330
2
100
AcDbSymbolTableRecord
100
AcDbLayerTableRecord
  2
AM_5
 70
     0
 62
     3
  6
CONTINUOUS
  0
LAYER
  5
BD7
330
2
100
AcDbSymbolTableRecord
100
AcDbLayerTableRecord
  2
DEFPOINTS
 70
     0
 62
     7
  6
CONTINUOUS
  0
LAYER
  5
E59
330
2
100
AcDbSymbolTableRecord
100
AcDbLayerTableRecord
  2
AM_6
 70
     0
 62
     2
  6
CONTINUOUS
  0
ENDTAB
  0
TABLE
  2
STYLE
  5
3
330
0
100
AcDbSymbolTable
 70
     5
  0
STYLE
  5
11
330
3
100
AcDbSymbolTableRecord
100
AcDbTextStyleTableRecord
  2
STANDARD
 70
     0
 40
0.0
 41
1.0
 50
0.0
 71
     0
 42
2.5
  3
simplex.shx
  4
EXTFONT.SHX
  0
STYLE
  5
52
330
3
100
AcDbSymbolTableRecord
100
AcDbTextStyleTableRecord
  2

 70
     1
 40
0.0
 41
1.0
 50
0.0
 71
     0
 42
2.5
  3
ltypeshp.shx
  4

  0
STYLE
  5
6B
330
3
100
AcDbSymbolTableRecord
100
AcDbTextStyleTableRecord
  2
ASAMI
 70
     0
 40
0.0
 41
1.0
 50
0.0
 71
     0
 42
2.5
  3
simplex.shx
  4
EXTFONT.SHX
  0
STYLE
  5
262
330
3
100
AcDbSymbolTableRecord
100
AcDbTextStyleTableRecord
  2
ACJISTS
 70
     0
 40
1.0
 41
1.0
 50
0.0
 71
     0
 42
2.5
  3
simplex.shx
  4
bigfont.shx
  0
STYLE
  5
269
330
3
100
AcDbSymbolTableRecord
100
AcDbTextStyleTableRecord
  2
ACJISGDT
 70
     0
 40
0.0
 41
1.0
 50
0.0
 71
     0
 42
2.5
  3
amgdtans.shx
  4

  0
ENDTAB
  0
TABLE
  2
VIEW
  5
6
330
0
100
AcDbSymbolTable
 70
     0
  0
ENDTAB
  0
TABLE
  2
UCS
  5
7
330
0
100
AcDbSymbolTable
 70
     0
  0
ENDTAB
  0
TABLE
  2
APPID
  5
9
330
0
100
AcDbSymbolTable
 70
    12
  0
APPID
  5
12
330
9
100
AcDbSymbolTableRecord
100
AcDbRegAppTableRecord
  2
ACAD
 70
     0
  0
APPID
  5
30
330
9
100
AcDbSymbolTableRecord
100
AcDbRegAppTableRecord
  2
MCAD_NO_VIS
 70
     0
  0
APPID
  5
31
330
9
100
AcDbSymbolTableRecord
100
AcDbRegAppTableRecord
  2
ACAD_TEMP_GRAPHIC
 70
     0
  0
APPID
  5
2C2
330
9
100
AcDbSymbolTableRecord
100
AcDbRegAppTableRecord
  2
GENIUS_GENDTOL_13
 70
     0
  0
APPID
  5
339
330
9
100
AcDbSymbolTableRecord
100
AcDbRegAppTableRecord
  2
GENIUS_GENODEF_13
 70
     0
  0
APPID
  5
33A
330
9
100
AcDbSymbolTableRecord
100
AcDbRegAppTableRecord
  2
GENIUS_GENOBJ-N-RSBK_13
 70
     0
  0
APPID
  5
33B
330
9
100
AcDbSymbolTableRecord
100
AcDbRegAppTableRecord
  2
GENIUS_GENOBJ-N-LIB_13
 70
     0
  0
APPID
  5
33C
330
9
100
AcDbSymbolTableRecord
100
AcDbRegAppTableRecord
  2
GENIUS_GENSCALE_13
 70
     0
  0
APPID
  5
378
330
9
100
AcDbSymbolTableRecord
100
AcDbRegAppTableRecord
  2
GENIUS_GENDIMSH_14
 70
     0
  0
APPID
  5
BD8
330
9
100
AcDbSymbolTableRecord
100
AcDbRegAppTableRecord
  2
GENIUS_GENOBJ-N-CEN_13
 70
     0
  0
APPID
  5
BD9
330
9
100
AcDbSymbolTableRecord
100
AcDbRegAppTableRecord
  2
GENIUS_GENFIL_13
 70
     0
  0
APPID
  5
BDA
330
9
100
AcDbSymbolTableRecord
100
AcDbRegAppTableRecord
  2
GENIUS_GENOBJ-N-CHA_13
 70
     0
  0
ENDTAB
  0
TABLE
  2
DIMSTYLE
  5
A
330
0
100
AcDbSymbolTable
 70
     8
  0
DIMSTYLE
105
58
102
{ACAD_REACTORS
330
105F
330
10EF
330
1180
330
1A7C
102
}
330
A
100
AcDbSymbolTableRecord
100
AcDbDimStyleTableRecord
  2
AM_JIS
 70
     0
  3

  4
"
  5
OPEN30
  6

  7

 40
0.5
 41
2.5
 42
1.0
 43
12.0
 44
1.0
 45
0.0
 46
0.0
 47
0.1
 48
0.1
140
3.2
141
0.0
142
0.0
143
0.0393701
144
1.0
145
0.0
146
0.71
147
1.5
 71
     0
 72
     0
 73
     0
 74
     0
 75
     0
 76
     0
 77
     3
 78
     8
170
     0
171
     2
172
     1
173
     0
174
     0
175
     0
176
   256
177
   256
178
     2
270
     2
271
     3
272
     3
273
     2
274
     2
340
6B
275
     0
280
     0
281
     0
282
     0
283
     0
284
     0
285
     0
286
     0
287
     3
288
     0
  0
DIMSTYLE
105
5F
330
A
100
AcDbSymbolTableRecord
100
AcDbDimStyleTableRecord
  2
AM_JIS$3
 70
     0
  3

  4
"
  5
OPEN30
  6

  7

 40
0.5
 41
2.5
 42
1.0
 43
10.0
 44
1.0
 45
0.0
 46
0.0
 47
0.1
 48
0.1
140
3.2
141
0.0
142
0.0
143
0.0393701
144
1.0
145
0.0
146
0.71
147
1.5
 71
     0
 72
     0
 73
     0
 74
     1
 75
     0
 76
     0
 77
     3
 78
     8
170
     0
171
     2
172
     0
173
     0
174
     0
175
     0
176
   256
177
   256
178
     2
270
     2
271
     2
272
     3
273
     2
274
     2
340
6B
275
     0
280
     0
281
     0
282
     0
283
     0
284
     0
285
     0
286
     0
287
     0
288
     1
  0
DIMSTYLE
105
60
330
A
100
AcDbSymbolTableRecord
100
AcDbDimStyleTableRecord
  2
AM_JIS$4
 70
     0
  3

  4
"
  5
OPEN30
  6

  7

 40
0.5
 41
2.5
 42
1.0
 43
10.0
 44
1.0
 45
0.0
 46
0.0
 47
0.1
 48
0.1
140
3.2
141
0.0
142
0.0
143
0.0393701
144
1.0
145
0.0
146
0.71
147
1.5
 71
     0
 72
     0
 73
     0
 74
     1
 75
     0
 76
     0
 77
     3
 78
     8
170
     0
171
     2
172
     0
173
     0
174
     0
175
     0
176
   256
177
   256
178
     2
270
     2
271
     2
272
     3
273
     2
274
     2
340
6B
275
     0
280
     0
281
     0
282
     0
283
     0
284
     0
285
     0
286
     0
287
     0
288
     1
  0
DIMSTYLE
105
61
330
A
100
AcDbSymbolTableRecord
100
AcDbDimStyleTableRecord
  2
AM_JIS$6
 70
     0
  3

  4
"
  5
OPEN30
  6

  7

 40
0.5
 41
2.5
 42
1.0
 43
10.0
 44
1.0
 45
0.0
 46
0.0
 47
0.1
 48
0.1
140
3.2
141
0.0
142
0.0
143
0.0393701
144
1.0
145
0.0
146
0.71
147
1.5
 71
     0
 72
     0
 73
     0
 74
     0
 75
     0
 76
     0
 77
     0
 78
     8
170
     0
171
     2
172
     1
173
     0
174
     0
175
     0
176
   256
177
   256
178
     2
270
     2
271
     2
272
     2
273
     2
274
     2
340
6B
275
     0
280
     0
281
     0
282
     0
283
     0
284
     0
285
     0
286
     0
287
     3
288
     0
  0
DIMSTYLE
105
62
330
A
100
AcDbSymbolTableRecord
100
AcDbDimStyleTableRecord
  2
AM_JIS$7
 70
     0
  3

  4
"
  5
OPEN30
  6

  7

 40
0.5
 41
2.5
 42
1.0
 43
10.0
 44
1.0
 45
0.0
 46
0.0
 47
0.1
 48
0.1
140
3.2
141
0.0
142
0.0
143
0.0393701
144
1.0
145
0.0
146
0.71
147
1.5
 71
     0
 72
     0
 73
     0
 74
     0
 75
     0
 76
     0
 77
     3
 78
     8
170
     0
171
     2
172
     1
173
     0
174
     0
175
     0
176
   256
177
   256
178
     2
270
     2
271
     2
272
     3
273
     2
274
     2
340
6B
275
     0
280
     0
281
     0
282
     0
283
     0
284
     0
285
     0
286
     0
287
     3
288
     0
  0
DIMSTYLE
105
63
330
A
100
AcDbSymbolTableRecord
100
AcDbDimStyleTableRecord
  2
AM_JIS$SF
 70
     0
  3

  4
"
  5
OPEN30
  6

  7

 40
0.5
 41
2.5
 42
1.0
 43
10.0
 44
1.0
 45
0.0
 46
0.0
 47
0.1
 48
0.1
140
3.2
141
0.0
142
0.0
143
0.0393701
144
1.0
145
0.0
146
0.71
147
1.5
 71
     0
 72
     0
 73
     0
 74
     0
 75
     1
 76
     1
 77
     3
 78
     8
170
     0
171
     2
172
     1
173
     0
174
     0
175
     0
176
   256
177
   256
178
     2
270
     2
271
     2
272
     2
273
     2
274
     2
340
6B
275
     0
280
     0
281
     0
282
     0
283
     0
284
     0
285
     0
286
     0
287
     3
288
     0
  0
DIMSTYLE
105
68
330
A
100
AcDbSymbolTableRecord
100
AcDbDimStyleTableRecord
  2
AM_JIS$SH
 70
     0
  3

  4
"
  5

  6
GENAXEH
  7
OPEN30
 40
0.5
 41
2.5
 42
1.0
 43
10.0
 44
1.0
 45
0.0
 46
0.0
 47
0.1
 48
0.1
140
3.2
141
0.0
142
0.0
143
0.0393701
144
2.0
145
0.0
146
0.71
147
1.5
 71
     0
 72
     0
 73
     0
 74
     0
 75
     1
 76
     1
 77
     3
 78
     8
170
     0
171
     2
172
     1
173
     1
174
     0
175
     0
176
   256
177
   256
178
     2
270
     2
271
     2
272
     2
273
     2
274
     2
340
6B
275
     0
280
     0
281
     0
282
     0
283
     0
284
     0
285
     0
286
     0
287
     3
288
     0
  0
DIMSTYLE
105
B34
330
A
100
AcDbSymbolTableRecord
100
AcDbDimStyleTableRecord
  2
AM_JIS$2
 70
     0
  3

  4
"
  5
OPEN30
  6

  7

 40
0.5
 41
2.5
 42
1.0
 43
12.0
 44
1.0
 45
0.0
 46
0.0
 47
0.1
 48
0.1
140
3.2
141
0.0
142
0.0
143
0.0393701
144
1.0
145
0.0
146
0.71
147
1.5
 71
     0
 72
     0
 73
     0
 74
     0
 75
     0
 76
     0
 77
     3
 78
     8
170
     0
171
     2
172
     1
173
     0
174
     0
175
     0
176
   256
177
   256
178
     2
270
     2
271
     3
272
     3
273
     2
274
     2
340
6B
275
     0
280
     0
281
     0
282
     0
283
     0
284
     0
285
     0
286
     0
287
     3
288
     0
  0
ENDTAB
  0
TABLE
  2
BLOCK_RECORD
  5
1
330
0
100
AcDbSymbolTable
 70
     9
  0
BLOCK_RECORD
  5
1F
102
{ACAD_XDICTIONARY
360
74
102
}
330
1
100
AcDbSymbolTableRecord
100
AcDbBlockTableRecord
  2
*MODEL_SPACE
  0
BLOCK_RECORD
  5
101
102
{ACAD_XDICTIONARY
360
1FE9
102
}
330
1
100
AcDbSymbolTableRecord
100
AcDbBlockTableRecord
  2
*PAPER_SPACE
  0
BLOCK_RECORD
  5
59
330
1
100
AcDbSymbolTableRecord
100
AcDbBlockTableRecord
  2
_OPEN30
  0
BLOCK_RECORD
  5
64
330
1
100
AcDbSymbolTableRecord
100
AcDbBlockTableRecord
  2
GENAXEH
  0
BLOCK_RECORD
  5
1060
330
1
100
AcDbSymbolTableRecord
100
AcDbBlockTableRecord
  2
*D5
  0
BLOCK_RECORD
  5
10F0
330
1
100
AcDbSymbolTableRecord
100
AcDbBlockTableRecord
  2
*D6
  0
BLOCK_RECORD
  5
1181
330
1
100
AcDbSymbolTableRecord
100
AcDbBlockTableRecord
  2
*D7
  0
BLOCK_RECORD
  5
1A7D
330
1
100
AcDbSymbolTableRecord
100
AcDbBlockTableRecord
  2
*D8
  0
ENDTAB
  0
ENDSEC
  0
SECTION
  2
BLOCKS
  0
BLOCK
  5
20
330
1F
100
AcDbEntity
  8
0
100
AcDbBlockBegin
  2
*MODEL_SPACE
 70
     0
 10
0.0
 20
0.0
 30
0.0
  3
*MODEL_SPACE
  1

  0
ENDBLK
  5
21
330
1F
100
AcDbEntity
  8
0
100
AcDbBlockEnd
  0
BLOCK
  5
103
330
101
100
AcDbEntity
 67
     1
  8
0
100
AcDbBlockBegin
  2
*PAPER_SPACE
 70
     0
 10
0.0
 20
0.0
 30
0.0
  3
*PAPER_SPACE
  1

  0
ENDBLK
  5
104
330
101
100
AcDbEntity
 67
     1
  8
0
100
AcDbBlockEnd
  0
BLOCK
  5
5D
330
59
100
AcDbEntity
  8
0
100
AcDbBlockBegin
  2
_OPEN30
 70
     0
 10
0.0
 20
0.0
 30
0.0
  3
_OPEN30
  1

  0
LINE
  5
5A
330
59
100
AcDbEntity
  8
0
 62
     0
100
AcDbLine
 10
-1.0
 20
0.26794919
 30
0.0
 11
0.0
 21
0.0
 31
0.0
  0
LINE
  5
5B
330
59
100
AcDbEntity
  8
0
 62
     0
100
AcDbLine
 10
0.0
 20
0.0
 30
0.0
 11
-1.0
 21
-0.26794919
 31
0.0
  0
LINE
  5
5C
330
59
100
AcDbEntity
  8
0
 62
     0
100
AcDbLine
 10
0.0
 20
0.0
 30
0.0
 11
-1.0
 21
0.0
 31
0.0
  0
ENDBLK
  5
5E
330
59
100
AcDbEntity
  8
0
100
AcDbBlockEnd
  0
BLOCK
  5
66
330
64
100
AcDbEntity
  8
0
100
AcDbBlockBegin
  2
GENAXEH
 70
     0
 10
0.0
 20
0.0
 30
0.0
  3
GENAXEH
  1

  0
LINE
  5
65
330
64
100
AcDbEntity
  8
0
100
AcDbLine
 10
-1.0
 20
0.0
 30
0.0
 11
1.0
 21
0.0
 31
0.0
  0
ENDBLK
  5
67
330
64
100
AcDbEntity
  8
0
100
AcDbBlockEnd
  0
BLOCK
  5
106A
330
1060
100
AcDbEntity
  8
0
100
AcDbBlockBegin
  2
*D5
 70
     1
 10
0.0
 20
0.0
 30
0.0
  3
*D5
  1

  0
LINE
  5
1EA8
330
1060
100
AcDbEntity
  8
AM_5
100
AcDbLine
 10
-25.0
 20
-2.499999999999538
 30
0.0
 11
-25.0
 21
-10.5000009999997
 31
0.0
  0
LINE
  5
1EA9
330
1060
100
AcDbEntity
  8
AM_5
100
AcDbLine
 10
0.0
 20
-2.500000000000794
 30
0.0
 11
-0.0000000000000005
 21
-10.5000009999997
 31
0.0
  0
LINE
  5
1EAA
330
1060
100
AcDbEntity
  8
AM_5
100
AcDbLine
 10
-23.75
 20
-10.0000009999997
 30
0.0
 11
-1.25
 21
-10.0000009999997
 31
0.0
  0
INSERT
  5
1EAB
330
1060
100
AcDbEntity
  8
AM_5
100
AcDbBlockReference
  2
_OPEN30
 10
-25.0
 20
-10.0000009999997
 30
0.0
 41
1.25
 42
1.25
 43
1.25
 50
180.0
  0
INSERT
  5
1EAC
330
1060
100
AcDbEntity
  8
AM_5
100
AcDbBlockReference
  2
_OPEN30
 10
-0.0000000000000005
 20
-10.0000009999997
 30
0.0
 41
1.25
 42
1.25
 43
1.25
  0
MTEXT
  5
1EAD
330
1060
100
AcDbEntity
  8
AM_5
 62
     2
100
AcDbMText
 10
-12.5
 20
-8.450000999999703
 30
0.0
 40
1.6
 41
0.0
 71
     5
 72
     1
  1
25
  7
ASAMI
1001
ACAD
1000
MTEXTBEGIN
1070
    73
1070
     1
1070
    44
1040
1.0
1070
    74
1070
     0
1000
MTEXTEND
  0
POINT
  5
1EAE
330
1060
100
AcDbEntity
  8
DEFPOINTS
 62
     0
100
AcDbPoint
 10
-25.0
 20
-1.999999999999538
 30
0.0
  0
POINT
  5
1EAF
330
1060
100
AcDbEntity
  8
DEFPOINTS
 62
     0
100
AcDbPoint
 10
0.0
 20
-2.000000000000794
 30
0.0
  0
POINT
  5
1EB0
330
1060
100
AcDbEntity
  8
DEFPOINTS
 62
     0
100
AcDbPoint
 10
-0.0000000000000005
 20
-10.0000009999997
 30
0.0
  0
ENDBLK
  5
106B
330
1060
100
AcDbEntity
  8
0
100
AcDbBlockEnd
  0
BLOCK
  5
10FA
330
10F0
100
AcDbEntity
  8
0
100
AcDbBlockBegin
  2
*D6
 70
     1
 10
0.0
 20
0.0
 30
0.0
  3
*D6
  1

  0
LINE
  5
1EB1
330
10F0
100
AcDbEntity
  8
AM_5
100
AcDbLine
 10
-60.0
 20
-2.99999999999929
 30
0.0
 11
-60.0
 21
-16.5000009999997
 31
0.0
  0
LINE
  5
1EB2
330
10F0
100
AcDbEntity
  8
AM_5
100
AcDbLine
 10
0.0
 20
-2.500000000000794
 30
0.0
 11
-0.0000000000000009
 21
-16.5000009999997
 31
0.0
  0
LINE
  5
1EB3
330
10F0
100
AcDbEntity
  8
AM_5
100
AcDbLine
 10
-58.75
 20
-16.0000009999997
 30
0.0
 11
-1.25
 21
-16.0000009999997
 31
0.0
  0
INSERT
  5
1EB4
330
10F0
100
AcDbEntity
  8
AM_5
100
AcDbBlockReference
  2
_OPEN30
 10
-60.0
 20
-16.0000009999997
 30
0.0
 41
1.25
 42
1.25
 43
1.25
 50
180.0
  0
INSERT
  5
1EB5
330
10F0
100
AcDbEntity
  8
AM_5
100
AcDbBlockReference
  2
_OPEN30
 10
-0.0000000000000009
 20
-16.0000009999997
 30
0.0
 41
1.25
 42
1.25
 43
1.25
  0
MTEXT
  5
1EB6
330
10F0
100
AcDbEntity
  8
AM_5
 62
     2
100
AcDbMText
 10
-30.0
 20
-14.4500009999997
 30
0.0
 40
1.6
 41
0.0
 71
     5
 72
     1
  1
60
  7
ASAMI
1001
ACAD
1000
MTEXTBEGIN
1070
    73
1070
     1
1070
    44
1040
1.0
1070
    74
1070
     0
1000
MTEXTEND
  0
POINT
  5
1EB7
330
10F0
100
AcDbEntity
  8
DEFPOINTS
 62
     0
100
AcDbPoint
 10
-60.0
 20
-2.49999999999929
 30
0.0
  0
POINT
  5
1EB8
330
10F0
100
AcDbEntity
  8
DEFPOINTS
 62
     0
100
AcDbPoint
 10
0.0
 20
-2.000000000000794
 30
0.0
  0
POINT
  5
1EB9
330
10F0
100
AcDbEntity
  8
DEFPOINTS
 62
     0
100
AcDbPoint
 10
-0.0000000000000009
 20
-16.0000009999997
 30
0.0
  0
ENDBLK
  5
10FB
330
10F0
100
AcDbEntity
  8
0
100
AcDbBlockEnd
  0
BLOCK
  5
118B
330
1181
100
AcDbEntity
  8
0
100
AcDbBlockBegin
  2
*D7
 70
     1
 10
0.0
 20
0.0
 30
0.0
  3
*D7
  1

  0
LINE
  5
1DD0
330
1181
100
AcDbEntity
  8
AM_5
100
AcDbLine
 10
0.5000000000000011
 20
1.999999999999995
 30
0.0
 11
12.05776903085495
 21
1.999999999999992
 31
0.0
  0
LINE
  5
1DD1
330
1181
100
AcDbEntity
  8
AM_5
100
AcDbLine
 10
0.5
 20
-2.000000000000794
 30
0.0
 11
12.05776903085495
 21
-2.000000000000798
 31
0.0
  0
LINE
  5
1DD2
330
1181
100
AcDbEntity
  8
AM_5
100
AcDbLine
 10
11.55776903085495
 20
0.7499999999999926
 30
0.0
 11
11.55776903085495
 21
-0.7500000000007984
 31
0.0
  0
LINE
  5
1DD3
330
1181
100
AcDbEntity
  8
AM_5
100
AcDbLine
 10
11.55776903085495
 20
-2.000000000000798
 30
0.0
 11
11.55776903085495
 21
-7.340476190476988
 31
0.0
  0
INSERT
  5
1DD4
330
1181
100
AcDbEntity
  8
AM_5
100
AcDbBlockReference
  2
_OPEN30
 10
11.55776903085495
 20
1.999999999999992
 30
0.0
 41
1.25
 42
1.25
 43
1.25
 50
90.0
  0
INSERT
  5
1DD5
330
1181
100
AcDbEntity
  8
AM_5
100
AcDbBlockReference
  2
_OPEN30
 10
11.55776903085495
 20
-2.000000000000798
 30
0.0
 41
1.25
 42
1.25
 43
1.25
 50
270.0
  0
MTEXT
  5
1DD6
330
1181
100
AcDbEntity
  8
AM_5
 62
     2
100
AcDbMText
 10
10.00776903085495
 20
-5.295238095238891
 30
0.0
 40
1.6
 41
0.0
 71
     5
 72
     1
  1
%%c4
  7
ASAMI
 11
0.0000000000000001
 21
1.0
 31
0.0
1001
ACAD
1000
MTEXTBEGIN
1070
    73
1070
     1
1070
    44
1040
1.0
1070
    74
1070
     0
1000
MTEXTEND
  0
POINT
  5
1DD7
330
1181
100
AcDbEntity
  8
DEFPOINTS
 62
     0
100
AcDbPoint
 10
0.0000000000000011
 20
1.999999999999995
 30
0.0
  0
POINT
  5
1DD8
330
1181
100
AcDbEntity
  8
DEFPOINTS
 62
     0
100
AcDbPoint
 10
0.0
 20
-2.000000000000794
 30
0.0
  0
POINT
  5
1DD9
330
1181
100
AcDbEntity
  8
DEFPOINTS
 62
     0
100
AcDbPoint
 10
11.55776903085495
 20
-2.000000000000798
 30
0.0
  0
ENDBLK
  5
118C
330
1181
100
AcDbEntity
  8
0
100
AcDbBlockEnd
  0
BLOCK
  5
1A87
330
1A7D
100
AcDbEntity
  8
0
100
AcDbBlockBegin
  2
*D8
 70
     1
 10
0.0
 20
0.0
 30
0.0
  3
*D8
  1

  0
LINE
  5
1D49
330
1A7D
100
AcDbEntity
  8
AM_5
100
AcDbLine
 10
-59.99999999999997
 20
2.99999999999993
 30
0.0
 11
-70.28823125971978
 21
2.999999999999933
 31
0.0
  0
LINE
  5
1D4A
330
1A7D
100
AcDbEntity
  8
AM_5
100
AcDbLine
 10
-59.99999999999997
 20
-2.999999999999301
 30
0.0
 11
-70.28823125971978
 21
-2.999999999999298
 31
0.0
  0
LINE
  5
1D4B
330
1A7D
100
AcDbEntity
  8
AM_5
100
AcDbLine
 10
-69.78823125971977
 20
1.749999999999933
 30
0.0
 11
-69.78823125971977
 21
-1.749999999999298
 31
0.0
  0
INSERT
  5
1D4C
330
1A7D
100
AcDbEntity
  8
AM_5
100
AcDbBlockReference
  2
_OPEN30
 10
-69.78823125971977
 20
2.999999999999933
 30
0.0
 41
1.25
 42
1.25
 43
1.25
 50
90.0
  0
INSERT
  5
1D4D
330
1A7D
100
AcDbEntity
  8
AM_5
100
AcDbBlockReference
  2
_OPEN30
 10
-69.78823125971977
 20
-2.999999999999298
 30
0.0
 41
1.25
 42
1.25
 43
1.25
 50
270.0
  0
MTEXT
  5
1D4E
330
1A7D
100
AcDbEntity
  8
AM_5
 62
     2
100
AcDbMText
 10
-71.33823125971978
 20
0.0000000000003062
 30
0.0
 40
1.6
 41
0.0
 71
     5
 72
     1
  1
%%c6
  7
ASAMI
 11
0.0000000000000001
 21
1.0
 31
0.0
1001
ACAD
1000
MTEXTBEGIN
1070
    73
1070
     1
1070
    44
1040
1.0
1070
    74
1070
     0
1000
MTEXTEND
  0
POINT
  5
1D4F
330
1A7D
100
AcDbEntity
  8
DEFPOINTS
 62
     0
100
AcDbPoint
 10
-59.49999999999997
 20
2.99999999999993
 30
0.0
  0
POINT
  5
1D50
330
1A7D
100
AcDbEntity
  8
DEFPOINTS
 62
     0
100
AcDbPoint
 10
-59.49999999999997
 20
-2.999999999999301
 30
0.0
  0
POINT
  5
1D51
330
1A7D
100
AcDbEntity
  8
DEFPOINTS
 62
     0
100
AcDbPoint
 10
-69.78823125971977
 20
-2.999999999999298
 30
0.0
  0
ENDBLK
  5
1A88
330
1A7D
100
AcDbEntity
  8
0
100
AcDbBlockEnd
  0
ENDSEC
  0
SECTION
  2
ENTITIES
  0
TEXT
  5
E5A
330
1F
100
AcDbEntity
  8
AM_6
100
AcDbText
 10
-39.16666666666666
 20
-27.2500009999997
 30
0.0
 40
2.5
  1
ELSM4040
 72
     4
 11
-29.99999999999999
 21
-26.0000009999997
 31
0.0
100
AcDbText
  0
LINE
  5
F47
330
1F
100
AcDbEntity
  8
AM_7
  6
AM_ISO08W050X2
100
AcDbLine
 10
4.557768030854958
 20
0.0
 30
0.0
 11
-62.7882302597198
 21
-0.0000000000000368
 31
0.0
1001
GENIUS_GENODEF_13
1002
{
1000
HIER
1070
     0
1002
}
1002
{
1000
MANEDIT
1070
     0
1002
}
1002
{
1000
NOSEL
1070
     0
1002
}
1002
{
1000
BEHIND
1070
     0
1002
}
1002
{
1000
REACTOR
1002
}
1001
GENIUS_GENOBJ-N-CEN_13
1002
{
1000
OWNER
1000
GEN
1002
}
  0
DIMENSION
  5
105F
330
1F
100
AcDbEntity
  8
AM_5
100
AcDbDimension
  2
*D5
 10
-0.0000000000000005
 20
-10.0000009999997
 30
0.0
 11
-12.5
 21
-8.450000999999703
 31
0.0
 70
    32
  1
<>
  3
AM_JIS
100
AcDbAlignedDimension
 13
-25.0
 23
-1.999999999999538
 33
0.0
 14
0.0
 24
-2.000000000000794
 34
0.0
 50
0.0000000000001132
100
AcDbRotatedDimension
1001
GENIUS_GENDTOL_13
1000

1000
h7
1000

1040
0.0
  0
DIMENSION
  5
10EF
330
1F
100
AcDbEntity
  8
AM_5
100
AcDbDimension
  2
*D6
 10
-0.0000000000000009
 20
-16.0000009999997
 30
0.0
 11
-30.0
 21
-14.4500009999997
 31
0.0
 70
    32
  1
<>
  3
AM_JIS
100
AcDbAlignedDimension
 13
-60.0
 23
-2.49999999999929
 33
0.0
 14
0.0
 24
-2.000000000000794
 34
0.0
 50
0.0000000000001132
100
AcDbRotatedDimension
1001
GENIUS_GENDTOL_13
1000

1000
h7
1000

1040
0.0
  0
DIMENSION
  5
1180
330
1F
100
AcDbEntity
  8
AM_5
100
AcDbDimension
  2
*D7
 10
11.55776903085495
 20
-2.000000000000798
 30
0.0
 11
10.00776903085495
 21
-5.295238095238891
 31
0.0
 70
    32
  1
%%c<>
  3
AM_JIS
100
AcDbAlignedDimension
 13
0.0000000000000011
 23
1.999999999999995
 33
0.0
 14
0.0
 24
-2.000000000000794
 34
0.0
 50
90.0
100
AcDbRotatedDimension
1001
GENIUS_GENDTOL_13
1000

1000
h7
1000

1040
0.0
  0
LINE
  5
1A76
330
1F
100
AcDbEntity
  8
AM_0
100
AcDbLine
 10
-32.5
 20
-2.999999999999872
 30
0.0
 11
-59.5
 21
-2.999999999999301
 31
0.0
  0
LINE
  5
1A79
330
1F
100
AcDbEntity
  8
AM_0
100
AcDbLine
 10
-59.99999999999997
 20
2.499999999999929
 30
0.0
 11
-60.0
 21
-2.499999999999289
 31
0.0
  0
LINE
  5
1A7A
330
1F
100
AcDbEntity
  8
AM_0
100
AcDbLine
 10
-59.49999999999997
 20
2.999999999999931
 30
0.0
 11
-59.49999999999997
 21
-2.999999999999311
 31
0.0
  0
LINE
  5
1A7B
330
1F
100
AcDbEntity
  8
AM_0
100
AcDbLine
 10
-32.49999999999996
 20
2.999999999999994
 30
0.0
 11
-59.49999999999997
 21
2.99999999999993
 31
0.0
  0
DIMENSION
  5
1A7C
330
1F
100
AcDbEntity
  8
AM_5
100
AcDbDimension
  2
*D8
 10
-69.78823125971977
 20
-2.999999999999298
 30
0.0
 11
-71.33823125971978
 21
0.0000000000003062
 31
0.0
 70
    32
  1
%%c<>
  3
AM_JIS
100
AcDbAlignedDimension
 13
-59.49999999999997
 23
2.99999999999993
 33
0.0
 14
-59.49999999999997
 24
-2.999999999999301
 34
0.0
 50
270.0
100
AcDbRotatedDimension
1001
GENIUS_GENDTOL_13
1000

1000
h7
1000

1040
0.0
  0
LINE
  5
1A94
330
1F
100
AcDbEntity
  8
AM_0
100
AcDbLine
 10
-59.99999999999997
 20
2.499999999999929
 30
0.0
 11
-59.49999999999997
 21
2.99999999999993
 31
0.0
1001
GENIUS_GENFIL_13
1070
     0
1040
0.5
1040
0.5
1040
20.0
1040
0.0
1002
{
1002
}
1001
GENIUS_GENODEF_13
1002
{
1000
HIER
1070
     0
1002
}
1002
{
1000
MANEDIT
1070
     0
1002
}
1002
{
1000
NOSEL
1070
     0
1002
}
1002
{
1000
BEHIND
1070
     0
1002
}
1002
{
1000
REACTOR
1002
}
1001
GENIUS_GENOBJ-N-CHA_13
1002
{
1000
OWNER
1000
GEN
1002
}
  0
LINE
  5
1A97
330
1F
100
AcDbEntity
  8
AM_0
100
AcDbLine
 10
-60.0
 20
-2.499999999999289
 30
0.0
 11
-59.5
 21
-2.999999999999301
 31
0.0
1001
GENIUS_GENFIL_13
1070
     0
1040
0.5
1040
0.5
1040
20.0
1040
0.0
1002
{
1002
}
1001
GENIUS_GENODEF_13
1002
{
1000
HIER
1070
     0
1002
}
1002
{
1000
MANEDIT
1070
     0
1002
}
1002
{
1000
NOSEL
1070
     0
1002
}
1002
{
1000
BEHIND
1070
     0
1002
}
1002
{
1000
REACTOR
1002
}
1001
GENIUS_GENOBJ-N-CHA_13
1002
{
1000
OWNER
1000
GEN
1002
}
  0
LINE
  5
1C53
330
1F
100
AcDbEntity
  8
AM_0
100
AcDbLine
 10
-32.49999999999996
 20
2.99999999999986
 30
0.0
 11
-32.5
 21
-2.9999999999999
 31
0.0
  0
LINE
  5
1C6A
330
1F
100
AcDbEntity
  8
AM_0
100
AcDbLine
 10
-24.07878131639801
 20
1.999999999999975
 30
0.0
 11
-28.7679491924315
 21
1.99999999999997
 31
0.0
  0
LINE
  5
1C6B
330
1F
100
AcDbEntity
  8
AM_0
100
AcDbLine
 10
-28.7679491924315
 20
1.999999999999971
 30
0.0
 11
-32.49999999999996
 21
2.99999999999986
 31
0.0
  0
LINE
  5
1C6C
330
1F
100
AcDbEntity
  8
AM_0
100
AcDbLine
 10
-25.7777777777778
 20
-2.000000000001186
 30
0.0
 11
-28.76794919243208
 21
-2.000000000002628
 31
0.0
  0
LINE
  5
1C6D
330
1F
100
AcDbEntity
  8
AM_0
100
AcDbLine
 10
-28.76794919243208
 20
-2.000000000002628
 30
0.0
 11
-28.7679491924315
 21
1.999999999999971
 31
0.0
  0
LINE
  5
1C6E
330
1F
100
AcDbEntity
  8
AM_0
100
AcDbLine
 10
-32.5
 20
-2.9999999999999
 30
0.0
 11
-28.7679491924413
 21
-2.000000000002628
 31
0.0
  0
LINE
  5
1CF6
330
1F
100
AcDbEntity
  8
AM_11
100
AcDbLine
 10
0.0
 20
-1.999999999999532
 30
0.0
 11
0.0
 21
1.999999999999967
 31
0.0
  0
LINE
  5
1CFB
330
1F
100
AcDbEntity
  8
AM_11
100
AcDbLine
 10
-0.0000000000006037
 20
1.999999999999995
 30
0.0
 11
-25.0
 21
1.999999999999974
 31
0.0
  0
LINE
  5
1CFC
330
1F
100
AcDbEntity
  8
AM_11
100
AcDbLine
 10
-25.0
 20
-1.999999999999946
 30
0.0
 11
-0.0000000000003018
 21
-2.000000000000004
 31
0.0
  0
LINE
  5
1D65
330
1F
100
AcDbEntity
  8
AM_11
100
AcDbLine
 10
-25.0
 20
-1.999999999999538
 30
0.0
 11
-25.0
 21
1.999999999999961
 31
0.0
  0
SPLINE
  5
1F44
330
1F
100
AcDbEntity
  8
AM_0
100
AcDbSpline
210
0.0
220
0.0
230
1.0
 70
     8
 71
     3
 72
     8
 73
     4
 74
     0
 42
0.0000000001
 43
0.0000000001
 40
0.0
 40
0.0
 40
0.0
 40
0.0
 40
2.872495735388986
 40
2.872495735388986
 40
2.872495735388986
 40
2.872495735388986
 10
-14.50861467666947
 20
-1.845829526626391
 30
0.0
 10
-16.2108343717148
 20
-1.845829526626393
 30
0.0
 10
-17.77750230196991
 20
-0.9223406258658465
 30
0.0
 10
-19.34417023222503
 20
0.0011482748947
 30
0.0
  0
SPLINE
  5
1F45
330
1F
100
AcDbEntity
  8
AM_0
100
AcDbSpline
210
0.0
220
0.0
230
1.0
 70
     8
 71
     3
 72
     8
 73
     4
 74
     0
 42
0.0000000001
 43
0.0000000001
 40
0.0
 40
0.0
 40
0.0
 40
0.0
 40
2.130230809022907
 40
2.130230809022907
 40
2.130230809022907
 40
2.130230809022907
 10
-15.70861467666959
 20
-1.998851725105319
 30
0.0
 10
-15.45614287708168
 20
-1.998851725105319
 30
0.0
 10
-15.20709073455275
 20
-1.977238640233389
 30
0.0
 10
-14.96095551198422
 20
-1.937189894246346
 30
0.0
  0
SPLINE
  5
1F46
330
1F
100
AcDbEntity
  8
AM_0
100
AcDbSpline
210
0.0
220
0.0
230
1.0
 70
     8
 71
     3
 72
     8
 73
     4
 74
     0
 42
0.0000000001
 43
0.0000000001
 40
0.0
 40
0.0
 40
0.0
 40
0.0
 40
4.451443990518192
 40
4.451443990518192
 40
4.451443990518192
 40
4.451443990518192
 10
-14.48988681279665
 20
-1.845829526626397
 30
0.0
 10
-13.84581242085399
 20
-1.845829526626397
 30
0.0
 10
-13.33125498986153
 20
-1.757119090804289
 30
0.0
 10
-12.76080257177375
 20
-1.460411411560425
 30
0.0
  0
SPLINE
  5
1F47
330
1F
100
AcDbEntity
  8
AM_0
100
AcDbSpline
210
0.0
220
0.0
230
1.0
 70
     8
 71
     3
 72
     8
 73
     4
 74
     0
 42
0.0000000001
 43
0.0000000001
 40
0.0
 40
0.0
 40
0.0
 40
0.0
 40
2.764560748519282
 40
2.764560748519282
 40
2.764560748519282
 40
2.764560748519282
 10
-15.08801066529373
 20
-1.938965193239477
 30
0.0
 10
-14.76035902102477
 20
-1.938965193239477
 30
0.0
 10
-14.43817534373518
 20
-1.903404184509342
 30
0.0
 10
-14.12041271136341
 20
-1.839090841042563
 30
0.0
  0
SPLINE
  5
1F48
330
1F
100
AcDbEntity
  8
AM_0
100
AcDbSpline
210
0.0
220
0.0
230
1.0
 70
     8
 71
     3
 72
     8
 73
     4
 74
     0
 42
0.0000000001
 43
0.0000000001
 40
0.0
 40
0.0
 40
0.0
 40
0.0
 40
2.897999309868792
 40
2.897999309868792
 40
2.897999309868792
 40
2.897999309868792
 10
-15.70861467666959
 20
-1.998851725105276
 30
0.0
 10
-17.42594760103628
 20
-1.998851725105278
 30
0.0
 10
-18.98505891663071
 20
-0.9988517251052776
 30
0.0
 10
-20.54417023222514
 20
0.0011482748947229
 30
0.0
  0
SPLINE
  5
1F49
330
1F
100
AcDbEntity
  8
AM_0
100
AcDbSpline
210
0.0
220
0.0
230
1.0
 70
     8
 71
     3
 72
     8
 73
     4
 74
     0
 42
0.0000000001
 43
0.0000000001
 40
0.0
 40
0.0
 40
0.0
 40
0.0
 40
2.89799930986879
 40
2.89799930986879
 40
2.89799930986879
 40
2.89799930986879
 10
-25.37972578778058
 20
2.001148274894693
 30
0.0
 10
-23.66239286341389
 20
2.001148274894694
 30
0.0
 10
-22.10328154781946
 20
1.001148274894697
 30
0.0
 10
-20.54417023222503
 20
0.0011482748947006
 30
0.0
  0
SPLINE
  5
1F4A
330
1F
100
AcDbEntity
  8
AM_0
100
AcDbSpline
210
0.0
220
0.0
230
1.0
 70
     8
 71
     3
 72
     8
 73
     4
 74
     0
 42
0.0000000001
 43
0.0000000001
 40
0.0
 40
0.0
 40
0.0
 40
0.0
 40
2.764560748519282
 40
2.764560748519282
 40
2.764560748519282
 40
2.764560748519282
 10
-20.32746225161866
 20
-1.936668637072422
 30
0.0
 10
-19.9998106073497
 20
-1.936668637072422
 30
0.0
 10
-19.67762693006011
 20
-1.901107628342287
 30
0.0
 10
-19.35986429768835
 20
-1.836794284875508
 30
0.0
  0
SPLINE
  5
1F4B
330
1F
100
AcDbEntity
  8
AM_0
100
AcDbSpline
210
0.0
220
0.0
230
1.0
 70
     8
 71
     3
 72
     8
 73
     4
 74
     0
 42
0.0000000001
 43
0.0000000001
 40
0.0
 40
0.0
 40
0.0
 40
0.0
 40
4.451443990518192
 40
4.451443990518192
 40
4.451443990518192
 40
4.451443990518192
 10
-19.61284255420331
 20
-1.843532970459342
 30
0.0
 10
-19.08526400717892
 20
-1.843532970459342
 30
0.0
 10
-18.57070657618646
 20
-1.754822534637234
 30
0.0
 10
-18.00032336271276
 20
-1.458371177622552
 30
0.0
  0
SPLINE
  5
1F4C
330
1F
100
AcDbEntity
  8
AM_0
100
AcDbSpline
210
0.0
220
0.0
230
1.0
 70
     8
 71
     3
 72
     8
 73
     4
 74
     0
 42
0.0000000001
 43
0.0000000001
 40
0.0
 40
0.0
 40
0.0
 40
0.0
 40
5.635889483499305
 40
5.635889483499305
 40
5.635889483499305
 40
5.635889483499305
 10
-20.14417023222514
 20
2.001148274894719
 30
0.0
 10
-20.81212750434358
 20
2.001148274894719
 30
0.0
 10
-21.45614863358914
 20
1.849865886486379
 30
0.0
 10
-22.10691392124571
 20
1.553835369716396
 30
0.0
  0
SPLINE
  5
1F4D
330
1F
100
AcDbEntity
  8
AM_0
100
AcDbSpline
210
0.0
220
0.0
230
1.0
 70
     8
 71
     3
 72
     8
 73
     4
 74
     0
 42
0.0000000001
 43
0.0000000001
 40
0.0
 40
0.0
 40
0.0
 40
0.0
 40
2.89799930986879
 40
2.89799930986879
 40
2.89799930986879
 40
2.89799930986879
 10
-24.17972578778059
 20
2.001148274894693
 30
0.0
 10
-22.46239286341389
 20
2.001148274894694
 30
0.0
 10
-20.90328154781946
 20
1.001148274894697
 30
0.0
 10
-19.34417023222503
 20
0.0011482748947006
 30
0.0
  0
SPLINE
  5
1F4E
330
1F
100
AcDbEntity
  8
AM_0
100
AcDbSpline
210
0.0
220
0.0
230
1.0
 70
     8
 71
     3
 72
     8
 73
     4
 74
     0
 42
0.0000000001
 43
0.0000000001
 40
0.0
 40
0.0
 40
0.0
 40
0.0
 40
5.635889483499305
 40
5.635889483499305
 40
5.635889483499305
 40
5.635889483499305
 10
-14.90666666666669
 20
2.000000000000007
 30
0.0
 10
-15.57462393878514
 20
2.000000000000007
 30
0.0
 10
-16.21864506803069
 20
1.848717611591667
 30
0.0
 10
-16.90207459450693
 20
1.444642616435324
 30
0.0
  0
SPLINE
  5
1F4F
330
1F
100
AcDbEntity
  8
AM_0
100
AcDbSpline
210
0.0
220
0.0
230
1.0
 70
     8
 71
     3
 72
     8
 73
     4
 74
     0
 42
0.0000000001
 43
0.0000000001
 40
0.0
 40
0.0
 40
0.0
 40
0.0
 40
2.130230809022907
 40
2.130230809022907
 40
2.130230809022907
 40
2.130230809022907
 10
-10.47111111111114
 20
-2.000000000000031
 30
0.0
 10
-10.21863931152323
 20
-2.000000000000031
 30
0.0
 10
-9.969587168994303
 20
-1.978386915128101
 30
0.0
 10
-9.723451946425777
 20
-1.938338169141057
 30
0.0
  0
SPLINE
  5
1F50
330
1F
100
AcDbEntity
  8
AM_0
100
AcDbSpline
210
0.0
220
0.0
230
1.0
 70
     8
 71
     3
 72
     8
 73
     4
 74
     0
 42
0.0000000001
 43
0.0000000001
 40
0.0
 40
0.0
 40
0.0
 40
0.0
 40
4.451443990518192
 40
4.451443990518192
 40
4.451443990518192
 40
4.451443990518192
 10
-9.13588740231993
 20
-1.846977801521109
 30
0.0
 10
-8.608308855295543
 20
-1.846977801521109
 30
0.0
 10
-8.093751424303084
 20
-1.758267365699001
 30
0.0
 10
-7.52322973176911
 20
-1.461302789437509
 30
0.0
  0
SPLINE
  5
1F51
330
1F
100
AcDbEntity
  8
AM_0
100
AcDbSpline
210
0.0
220
0.0
230
1.0
 70
     8
 71
     3
 72
     8
 73
     4
 74
     0
 42
0.0000000001
 43
0.0000000001
 40
0.0
 40
0.0
 40
0.0
 40
0.0
 40
2.764560748519282
 40
2.764560748519282
 40
2.764560748519282
 40
2.764560748519282
 10
-9.850507099735281
 20
-1.940113468134188
 30
0.0
 10
-9.522855455466327
 20
-1.940113468134188
 30
0.0
 10
-9.200671778176729
 20
-1.904552459404054
 30
0.0
 10
-8.882909145804967
 20
-1.840239115937275
 30
0.0
  0
SPLINE
  5
1F52
330
1F
100
AcDbEntity
  8
AM_0
100
AcDbSpline
210
0.0
220
0.0
230
1.0
 70
     8
 71
     3
 72
     8
 73
     4
 74
     0
 42
0.0000000001
 43
0.0000000001
 40
0.7142832446738512
 40
0.7142832446738512
 40
0.7142832446738512
 40
0.7142832446738512
 40
14.36247867694493
 40
14.36247867694493
 40
14.36247867694493
 40
14.36247867694493
 10
-19.39456305753648
 20
1.938338169140989
 30
0.0
 10
-16.9489499147932
 20
1.755122814190181
 30
0.0
 10
-15.4601964363343
 20
0.8775614070950808
 30
0.0
 10
-13.9714429578754
 20
-0.0000000000000131
 30
0.0
  0
SPLINE
  5
1F53
330
1F
100
AcDbEntity
  8
AM_0
100
AcDbSpline
210
0.0
220
0.0
230
1.0
 70
     8
 71
     3
 72
     8
 73
     4
 74
     0
 42
0.0000000001
 43
0.0000000001
 40
0.0
 40
0.0
 40
0.0
 40
0.0
 40
2.89799930986879
 40
2.89799930986879
 40
2.89799930986879
 40
2.89799930986879
 10
-20.14222222222213
 20
1.999999999999981
 30
0.0
 10
-18.42488929785544
 20
1.999999999999983
 30
0.0
 10
-16.86577798226101
 20
0.9999999999999857
 30
0.0
 10
-15.30666666666658
 20
-0.0000000000000112
 30
0.0
  0
SPLINE
  5
1F54
330
1F
100
AcDbEntity
  8
AM_0
100
AcDbSpline
210
0.0
220
0.0
230
1.0
 70
     8
 71
     3
 72
     8
 73
     4
 74
     0
 42
0.0000000001
 43
0.0000000001
 40
0.0
 40
0.0
 40
0.0
 40
0.0
 40
2.872495735388986
 40
2.872495735388986
 40
2.872495735388986
 40
2.872495735388986
 10
-9.13588740231993
 20
-1.846977801521059
 30
0.0
 10
-10.83810709736525
 20
-1.84697780152106
 30
0.0
 10
-12.40477502762036
 20
-0.9234889007605142
 30
0.0
 10
-13.97144295787548
 20
0.0000000000000324
 30
0.0
  0
SPLINE
  5
1F55
330
1F
100
AcDbEntity
  8
AM_0
100
AcDbSpline
210
0.0
220
0.0
230
1.0
 70
     8
 71
     3
 72
     8
 73
     4
 74
     0
 42
0.0000000001
 43
0.0000000001
 40
0.0
 40
0.0
 40
0.0
 40
0.0
 40
2.897999309868792
 40
2.897999309868792
 40
2.897999309868792
 40
2.897999309868792
 10
-10.47111111111114
 20
-1.999999999999988
 30
0.0
 10
-12.18844403547783
 20
-1.99999999999999
 30
0.0
 10
-13.74755535107226
 20
-0.9999999999999895
 30
0.0
 10
-15.30666666666669
 20
0.0000000000000111
 30
0.0
  0
SPLINE
  5
1F56
330
1F
100
AcDbEntity
  8
AM_0
100
AcDbSpline
210
0.0
220
0.0
230
1.0
 70
     8
 71
     3
 72
     8
 73
     4
 74
     0
 42
0.0000000001
 43
0.0000000001
 40
0.0
 40
0.0
 40
0.0
 40
0.0
 40
2.89799930986879
 40
2.89799930986879
 40
2.89799930986879
 40
2.89799930986879
 10
-14.90666666666662
 20
2.000000000000007
 30
0.0
 10
-13.18933374229993
 20
2.000000000000009
 30
0.0
 10
-11.6302224267055
 20
1.000000000000011
 30
0.0
 10
-10.07111111111107
 20
0.0000000000000151
 30
0.0
  0
SPLINE
  5
1F57
330
1F
100
AcDbEntity
  8
AM_0
100
AcDbSpline
210
0.0
220
0.0
230
1.0
 70
     8
 71
     3
 72
     8
 73
     4
 74
     0
 42
0.0000000001
 43
0.0000000001
 40
0.7142832446738512
 40
0.7142832446738512
 40
0.7142832446738512
 40
0.7142832446738512
 40
14.36247867694493
 40
14.36247867694493
 40
14.36247867694493
 40
14.36247867694493
 10
-14.15900750198097
 20
1.938338169141016
 30
0.0
 10
-11.71339435923769
 20
1.755122814190207
 30
0.0
 10
-10.22464088077879
 20
0.8775614070951071
 30
0.0
 10
-8.735887402319894
 20
0.0000000000000133
 30
0.0
  0
SPLINE
  5
1F58
330
1F
100
AcDbEntity
  8
AM_0
100
AcDbSpline
210
0.0
220
0.0
230
1.0
 70
     8
 71
     3
 72
     8
 73
     4
 74
     0
 42
0.0000000001
 43
0.0000000001
 40
0.0
 40
0.0
 40
0.0
 40
0.0
 40
5.635889483499305
 40
5.635889483499305
 40
5.635889483499305
 40
5.635889483499305
 10
-9.671111111111141
 20
2.00000000000001
 30
0.0
 10
-10.33906838322958
 20
2.00000000000001
 30
0.0
 10
-10.98308951247513
 20
1.84871761159167
 30
0.0
 10
-11.66651903895137
 20
1.444642616435336
 30
0.0
  0
SPLINE
  5
1F59
330
1F
100
AcDbEntity
  8
AM_0
100
AcDbSpline
210
0.0
220
0.0
230
1.0
 70
     8
 71
     3
 72
     8
 73
     4
 74
     0
 42
0.0000000001
 43
0.0000000001
 40
0.0
 40
0.0
 40
0.0
 40
0.0
 40
2.89799930986879
 40
2.89799930986879
 40
2.89799930986879
 40
2.89799930986879
 10
-9.67111111111107
 20
2.00000000000001
 30
0.0
 10
-7.95377818674438
 20
2.000000000000012
 30
0.0
 10
-6.394666871149949
 20
1.000000000000014
 30
0.0
 10
-4.835555555555518
 20
0.000000000000018
 30
0.0
  0
SPLINE
  5
1F5A
330
1F
100
AcDbEntity
  8
AM_0
100
AcDbSpline
210
0.0
220
0.0
230
1.0
 70
     8
 71
     3
 72
     8
 73
     4
 74
     0
 42
0.0000000001
 43
0.0000000001
 40
0.0
 40
0.0
 40
0.0
 40
0.0
 40
2.130230809022907
 40
2.130230809022907
 40
2.130230809022907
 40
2.130230809022907
 10
-20.94222222222224
 20
-2.000000000000037
 30
0.0
 10
-20.68975042263433
 20
-2.000000000000037
 30
0.0
 10
-20.4406982801054
 20
-1.978386915128107
 30
0.0
 10
-20.19456305753688
 20
-1.938338169141063
 30
0.0
  0
SPLINE
  5
1F5B
330
1F
100
AcDbEntity
  8
AM_0
100
AcDbSpline
210
0.0
220
0.0
230
1.0
 70
     8
 71
     3
 72
     8
 73
     4
 74
     0
 42
0.0000000001
 43
0.0000000001
 40
0.0
 40
0.0
 40
0.0
 40
0.0
 40
2.872495735388986
 40
2.872495735388986
 40
2.872495735388986
 40
2.872495735388986
 10
-19.60699851343103
 20
-1.846977801521065
 30
0.0
 10
-21.30921820847635
 20
-1.846977801521066
 30
0.0
 10
-22.87588613873147
 20
-0.92348890076052
 30
0.0
 10
-24.44255406898658
 20
0.0000000000000265
 30
0.0
  0
SPLINE
  5
1F5C
330
1F
100
AcDbEntity
  8
AM_0
100
AcDbSpline
210
0.0
220
0.0
230
1.0
 70
     8
 71
     3
 72
     8
 73
     4
 74
     0
 42
0.0000000001
 43
0.0000000001
 40
0.0
 40
0.0
 40
0.0
 40
0.0
 40
2.897999309868792
 40
2.897999309868792
 40
2.897999309868792
 40
2.897999309868792
 10
-20.94222222222224
 20
-1.999999999999994
 30
0.0
 10
-22.65955514658893
 20
-1.999999999999996
 30
0.0
 10
-24.21866646218337
 20
-0.9999999999999953
 30
0.0
 10
-25.7777777777778
 20
0.0000000000000052
 30
0.0
  0
SPLINE
  5
1F5D
330
1F
100
AcDbEntity
  8
AM_0
100
AcDbSpline
210
0.0
220
0.0
230
1.0
 70
     8
 71
     3
 72
     8
 73
     4
 74
     0
 42
0.0000000001
 43
0.0000000001
 40
4.48458745047074
 40
4.48458745047074
 40
4.48458745047074
 40
4.48458745047074
 40
14.36247867694493
 40
14.36247867694493
 40
14.36247867694493
 40
14.36247867694493
 10
-27.71915113708238
 20
1.604966192068642
 30
0.0
 10
-26.59752686318917
 20
1.270271394757484
 30
0.0
 10
-25.52004046608787
 20
0.6351356973787271
 30
0.0
 10
-24.44255406898658
 20
-0.0000000000000161
 30
0.0
  0
SPLINE
  5
1F5E
330
1F
100
AcDbEntity
  8
AM_0
100
AcDbSpline
210
0.0
220
0.0
230
1.0
 70
     8
 71
     3
 72
     8
 73
     4
 74
     0
 42
0.0000000001
 43
0.0000000001
 40
11.41055204919593
 40
11.41055204919593
 40
11.41055204919593
 40
11.41055204919593
 40
14.48999654934393
 40
14.48999654934393
 40
14.48999654934393
 40
14.48999654934393
 10
-26.77333333333329
 20
0.6279676035916049
 30
0.0
 10
-26.44046900059153
 20
0.4250442006195508
 30
0.0
 10
-26.10912338918466
 20
0.2125221003097744
 30
0.0
 10
-25.7777777777778
 20
0.0000000000000052
 30
0.0
  0
SPLINE
  5
1F60
330
1F
100
AcDbEntity
  8
AM_0
100
AcDbSpline
210
0.0
220
0.0
230
1.0
 70
     8
 71
     3
 72
     8
 73
     4
 74
     0
 42
0.0000000001
 43
0.0000000001
 40
0.358110361654651
 40
0.358110361654651
 40
0.358110361654651
 40
0.358110361654651
 40
2.764560748519282
 40
2.764560748519282
 40
2.764560748519282
 40
2.764560748519282
 10
-25.03011861309243
 20
-1.938338169141066
 30
0.0
 10
-24.74612748443521
 20
-1.930418148247053
 30
0.0
 10
-24.46617671914792
 20
-1.896221561014345
 30
0.0
 10
-24.18957581247161
 20
-1.840239115937281
 30
0.0
  0
SPLINE
  5
1F61
330
1F
100
AcDbEntity
  8
AM_0
100
AcDbSpline
210
0.0
220
0.0
230
1.0
 70
     8
 71
     3
 72
     8
 73
     4
 74
     0
 42
0.0000000001
 43
0.0000000001
 40
0.0
 40
0.0
 40
0.0
 40
0.0
 40
4.451443990518192
 40
4.451443990518192
 40
4.451443990518192
 40
4.451443990518192
 10
-24.44255406898658
 20
-1.846977801521115
 30
0.0
 10
-23.91497552196219
 20
-1.846977801521115
 30
0.0
 10
-23.40041809096974
 20
-1.758267365699014
 30
0.0
 10
-22.89484606810572
 20
-1.608341019569431
 30
0.0
  0
SPLINE
  5
1F62
330
1F
100
AcDbEntity
  8
AM_0
100
AcDbSpline
210
0.0
220
0.0
230
1.0
 70
     8
 71
     3
 72
     8
 73
     4
 74
     0
 42
0.0000000001
 43
0.0000000001
 40
0.0
 40
0.0
 40
0.0
 40
0.0
 40
6.769478140335353
 40
6.769478140335353
 40
6.769478140335353
 40
6.769478140335353
 10
-24.44255406898658
 20
-1.846977801521072
 30
0.0
 10
-25.24486258932262
 20
-1.846977801521072
 30
0.0
 10
-26.01705791977542
 20
-1.641822253257247
 30
0.0
 10
-26.77333333333327
 20
-1.328207279354296
 30
0.0
  0
SPLINE
  5
1F63
330
1F
100
AcDbEntity
  8
AM_0
100
AcDbSpline
210
0.0
220
0.0
230
1.0
 70
     8
 71
     3
 72
     8
 73
     4
 74
     0
 42
0.0000000001
 43
0.0000000001
 40
0.0
 40
0.0
 40
0.0
 40
0.0
 40
2.130230809022907
 40
2.130230809022907
 40
2.130230809022907
 40
2.130230809022907
 10
-25.7777777777778
 20
-2.000000000000044
 30
0.0
 10
-25.52530597818989
 20
-2.000000000000044
 30
0.0
 10
-25.27625383566096
 20
-1.978386915128107
 30
0.0
 10
-25.03011861309243
 20
-1.938338169141063
 30
0.0
  0
ELLIPSE
  5
1F66
330
1F
100
AcDbEntity
  8
AM_0
100
AcDbEllipse
 10
0.7060171313874485
 20
-1.017552065887163
 30
0.0
 11
-0.0000000000000019
 21
1.216279246206421
 31
0.0
210
0.0
220
0.0
230
1.0
 40
0.8888888888888875
 41
1.211124581303827
 42
2.069278538290317
  0
SPLINE
  5
1F67
330
1F
100
AcDbEntity
  8
AM_0
100
AcDbSpline
210
0.0
220
0.0
230
1.0
 70
     8
 71
     3
 72
     8
 73
     4
 74
     0
 42
0.0000000001
 43
0.0000000001
 40
0.0
 40
0.0
 40
0.0
 40
0.0
 40
2.897999309868792
 40
2.897999309868792
 40
2.897999309868792
 40
2.897999309868792
 10
-5.235555555555628
 20
-1.999999999999962
 30
0.0
 10
-6.95288847992232
 20
-1.999999999999963
 30
0.0
 10
-8.51199979551675
 20
-0.999999999999963
 30
0.0
 10
-10.07111111111118
 20
0.0000000000000374
 30
0.0
  0
SPLINE
  5
1F68
330
1F
100
AcDbEntity
  8
AM_0
100
AcDbSpline
210
0.0
220
0.0
230
1.0
 70
     8
 71
     3
 72
     8
 73
     4
 74
     0
 42
0.0000000001
 43
0.0000000001
 40
0.0
 40
0.0
 40
0.0
 40
0.0
 40
2.897999309868792
 40
2.897999309868792
 40
2.897999309868792
 40
2.897999309868792
 10
-9.671111111111112
 20
2.000000000000037
 30
0.0
 10
-7.95377818674442
 20
2.000000000000039
 30
0.0
 10
-6.39466687114999
 20
1.000000000000038
 30
0.0
 10
-4.835555555555559
 20
0.0000000000000374
 30
0.0
  0
SPLINE
  5
1F69
330
1F
100
AcDbEntity
  8
AM_0
100
AcDbSpline
210
0.0
220
0.0
230
1.0
 70
     8
 71
     3
 72
     8
 73
     4
 74
     0
 42
0.0000000001
 43
0.0000000001
 40
0.0
 40
0.0
 40
0.0
 40
0.0
 40
2.764560748519282
 40
2.764560748519282
 40
2.764560748519282
 40
2.764560748519282
 10
-4.614951544179768
 20
-1.940113468134162
 30
0.0
 10
-4.287299899910815
 20
-1.940113468134162
 30
0.0
 10
-3.965116222621219
 20
-1.904552459404028
 30
0.0
 10
-3.647353590249455
 20
-1.840239115937249
 30
0.0
  0
SPLINE
  5
1F6A
330
1F
100
AcDbEntity
  8
AM_0
100
AcDbSpline
210
0.0
220
0.0
230
1.0
 70
     8
 71
     3
 72
     8
 73
     4
 74
     0
 42
0.0000000001
 43
0.0000000001
 40
0.7142832446738512
 40
0.7142832446738512
 40
0.7142832446738512
 40
0.7142832446738512
 40
14.36247867694493
 40
14.36247867694493
 40
14.36247867694493
 40
14.36247867694493
 10
-8.923451946425419
 20
1.938338169141019
 30
0.0
 10
-6.477838803682137
 20
1.75512281419021
 30
0.0
 10
-4.989085325223243
 20
0.8775614070951098
 30
0.0
 10
-3.500331846764342
 20
0.0000000000000161
 30
0.0
  0
SPLINE
  5
1F6B
330
1F
100
AcDbEntity
  8
AM_0
100
AcDbSpline
210
0.0
220
0.0
230
1.0
 70
     8
 71
     3
 72
     8
 73
     4
 74
     0
 42
0.0000000001
 43
0.0000000001
 40
0.0
 40
0.0
 40
0.0
 40
0.0
 40
2.872495735388986
 40
2.872495735388986
 40
2.872495735388986
 40
2.872495735388986
 10
-3.900331846764418
 20
-1.846977801521033
 30
0.0
 10
-5.602551541809742
 20
-1.846977801521034
 30
0.0
 10
-7.169219472064857
 20
-0.9234889007604877
 30
0.0
 10
-8.735887402319971
 20
0.0000000000000588
 30
0.0
  0
SPLINE
  5
1F6C
330
1F
100
AcDbEntity
  8
AM_0
100
AcDbSpline
210
0.0
220
0.0
230
1.0
 70
     8
 71
     3
 72
     8
 73
     4
 74
     0
 42
0.0000000001
 43
0.0000000001
 40
0.0
 40
0.0
 40
0.0
 40
0.0
 40
2.897999309868795
 40
2.897999309868795
 40
2.897999309868795
 40
2.897999309868795
 10
0.0
 20
-2.000000000000004
 30
0.0
 10
-1.717332924366693
 20
-2.000000000000006
 30
0.0
 10
-3.276444239961126
 20
-1.000000000000005
 30
0.0
 10
-4.835555555555559
 20
-0.0000000000000052
 30
0.0
  0
SPLINE
  5
1F6D
330
1F
100
AcDbEntity
  8
AM_0
100
AcDbSpline
210
0.0
220
0.0
230
1.0
 70
     8
 71
     3
 72
     8
 73
     4
 74
     0
 42
0.0000000001
 43
0.0000000001
 40
0.0
 40
0.0
 40
0.0
 40
0.0
 40
2.89799930986879
 40
2.89799930986879
 40
2.89799930986879
 40
2.89799930986879
 10
-4.835555555555559
 20
2.000000000000037
 30
0.0
 10
-3.118222631188868
 20
2.000000000000039
 30
0.0
 10
-1.559111315594437
 20
1.000000000000041
 30
0.0
 10
-0.0000000000000063
 20
0.0000000000000446
 30
0.0
  0
SPLINE
  5
1F6E
330
1F
100
AcDbEntity
  8
AM_0
100
AcDbSpline
210
0.0
220
0.0
230
1.0
 70
     8
 71
     3
 72
     8
 73
     4
 74
     0
 42
0.0000000001
 43
0.0000000001
 40
4.542668862435135
 40
4.542668862435135
 40
4.542668862435135
 40
4.542668862435135
 40
14.36247867694493
 40
14.36247867694493
 40
14.36247867694493
 40
14.36247867694493
 10
-0.2435555555550637
 20
-1.599046662182649
 30
0.0
 10
-1.35803016421531
 20
-1.262802274629142
 30
0.0
 10
-2.429181005489826
 20
-0.6314011373145599
 30
0.0
 10
-3.500331846764342
 20
0.0000000000000161
 30
0.0
  0
SPLINE
  5
1F6F
330
1F
100
AcDbEntity
  8
AM_0
100
AcDbSpline
210
0.0
220
0.0
230
1.0
 70
     8
 71
     3
 72
     8
 73
     4
 74
     0
 42
0.0000000001
 43
0.0000000001
 40
0.0
 40
0.0
 40
0.0
 40
0.0
 40
5.635889483499127
 40
5.635889483499127
 40
5.635889483499127
 40
5.635889483499127
 10
-0.0000000000000063
 20
1.999999999999994
 30
0.0
 10
-0.6679572721184158
 20
1.999999999999994
 30
0.0
 10
-1.311978401363957
 20
1.848717611591654
 30
0.0
 10
-1.941373359304476
 20
1.604994175348496
 30
0.0
  0
SPLINE
  5
1F70
330
1F
100
AcDbEntity
  8
AM_0
100
AcDbSpline
210
0.0
220
0.0
230
1.0
 70
     8
 71
     3
 72
     8
 73
     4
 74
     0
 42
0.0000000001
 43
0.0000000001
 40
0.0
 40
0.0
 40
0.0
 40
0.0
 40
0.5173130647233411
 40
0.5173130647233411
 40
0.5173130647233411
 40
0.5173130647233411
 10
-0.0000000000000063
 20
1.629881074673585
 30
0.0
 10
-0.1967172908454968
 20
1.365377278460404
 30
0.0
 10
-0.5343713794545787
 20
1.251789518769736
 30
0.0
 10
-0.8378923488077829
 20
1.203381369011227
 30
0.0
  0
SPLINE
  5
1F71
330
1F
100
AcDbEntity
  8
AM_0
100
AcDbSpline
210
0.0
220
0.0
230
1.0
 70
     8
 71
     3
 72
     8
 73
     4
 74
     0
 42
0.0000000001
 43
0.0000000001
 40
0.7142832446738512
 40
0.7142832446738512
 40
0.7142832446738512
 40
0.7142832446738512
 40
9.361146747480315
 40
9.361146747480315
 40
9.361146747480315
 40
9.361146747480315
 10
-4.087896390870128
 20
1.938338169141063
 30
0.0
 10
-2.230455478715195
 20
1.786313375588628
 30
0.0
 10
-1.260245813848194
 20
1.414307953119847
 30
0.0
 10
-0.3071449616462145
 20
0.9257433797923743
 30
0.0
  0
SPLINE
  5
1F72
330
1F
100
AcDbEntity
  8
AM_0
100
AcDbSpline
210
0.0
220
0.0
230
1.0
 70
     8
 71
     3
 72
     8
 73
     4
 74
     0
 42
0.0000000001
 43
0.0000000001
 40
0.0
 40
0.0
 40
0.0
 40
0.0
 40
4.451443990518192
 40
4.451443990518192
 40
4.451443990518192
 40
4.451443990518192
 10
-3.900331846764418
 20
-1.846977801521082
 30
0.0
 10
-3.372753299740032
 20
-1.846977801521082
 30
0.0
 10
-2.858195868747571
 20
-1.758267365698974
 30
0.0
 10
-2.191716817916458
 20
-1.50299457252302
 30
0.0
  0
SPLINE
  5
1F73
330
1F
100
AcDbEntity
  8
AM_0
100
AcDbSpline
210
0.0
220
0.0
230
1.0
 70
     8
 71
     3
 72
     8
 73
     4
 74
     0
 42
0.0000000001
 43
0.0000000001
 40
0.0
 40
0.0
 40
0.0
 40
0.0
 40
5.635889483499305
 40
5.635889483499305
 40
5.635889483499305
 40
5.635889483499305
 10
-4.835555555555629
 20
2.000000000000037
 30
0.0
 10
-5.503512827674076
 20
2.000000000000037
 30
0.0
 10
-6.147533956919623
 20
1.848717611591697
 30
0.0
 10
-6.790714887223916
 20
1.55806769276845
 30
0.0
  0
SPLINE
  5
1F74
330
1F
100
AcDbEntity
  8
AM_0
100
AcDbSpline
210
0.0
220
0.0
230
1.0
 70
     8
 71
     3
 72
     8
 73
     4
 74
     0
 42
0.0000000001
 43
0.0000000001
 40
0.0
 40
0.0
 40
0.0
 40
0.0
 40
2.130230809022907
 40
2.130230809022907
 40
2.130230809022907
 40
2.130230809022907
 10
-5.235555555555628
 20
-2.000000000000004
 30
0.0
 10
-4.98308375596772
 20
-2.000000000000004
 30
0.0
 10
-4.734031613438791
 20
-1.978386915128074
 30
0.0
 10
-4.487896390870266
 20
-1.938338169141031
 30
0.0
  0
POLYLINE
  5
1F77
330
1F
100
AcDbEntity
  8
AM_0
100
AcDb2dPolyline
 66
     1
 10
0.0
 20
0.0
 30
0.0
 70
     2
  0
VERTEX
  5
1F78
330
1F77
100
AcDbEntity
  8
AM_0
100
AcDbVertex
100
AcDb2dVertex
 10
-27.71915113708238
 20
1.604966192068635
 30
0.0
 42
-0.0080850818469205
  0
VERTEX
  5
1F79
330
1F77
100
AcDbEntity
  8
AM_0
100
AcDbVertex
100
AcDb2dVertex
 10
-27.8974179461125
 20
1.667785114944378
 30
0.0
 42
-0.0113772357485858
 70
     1
  0
VERTEX
  5
1F7A
330
1F77
100
AcDbEntity
  8
AM_0
100
AcDbVertex
100
AcDb2dVertex
 10
-28.02442807457251
 20
1.718748240676651
 30
0.0
 42
-0.0082896290467094
  0
VERTEX
  5
1F7B
330
1F77
100
AcDbEntity
  8
AM_0
100
AcDbVertex
100
AcDb2dVertex
 10
-28.42922974351139
 20
1.901664570271114
 30
0.0
 42
-0.2726804491113656
 70
     1
  0
VERTEX
  5
1F7C
330
1F77
100
AcDbEntity
  8
AM_0
100
AcDbVertex
100
AcDb2dVertex
 10
-28.43773635443313
 20
1.914521626427548
 30
0.0
 42
-0.4014058829339297
  0
VERTEX
  5
1F7D
330
1F77
100
AcDbEntity
  8
AM_0
100
AcDbVertex
100
AcDb2dVertex
 10
-28.42231507557296
 20
1.93706161704805
 30
0.0
 42
-0.0313656446754737
 70
     1
  0
VERTEX
  5
1F7E
330
1F77
100
AcDbEntity
  8
AM_0
100
AcDbVertex
100
AcDb2dVertex
 10
-28.14447214335785
 20
1.96484792986819
 30
0.0
 42
-0.0039726403541645
  0
VERTEX
  5
1F7F
330
1F77
100
AcDbEntity
  8
AM_0
100
AcDbVertex
100
AcDb2dVertex
 10
-27.89144576327831
 20
1.969974068180319
 30
0.0
 42
0.0019401889352083
 70
     1
  0
VERTEX
  5
1F80
330
1F77
100
AcDbEntity
  8
AM_0
100
AcDbVertex
100
AcDb2dVertex
 10
-27.37333333333327
 20
1.978100742635296
 30
0.0
 42
0.0036525506412497
  0
VERTEX
  5
1F81
330
1F77
100
AcDbEntity
  8
AM_0
100
AcDbVertex
100
AcDb2dVertex
 10
-27.16959286203648
 20
1.983861242181253
 30
0.0
 42
0.0018773371428962
 70
     1
  0
VERTEX
  5
1F82
330
1F77
100
AcDbEntity
  8
AM_0
100
AcDbVertex
100
AcDb2dVertex
 10
-25.37972578778058
 20
2.001148274894692
 30
0.0
  0
SEQEND
  5
1F83
330
1F77
100
AcDbEntity
  8
AM_0
  0
LINE
  5
1F84
330
1F
100
AcDbEntity
  8
AM_0
100
AcDbLine
 10
-28.17333333333328
 20
-0.0174378915602298
 30
0.0
 11
-27.37333333333327
 21
-0.8879433550135416
 31
0.0
  0
LINE
  5
1F86
330
1F
100
AcDbEntity
  8
AM_0
100
AcDbLine
 10
-27.37333333333327
 20
-0.8879433550135416
 30
0.0
 11
-26.77333333333327
 21
-1.328207279354296
 31
0.0
  0
LINE
  5
1F87
330
1F
100
AcDbEntity
  8
AM_0
100
AcDbLine
 10
-25.0
 20
-1.814632281627077
 30
0.0
 11
-25.0
 21
-1.937399374593952
 31
0.0
  0
LINE
  5
1F88
330
1F
100
AcDbEntity
  8
AM_0
100
AcDbLine
 10
-28.17333333333328
 20
0.7240404739816653
 30
0.0
 11
-28.37333333333327
 21
0.4562370483283451
 31
0.0
  0
LINE
  5
1F89
330
1F
100
AcDbEntity
  8
AM_0
100
AcDbLine
 10
-28.37333333333327
 20
0.4562370483283451
 30
0.0
 11
-28.17333333333328
 21
-0.0174378915602298
 31
0.0
  0
LINE
  5
1F8A
330
1F
100
AcDbEntity
  8
AM_0
100
AcDbLine
 10
-27.37333333333327
 20
0.7710598804939563
 30
0.0
 11
-28.17333333333328
 21
0.7240404739816653
 31
0.0
  0
LINE
  5
1F8B
330
1F
100
AcDbEntity
  8
AM_0
100
AcDbLine
 10
-25.0
 20
0.3269200933014131
 30
0.0
 11
-25.0
 21
-0.4938091997572204
 31
0.0
  0
LINE
  5
1F8C
330
1F
100
AcDbEntity
  8
AM_0
100
AcDbLine
 10
-26.77333333333327
 20
0.6279676035916401
 30
0.0
 11
-27.37333333333327
 21
0.7710598804939563
 31
0.0
  0
LINE
  5
1F8D
330
1F
100
AcDbEntity
  8
AM_0
100
AcDbLine
 10
0.0
 20
-2.000000000000005
 30
0.0
 11
0.0
 21
-0.4000000000000038
 31
0.0
  0
LINE
  5
1F8F
330
1F
100
AcDbEntity
  8
AM_0
100
AcDbLine
 10
0.0
 20
-2.000000000000005
 30
0.0
 11
-0.0373333333333284
 21
-1.893376463048736
 31
0.0
  0
LINE
  5
1F90
330
1F
100
AcDbEntity
  8
AM_0
100
AcDbLine
 10
-0.0373333333333284
 20
-1.893376463048715
 30
0.0
 11
-0.2435555555555563
 21
-1.599046662184766
 31
0.0
  0
LINE
  5
1F91
330
1F
100
AcDbEntity
  8
AM_0
100
AcDbLine
 10
0.0
 20
-0.0000000000000052
 30
0.0
 11
0.0
 21
1.999999999999994
 31
0.0
  0
LINE
  5
1F92
330
1F
100
AcDbEntity
  8
AM_0
100
AcDbLine
 10
-0.0373333333333348
 20
0.4000000000000432
 30
0.0
 11
-0.3795641591985309
 21
1.066856325604151
 31
0.0
  0
LINE
  5
1F93
330
1F
100
AcDbEntity
  8
AM_0
100
AcDbLine
 10
-0.3059406171346382
 20
-0.5894619060666226
 30
0.0
 11
-0.0373333333333284
 21
-0.5307591418252766
 31
0.0
  0
LINE
  5
1F94
330
1F
100
AcDbEntity
  8
AM_0
100
AcDbLine
 10
0.0
 20
-0.0000000000000052
 30
0.0
 11
-0.8378923488077829
 21
-0.0000000000000052
 31
0.0
  0
LINE
  5
1F95
330
1F
100
AcDbEntity
  8
AM_0
100
AcDbLine
 10
-0.8378923488077829
 20
-0.3200000000000125
 30
0.0
 11
-0.0410560191423757
 21
-0.3200000000000125
 31
0.0
  0
LINE
  5
1F96
330
1F
100
AcDbEntity
  8
AM_0
100
AcDbLine
 10
-0.8378923488077829
 20
-0.0000000000000052
 30
0.0
 11
-0.8378923488077829
 21
-0.3200000000000125
 31
0.0
  0
LINE
  5
1F97
330
1F
100
AcDbEntity
  8
AM_0
100
AcDbLine
 10
-0.8378923488077829
 20
-0.3200000000000125
 30
0.0
 11
-0.3059406171346382
 21
-0.5894619060666226
 31
0.0
  0
LINE
  5
1F98
330
1F
100
AcDbEntity
  8
AM_0
100
AcDbLine
 10
0.0
 20
-0.0000000000000052
 30
0.0
 11
-0.031588483251192
 21
-0.3384480348343056
 31
0.0
  0
LINE
  5
1F99
330
1F
100
AcDbEntity
  8
AM_0
100
AcDbLine
 10
-0.0373333333333284
 20
-0.5307591418252766
 30
0.0
 11
0.0
 21
-0.4000000000000038
 31
0.0
  0
LINE
  5
1F9A
330
1F
100
AcDbEntity
  8
AM_0
100
AcDbLine
 10
0.0
 20
-0.4000000000000038
 30
0.0
 11
-0.2052800957118785
 21
0.0000000000000161
 31
0.0
  0
LINE
  5
1F9B
330
1F
100
AcDbEntity
  8
AM_0
100
AcDbLine
 10
0.0
 20
-0.0000000000000052
 30
0.0
 11
-0.0373333333333348
 21
0.4000000000000432
 31
0.0
  0
LINE
  5
1F9C
330
1F
100
AcDbEntity
  8
AM_0
100
AcDbLine
 10
-0.3795641591985309
 20
1.066856325604151
 30
0.0
 11
-0.8378923488077829
 21
1.203381369011227
 31
0.0
  0
LINE
  5
1F9D
330
1F
100
AcDbEntity
  8
AM_7
  6
AM_ISO08W050X2
100
AcDbLine
 10
4.557768030854958
 20
-0.0000000000000025
 30
0.0
 11
-57.7882302597198
 21
-0.0000000000000393
 31
0.0
1001
GENIUS_GENODEF_13
1002
{
1000
HIER
1070
     0
1002
}
1002
{
1000
MANEDIT
1070
     0
1002
}
1002
{
1000
NOSEL
1070
     0
1002
}
1002
{
1000
BEHIND
1070
     0
1002
}
1002
{
1000
REACTOR
1002
}
1001
GENIUS_GENOBJ-N-CEN_13
1002
{
1000
OWNER
1000
GEN
1002
}
  0
VIEWPORT
  5
110
330
101
100
AcDbEntity
 67
     1
  8
0
100
AcDbViewport
 10
420.5
 20
297.0
 30
0.0
 40
948.9782706766916
 41
628.452
 68
     1
 69
     1
1001
ACAD
1000
MVIEW
1002
{
1070
    16
1010
0.0
1020
0.0
1030
0.0
1010
0.0
1020
0.0
1030
1.0
1040
0.0
1040
628.452
1040
420.5
1040
297.0
1040
50.0
1040
0.0
1040
0.0
1070
     0
1070
   100
1070
     1
1070
     1
1070
     0
1070
     0
1070
     0
1070
     0
1040
0.0
1040
0.0
1040
0.0
1040
10.0
1040
10.0
1040
10.0
1040
10.0
1070
     0
1002
{
1002
}
1002
}
  0
ENDSEC
  0
SECTION
  2
OBJECTS
  0
DICTIONARY
  5
C
330
0
100
AcDbDictionary
  3
ACAD_GROUP
350
D
  3
ACAD_LAYOUT
350
1A
  3
ACAD_MLINESTYLE
350
17
  3
ACAD_PLOTSETTINGS
350
19
  3
ACAD_PLOTSTYLENAME
350
E
  3
ACDBVARIABLEDICTIONARY
350
34
  3
ACMDICTIONARY
350
43
  3
AMG
350
2B
  3
AMGSNAPSETTINGS
350
6E
  3
DWGPROPS
350
1FB5
  3
ACDBHEADERROUNDTRIPXREC
350
1FC1
  0
DICTIONARY
  5
74
330
1F
100
AcDbDictionary
280
     1
  3
ACAD_INDEX
360
1FB7
  3
ACAD_LAYOUTSELFREF
360
1FE4
  0
DICTIONARY
  5
1FE9
330
101
100
AcDbDictionary
280
     1
  3
ACAD_LAYOUTSELFREF
360
1FEA
  0
DICTIONARY
  5
D
102
{ACAD_REACTORS
330
C
102
}
330
C
100
AcDbDictionary
  0
DICTIONARY
  5
1A
102
{ACAD_REACTORS
330
C
102
}
330
C
100
AcDbDictionary
  0
DICTIONARY
  5
17
102
{ACAD_REACTORS
330
C
102
}
330
C
100
AcDbDictionary
  3
STANDARD
350
18
  0
DICTIONARY
  5
19
102
{ACAD_REACTORS
330
C
102
}
330
C
100
AcDbDictionary
  0
ACDBDICTIONARYWDFLT
  5
E
102
{ACAD_REACTORS
330
C
102
}
330
C
100
AcDbDictionary
281
     1
  3
Normal
350
F
100
AcDbDictionaryWithDefault
340
F
  0
DICTIONARY
  5
34
102
{ACAD_REACTORS
330
C
102
}
330
C
100
AcDbDictionary
  3
INDEXCTL
350
35
  3
SORTENTS
350
B5E
  0
DICTIONARY
  5
43
102
{ACAD_REACTORS
330
C
102
}
330
C
100
AcDbDictionary
  3
ACMSTDDICTIONARY
350
260
  0
DICTIONARY
  5
2B
102
{ACAD_REACTORS
330
C
102
}
330
C
100
AcDbDictionary
  3
ACMGSETTINGS
350
2C
  0
DICTIONARY
  5
6E
102
{ACAD_REACTORS
330
C
102
}
330
C
100
AcDbDictionary
  0
XRECORD
  5
1FB5
102
{ACAD_REACTORS
330
C
102
}
330
C
100
AcDbXrecord
  1
DWGPROPS COOKIE
  2

  3

  4

  6

  7

  8

  9

300
AmdtFileType=82
301
=
302
=
303
=
304
=
305
=
306
=
307
=
308
=
309
=
 40
0.0579807175925926
 41
2452836.771637361
 42
2453045.466623553
  1

 90
        1
  0
DICTIONARY
  5
1FC1
102
{ACAD_REACTORS
330
C
102
}
330
C
100
AcDbDictionary
  3
TSTACKALIGN
350
1FC2
  3
TSTACKSIZE
350
1FC3
  3
HYPERLINKBASE
350
1FC4
  3
STYLESHEET
350
1FC5
  3
LAYOUTDICT
350
1FC6
  3
PLOTSETDICT
350
1FC7
  3
PLOTSTYLNAMDICT
350
1FC8
  3
LWETCUNION
350
1FC9
  3
INSUNITS
350
1FCA
  3
CEPSNTYPE
350
1FCB
  3
FINGERPRINTGUID
350
1FCC
  3
VERSIONGUID
350
1FCD
  3
PSVPSCALE
350
1FCE
  3
DIMSTYLEDATA
350
1FCF
  3
PUCSORTHOREF
350
1FD0
  3
PUCSORTHOVIEW
350
1FD1
  3
PUCSBASE
350
1FD2
  3
PUCSORGTOP
350
1FD3
  3
PUCSORGBOTTOM
350
1FD4
  3
PUCSORGLEFT
350
1FD5
  3
PUCSORGRIGHT
350
1FD6
  3
PUCSORGFRONT
350
1FD7
  3
PUCSORGBACK
350
1FD8
  3
UCSORTHOREF
350
1FD9
  3
UCSORTHOVIEW
350
1FDA
  3
UCSBASE
350
1FDB
  3
UCSORGTOP
350
1FDC
  3
UCSORGBOTTOM
350
1FDD
  3
UCSORGLEFT
350
1FDE
  3
UCSORGRIGHT
350
1FDF
  3
UCSORGFRONT
350
1FE0
  3
UCSORGBACK
350
1FE1
  0
DICTIONARY
  5
1FB7
102
{ACAD_REACTORS
330
74
102
}
330
74
100
AcDbDictionary
  3
*A1
350
1FB8
  0
XRECORD
  5
1FE4
102
{ACAD_REACTORS
330
74
102
}
330
74
100
AcDbXrecord
340
1F
  0
XRECORD
  5
1FEA
102
{ACAD_REACTORS
330
1FE9
102
}
330
1FE9
100
AcDbXrecord
340
101
  0
MLINESTYLE
  5
18
102
{ACAD_REACTORS
330
17
102
}
330
17
100
AcDbMlineStyle
  2
STANDARD
 70
     0
  3

 62
   256
 51
90.0
 52
90.0
 71
     2
 49
0.5
 62
   256
  6
BYLAYER
 49
-0.5
 62
   256
  6
BYLAYER
  0
ACDBPLACEHOLDER
  5
F
102
{ACAD_REACTORS
330
E
102
}
330
E
100
AcDbPlaceHolder
280
     0
  0
DICTIONARYVAR
  5
35
102
{ACAD_REACTORS
330
34
102
}
330
34
100
DictionaryVariables
280
     0
  1
1
  0
DICTIONARYVAR
  5
B5E
102
{ACAD_REACTORS
330
34
102
}
330
34
100
DictionaryVariables
280
     0
  1
96
  0
DICTIONARY
  5
260
102
{ACAD_REACTORS
330
43
102
}
330
43
100
AcDbDictionary
  0
DICTIONARY
  5
2C
102
{ACAD_REACTORS
330
2B
102
}
330
2B
100
AcDbDictionary
  3
DWGSETTINGS
350
2D
  0
XRECORD
  5
1FC2
102
{ACAD_REACTORS
330
1FC1
102
}
330
1FC1
100
AcDbXrecord
 90
        1
  0
XRECORD
  5
1FC3
102
{ACAD_REACTORS
330
1FC1
102
}
330
1FC1
100
AcDbXrecord
 90
       70
  0
XRECORD
  5
1FC4
102
{ACAD_REACTORS
330
1FC1
102
}
330
1FC1
100
AcDbXrecord
  1

  0
XRECORD
  5
1FC5
102
{ACAD_REACTORS
330
1FC1
102
}
330
1FC1
100
AcDbXrecord
  1
ASAMI.ctb
  0
XRECORD
  5
1FC6
102
{ACAD_REACTORS
330
1FC1
102
}
330
1FC1
100
AcDbXrecord
340
1A
  0
XRECORD
  5
1FC7
102
{ACAD_REACTORS
330
1FC1
102
}
330
1FC1
100
AcDbXrecord
340
19
  0
XRECORD
  5
1FC8
102
{ACAD_REACTORS
330
1FC1
102
}
330
1FC1
100
AcDbXrecord
340
E
  0
XRECORD
  5
1FC9
102
{ACAD_REACTORS
330
1FC1
102
}
330
1FC1
100
AcDbXrecord
 90
    10781
  0
XRECORD
  5
1FCA
102
{ACAD_REACTORS
330
1FC1
102
}
330
1FC1
100
AcDbXrecord
 90
        4
  0
XRECORD
  5
1FCB
102
{ACAD_REACTORS
330
1FC1
102
}
330
1FC1
100
AcDbXrecord
 90
        0
  0
XRECORD
  5
1FCC
102
{ACAD_REACTORS
330
1FC1
102
}
330
1FC1
100
AcDbXrecord
  1
{AFB28963-8C59-40AE-9337-C84526B81ACE}
  0
XRECORD
  5
1FCD
102
{ACAD_REACTORS
330
1FC1
102
}
330
1FC1
100
AcDbXrecord
  1
{D5E201ED-B95C-47C4-9143-2FA7A43FB32A}
  0
XRECORD
  5
1FCE
102
{ACAD_REACTORS
330
1FC1
102
}
330
1FC1
100
AcDbXrecord
 40
0.0
  0
XRECORD
  5
1FCF
102
{ACAD_REACTORS
330
1FC1
102
}
330
1FC1
100
AcDbXrecord
1000
DSTYLE
1002
{
1070
    79
 70
     2
1070
   341
340
59
1070
   342
340
59
1070
   371
 70
    -1
1070
   372
 70
    -1
1002
}
  0
XRECORD
  5
1FD0
102
{ACAD_REACTORS
330
1FC1
102
}
330
1FC1
100
AcDbXrecord
340
0
  0
XRECORD
  5
1FD1
102
{ACAD_REACTORS
330
1FC1
102
}
330
1FC1
100
AcDbXrecord
 70
     0
  0
XRECORD
  5
1FD2
102
{ACAD_REACTORS
330
1FC1
102
}
330
1FC1
100
AcDbXrecord
340
0
  0
XRECORD
  5
1FD3
102
{ACAD_REACTORS
330
1FC1
102
}
330
1FC1
100
AcDbXrecord
 10
0.0
 20
0.0
 30
0.0
  0
XRECORD
  5
1FD4
102
{ACAD_REACTORS
330
1FC1
102
}
330
1FC1
100
AcDbXrecord
 10
0.0
 20
0.0
 30
0.0
  0
XRECORD
  5
1FD5
102
{ACAD_REACTORS
330
1FC1
102
}
330
1FC1
100
AcDbXrecord
 10
0.0
 20
0.0
 30
0.0
  0
XRECORD
  5
1FD6
102
{ACAD_REACTORS
330
1FC1
102
}
330
1FC1
100
AcDbXrecord
 10
0.0
 20
0.0
 30
0.0
  0
XRECORD
  5
1FD7
102
{ACAD_REACTORS
330
1FC1
102
}
330
1FC1
100
AcDbXrecord
 10
0.0
 20
0.0
 30
0.0
  0
XRECORD
  5
1FD8
102
{ACAD_REACTORS
330
1FC1
102
}
330
1FC1
100
AcDbXrecord
 10
0.0
 20
0.0
 30
0.0
  0
XRECORD
  5
1FD9
102
{ACAD_REACTORS
330
1FC1
102
}
330
1FC1
100
AcDbXrecord
340
0
  0
XRECORD
  5
1FDA
102
{ACAD_REACTORS
330
1FC1
102
}
330
1FC1
100
AcDbXrecord
 70
     0
  0
XRECORD
  5
1FDB
102
{ACAD_REACTORS
330
1FC1
102
}
330
1FC1
100
AcDbXrecord
340
0
  0
XRECORD
  5
1FDC
102
{ACAD_REACTORS
330
1FC1
102
}
330
1FC1
100
AcDbXrecord
 10
0.0
 20
0.0
 30
0.0
  0
XRECORD
  5
1FDD
102
{ACAD_REACTORS
330
1FC1
102
}
330
1FC1
100
AcDbXrecord
 10
0.0
 20
0.0
 30
0.0
  0
XRECORD
  5
1FDE
102
{ACAD_REACTORS
330
1FC1
102
}
330
1FC1
100
AcDbXrecord
 10
0.0
 20
0.0
 30
0.0
  0
XRECORD
  5
1FDF
102
{ACAD_REACTORS
330
1FC1
102
}
330
1FC1
100
AcDbXrecord
 10
0.0
 20
0.0
 30
0.0
  0
XRECORD
  5
1FE0
102
{ACAD_REACTORS
330
1FC1
102
}
330
1FC1
100
AcDbXrecord
 10
0.0
 20
0.0
 30
0.0
  0
XRECORD
  5
1FE1
102
{ACAD_REACTORS
330
1FC1
102
}
330
1FC1
100
AcDbXrecord
 10
0.0
 20
0.0
 30
0.0
  0
LAYER_INDEX
  5
1FB8
102
{ACAD_REACTORS
330
1FB7
102
}
330
1FB7
100
AcDbIndex
 40
2453152.357011956
100
AcDbLayerIndex
  8
0
360
1FB9
 90
        0
  8
AM_0
360
1FBA
 90
       82
  8
AM_11
360
1FBB
 90
        4
  8
AM_7
360
1FBC
 90
        2
  8
AM_5
360
1FBD
 90
        4
  8
Defpoints
360
1FBE
 90
        0
  8
AM_6
360
1FBF
 90
        1
  0
XRECORD
  5
2D
102
{ACAD_REACTORS
330
2C
102
}
330
2C
100
AcDbXrecord
  1
VERSION
140
15.0
  1
PRODUCT
  2
AutoCAD Mechanical 2000
  0
IDBUFFER
  5
1FB9
330
0
100
AcDbIdBuffer
  0
IDBUFFER
  5
1FBA
330
0
100
AcDbIdBuffer
330
1F6B
330
1F6C
330
1F6D
330
1F6E
330
1F6F
330
1F70
330
1F71
330
1F72
330
1F73
330
1F74
330
1F77
330
1F84
330
1F86
330
1F87
330
1F88
330
1F89
330
1F8A
330
1F8B
330
1F8C
330
1F8D
330
1F8F
330
1F90
330
1F91
330
1F92
330
1F93
330
1F94
330
1F95
330
1F96
330
1F97
330
1F98
330
1F99
330
1F9A
330
1F9B
330
1F9C
330
1A76
330
1A79
330
1A7A
330
1A7B
330
1A94
330
1A97
330
1C53
330
1C6A
330
1C6B
330
1C6C
330
1C6D
330
1C6E
330
1F44
330
1F45
330
1F46
330
1F47
330
1F48
330
1F49
330
1F4A
330
1F4B
330
1F4C
330
1F4D
330
1F4E
330
1F4F
330
1F50
330
1F51
330
1F52
330
1F53
330
1F54
330
1F55
330
1F56
330
1F57
330
1F58
330
1F59
330
1F5A
330
1F5B
330
1F5C
330
1F5D
330
1F5E
330
1F60
330
1F61
330
1F62
330
1F63
330
1F66
330
1F67
330
1F68
330
1F69
330
1F6A
  0
IDBUFFER
  5
1FBB
330
0
100
AcDbIdBuffer
330
1CF6
330
1CFB
330
1CFC
330
1D65
  0
IDBUFFER
  5
1FBC
330
0
100
AcDbIdBuffer
330
F47
330
1F9D
  0
IDBUFFER
  5
1FBD
330
0
100
AcDbIdBuffer
330
105F
330
10EF
330
1180
330
1A7C
  0
IDBUFFER
  5
1FBE
330
0
100
AcDbIdBuffer
  0
IDBUFFER
  5
1FBF
330
0
100
AcDbIdBuffer
330
E5A
  0
ENDSEC
  0
EOF
