  0
SECTION
  2
HEADER
  9
$ACADVER
  1
AC1014
  9
$ACADMAINTVER
 70
     9
  9
$DWGCODEPAGE
  3
ANSI_932
  9
$INSBASE
 10
0.0
 20
0.0
 30
0.0
  9
$EXTMIN
 10
-77.13823125971977
 20
-29.25
 30
-0.00000001
  9
$EXTMAX
 10
9.209523589243133
 20
3.755457221181549
 30
0.00000001
  9
$LIMMIN
 10
-82.91661408112446
 20
-36.81261475268769
  9
$LIMMAX
 10
13.911115079164
 20
16.62547651269625
  9
$ORTHOMODE
 70
     0
  9
$REGENMODE
 70
     1
  9
$FILLMODE
 70
     1
  9
$QTEXTMODE
 70
     0
  9
$MIRRTEXT
 70
     0
  9
$DRAGMODE
 70
     2
  9
$LTSCALE
 40
1.0
  9
$OSMODE
 70
    55
  9
$ATTMODE
 70
     1
  9
$TEXTSIZE
 40
2.5
  9
$TRACEWID
 40
1.0
  9
$TEXTSTYLE
  7
STANDARD
  9
$CLAYER
  8
AM_0
  9
$CELTYPE
  6
BYLAYER
  9
$CECOLOR
 62
   256
  9
$CELTSCALE
 40
1.0
  9
$DELOBJ
 70
     1
  9
$DISPSILH
 70
     0
  9
$DIMSCALE
 40
1.0
  9
$DIMASZ
 40
2.5
  9
$DIMEXO
 40
1.0
  9
$DIMDLI
 40
12.0
  9
$DIMRND
 40
0.0
  9
$DIMDLE
 40
0.0
  9
$DIMEXE
 40
1.0
  9
$DIMTP
 40
0.1
  9
$DIMTM
 40
0.1
  9
$DIMTXT
 40
3.2
  9
$DIMCEN
 40
0.0
  9
$DIMTSZ
 40
0.0
  9
$DIMTOL
 70
     0
  9
$DIMLIM
 70
     0
  9
$DIMTIH
 70
     0
  9
$DIMTOH
 70
     0
  9
$DIMSE1
 70
     0
  9
$DIMSE2
 70
     0
  9
$DIMTAD
 70
     3
  9
$DIMZIN
 70
     8
  9
$DIMBLK
  1
OPEN30
  9
$DIMASO
 70
     1
  9
$DIMSHO
 70
     1
  9
$DIMPOST
  1

  9
$DIMAPOST
  1
"
  9
$DIMALT
 70
     0
  9
$DIMALTD
 70
     2
  9
$DIMALTF
 40
0.0393701
  9
$DIMLFAC
 40
1.0
  9
$DIMTOFL
 70
     1
  9
$DIMTVP
 40
0.0
  9
$DIMTIX
 70
     0
  9
$DIMSOXD
 70
     0
  9
$DIMSAH
 70
     0
  9
$DIMBLK1
  1

  9
$DIMBLK2
  1

  9
$DIMSTYLE
  2
AM_JIS
  9
$DIMCLRD
 70
   256
  9
$DIMCLRE
 70
   256
  9
$DIMCLRT
 70
     2
  9
$DIMTFAC
 40
0.71
  9
$DIMGAP
 40
1.5
  9
$DIMJUST
 70
     0
  9
$DIMSD1
 70
     0
  9
$DIMSD2
 70
     0
  9
$DIMTOLJ
 70
     0
  9
$DIMTZIN
 70
     0
  9
$DIMALTZ
 70
     0
  9
$DIMALTTZ
 70
     0
  9
$DIMFIT
 70
     3
  9
$DIMUPT
 70
     0
  9
$DIMUNIT
 70
     2
  9
$DIMDEC
 70
     3
  9
$DIMTDEC
 70
     3
  9
$DIMALTU
 70
     2
  9
$DIMALTTD
 70
     2
  9
$DIMTXSTY
  7
ASAMI
  9
$DIMAUNIT
 70
     0
  9
$LUNITS
 70
     2
  9
$LUPREC
 70
     2
  9
$SKETCHINC
 40
1.0
  9
$FILLETRAD
 40
2.5
  9
$AUNITS
 70
     0
  9
$AUPREC
 70
     0
  9
$MENU
  1
.
  9
$ELEVATION
 40
0.0
  9
$PELEVATION
 40
0.0
  9
$THICKNESS
 40
0.0
  9
$LIMCHECK
 70
     0
  9
$BLIPMODE
 70
     0
  9
$CHAMFERA
 40
0.5
  9
$CHAMFERB
 40
0.5
  9
$CHAMFERC
 40
20.0
  9
$CHAMFERD
 40
0.0
  9
$SKPOLY
 70
     0
  9
$TDCREATE
 40
2452836.771637361
  9
$TDUPDATE
 40
2453152.357169653
  9
$TDINDWG
 40
0.0580905324
  9
$TDUSRTIMER
 40
0.0580905324
  9
$USRTIMER
 70
     1
  9
$ANGBASE
 50
0.0
  9
$ANGDIR
 70
     0
  9
$PDMODE
 70
     0
  9
$PDSIZE
 40
0.0
  9
$PLINEWID
 40
0.0
  9
$COORDS
 70
     1
  9
$SPLFRAME
 70
     0
  9
$SPLINETYPE
 70
     6
  9
$SPLINESEGS
 70
     8
  9
$ATTDIA
 70
     1
  9
$ATTREQ
 70
     1
  9
$HANDLING
 70
 12289
  9
$HANDSEED
  5
1D41
  9
$SURFTAB1
 70
     6
  9
$SURFTAB2
 70
     6
  9
$SURFTYPE
 70
     6
  9
$SURFU
 70
     6
  9
$SURFV
 70
     6
  9
$UCSNAME
  2

  9
$UCSORG
 10
0.0
 20
0.0
 30
0.0
  9
$UCSXDIR
 10
1.0
 20
0.0
 30
0.0
  9
$UCSYDIR
 10
0.0
 20
1.0
 30
0.0
  9
$PUCSNAME
  2

  9
$PUCSORG
 10
0.0
 20
0.0
 30
0.0
  9
$PUCSXDIR
 10
1.0
 20
0.0
 30
0.0
  9
$PUCSYDIR
 10
0.0
 20
1.0
 30
0.0
  9
$USERI1
 70
     0
  9
$USERI2
 70
     0
  9
$USERI3
 70
     0
  9
$USERI4
 70
     0
  9
$USERI5
 70
     0
  9
$USERR1
 40
0.0
  9
$USERR2
 40
0.0
  9
$USERR3
 40
0.0
  9
$USERR4
 40
0.0
  9
$USERR5
 40
0.0
  9
$WORLDVIEW
 70
     1
  9
$SHADEDGE
 70
     3
  9
$SHADEDIF
 70
    70
  9
$TILEMODE
 70
     1
  9
$MAXACTVP
 70
    64
  9
$PINSBASE
 10
0.0
 20
0.0
 30
0.0
  9
$PLIMCHECK
 70
     0
  9
$PEXTMIN
 10
1.000000000000000E+20
 20
1.000000000000000E+20
 30
1.000000000000000E+20
  9
$PEXTMAX
 10
-1.000000000000000E+20
 20
-1.000000000000000E+20
 30
-1.000000000000000E+20
  9
$PLIMMIN
 10
0.0
 20
0.0
  9
$PLIMMAX
 10
841.0
 20
594.0
  9
$UNITMODE
 70
     0
  9
$VISRETAIN
 70
     1
  9
$PLINEGEN
 70
     0
  9
$PSLTSCALE
 70
     0
  9
$TREEDEPTH
 70
  3020
  9
$PICKSTYLE
 70
     0
  9
$CMLSTYLE
  2
STANDARD
  9
$CMLJUST
 70
     0
  9
$CMLSCALE
 40
20.0
  9
$PROXYGRAPHICS
 70
     1
  9
$MEASUREMENT
 70
     1
  0
ENDSEC
  0
SECTION
  2
CLASSES
  0
CLASS
  1
ACDBDICTIONARYWDFLT
  2
AcDbDictionaryWithDefault
  3
AutoCAD 2000
 90
        0
280
     0
281
     0
  0
CLASS
  1
ACDBPLACEHOLDER
  2
AcDbPlaceHolder
  3
AutoCAD 2000
 90
        0
280
     0
281
     0
  0
CLASS
  1
LAYOUT
  2
AcDbLayout
  3
AutoCAD 2000
 90
        0
280
     0
281
     0
  0
CLASS
  1
AMGSETTINGSOBJ
  2
AmgSettingsObj
  3
"AcadM|Product Description: AutoCAD Mechanical 2000|Company: Autodesk"
 90
        0
280
     0
281
     0
  0
CLASS
  1
ACME_DOCUMENT
  2
AcMeDbDoc
  3
AcMeServices
 90
        0
280
     0
281
     0
  0
CLASS
  1
ACMESCOPE
  2
AcMeScope
  3
AcMeServices
 90
        0
280
     0
281
     0
  0
CLASS
  1
ACMECOMMANDHISTORY
  2
AcMeCommandHistory
  3
AcMeServices
 90
        0
280
     0
281
     0
  0
CLASS
  1
DICTIONARYVAR
  2
AcDbDictionaryVar
  3
AutoCAD 2000
 90
        0
280
     0
281
     0
  0
CLASS
  1
ACIMSYSVARMAN
  2
AcImSysVarManager
  3
AcMeServices
 90
        0
280
     0
281
     0
  0
CLASS
  1
ACIMREALSYSVAR
  2
AcImRealSysVar
  3
AcMeServices
 90
        0
280
     0
281
     0
  0
CLASS
  1
ACIMINTSYSVAR
  2
AcImIntSysVar
  3
AcMeServices
 90
        0
280
     0
281
     0
  0
CLASS
  1
ACMEDRAWINGMAN
  2
AcMeDrawingMan
  3
AcMeServices
 90
        0
280
     0
281
     0
  0
CLASS
  1
ACMEVIEW
  2
AcMeView
  3
AcMeServices
 90
        0
280
     0
281
     0
  0
CLASS
  1
ACDBENTITYCACHE
  2
AcMeEntityCache
  3
AcMeServices
 90
        0
280
     0
281
     0
  0
CLASS
  1
GSMANAGER
  2
AcMeGSManager
  3
AcMeServices
 90
        0
280
     0
281
     0
  0
CLASS
  1
AmdtInternalReactor
  2
AmdtInternalReactor
  3
AcMeServices
 90
        0
280
     0
281
     0
  0
CLASS
  1
ACMESTATEMGR
  2
AcMeStateMgr
  3
AcMeServices
 90
        0
280
     0
281
     0
  0
CLASS
  1
ACME_DATABASE
  2
AcMeDbDatabase
  3
AcMeServices
 90
        0
280
     0
281
     0
  0
CLASS
  1
ACRFINSADJUSTERMGR
  2
AcRfInsAdjusterMgr
  3
AcMeServices
 90
        0
280
     0
281
     0
  0
CLASS
  1
ACMDATADICTIONARY
  2
AcmDataDictionary
  3
"AcmSymBB|Product Description: AutoCAD Mechanical 2000|Company: Autodesk"
 90
        0
280
     0
281
     0
  0
CLASS
  1
ACMDATAENTRYBLOCK
  2
AcmDataEntryBlock
  3
"AcmSymBB|Product Description: AutoCAD Mechanical 2000|Company: Autodesk"
 90
        0
280
     0
281
     0
  0
CLASS
  1
AMGOBJPROPCFG
  2
AmgObjPropCfg
  3
"AmgLay|Product Description: AutoCAD Mechanical 2000|Company: Autodesk"
 90
        1
280
     0
281
     0
  0
CLASS
  1
ACAMGFILTERDAT
  2
AcAmgFilterDat
  3
"AcadM|Product Description: AutoCAD Mechanical 2000|Company: Autodesk"
 90
        0
280
     0
281
     0
  0
CLASS
  1
LAYER_INDEX
  2
AcDbLayerIndex
  3
AutoCAD 2000
 90
        0
280
     0
281
     0
  0
CLASS
  1
IDBUFFER
  2
AcDbIdBuffer
  3
AutoCAD 2000
 90
        0
280
     0
281
     0
  0
CLASS
  1
ACIMSTRSYSVAR
  2
AcImStrSysVar
  3
AcMeServices
 90
        0
280
     0
281
     0
  0
CLASS
  1
ACMSTANDARDJIS
  2
AcmStandardJIS
  3
"AcmSymBB|Product Description: AutoCAD Mechanical 2000|Company: Autodesk"
 90
        0
280
     0
281
     0
  0
CLASS
  1
ACMSURFSTANDARDJIS
  2
AcmSurfTextStdJIS
  3
"AcmSymBB|Product Description: AutoCAD Mechanical 2000|Company: Autodesk"
 90
        0
280
     0
281
     0
  0
CLASS
  1
ACMFCFSTANDARDJIS
  2
AcmFCFStdJIS
  3
"AcmSymBB|Product Description: AutoCAD Mechanical 2000|Company: Autodesk"
 90
        0
280
     0
281
     0
  0
CLASS
  1
ACMWELDSTANDARDJIS
  2
AcmWeldingStdJIS
  3
"AcmSymBB|Product Description: AutoCAD Mechanical 2000|Company: Autodesk"
 90
        0
280
     0
281
     0
  0
CLASS
  1
ACMIDSTANDARDJIS
  2
AcmIdStdJIS
  3
"AcmSymBB|Product Description: AutoCAD Mechanical 2000|Company: Autodesk"
 90
        0
280
     0
281
     0
  0
CLASS
  1
ACMDATUMSTANDARDJIS
  2
AcmDatumStdJIS
  3
"AcmSymBB|Product Description: AutoCAD Mechanical 2000|Company: Autodesk"
 90
        0
280
     0
281
     0
  0
CLASS
  1
ACMBOMSTANDARDJIS
  2
AcmBOMStdJIS
  3
"AcmSymBB|Product Description: AutoCAD Mechanical 2000|Company: Autodesk"
 90
        0
280
     0
281
     0
  0
CLASS
  1
ACMSTANDARDANSI
  2
AcmStandardANSI
  3
"AcmSymBB|Product Description: AutoCAD Mechanical 2000|Company: Autodesk"
 90
        0
280
     0
281
     0
  0
CLASS
  1
ACMSURFSTANDARDANSI
  2
AcmSurfTextStdANSI
  3
"AcmSymBB|Product Description: AutoCAD Mechanical 2000|Company: Autodesk"
 90
        0
280
     0
281
     0
  0
CLASS
  1
ACMFCFSTANDARDANSI
  2
AcmFCFStdANSI
  3
"AcmSymBB|Product Description: AutoCAD Mechanical 2000|Company: Autodesk"
 90
        0
280
     0
281
     0
  0
CLASS
  1
ACMWELDSTANDARDANSI
  2
AcmWeldingStdANSI
  3
"AcmSymBB|Product Description: AutoCAD Mechanical 2000|Company: Autodesk"
 90
        0
280
     0
281
     0
  0
CLASS
  1
ACMIDSTANDARDANSI
  2
AcmIdStdANSI
  3
"AcmSymBB|Product Description: AutoCAD Mechanical 2000|Company: Autodesk"
 90
        0
280
     0
281
     0
  0
CLASS
  1
ACMDATUMSTANDARDANSI
  2
AcmDatumStdANSI
  3
"AcmSymBB|Product Description: AutoCAD Mechanical 2000|Company: Autodesk"
 90
        0
280
     0
281
     0
  0
CLASS
  1
ACMBOMSTANDARDANSI
  2
AcmBOMStdANSI
  3
"AcmSymBB|Product Description: AutoCAD Mechanical 2000|Company: Autodesk"
 90
        0
280
     0
281
     0
  0
CLASS
  1
ACMSTANDARDBSI
  2
AcmStandardBSI
  3
"AcmSymBB|Product Description: AutoCAD Mechanical 2000|Company: Autodesk"
 90
        0
280
     0
281
     0
  0
CLASS
  1
ACMSURFSTANDARDBSI
  2
AcmSurfTextStdBSI
  3
"AcmSymBB|Product Description: AutoCAD Mechanical 2000|Company: Autodesk"
 90
        0
280
     0
281
     0
  0
CLASS
  1
ACMFCFSTANDARDBSI
  2
AcmFCFStdBSI
  3
"AcmSymBB|Product Description: AutoCAD Mechanical 2000|Company: Autodesk"
 90
        0
280
     0
281
     0
  0
CLASS
  1
ACMWELDSTANDARDBSI
  2
AcmWeldingStdBSI
  3
"AcmSymBB|Product Description: AutoCAD Mechanical 2000|Company: Autodesk"
 90
        0
280
     0
281
     0
  0
CLASS
  1
ACMIDSTANDARDBSI
  2
AcmIdStdBSI
  3
"AcmSymBB|Product Description: AutoCAD Mechanical 2000|Company: Autodesk"
 90
        0
280
     0
281
     0
  0
CLASS
  1
ACMDATUMSTANDARDBSI
  2
AcmDatumStdBSI
  3
"AcmSymBB|Product Description: AutoCAD Mechanical 2000|Company: Autodesk"
 90
        0
280
     0
281
     0
  0
CLASS
  1
ACMBOMSTANDARDBSI
  2
AcmBOMStdBSI
  3
"AcmSymBB|Product Description: AutoCAD Mechanical 2000|Company: Autodesk"
 90
        0
280
     0
281
     0
  0
CLASS
  1
LONG_TRANSACTION
  2
AcDbLongTransaction
  3
AutoCAD 2000
 90
        0
280
     0
281
     0
  0
CLASS
  1
LWPOLYLINE
  2
AcDbPolyline
  3
AutoCAD 2000
 90
        0
280
     0
281
     1
  0
CLASS
  1
HATCH
  2
AcDbHatch
  3
AutoCAD 2000
 90
        0
280
     0
281
     1
  0
CLASS
  1
XRECORD
  2
AcDbXrecord
  3
AutoCAD 2000
 90
        0
280
     0
281
     0
  0
ENDSEC
  0
SECTION
  2
TABLES
  0
TABLE
  2
VPORT
  5
8
330
0
100
AcDbSymbolTable
 70
     3
  0
VPORT
  5
1D16
330
8
100
AcDbSymbolTableRecord
100
AcDbViewportTableRecord
  2
*ACTIVE
 70
     0
 10
0.0
 20
0.0
 11
1.0
 21
1.0
 12
-27.64614894777052
 22
-5.55272292905672
 13
0.0
 23
0.0
 14
2.5
 24
2.5
 15
10.0
 25
10.0
 16
0.0
 26
0.0
 36
1.0
 17
0.0
 27
0.0
 37
0.0
 40
68.69705456422277
 41
1.56570841889117
 42
50.0
 43
0.0
 44
0.0
 50
0.0
 51
0.0
 71
     0
 72
   100
 73
     1
 74
     3
 75
     0
 76
     0
 77
     0
 78
     0
  0
ENDTAB
  0
TABLE
  2
LTYPE
  5
5
330
0
100
AcDbSymbolTable
 70
    10
  0
LTYPE
  5
14
330
5
100
AcDbSymbolTableRecord
100
AcDbLinetypeTableRecord
  2
BYBLOCK
 70
     0
  3

 72
    65
 73
     0
 40
0.0
  0
LTYPE
  5
15
330
5
100
AcDbSymbolTableRecord
100
AcDbLinetypeTableRecord
  2
BYLAYER
 70
     0
  3

 72
    65
 73
     0
 40
0.0
  0
LTYPE
  5
16
330
5
100
AcDbSymbolTableRecord
100
AcDbLinetypeTableRecord
  2
CONTINUOUS
 70
     0
  3
Solid line
 72
    65
 73
     0
 40
0.0
  0
LTYPE
  5
4B
330
5
100
AcDbSymbolTableRecord
100
AcDbLinetypeTableRecord
  2
AM_ISO02W050
 70
     0
  3
__ __ __ __ __ __ __ __ __ __ __ __ __ __ __
 72
    65
 73
     2
 40
7.5
 49
6.0
 74
     0
 49
-1.5
 74
     0
  0
LTYPE
  5
4C
330
5
100
AcDbSymbolTableRecord
100
AcDbLinetypeTableRecord
  2
AM_ISO08W050
 70
     0
  3
____ . ____ . ____ . ____ . ____ . ____ . ____
 72
    65
 73
     4
 40
18.0
 49
12.0
 74
     0
 49
-1.5
 74
     0
 49
3.0
 74
     0
 49
-1.5
 74
     0
  0
LTYPE
  5
4D
330
5
100
AcDbSymbolTableRecord
100
AcDbLinetypeTableRecord
  2
AM_ISO09W050
 70
     0
  3
_____ . . _____ . . _____ . . ____ .. ____
 72
    65
 73
     6
 40
22.5
 49
12.0
 74
     0
 49
-1.5
 74
     0
 49
3.0
 74
     0
 49
-1.5
 74
     0
 49
3.0
 74
     0
 49
-1.5
 74
     0
  0
LTYPE
  5
4E
330
5
100
AcDbSymbolTableRecord
100
AcDbLinetypeTableRecord
  2
AMCONSTR
 70
     0
  3
_______________________
 72
    65
 73
     2
 40
9999.0
 49
9999.0
 74
     0
 49
0.0
 74
     0
  0
LTYPE
  5
4F
330
5
100
AcDbSymbolTableRecord
100
AcDbLinetypeTableRecord
  2
AM_ISO02W050X2
 70
     0
  3
 _ _ _ _ _ _ _ _ _ _ _ _
 72
    65
 73
     2
 40
3.75
 49
3.0
 74
     0
 49
-0.75
 74
     0
  0
LTYPE
  5
50
330
5
100
AcDbSymbolTableRecord
100
AcDbLinetypeTableRecord
  2
AM_ISO08W050X2
 70
     0
  3
__ . __ . __ . __ . __ . __
 72
    65
 73
     4
 40
9.0
 49
6.0
 74
     0
 49
-0.75
 74
     0
 49
1.5
 74
     0
 49
-0.75
 74
     0
  0
LTYPE
  5
53
330
5
100
AcDbSymbolTableRecord
100
AcDbLinetypeTableRecord
  2
AMZIGZAG
 70
     0
  3
/\/-/\/-/\/-/\/-/\/-/\/
 72
    65
 73
     2
 40
11.00009999999999
 49
0.0001
 74
     4
 75
   135
340
52
 46
0.04
 50
0.0
 44
0.0
 45
0.0
 49
-11.0
 74
     0
  0
LTYPE
  5
166
330
5
100
AcDbSymbolTableRecord
100
AcDbLinetypeTableRecord
  2
ACJISTGL
 70
     0
  3
_ _ _ _ _
 72
    65
 73
     2
 40
3.0
 49
2.0
 74
     0
 49
-1.0
 74
     0
  0
LTYPE
  5
26A
330
5
100
AcDbSymbolTableRecord
100
AcDbLinetypeTableRecord
  2
ACJISTGB
 70
     0
  3
__ . . __ . .
 72
    65
 73
     6
 40
9.0
 49
4.0
 74
     0
 49
-1.0
 74
     0
 49
1.0
 74
     0
 49
-1.0
 74
     0
 49
1.0
 74
     0
 49
-1.0
 74
     0
  0
ENDTAB
  0
TABLE
  2
LAYER
  5
2
330
0
100
AcDbSymbolTable
 70
     7
  0
LAYER
  5
10
330
2
100
AcDbSymbolTableRecord
100
AcDbLayerTableRecord
  2
0
 70
     0
 62
     7
  6
CONTINUOUS
  0
LAYER
  5
3F9
330
2
100
AcDbSymbolTableRecord
100
AcDbLayerTableRecord
  2
AM_0
 70
     0
 62
     7
  6
CONTINUOUS
  0
LAYER
  5
BD4
330
2
100
AcDbSymbolTableRecord
100
AcDbLayerTableRecord
  2
AM_11
 70
     0
 62
     3
  6
AM_ISO09W050
  0
LAYER
  5
BD5
330
2
100
AcDbSymbolTableRecord
100
AcDbLayerTableRecord
  2
AM_7
 70
     0
 62
     4
  6
AM_ISO08W050
  0
LAYER
  5
BD6
330
2
100
AcDbSymbolTableRecord
100
AcDbLayerTableRecord
  2
AM_5
 70
     0
 62
     3
  6
CONTINUOUS
  0
LAYER
  5
BD7
330
2
100
AcDbSymbolTableRecord
100
AcDbLayerTableRecord
  2
DEFPOINTS
 70
     0
 62
     7
  6
CONTINUOUS
  0
LAYER
  5
E59
330
2
100
AcDbSymbolTableRecord
100
AcDbLayerTableRecord
  2
AM_6
 70
     0
 62
     2
  6
CONTINUOUS
  0
ENDTAB
  0
TABLE
  2
STYLE
  5
3
330
0
100
AcDbSymbolTable
 70
     5
  0
STYLE
  5
11
330
3
100
AcDbSymbolTableRecord
100
AcDbTextStyleTableRecord
  2
STANDARD
 70
     0
 40
0.0
 41
1.0
 50
0.0
 71
     0
 42
2.5
  3
simplex.shx
  4
EXTFONT.SHX
  0
STYLE
  5
52
330
3
100
AcDbSymbolTableRecord
100
AcDbTextStyleTableRecord
  2

 70
     1
 40
0.0
 41
1.0
 50
0.0
 71
     0
 42
2.5
  3
ltypeshp.shx
  4

  0
STYLE
  5
6B
330
3
100
AcDbSymbolTableRecord
100
AcDbTextStyleTableRecord
  2
ASAMI
 70
     0
 40
0.0
 41
1.0
 50
0.0
 71
     0
 42
2.5
  3
simplex.shx
  4
EXTFONT.SHX
  0
STYLE
  5
262
330
3
100
AcDbSymbolTableRecord
100
AcDbTextStyleTableRecord
  2
ACJISTS
 70
     0
 40
1.0
 41
1.0
 50
0.0
 71
     0
 42
2.5
  3
simplex.shx
  4
bigfont.shx
  0
STYLE
  5
269
330
3
100
AcDbSymbolTableRecord
100
AcDbTextStyleTableRecord
  2
ACJISGDT
 70
     0
 40
0.0
 41
1.0
 50
0.0
 71
     0
 42
2.5
  3
amgdtans.shx
  4

  0
ENDTAB
  0
TABLE
  2
VIEW
  5
6
330
0
100
AcDbSymbolTable
 70
     0
  0
ENDTAB
  0
TABLE
  2
UCS
  5
7
330
0
100
AcDbSymbolTable
 70
     0
  0
ENDTAB
  0
TABLE
  2
APPID
  5
9
330
0
100
AcDbSymbolTable
 70
    12
  0
APPID
  5
12
330
9
100
AcDbSymbolTableRecord
100
AcDbRegAppTableRecord
  2
ACAD
 70
     0
  0
APPID
  5
30
330
9
100
AcDbSymbolTableRecord
100
AcDbRegAppTableRecord
  2
MCAD_NO_VIS
 70
     0
  0
APPID
  5
31
330
9
100
AcDbSymbolTableRecord
100
AcDbRegAppTableRecord
  2
ACAD_TEMP_GRAPHIC
 70
     0
  0
APPID
  5
2C2
330
9
100
AcDbSymbolTableRecord
100
AcDbRegAppTableRecord
  2
GENIUS_GENDTOL_13
 70
     0
  0
APPID
  5
339
330
9
100
AcDbSymbolTableRecord
100
AcDbRegAppTableRecord
  2
GENIUS_GENODEF_13
 70
     0
  0
APPID
  5
33A
330
9
100
AcDbSymbolTableRecord
100
AcDbRegAppTableRecord
  2
GENIUS_GENOBJ-N-RSBK_13
 70
     0
  0
APPID
  5
33B
330
9
100
AcDbSymbolTableRecord
100
AcDbRegAppTableRecord
  2
GENIUS_GENOBJ-N-LIB_13
 70
     0
  0
APPID
  5
33C
330
9
100
AcDbSymbolTableRecord
100
AcDbRegAppTableRecord
  2
GENIUS_GENSCALE_13
 70
     0
  0
APPID
  5
378
330
9
100
AcDbSymbolTableRecord
100
AcDbRegAppTableRecord
  2
GENIUS_GENDIMSH_14
 70
     0
  0
APPID
  5
BD8
330
9
100
AcDbSymbolTableRecord
100
AcDbRegAppTableRecord
  2
GENIUS_GENOBJ-N-CEN_13
 70
     0
  0
APPID
  5
BD9
330
9
100
AcDbSymbolTableRecord
100
AcDbRegAppTableRecord
  2
GENIUS_GENFIL_13
 70
     0
  0
APPID
  5
BDA
330
9
100
AcDbSymbolTableRecord
100
AcDbRegAppTableRecord
  2
GENIUS_GENOBJ-N-CHA_13
 70
     0
  0
ENDTAB
  0
TABLE
  2
DIMSTYLE
  5
A
330
0
100
AcDbSymbolTable
 70
     8
  0
DIMSTYLE
105
58
102
{ACAD_REACTORS
330
105F
330
10EF
330
1180
330
1A7C
102
}
330
A
100
AcDbSymbolTableRecord
100
AcDbDimStyleTableRecord
  2
AM_JIS
 70
     0
  3

  4
"
  5
OPEN30
  6

  7

 40
0.5
 41
2.5
 42
1.0
 43
12.0
 44
1.0
 45
0.0
 46
0.0
 47
0.1
 48
0.1
140
3.2
141
0.0
142
0.0
143
0.0393701
144
1.0
145
0.0
146
0.71
147
1.5
 71
     0
 72
     0
 73
     0
 74
     0
 75
     0
 76
     0
 77
     3
 78
     8
170
     0
171
     2
172
     1
173
     0
174
     0
175
     0
176
   256
177
   256
178
     2
270
     2
271
     3
272
     3
273
     2
274
     2
340
6B
275
     0
280
     0
281
     0
282
     0
283
     0
284
     0
285
     0
286
     0
287
     3
288
     0
  0
DIMSTYLE
105
5F
330
A
100
AcDbSymbolTableRecord
100
AcDbDimStyleTableRecord
  2
AM_JIS$3
 70
     0
  3

  4
"
  5
OPEN30
  6

  7

 40
0.5
 41
2.5
 42
1.0
 43
10.0
 44
1.0
 45
0.0
 46
0.0
 47
0.1
 48
0.1
140
3.2
141
0.0
142
0.0
143
0.0393701
144
1.0
145
0.0
146
0.71
147
1.5
 71
     0
 72
     0
 73
     0
 74
     1
 75
     0
 76
     0
 77
     3
 78
     8
170
     0
171
     2
172
     0
173
     0
174
     0
175
     0
176
   256
177
   256
178
     2
270
     2
271
     2
272
     3
273
     2
274
     2
340
6B
275
     0
280
     0
281
     0
282
     0
283
     0
284
     0
285
     0
286
     0
287
     0
288
     1
  0
DIMSTYLE
105
60
330
A
100
AcDbSymbolTableRecord
100
AcDbDimStyleTableRecord
  2
AM_JIS$4
 70
     0
  3

  4
"
  5
OPEN30
  6

  7

 40
0.5
 41
2.5
 42
1.0
 43
10.0
 44
1.0
 45
0.0
 46
0.0
 47
0.1
 48
0.1
140
3.2
141
0.0
142
0.0
143
0.0393701
144
1.0
145
0.0
146
0.71
147
1.5
 71
     0
 72
     0
 73
     0
 74
     1
 75
     0
 76
     0
 77
     3
 78
     8
170
     0
171
     2
172
     0
173
     0
174
     0
175
     0
176
   256
177
   256
178
     2
270
     2
271
     2
272
     3
273
     2
274
     2
340
6B
275
     0
280
     0
281
     0
282
     0
283
     0
284
     0
285
     0
286
     0
287
     0
288
     1
  0
DIMSTYLE
105
61
330
A
100
AcDbSymbolTableRecord
100
AcDbDimStyleTableRecord
  2
AM_JIS$6
 70
     0
  3

  4
"
  5
OPEN30
  6

  7

 40
0.5
 41
2.5
 42
1.0
 43
10.0
 44
1.0
 45
0.0
 46
0.0
 47
0.1
 48
0.1
140
3.2
141
0.0
142
0.0
143
0.0393701
144
1.0
145
0.0
146
0.71
147
1.5
 71
     0
 72
     0
 73
     0
 74
     0
 75
     0
 76
     0
 77
     0
 78
     8
170
     0
171
     2
172
     1
173
     0
174
     0
175
     0
176
   256
177
   256
178
     2
270
     2
271
     2
272
     2
273
     2
274
     2
340
6B
275
     0
280
     0
281
     0
282
     0
283
     0
284
     0
285
     0
286
     0
287
     3
288
     0
  0
DIMSTYLE
105
62
330
A
100
AcDbSymbolTableRecord
100
AcDbDimStyleTableRecord
  2
AM_JIS$7
 70
     0
  3

  4
"
  5
OPEN30
  6

  7

 40
0.5
 41
2.5
 42
1.0
 43
10.0
 44
1.0
 45
0.0
 46
0.0
 47
0.1
 48
0.1
140
3.2
141
0.0
142
0.0
143
0.0393701
144
1.0
145
0.0
146
0.71
147
1.5
 71
     0
 72
     0
 73
     0
 74
     0
 75
     0
 76
     0
 77
     3
 78
     8
170
     0
171
     2
172
     1
173
     0
174
     0
175
     0
176
   256
177
   256
178
     2
270
     2
271
     2
272
     3
273
     2
274
     2
340
6B
275
     0
280
     0
281
     0
282
     0
283
     0
284
     0
285
     0
286
     0
287
     3
288
     0
  0
DIMSTYLE
105
63
330
A
100
AcDbSymbolTableRecord
100
AcDbDimStyleTableRecord
  2
AM_JIS$SF
 70
     0
  3

  4
"
  5
OPEN30
  6

  7

 40
0.5
 41
2.5
 42
1.0
 43
10.0
 44
1.0
 45
0.0
 46
0.0
 47
0.1
 48
0.1
140
3.2
141
0.0
142
0.0
143
0.0393701
144
1.0
145
0.0
146
0.71
147
1.5
 71
     0
 72
     0
 73
     0
 74
     0
 75
     1
 76
     1
 77
     3
 78
     8
170
     0
171
     2
172
     1
173
     0
174
     0
175
     0
176
   256
177
   256
178
     2
270
     2
271
     2
272
     2
273
     2
274
     2
340
6B
275
     0
280
     0
281
     0
282
     0
283
     0
284
     0
285
     0
286
     0
287
     3
288
     0
  0
DIMSTYLE
105
68
330
A
100
AcDbSymbolTableRecord
100
AcDbDimStyleTableRecord
  2
AM_JIS$SH
 70
     0
  3

  4
"
  5

  6
GENAXEH
  7
OPEN30
 40
0.5
 41
2.5
 42
1.0
 43
10.0
 44
1.0
 45
0.0
 46
0.0
 47
0.1
 48
0.1
140
3.2
141
0.0
142
0.0
143
0.0393701
144
2.0
145
0.0
146
0.71
147
1.5
 71
     0
 72
     0
 73
     0
 74
     0
 75
     1
 76
     1
 77
     3
 78
     8
170
     0
171
     2
172
     1
173
     1
174
     0
175
     0
176
   256
177
   256
178
     2
270
     2
271
     2
272
     2
273
     2
274
     2
340
6B
275
     0
280
     0
281
     0
282
     0
283
     0
284
     0
285
     0
286
     0
287
     3
288
     0
  0
DIMSTYLE
105
B34
330
A
100
AcDbSymbolTableRecord
100
AcDbDimStyleTableRecord
  2
AM_JIS$2
 70
     0
  3

  4
"
  5
OPEN30
  6

  7

 40
0.5
 41
2.5
 42
1.0
 43
12.0
 44
1.0
 45
0.0
 46
0.0
 47
0.1
 48
0.1
140
3.2
141
0.0
142
0.0
143
0.0393701
144
1.0
145
0.0
146
0.71
147
1.5
 71
     0
 72
     0
 73
     0
 74
     0
 75
     0
 76
     0
 77
     3
 78
     8
170
     0
171
     2
172
     1
173
     0
174
     0
175
     0
176
   256
177
   256
178
     2
270
     2
271
     3
272
     3
273
     2
274
     2
340
6B
275
     0
280
     0
281
     0
282
     0
283
     0
284
     0
285
     0
286
     0
287
     3
288
     0
  0
ENDTAB
  0
TABLE
  2
BLOCK_RECORD
  5
1
330
0
100
AcDbSymbolTable
 70
     9
  0
BLOCK_RECORD
  5
1F
102
{ACAD_XDICTIONARY
360
74
102
}
330
1
100
AcDbSymbolTableRecord
100
AcDbBlockTableRecord
  2
*MODEL_SPACE
  0
BLOCK_RECORD
  5
101
102
{ACAD_XDICTIONARY
360
1D3F
102
}
330
1
100
AcDbSymbolTableRecord
100
AcDbBlockTableRecord
  2
*PAPER_SPACE
  0
BLOCK_RECORD
  5
59
330
1
100
AcDbSymbolTableRecord
100
AcDbBlockTableRecord
  2
_OPEN30
  0
BLOCK_RECORD
  5
64
330
1
100
AcDbSymbolTableRecord
100
AcDbBlockTableRecord
  2
GENAXEH
  0
BLOCK_RECORD
  5
1060
330
1
100
AcDbSymbolTableRecord
100
AcDbBlockTableRecord
  2
*D5
  0
BLOCK_RECORD
  5
10F0
330
1
100
AcDbSymbolTableRecord
100
AcDbBlockTableRecord
  2
*D6
  0
BLOCK_RECORD
  5
1181
330
1
100
AcDbSymbolTableRecord
100
AcDbBlockTableRecord
  2
*D7
  0
BLOCK_RECORD
  5
1A7D
330
1
100
AcDbSymbolTableRecord
100
AcDbBlockTableRecord
  2
*D8
  0
ENDTAB
  0
ENDSEC
  0
SECTION
  2
BLOCKS
  0
BLOCK
  5
20
330
1F
100
AcDbEntity
  8
0
100
AcDbBlockBegin
  2
*MODEL_SPACE
 70
     0
 10
0.0
 20
0.0
 30
0.0
  3
*MODEL_SPACE
  1

  0
ENDBLK
  5
21
330
1F
100
AcDbEntity
  8
0
100
AcDbBlockEnd
  0
BLOCK
  5
103
330
101
100
AcDbEntity
 67
     1
  8
0
100
AcDbBlockBegin
  2
*PAPER_SPACE
 70
     0
 10
0.0
 20
0.0
 30
0.0
  3
*PAPER_SPACE
  1

  0
ENDBLK
  5
104
330
101
100
AcDbEntity
 67
     1
  8
0
100
AcDbBlockEnd
  0
BLOCK
  5
5D
330
59
100
AcDbEntity
  8
0
100
AcDbBlockBegin
  2
_OPEN30
 70
     0
 10
0.0
 20
0.0
 30
0.0
  3
_OPEN30
  1

  0
LINE
  5
5A
330
59
100
AcDbEntity
  8
0
 62
     0
100
AcDbLine
 10
-1.0
 20
0.26794919
 30
0.0
 11
0.0
 21
0.0
 31
0.0
  0
LINE
  5
5B
330
59
100
AcDbEntity
  8
0
 62
     0
100
AcDbLine
 10
0.0
 20
0.0
 30
0.0
 11
-1.0
 21
-0.26794919
 31
0.0
  0
LINE
  5
5C
330
59
100
AcDbEntity
  8
0
 62
     0
100
AcDbLine
 10
0.0
 20
0.0
 30
0.0
 11
-1.0
 21
0.0
 31
0.0
  0
ENDBLK
  5
5E
330
59
100
AcDbEntity
  8
0
100
AcDbBlockEnd
  0
BLOCK
  5
66
330
64
100
AcDbEntity
  8
0
100
AcDbBlockBegin
  2
GENAXEH
 70
     0
 10
0.0
 20
0.0
 30
0.0
  3
GENAXEH
  1

  0
LINE
  5
65
330
64
100
AcDbEntity
  8
0
100
AcDbLine
 10
-1.0
 20
0.0
 30
0.0
 11
1.0
 21
0.0
 31
0.0
  0
ENDBLK
  5
67
330
64
100
AcDbEntity
  8
0
100
AcDbBlockEnd
  0
BLOCK
  5
106A
330
1060
100
AcDbEntity
  8
0
100
AcDbBlockBegin
  2
*D5
 70
     1
 10
0.0
 20
0.0
 30
0.0
  3
*D5
  1

  0
LINE
  5
1AC6
330
1060
100
AcDbEntity
  8
AM_5
100
AcDbLine
 10
-30.0
 20
-3.499999999999938
 30
0.0
 11
-30.0
 21
-12.5
 31
0.0
  0
LINE
  5
1AC7
330
1060
100
AcDbEntity
  8
AM_5
100
AcDbLine
 10
0.0
 20
-3.500000000001186
 30
0.0
 11
-0.0000000000000006
 21
-12.5
 31
0.0
  0
LINE
  5
1AC8
330
1060
100
AcDbEntity
  8
AM_5
100
AcDbLine
 10
-28.75
 20
-12.0
 30
0.0
 11
-1.25
 21
-12.0
 31
0.0
  0
INSERT
  5
1AC9
330
1060
100
AcDbEntity
  8
AM_5
100
AcDbBlockReference
  2
_OPEN30
 10
-30.0
 20
-12.0
 30
0.0
 41
1.25
 42
1.25
 43
1.25
 50
180.0
  0
INSERT
  5
1ACA
330
1060
100
AcDbEntity
  8
AM_5
100
AcDbBlockReference
  2
_OPEN30
 10
-0.0000000000000006
 20
-12.0
 30
0.0
 41
1.25
 42
1.25
 43
1.25
  0
MTEXT
  5
1ACB
330
1060
100
AcDbEntity
  8
AM_5
 62
     2
100
AcDbMText
 10
-15.0
 20
-10.44999999999999
 30
0.0
 40
1.6
 41
0.0
 71
     5
 72
     1
  1
30
  7
ASAMI
1001
ACAD
1000
MTEXTBEGIN
1070
    73
1070
     1
1070
    44
1040
1.0
1070
    74
1070
     0
1000
MTEXTEND
  0
POINT
  5
1ACC
330
1060
100
AcDbEntity
  8
DEFPOINTS
 62
     0
100
AcDbPoint
 10
-30.0
 20
-2.999999999999938
 30
0.0
  0
POINT
  5
1ACD
330
1060
100
AcDbEntity
  8
DEFPOINTS
 62
     0
100
AcDbPoint
 10
0.0
 20
-3.000000000001186
 30
0.0
  0
POINT
  5
1ACE
330
1060
100
AcDbEntity
  8
DEFPOINTS
 62
     0
100
AcDbPoint
 10
-0.0000000000000006
 20
-12.0
 30
0.0
  0
ENDBLK
  5
106B
330
1060
100
AcDbEntity
  8
0
100
AcDbBlockEnd
  0
BLOCK
  5
10FA
330
10F0
100
AcDbEntity
  8
0
100
AcDbBlockBegin
  2
*D6
 70
     1
 10
0.0
 20
0.0
 30
0.0
  3
*D6
  1

  0
LINE
  5
1AA2
330
10F0
100
AcDbEntity
  8
AM_5
100
AcDbLine
 10
-65.0
 20
-2.99999999999929
 30
0.0
 11
-65.0
 21
-18.5
 31
0.0
  0
LINE
  5
1AA3
330
10F0
100
AcDbEntity
  8
AM_5
100
AcDbLine
 10
0.0
 20
-5.5
 30
0.0
 11
-0.0000000000000008
 21
-18.5
 31
0.0
  0
LINE
  5
1AA4
330
10F0
100
AcDbEntity
  8
AM_5
100
AcDbLine
 10
-63.75
 20
-18.0
 30
0.0
 11
-1.25
 21
-18.0
 31
0.0
  0
INSERT
  5
1AA5
330
10F0
100
AcDbEntity
  8
AM_5
100
AcDbBlockReference
  2
_OPEN30
 10
-65.0
 20
-18.0
 30
0.0
 41
1.25
 42
1.25
 43
1.25
 50
180.0
  0
INSERT
  5
1AA6
330
10F0
100
AcDbEntity
  8
AM_5
100
AcDbBlockReference
  2
_OPEN30
 10
-0.0000000000000008
 20
-18.0
 30
0.0
 41
1.25
 42
1.25
 43
1.25
  0
MTEXT
  5
1AA7
330
10F0
100
AcDbEntity
  8
AM_5
 62
     2
100
AcDbMText
 10
-32.5
 20
-16.45
 30
0.0
 40
1.6
 41
0.0
 71
     5
 72
     1
  1
65
  7
ASAMI
1001
ACAD
1000
MTEXTBEGIN
1070
    73
1070
     1
1070
    44
1040
1.0
1070
    74
1070
     0
1000
MTEXTEND
  0
POINT
  5
1AA8
330
10F0
100
AcDbEntity
  8
DEFPOINTS
 62
     0
100
AcDbPoint
 10
-65.0
 20
-2.49999999999929
 30
0.0
  0
POINT
  5
1AA9
330
10F0
100
AcDbEntity
  8
DEFPOINTS
 62
     0
100
AcDbPoint
 10
0.0
 20
-5.0
 30
0.0
  0
POINT
  5
1AAA
330
10F0
100
AcDbEntity
  8
DEFPOINTS
 62
     0
100
AcDbPoint
 10
-0.0000000000000008
 20
-18.0
 30
0.0
  0
ENDBLK
  5
10FB
330
10F0
100
AcDbEntity
  8
0
100
AcDbBlockEnd
  0
BLOCK
  5
118B
330
1181
100
AcDbEntity
  8
0
100
AcDbBlockBegin
  2
*D7
 70
     1
 10
0.0
 20
0.0
 30
0.0
  3
*D7
  1

  0
LINE
  5
1CF3
330
1181
100
AcDbEntity
  8
AM_5
100
AcDbLine
 10
0.5000000000000011
 20
3.0
 30
0.0
 11
9.209523589243133
 21
2.999999999999997
 31
0.0
  0
LINE
  5
1CF4
330
1181
100
AcDbEntity
  8
AM_5
100
AcDbLine
 10
0.5
 20
-3.0
 30
0.0
 11
9.209523589243133
 21
-3.000000000000002
 31
0.0
  0
LINE
  5
1CF5
330
1181
100
AcDbEntity
  8
AM_5
100
AcDbLine
 10
8.709523589243133
 20
1.749999999999997
 30
0.0
 11
8.709523589243133
 21
-1.750000000000002
 31
0.0
  0
INSERT
  5
1CF6
330
1181
100
AcDbEntity
  8
AM_5
100
AcDbBlockReference
  2
_OPEN30
 10
8.709523589243133
 20
2.999999999999997
 30
0.0
 41
1.25
 42
1.25
 43
1.25
 50
90.0
  0
INSERT
  5
1CF7
330
1181
100
AcDbEntity
  8
AM_5
100
AcDbBlockReference
  2
_OPEN30
 10
8.709523589243133
 20
-3.000000000000002
 30
0.0
 41
1.25
 42
1.25
 43
1.25
 50
270.0
  0
MTEXT
  5
1CF8
330
1181
100
AcDbEntity
  8
AM_5
 62
     2
100
AcDbMText
 10
7.159523589243132
 20
-0.0000000000000008
 30
0.0
 40
1.6
 41
0.0
 71
     5
 72
     1
  1
%%c6
  7
ASAMI
 11
0.0000000000000001
 21
1.0
 31
0.0
1001
ACAD
1000
MTEXTBEGIN
1070
    73
1070
     1
1070
    44
1040
1.0
1070
    74
1070
     0
1000
MTEXTEND
  0
POINT
  5
1CF9
330
1181
100
AcDbEntity
  8
DEFPOINTS
 62
     0
100
AcDbPoint
 10
0.0000000000000011
 20
3.0
 30
0.0
  0
POINT
  5
1CFA
330
1181
100
AcDbEntity
  8
DEFPOINTS
 62
     0
100
AcDbPoint
 10
0.0
 20
-3.0
 30
0.0
  0
POINT
  5
1CFB
330
1181
100
AcDbEntity
  8
DEFPOINTS
 62
     0
100
AcDbPoint
 10
8.709523589243133
 20
-3.000000000000002
 30
0.0
  0
ENDBLK
  5
118C
330
1181
100
AcDbEntity
  8
0
100
AcDbBlockEnd
  0
BLOCK
  5
1A87
330
1A7D
100
AcDbEntity
  8
0
100
AcDbBlockBegin
  2
*D8
 70
     1
 10
0.0
 20
0.0
 30
0.0
  3
*D8
  1

  0
LINE
  5
1AAB
330
1A7D
100
AcDbEntity
  8
AM_5
100
AcDbLine
 10
-64.99999999999997
 20
2.99999999999993
 30
0.0
 11
-75.28823125971978
 21
2.999999999999933
 31
0.0
  0
LINE
  5
1AAC
330
1A7D
100
AcDbEntity
  8
AM_5
100
AcDbLine
 10
-64.99999999999997
 20
-2.999999999999301
 30
0.0
 11
-75.28823125971978
 21
-2.999999999999298
 31
0.0
  0
LINE
  5
1AAD
330
1A7D
100
AcDbEntity
  8
AM_5
100
AcDbLine
 10
-74.78823125971977
 20
1.749999999999933
 30
0.0
 11
-74.78823125971977
 21
-1.749999999999298
 31
0.0
  0
INSERT
  5
1AAE
330
1A7D
100
AcDbEntity
  8
AM_5
100
AcDbBlockReference
  2
_OPEN30
 10
-74.78823125971977
 20
2.999999999999933
 30
0.0
 41
1.25
 42
1.25
 43
1.25
 50
90.0
  0
INSERT
  5
1AAF
330
1A7D
100
AcDbEntity
  8
AM_5
100
AcDbBlockReference
  2
_OPEN30
 10
-74.78823125971977
 20
-2.999999999999298
 30
0.0
 41
1.25
 42
1.25
 43
1.25
 50
270.0
  0
MTEXT
  5
1AB0
330
1A7D
100
AcDbEntity
  8
AM_5
 62
     2
100
AcDbMText
 10
-76.33823125971978
 20
0.0000000000003056
 30
0.0
 40
1.6
 41
0.0
 71
     5
 72
     1
  1
%%c6
  7
ASAMI
 11
0.0000000000000001
 21
1.0
 31
0.0
1001
ACAD
1000
MTEXTBEGIN
1070
    73
1070
     1
1070
    44
1040
1.0
1070
    74
1070
     0
1000
MTEXTEND
  0
POINT
  5
1AB1
330
1A7D
100
AcDbEntity
  8
DEFPOINTS
 62
     0
100
AcDbPoint
 10
-64.49999999999997
 20
2.99999999999993
 30
0.0
  0
POINT
  5
1AB2
330
1A7D
100
AcDbEntity
  8
DEFPOINTS
 62
     0
100
AcDbPoint
 10
-64.49999999999997
 20
-2.999999999999301
 30
0.0
  0
POINT
  5
1AB3
330
1A7D
100
AcDbEntity
  8
DEFPOINTS
 62
     0
100
AcDbPoint
 10
-74.78823125971977
 20
-2.999999999999298
 30
0.0
  0
ENDBLK
  5
1A88
330
1A7D
100
AcDbEntity
  8
0
100
AcDbBlockEnd
  0
ENDSEC
  0
SECTION
  2
ENTITIES
  0
TEXT
  5
E5A
330
1F
100
AcDbEntity
  8
AM_6
100
AcDbText
 10
-41.66666666666666
 20
-29.25
 30
0.0
 40
2.5
  1
ELSM4060
 72
     4
 11
-32.5
 21
-28.0
 31
0.0
100
AcDbText
  0
LINE
  5
F47
330
1F
100
AcDbEntity
  8
AM_7
  6
AM_ISO08W050X2
100
AcDbLine
 10
4.557768030854958
 20
0.0
 30
0.0
 11
-67.7882302597198
 21
-0.0000000000000368
 31
0.0
1001
GENIUS_GENODEF_13
1002
{
1000
HIER
1070
     0
1002
}
1002
{
1000
MANEDIT
1070
     0
1002
}
1002
{
1000
NOSEL
1070
     0
1002
}
1002
{
1000
BEHIND
1070
     0
1002
}
1002
{
1000
REACTOR
1002
}
1001
GENIUS_GENOBJ-N-CEN_13
1002
{
1000
OWNER
1000
GEN
1002
}
  0
DIMENSION
  5
105F
330
1F
100
AcDbEntity
  8
AM_5
100
AcDbDimension
  2
*D5
 10
-0.0000000000000006
 20
-12.0
 30
0.0
 11
-15.0
 21
-10.44999999999999
 31
0.0
 70
    32
  1
<>
  3
AM_JIS
100
AcDbAlignedDimension
 13
-30.0
 23
-2.999999999999938
 33
0.0
 14
0.0
 24
-3.000000000001186
 34
0.0
 50
0.0000000000001132
100
AcDbRotatedDimension
1001
GENIUS_GENDTOL_13
1000

1000
h7
1000

1040
0.0
  0
DIMENSION
  5
10EF
330
1F
100
AcDbEntity
  8
AM_5
100
AcDbDimension
  2
*D6
 10
-0.0000000000000008
 20
-18.0
 30
0.0
 11
-32.5
 21
-16.45
 31
0.0
 70
    32
  1
<>
  3
AM_JIS
100
AcDbAlignedDimension
 13
-65.0
 23
-2.49999999999929
 33
0.0
 14
0.0
 24
-5.0
 34
0.0
 50
0.0000000000001132
100
AcDbRotatedDimension
1001
GENIUS_GENDTOL_13
1000

1000
h7
1000

1040
0.0
  0
DIMENSION
  5
1180
330
1F
100
AcDbEntity
  8
AM_5
100
AcDbDimension
  2
*D7
 10
8.709523589243133
 20
-3.000000000000002
 30
0.0
 11
7.159523589243132
 21
-0.0000000000000008
 31
0.0
 70
    32
  1
%%c<>
  3
AM_JIS
100
AcDbAlignedDimension
 13
0.0000000000000011
 23
3.0
 33
0.0
 14
0.0
 24
-3.0
 34
0.0
 50
90.0
100
AcDbRotatedDimension
1001
GENIUS_GENDTOL_13
1000

1000
h7
1000

1040
0.0
  0
LINE
  5
17C1
330
1F
100
AcDbEntity
  8
AM_11
100
AcDbLine
 10
-30.0
 20
-2.999999999999307
 30
0.0
 11
-30.0
 21
2.999999999999943
 31
0.0
  0
LINE
  5
18A3
330
1F
100
AcDbEntity
  8
AM_0
100
AcDbLine
 10
-0.0000000000004638
 20
0.5999999999999963
 30
0.0
 11
-0.0000000000004638
 21
2.999999999999996
 31
0.0
  0
LINE
  5
18A7
330
1F
100
AcDbEntity
  8
AM_11
100
AcDbLine
 10
0.0
 20
-2.999999999999295
 30
0.0
 11
0.0
 21
2.999999999999953
 31
0.0
  0
LINE
  5
18C2
330
1F
100
AcDbEntity
  8
AM_11
100
AcDbLine
 10
-30.0
 20
-2.999999999999938
 30
0.0
 11
-0.0000000000004593
 21
-3.000000000000003
 31
0.0
  0
LINE
  5
18C3
330
1F
100
AcDbEntity
  8
AM_11
100
AcDbLine
 10
-0.0000000000009185
 20
2.999999999999996
 30
0.0
 11
-30.0
 21
2.999999999999973
 31
0.0
  0
LINE
  5
1A76
330
1F
100
AcDbEntity
  8
AM_0
100
AcDbLine
 10
-32.81794356736444
 20
-2.999999999999849
 30
0.0
 11
-64.5
 21
-2.999999999999301
 31
0.0
  0
LINE
  5
1A79
330
1F
100
AcDbEntity
  8
AM_0
100
AcDbLine
 10
-64.99999999999997
 20
2.499999999999929
 30
0.0
 11
-65.0
 21
-2.499999999999289
 31
0.0
  0
LINE
  5
1A7A
330
1F
100
AcDbEntity
  8
AM_0
100
AcDbLine
 10
-64.49999999999997
 20
2.999999999999931
 30
0.0
 11
-64.49999999999997
 21
-2.999999999999311
 31
0.0
  0
LINE
  5
1A7B
330
1F
100
AcDbEntity
  8
AM_0
100
AcDbLine
 10
-32.79447637867197
 20
2.999999999999992
 30
0.0
 11
-64.49999999999997
 21
2.99999999999993
 31
0.0
  0
DIMENSION
  5
1A7C
330
1F
100
AcDbEntity
  8
AM_5
100
AcDbDimension
  2
*D8
 10
-74.78823125971977
 20
-2.999999999999298
 30
0.0
 11
-76.33823125971978
 21
0.0000000000003056
 31
0.0
 70
    32
  1
%%c<>
  3
AM_JIS
100
AcDbAlignedDimension
 13
-64.49999999999997
 23
2.99999999999993
 33
0.0
 14
-64.49999999999997
 24
-2.999999999999301
 34
0.0
 50
270.0
100
AcDbRotatedDimension
1001
GENIUS_GENDTOL_13
1000

1000
h7
1000

1040
0.0
  0
LINE
  5
1A94
330
1F
100
AcDbEntity
  8
AM_0
100
AcDbLine
 10
-64.99999999999997
 20
2.499999999999929
 30
0.0
 11
-64.49999999999997
 21
2.99999999999993
 31
0.0
1001
GENIUS_GENFIL_13
1070
     0
1040
0.5
1040
0.5
1040
20.0
1040
0.0
1002
{
1002
}
1001
GENIUS_GENODEF_13
1002
{
1000
HIER
1070
     0
1002
}
1002
{
1000
MANEDIT
1070
     0
1002
}
1002
{
1000
NOSEL
1070
     0
1002
}
1002
{
1000
BEHIND
1070
     0
1002
}
1002
{
1000
REACTOR
1002
}
1001
GENIUS_GENOBJ-N-CHA_13
1002
{
1000
OWNER
1000
GEN
1002
}
  0
LINE
  5
1A97
330
1F
100
AcDbEntity
  8
AM_0
100
AcDbLine
 10
-65.0
 20
-2.499999999999289
 30
0.0
 11
-64.5
 21
-2.999999999999301
 31
0.0
1001
GENIUS_GENFIL_13
1070
     0
1040
0.5
1040
0.5
1040
20.0
1040
0.0
1002
{
1002
}
1001
GENIUS_GENODEF_13
1002
{
1000
HIER
1070
     0
1002
}
1002
{
1000
MANEDIT
1070
     0
1002
}
1002
{
1000
NOSEL
1070
     0
1002
}
1002
{
1000
BEHIND
1070
     0
1002
}
1002
{
1000
REACTOR
1002
}
1001
GENIUS_GENOBJ-N-CHA_13
1002
{
1000
OWNER
1000
GEN
1002
}
  0
LINE
  5
1BF0
330
1F
100
AcDbEntity
  8
AM_7
  6
AM_ISO08W050X2
100
AcDbLine
 10
4.557768030854958
 20
-0.0000000000000023
 30
0.0
 11
-67.7882302597198
 21
-0.0000000000000391
 31
0.0
1001
GENIUS_GENODEF_13
1002
{
1000
HIER
1070
     0
1002
}
1002
{
1000
MANEDIT
1070
     0
1002
}
1002
{
1000
NOSEL
1070
     0
1002
}
1002
{
1000
BEHIND
1070
     0
1002
}
1002
{
1000
REACTOR
1002
}
1001
GENIUS_GENOBJ-N-CEN_13
1002
{
1000
OWNER
1000
GEN
1002
}
  0
LINE
  5
1C75
330
1F
100
AcDbEntity
  8
AM_0
100
AcDbLine
 10
0.0
 20
-0.0000000000000028
 30
0.0
 11
-0.0464404547797983
 21
-0.5076720522514534
 31
0.0
  0
LINE
  5
1C76
330
1F
100
AcDbEntity
  8
AM_0
100
AcDbLine
 10
0.0
 20
-0.6000000000000028
 30
0.0
 11
-0.301796731621863
 21
0.0000000000000313
 31
0.0
  0
LINE
  5
1C77
330
1F
100
AcDbEntity
  8
AM_0
100
AcDbLine
 10
-0.0548863636363564
 20
-0.796138712737914
 30
0.0
 11
0.0
 21
-0.6000000000000028
 31
0.0
  0
LINE
  5
1C78
330
1F
100
AcDbEntity
  8
AM_0
100
AcDbLine
 10
-0.4497848561567466
 20
-0.8841928590999287
 30
0.0
 11
-0.0548863636363564
 21
-0.796138712737914
 31
0.0
  0
LINE
  5
1C79
330
1F
100
AcDbEntity
  8
AM_0
100
AcDbLine
 10
0.0
 20
-0.0000000000000028
 30
0.0
 11
-0.0548863636363564
 21
0.6000000000000654
 31
0.0
  0
LINE
  5
1C7A
330
1F
100
AcDbEntity
  8
AM_0
100
AcDbLine
 10
-0.5580240124580556
 20
1.600284488406234
 30
0.0
 11
-1.231844575306894
 21
1.805072053516843
 31
0.0
  0
LINE
  5
1C7B
330
1F
100
AcDbEntity
  8
AM_0
100
AcDbLine
 10
-1.231844575306894
 20
-0.0000000000000028
 30
0.0
 11
-1.231844575306894
 21
-0.4800000000000096
 31
0.0
  0
SPLINE
  5
1C7D
330
1F
100
AcDbEntity
  8
AM_0
100
AcDbSpline
210
0.0
220
0.0
230
1.0
 70
     8
 71
     3
 72
     8
 73
     4
 74
     0
 42
0.0000000001
 43
0.0000000001
 40
0.0
 40
0.0
 40
0.0
 40
0.0
 40
1.293282661808357
 40
1.293282661808357
 40
1.293282661808357
 40
1.293282661808357
 10
0.0
 20
2.444821612010375
 30
0.0
 10
-0.2892079488992678
 20
2.048065917690601
 30
0.0
 10
-0.7856170138288121
 20
1.877684278154608
 30
0.0
 10
-1.231844575306894
 20
1.805072053516843
 30
0.0
  0
LINE
  5
1C7E
330
1F
100
AcDbEntity
  8
AM_0
100
AcDbLine
 10
-0.0548863636363564
 20
0.6000000000000654
 30
0.0
 11
-0.5580240124580556
 21
1.600284488406234
 31
0.0
  0
LINE
  5
1C7F
330
1F
100
AcDbEntity
  8
AM_0
100
AcDbLine
 10
-1.231844575306894
 20
-0.4800000000000096
 30
0.0
 11
-0.4497848561567466
 21
-0.8841928590999287
 31
0.0
  0
LINE
  5
1C80
330
1F
100
AcDbEntity
  8
AM_0
100
AcDbLine
 10
0.0
 20
-0.0000000000000028
 30
0.0
 11
-1.231844575306894
 21
-0.0000000000000028
 31
0.0
  0
LINE
  5
1C81
330
1F
100
AcDbEntity
  8
AM_0
100
AcDbLine
 10
-1.231844575306894
 20
-0.4800000000000096
 30
0.0
 11
-0.0603593463243684
 21
-0.4800000000000096
 31
0.0
  0
SPLINE
  5
1C82
330
1F
100
AcDbEntity
  8
AM_0
100
AcDbSpline
210
0.0
220
0.0
230
1.0
 70
     8
 71
     3
 72
     8
 73
     4
 74
     0
 42
0.0000000001
 43
0.0000000001
 40
0.0
 40
0.0
 40
0.0
 40
0.0
 40
5.635889483499127
 40
5.635889483499127
 40
5.635889483499127
 40
5.635889483499127
 10
0.0
 20
2.999999999999997
 30
0.0
 10
-0.9820110463672691
 20
2.999999999999997
 30
0.0
 10
-1.928831882687058
 20
2.77307641738748
 30
0.0
 10
-2.854149754091091
 20
2.407491263022742
 30
0.0
  0
LINE
  5
1C83
330
1F
100
AcDbEntity
  8
AM_0
100
AcDbLine
 10
0.0
 20
-0.0000000000000028
 30
0.0
 11
0.0
 21
2.999999999999997
 31
0.0
  0
LINE
  5
1C84
330
1F
100
AcDbEntity
  8
AM_0
100
AcDbLine
 10
0.0
 20
-3.000000000000002
 30
0.0
 11
-0.0548863636363564
 21
-2.840064694573097
 31
0.0
  0
LINE
  5
1C85
330
1F
100
AcDbEntity
  8
AM_0
100
AcDbLine
 10
-0.0548863636363564
 20
-2.840064694573063
 30
0.0
 11
-0.358068181818183
 21
-2.398569993277149
 31
0.0
  0
SPLINE
  5
1C86
330
1F
100
AcDbEntity
  8
AM_0
100
AcDbSpline
210
0.0
220
0.0
230
1.0
 70
     8
 71
     3
 72
     8
 73
     4
 74
     0
 42
0.0000000001
 43
0.0000000001
 40
0.0
 40
0.0
 40
0.0
 40
0.0
 40
3.33536911321369
 40
3.33536911321369
 40
3.33536911321369
 40
3.33536911321369
 10
-4.146084462217567
 20
-2.770466702281619
 30
0.0
 10
-3.564921662187902
 20
-2.770466702281619
 30
0.0
 10
-2.994506224184299
 20
-2.695761309977677
 30
0.0
 10
-2.432342310255905
 20
-2.563699206171032
 30
0.0
  0
ELLIPSE
  5
1C87
330
1F
100
AcDbEntity
  8
AM_0
100
AcDbEllipse
 10
1.037965526968765
 20
-1.526328098830745
 30
0.0
 11
0.0000000000000221
 21
1.824418869309606
 31
0.0
210
0.0
220
0.0
230
1.0
 40
0.8712121212121331
 41
1.211124581303833
 42
2.069278538290337
  0
LINE
  5
1C88
330
1F
100
AcDbEntity
  8
AM_0
100
AcDbLine
 10
-0.0548863636363564
 20
-2.840064694573097
 30
0.0
 11
-0.0548863636363564
 21
-0.796138712737914
 31
0.0
  0
LINE
  5
1C89
330
1F
100
AcDbEntity
  8
AM_0
100
AcDbLine
 10
0.0
 20
-3.000000000000002
 30
0.0
 11
0.0
 21
-0.6000000000000028
 31
0.0
  0
SPLINE
  5
1C8A
330
1F
100
AcDbEntity
  8
AM_0
100
AcDbSpline
210
0.0
220
0.0
230
1.0
 70
     8
 71
     3
 72
     8
 73
     4
 74
     0
 42
0.0000000001
 43
0.0000000001
 40
0.0
 40
0.0
 40
0.0
 40
0.0
 40
5.635889483499305
 40
5.635889483499305
 40
5.635889483499305
 40
5.635889483499305
 10
-7.10909090909101
 20
3.000000000000056
 30
0.0
 10
-8.091101955458322
 20
3.000000000000056
 30
0.0
 10
-9.037922791778131
 20
2.77307641738754
 30
0.0
 10
-9.995288943665679
 20
2.385287562985705
 30
0.0
  0
SPLINE
  5
1C8B
330
1F
100
AcDbEntity
  8
AM_0
100
AcDbSpline
210
0.0
220
0.0
230
1.0
 70
     8
 71
     3
 72
     8
 73
     4
 74
     0
 42
0.0000000001
 43
0.0000000001
 40
0.0
 40
0.0
 40
0.0
 40
0.0
 40
5.095367048666426
 40
5.095367048666426
 40
5.095367048666426
 40
5.095367048666426
 10
-14.21818181818201
 20
3.000000000000052
 30
0.0
 10
-15.10601092514662
 20
3.000000000000052
 30
0.0
 10
-15.96507612543662
 20
2.814516345775668
 30
0.0
 10
-16.82917555063445
 20
2.492365519728314
 30
0.0
  0
SPLINE
  5
1C8C
330
1F
100
AcDbEntity
  8
AM_0
100
AcDbSpline
210
0.0
220
0.0
230
1.0
 70
     8
 71
     3
 72
     8
 73
     4
 74
     0
 42
0.0000000001
 43
0.0000000001
 40
0.0
 40
0.0
 40
0.0
 40
0.0
 40
7.244998274671977
 40
7.244998274671977
 40
7.244998274671977
 40
7.244998274671977
 10
-14.21818181818195
 20
3.000000000000082
 30
0.0
 10
-11.6934096921599
 20
3.000000000000082
 30
0.0
 10
-9.401250300625473
 20
1.500000000000086
 30
0.0
 10
-7.109090909091053
 20
0.000000000000091
 30
0.0
  0
SPLINE
  5
1C8D
330
1F
100
AcDbEntity
  8
AM_0
100
AcDbSpline
210
0.0
220
0.0
230
1.0
 70
     8
 71
     3
 72
     8
 73
     4
 74
     0
 42
0.0000000001
 43
0.0000000001
 40
0.3581103616548037
 40
0.3581103616548037
 40
0.3581103616548037
 40
0.3581103616548037
 40
12.40023413887867
 40
12.40023413887867
 40
12.40023413887867
 40
12.40023413887867
 10
-13.1189954041913
 20
2.907507253711624
 30
0.0
 10
-10.72241898893259
 20
2.752388570450607
 30
0.0
 10
-8.316948459915979
 20
1.58419536839181
 30
0.0
 10
-6.196697227593691
 20
-0.0000000000000028
 30
0.0
  0
SPLINE
  5
1C8E
330
1F
100
AcDbEntity
  8
AM_0
100
AcDbSpline
210
0.0
220
0.0
230
1.0
 70
     8
 71
     3
 72
     8
 73
     4
 74
     0
 42
0.0000000001
 43
0.0000000001
 40
0.7142832446738512
 40
0.7142832446738512
 40
0.7142832446738512
 40
0.7142832446738512
 40
9.361146747480315
 40
9.361146747480315
 40
9.361146747480315
 40
9.361146747480315
 10
-11.88325421288273
 20
2.760358673894593
 30
0.0
 10
-8.758458945947042
 20
2.35082209232202
 30
0.0
 10
-6.579111835855209
 20
0.9662009156497568
 30
0.0
 10
-5.14608446221746
 20
0.0000000000000271
 30
0.0
  0
SPLINE
  5
1C8F
330
1F
100
AcDbEntity
  8
AM_0
100
AcDbSpline
210
0.0
220
0.0
230
1.0
 70
     8
 71
     3
 72
     8
 73
     4
 74
     0
 42
0.0000000001
 43
0.0000000001
 40
0.7142832446738512
 40
0.7142832446738512
 40
0.7142832446738512
 40
0.7142832446738512
 40
9.361146747480315
 40
9.361146747480315
 40
9.361146747480315
 40
9.361146747480315
 10
-18.2664891407044
 20
2.760358673894559
 30
0.0
 10
-15.1416938737687
 20
2.350822092321986
 30
0.0
 10
-12.96234676367687
 20
0.9662009156497248
 30
0.0
 10
-11.52931939003912
 20
-0.0000000000000049
 30
0.0
  0
SPLINE
  5
1C90
330
1F
100
AcDbEntity
  8
AM_0
100
AcDbSpline
210
0.0
220
0.0
230
1.0
 70
     8
 71
     3
 72
     8
 73
     4
 74
     0
 42
0.0000000001
 43
0.0000000001
 40
0.0
 40
0.0
 40
0.0
 40
0.0
 40
2.130230809022907
 40
2.130230809022907
 40
2.130230809022907
 40
2.130230809022907
 10
-6.10909090909101
 20
-3.000000000000006
 30
0.0
 10
-5.737914328730946
 20
-3.000000000000006
 30
0.0
 10
-5.371765227143663
 20
-2.967580372692107
 30
0.0
 10
-5.009904495100458
 20
-2.907507253711544
 30
0.0
  0
SPLINE
  5
1C91
330
1F
100
AcDbEntity
  8
AM_0
100
AcDbSpline
210
0.0
220
0.0
230
1.0
 70
     8
 71
     3
 72
     8
 73
     4
 74
     0
 42
0.0000000001
 43
0.0000000001
 40
0.0
 40
0.0
 40
0.0
 40
0.0
 40
2.764560748519282
 40
2.764560748519282
 40
2.764560748519282
 40
2.764560748519282
 10
-11.57993215541553
 20
-2.910170202201238
 30
0.0
 10
-11.09822838862809
 20
-2.910170202201238
 30
0.0
 10
-10.62456346534011
 20
-2.856828689106039
 30
0.0
 10
-10.15739823166855
 20
-2.760358673905871
 30
0.0
  0
SPLINE
  5
1C92
330
1F
100
AcDbEntity
  8
AM_0
100
AcDbSpline
210
0.0
220
0.0
230
1.0
 70
     8
 71
     3
 72
     8
 73
     4
 74
     0
 42
0.0000000001
 43
0.0000000001
 40
0.0
 40
0.0
 40
0.0
 40
0.0
 40
3.872359523417441
 40
3.872359523417441
 40
3.872359523417441
 40
3.872359523417441
 10
-10.52931939003923
 20
-2.770466702281649
 30
0.0
 10
-9.854590079140731
 20
-2.770466702281649
 30
0.0
 10
-9.194347333156231
 20
-2.669769944099238
 30
0.0
 10
-8.544685336880153
 20
-2.495525923256429
 30
0.0
  0
SPLINE
  5
1C93
330
1F
100
AcDbEntity
  8
AM_0
100
AcDbSpline
210
0.0
220
0.0
230
1.0
 70
     8
 71
     3
 72
     8
 73
     4
 74
     0
 42
0.0000000001
 43
0.0000000001
 40
0.0
 40
0.0
 40
0.0
 40
0.0
 40
2.130230809022907
 40
2.130230809022907
 40
2.130230809022907
 40
2.130230809022907
 10
-18.87556076473432
 20
-3.000000000000006
 30
0.0
 10
-18.50438418437425
 20
-3.000000000000006
 30
0.0
 10
-18.13823508278697
 20
-2.967580372692107
 30
0.0
 10
-17.77637435074377
 20
-2.907507253711544
 30
0.0
  0
SPLINE
  5
1C94
330
1F
100
AcDbEntity
  8
AM_0
100
AcDbSpline
210
0.0
220
0.0
230
1.0
 70
     8
 71
     3
 72
     8
 73
     4
 74
     0
 42
0.0000000001
 43
0.0000000001
 40
0.0
 40
0.0
 40
0.0
 40
0.0
 40
2.764560748519282
 40
2.764560748519282
 40
2.764560748519282
 40
2.764560748519282
 10
-17.96316708323713
 20
-2.910170202201238
 30
0.0
 10
-17.48146331644969
 20
-2.910170202201238
 30
0.0
 10
-17.00779839316172
 20
-2.856828689106039
 30
0.0
 10
-16.54063315949016
 20
-2.760358673905871
 30
0.0
  0
SPLINE
  5
1C95
330
1F
100
AcDbEntity
  8
AM_0
100
AcDbSpline
210
0.0
220
0.0
230
1.0
 70
     8
 71
     3
 72
     8
 73
     4
 74
     0
 42
0.0000000001
 43
0.0000000001
 40
0.0
 40
0.0
 40
0.0
 40
0.0
 40
3.872359523417452
 40
3.872359523417452
 40
3.872359523417452
 40
3.872359523417452
 10
-16.91255431786083
 20
-2.770466702281649
 30
0.0
 10
-16.23782500696234
 20
-2.770466702281649
 30
0.0
 10
-15.57758226097783
 20
-2.669769944099238
 30
0.0
 10
-14.92792026470175
 20
-2.495525923256427
 30
0.0
  0
SPLINE
  5
1C96
330
1F
100
AcDbEntity
  8
AM_0
100
AcDbSpline
210
0.0
220
0.0
230
1.0
 70
     8
 71
     3
 72
     8
 73
     4
 74
     0
 42
0.0000000001
 43
0.0000000001
 40
0.0
 40
0.0
 40
0.0
 40
0.0
 40
2.130230809022907
 40
2.130230809022907
 40
2.130230809022907
 40
2.130230809022907
 10
-12.49232583691272
 20
-3.000000000000006
 30
0.0
 10
-12.12114925655265
 20
-3.000000000000006
 30
0.0
 10
-11.75500015496537
 20
-2.967580372692107
 30
0.0
 10
-11.39313942292216
 20
-2.907507253711544
 30
0.0
  0
SPLINE
  5
1C97
330
1F
100
AcDbEntity
  8
AM_0
100
AcDbSpline
210
0.0
220
0.0
230
1.0
 70
     8
 71
     3
 72
     8
 73
     4
 74
     0
 42
0.0000000001
 43
0.0000000001
 40
0.0
 40
0.0
 40
0.0
 40
0.0
 40
11.45610476152127
 40
11.45610476152127
 40
11.45610476152127
 40
11.45610476152127
 10
-5.196697227593825
 20
-2.91017020220117
 30
0.0
 10
-7.192836693616472
 20
-2.910170202201174
 30
0.0
 10
-9.050932885447261
 20
-1.994188056449683
 30
0.0
 10
-12.5799321554154
 20
-0.0000000000000028
 30
0.0
  0
SPLINE
  5
1C98
330
1F
100
AcDbEntity
  8
AM_0
100
AcDbSpline
210
0.0
220
0.0
230
1.0
 70
     8
 71
     3
 72
     8
 73
     4
 74
     0
 42
0.0000000001
 43
0.0000000001
 40
0.0
 40
0.0
 40
0.0
 40
0.0
 40
9.068166399416787
 40
9.068166399416787
 40
9.068166399416787
 40
9.068166399416787
 10
-6.10909090909101
 20
-2.999999999999938
 30
0.0
 10
-7.689150205959082
 20
-2.999999999999942
 30
0.0
 10
-9.178105830358342
 20
-2.412519228561245
 30
0.0
 10
-13.49232583691251
 20
-0.0000000000000028
 30
0.0
  0
SPLINE
  5
1C99
330
1F
100
AcDbEntity
  8
AM_0
100
AcDbSpline
210
0.0
220
0.0
230
1.0
 70
     8
 71
     3
 72
     8
 73
     4
 74
     0
 42
0.0000000001
 43
0.0000000001
 40
0.0
 40
0.0
 40
0.0
 40
0.0
 40
11.45610476152127
 40
11.45610476152127
 40
11.45610476152127
 40
11.45610476152127
 10
-11.57993215541543
 20
-2.910170202201166
 30
0.0
 10
-13.57607162143808
 20
-2.91017020220117
 30
0.0
 10
-15.43416781326887
 20
-1.994188056449679
 30
0.0
 10
-18.96316708323701
 20
0.0000000000000015
 30
0.0
  0
SPLINE
  5
1C9A
330
1F
100
AcDbEntity
  8
AM_0
100
AcDbSpline
210
0.0
220
0.0
230
1.0
 70
     8
 71
     3
 72
     8
 73
     4
 74
     0
 42
0.0000000001
 43
0.0000000001
 40
0.0
 40
0.0
 40
0.0
 40
0.0
 40
12.79333816032526
 40
12.79333816032526
 40
12.79333816032526
 40
12.79333816032526
 10
-10.52931939003918
 20
-2.770466702281547
 30
0.0
 10
-12.75846164524737
 20
-2.770466702281547
 30
0.0
 10
-14.82948571126637
 20
-1.67138012409393
 30
0.0
 10
-17.91255431786074
 20
0.0000000000000015
 30
0.0
  0
SPLINE
  5
1C9B
330
1F
100
AcDbEntity
  8
AM_0
100
AcDbSpline
210
0.0
220
0.0
230
1.0
 70
     8
 71
     3
 72
     8
 73
     4
 74
     0
 42
0.0000000001
 43
0.0000000001
 40
0.0
 40
0.0
 40
0.0
 40
0.0
 40
5.095367048666267
 40
5.095367048666267
 40
5.095367048666267
 40
5.095367048666267
 10
-20.60141674600367
 20
3.000000000000018
 30
0.0
 10
-21.48924585296826
 20
3.000000000000018
 30
0.0
 10
-22.34831105325824
 20
2.814516345775651
 30
0.0
 10
-23.21241047845603
 20
2.492365519728314
 30
0.0
  0
LINE
  5
1C9C
330
1F
100
AcDbEntity
  8
AM_0
100
AcDbLine
 10
-30.18946271865936
 20
2.542222574766502
 30
0.0
 11
-30.0
 21
2.615689379096939
 31
0.0
  0
LINE
  5
1C9D
330
1F
100
AcDbEntity
  8
AM_0
100
AcDbLine
 10
-30.01177186067096
 20
2.148721031279909
 30
0.0
 11
-30.18946271865936
 21
2.542222574766502
 31
0.0
  0
LINE
  5
1C9E
330
1F
100
AcDbEntity
  8
AM_0
100
AcDbLine
 10
-30.38051113020814
 20
-0.8679450106569262
 30
0.0
 11
-30.00000000000005
 21
-1.657296623363371
 31
0.0
  0
LINE
  5
1C9F
330
1F
100
AcDbEntity
  8
AM_0
100
AcDbLine
 10
-30.0
 20
-0.4311844090267229
 30
0.0
 11
-30.38051113020814
 21
-0.8679450106569262
 31
0.0
  0
ELLIPSE
  5
1CA0
330
1F
100
AcDbEntity
  8
AM_0
100
AcDbEllipse
 10
-32.85850871282003
 20
-7.884983098158825
 30
0.0
 11
0.0000000000002043
 21
7.021063523011011
 31
0.0
210
0.0
220
0.0
230
1.0
 40
0.8712121212121129
 41
-0.4587681791449228
 42
-0.2312569029270888
  0
ELLIPSE
  5
1CA1
330
1F
100
AcDbEntity
  8
AM_0
100
AcDbEllipse
 10
-32.28510285545685
 20
-2.290419025414556
 30
0.0
 11
0.000000000000016
 21
5.027136643076061
 31
0.0
210
0.0
220
0.0
230
1.0
 40
0.8333333333333325
 41
-0.2744573092303557
 42
-0.0464778851483816
  0
ELLIPSE
  5
1CA2
330
1F
100
AcDbEntity
  8
AM_0
100
AcDbEllipse
 10
-32.17790407176898
 20
-1.711995477642318
 30
0.0
 11
0.0000000000000053
 21
4.444523041395084
 31
0.0
210
0.0
220
0.0
230
1.0
 40
0.8333333333333314
 41
-0.0236105820360695
 42
0.0699134887600212
  0
ELLIPSE
  5
1CA3
330
1F
100
AcDbEntity
  8
AM_0
100
AcDbEllipse
 10
-32.34333861006282
 20
0.9991478803140811
 30
0.0
 11
0.0000000000000217
 21
1.72615650539751
 31
0.0
210
0.0
220
0.0
230
1.0
 40
0.8333333333333472
 41
0.0649050273208705
 42
0.2818753373284923
  0
ELLIPSE
  5
1CA4
330
1F
100
AcDbEntity
  8
AM_0
100
AcDbEllipse
 10
-32.73543924006872
 20
2.622674272806654
 30
0.0
 11
-0.0000000000000046
 21
0.0358246960504309
 31
0.0
210
0.0
220
0.0
230
1.0
 40
0.8333333333333062
 41
0.2719407122498105
 42
1.934418398396352
  0
ELLIPSE
  5
1CA5
330
1F
100
AcDbEntity
  8
AM_0
100
AcDbEllipse
 10
-32.59988381106679
 20
2.692996734803255
 30
0.0
 11
0.0000000000000646
 21
0.2130116682041385
 31
0.0
210
0.0
220
0.0
230
1.0
 40
0.8333333333333968
 41
1.971373813481985
 42
2.24222310784112
  0
ELLIPSE
  5
1CA6
330
1F
100
AcDbEntity
  8
AM_0
100
AcDbEllipse
 10
-19.12944396441523
 20
15.60087737070527
 30
0.0
 11
-0.000000000029433
 21
20.8988840579742
 31
0.0
210
0.0
220
0.0
230
1.0
 40
0.8333333333332387
 41
2.244616404319869
 42
2.271962905897221
  0
ELLIPSE
  5
1CA7
330
1F
100
AcDbEntity
  8
AM_0
100
AcDbEllipse
 10
-10.81200291846443
 20
24.03742573810061
 30
0.0
 11
0.0000000000705746
 21
33.96771195585863
 31
0.0
210
0.0
220
0.0
230
1.0
 40
0.8333333333334216
 41
2.272183442782177
 42
2.296769164366321
  0
ELLIPSE
  5
1CA8
330
1F
100
AcDbEntity
  8
AM_0
100
AcDbEllipse
 10
17.41178856870572
 20
54.11612518751574
 30
0.0
 11
-0.0000000000998283
 21
79.26458578672913
 31
0.0
210
0.0
220
0.0
230
1.0
 40
0.8333333333332976
 41
2.296900205349542
 42
2.313001663163948
  0
ELLIPSE
  5
1CA9
330
1F
100
AcDbEntity
  8
AM_0
100
AcDbEllipse
 10
-29.94674171422037
 20
1.994709736554774
 30
0.0
 11
0.0000000000000585
 21
2.152215112540651
 31
0.0
210
0.0
220
0.0
230
1.0
 40
0.8333333333333342
 41
2.312989308185037
 42
2.550375734847273
  0
ELLIPSE
  5
1CAA
330
1F
100
AcDbEntity
  8
AM_0
100
AcDbEllipse
 10
-26.19109282031245
 20
8.666672616691588
 30
0.0
 11
0.0000000000012183
 21
10.20367651003766
 31
0.0
210
0.0
220
0.0
230
1.0
 40
0.8333333333333133
 41
2.54811696718986
 42
2.657335277493719
  0
SPLINE
  5
1CAB
330
1F
100
AcDbEntity
  8
AM_0
100
AcDbSpline
210
0.0
220
0.0
230
1.0
 70
     8
 71
     3
 72
     8
 73
     4
 74
     0
 42
0.0000000001
 43
0.0000000001
 40
0.0
 40
0.0
 40
0.0
 40
0.0
 40
4.557835794433954
 40
4.557835794433954
 40
4.557835794433954
 40
4.557835794433954
 10
-26.98465167382529
 20
3.000000000000022
 30
0.0
 10
-27.77882003194637
 20
3.000000000000022
 30
0.0
 10
-28.6162788442607
 20
2.901101743981732
 30
0.0
 10
-29.45828124242515
 20
2.477377459417599
 30
0.0
  0
SPLINE
  5
1CAC
330
1F
100
AcDbEntity
  8
AM_0
100
AcDbSpline
210
0.0
220
0.0
230
1.0
 70
     8
 71
     3
 72
     8
 73
     4
 74
     0
 42
0.0000000001
 43
0.0000000001
 40
5.360156850992435
 40
5.360156850992435
 40
5.360156850992435
 40
5.360156850992435
 40
14.48999654934396
 40
14.48999654934396
 40
14.48999654934396
 40
14.48999654934396
 10
-31.14970478346481
 20
2.548564068402383
 30
0.0
 10
-29.18923010030768
 20
1.977432653397467
 30
0.0
 10
-27.70303674095875
 20
0.9451182062667555
 30
0.0
 10
-26.25879569255575
 20
0.0000000000000057
 30
0.0
  0
SPLINE
  5
1CAD
330
1F
100
AcDbEntity
  8
AM_0
100
AcDbSpline
210
0.0
220
0.0
230
1.0
 70
     8
 71
     3
 72
     8
 73
     4
 74
     0
 42
0.0000000001
 43
0.0000000001
 40
1.090140354492627
 40
1.090140354492627
 40
1.090140354492627
 40
1.090140354492627
 40
14.36247867694493
 40
14.36247867694493
 40
14.36247867694493
 40
14.36247867694493
 10
-32.79447637867197
 20
2.999999999999992
 30
0.0
 10
-28.36441188996554
 20
2.709546754694088
 30
0.0
 10
-26.42423551305224
 20
1.28009141774375
 30
0.0
 10
-24.29578924568231
 20
-0.0000000000000284
 30
0.0
  0
SPLINE
  5
1CAE
330
1F
100
AcDbEntity
  8
AM_0
100
AcDbSpline
210
0.0
220
0.0
230
1.0
 70
     8
 71
     3
 72
     8
 73
     4
 74
     0
 42
0.0000000001
 43
0.0000000001
 40
4.760897075498665
 40
4.760897075498665
 40
4.760897075498665
 40
4.760897075498665
 40
14.43901837670146
 40
14.43901837670146
 40
14.43901837670146
 40
14.43901837670146
 10
-30.18946271865935
 20
2.542222574766502
 30
0.0
 10
-28.41257603471992
 20
1.976672901317178
 30
0.0
 10
-26.88575733989867
 20
0.9753079984126596
 30
0.0
 10
-25.34640201105858
 20
-0.0000000000000284
 30
0.0
  0
SPLINE
  5
1CAF
330
1F
100
AcDbEntity
  8
AM_0
100
AcDbSpline
210
0.0
220
0.0
230
1.0
 70
     8
 71
     3
 72
     8
 73
     4
 74
     0
 42
0.0000000001
 43
0.0000000001
 40
0.0
 40
0.0
 40
0.0
 40
0.0
 40
7.244998274671977
 40
7.244998274671977
 40
7.244998274671977
 40
7.244998274671977
 10
-26.98465167382524
 20
3.000000000000056
 30
0.0
 10
-24.45987954780319
 20
3.000000000000056
 30
0.0
 10
-22.16772015626875
 20
1.500000000000059
 30
0.0
 10
-19.87556076473433
 20
0.0000000000000633
 30
0.0
  0
SPLINE
  5
1CB0
330
1F
100
AcDbEntity
  8
AM_0
100
AcDbSpline
210
0.0
220
0.0
230
1.0
 70
     8
 71
     3
 72
     8
 73
     4
 74
     0
 42
0.0000000001
 43
0.0000000001
 40
0.0
 40
0.0
 40
0.0
 40
0.0
 40
2.130230809022907
 40
2.130230809022907
 40
2.130230809022907
 40
2.130230809022907
 10
-25.25879569255614
 20
-3.000000000000006
 30
0.0
 10
-24.88761911219608
 20
-3.000000000000006
 30
0.0
 10
-24.5214700106088
 20
-2.967580372692107
 30
0.0
 10
-24.15960927856559
 20
-2.907507253711544
 30
0.0
  0
SPLINE
  5
1CB1
330
1F
100
AcDbEntity
  8
AM_0
100
AcDbSpline
210
0.0
220
0.0
230
1.0
 70
     8
 71
     3
 72
     8
 73
     4
 74
     0
 42
0.0000000001
 43
0.0000000001
 40
0.0
 40
0.0
 40
0.0
 40
0.0
 40
2.764560748519282
 40
2.764560748519282
 40
2.764560748519282
 40
2.764560748519282
 10
-24.34640201105896
 20
-2.910170202201238
 30
0.0
 10
-23.86469824427152
 20
-2.910170202201238
 30
0.0
 10
-23.39103332098354
 20
-2.856828689106039
 30
0.0
 10
-22.92386808731198
 20
-2.760358673905871
 30
0.0
  0
SPLINE
  5
1CB2
330
1F
100
AcDbEntity
  8
AM_0
100
AcDbSpline
210
0.0
220
0.0
230
1.0
 70
     8
 71
     3
 72
     8
 73
     4
 74
     0
 42
0.0000000001
 43
0.0000000001
 40
0.0
 40
0.0
 40
0.0
 40
0.0
 40
3.872359523417654
 40
3.872359523417654
 40
3.872359523417654
 40
3.872359523417654
 10
-23.2957892456827
 20
-2.770466702281619
 30
0.0
 10
-22.62105993478417
 20
-2.770466702281619
 30
0.0
 10
-21.96081718879963
 20
-2.669769944099197
 30
0.0
 10
-21.31115519252352
 20
-2.495525923256372
 30
0.0
  0
ELLIPSE
  5
1CB3
330
1F
100
AcDbEntity
  8
AM_0
100
AcDbEllipse
 10
-32.86247432081756
 20
2.805111974199069
 30
0.0
 11
0.4543699826591359
 21
5.798027525053828
 31
0.0
210
0.0
220
0.0
230
1.0
 40
0.8183686576901521
 41
3.246403050144588
 42
3.536471383273846
  0
SPLINE
  5
1CB4
330
1F
100
AcDbEntity
  8
AM_0
100
AcDbSpline
210
0.0
220
0.0
230
1.0
 70
     8
 71
     3
 72
     8
 73
     4
 74
     0
 42
0.0000000001
 43
0.0000000001
 40
0.0
 40
0.0
 40
0.0
 40
0.0
 40
4.451443990518192
 40
4.451443990518192
 40
4.451443990518192
 40
4.451443990518192
 10
-31.4565229652832
 20
-2.689764325034316
 30
0.0
 10
-30.12924976248621
 20
-2.682045986871221
 30
0.0
 10
-29.37276263027429
 20
-2.548980333138072
 30
0.0
 10
-28.41519816482495
 20
-2.324090813943692
 30
0.0
  0
SPLINE
  5
1CB5
330
1F
100
AcDbEntity
  8
AM_0
100
AcDbSpline
210
0.0
220
0.0
230
1.0
 70
     8
 71
     3
 72
     8
 73
     4
 74
     0
 42
0.0000000001
 43
0.0000000001
 40
0.0
 40
0.0
 40
0.0
 40
0.0
 40
11.45610476152127
 40
11.45610476152127
 40
11.45610476152127
 40
11.45610476152127
 10
-24.34640201105896
 20
-2.91017020220117
 30
0.0
 10
-26.34254147708161
 20
-2.910170202201174
 30
0.0
 10
-28.20063766891239
 20
-1.994188056449683
 30
0.0
 10
-30.38051113020814
 20
-0.8679450106569262
 30
0.0
  0
SPLINE
  5
1CB6
330
1F
100
AcDbEntity
  8
AM_0
100
AcDbSpline
210
0.0
220
0.0
230
1.0
 70
     8
 71
     3
 72
     8
 73
     4
 74
     0
 42
0.0000000001
 43
0.0000000001
 40
0.0
 40
0.0
 40
0.0
 40
0.0
 40
9.068166399416787
 40
9.068166399416787
 40
9.068166399416787
 40
9.068166399416787
 10
-25.25879569255614
 20
-2.999999999999938
 30
0.0
 10
-26.83885498942421
 20
-2.999999999999942
 30
0.0
 10
-28.32781061382347
 20
-2.412519228561245
 30
0.0
 10
-30.14970478346509
 20
-1.589906796509414
 30
0.0
  0
SPLINE
  5
1CB7
330
1F
100
AcDbEntity
  8
AM_0
100
AcDbSpline
210
0.0
220
0.0
230
1.0
 70
     8
 71
     3
 72
     8
 73
     4
 74
     0
 42
0.0000000001
 43
0.0000000001
 40
0.0
 40
0.0
 40
0.0
 40
0.0
 40
12.79333816032526
 40
12.79333816032526
 40
12.79333816032526
 40
12.79333816032526
 10
-23.2957892456827
 20
-2.770466702281551
 30
0.0
 10
-25.52493150089089
 20
-2.770466702281551
 30
0.0
 10
-27.59595556690989
 20
-1.671380124093934
 30
0.0
 10
-30.14970478346509
 20
-0.3637945821726589
 30
0.0
  0
POLYLINE
  5
1CB8
330
1F
100
AcDbEntity
  8
AM_0
100
AcDb2dPolyline
 66
     1
 10
0.0
 20
0.0
 30
0.0
 70
     2
  0
VERTEX
  5
1CB9
330
1CB8
100
AcDbEntity
  8
AM_0
100
AcDbVertex
100
AcDb2dVertex
 10
-31.4565229652832
 20
-2.689764325034316
 30
0.0
 42
-0.0230918143391583
  0
VERTEX
  5
1CBA
330
1CB8
100
AcDbEntity
  8
AM_0
100
AcDbVertex
100
AcDb2dVertex
 10
-31.75788451396401
 20
-2.602100038879377
 30
0.0
 42
-0.0355587143075394
 70
     1
  0
VERTEX
  5
1CBB
330
1CB8
100
AcDbEntity
  8
AM_0
100
AcDbVertex
100
AcDb2dVertex
 10
-31.94657978346501
 20
-2.51922038504452
 30
0.0
 42
-0.0216088548285507
  0
VERTEX
  5
1CBC
330
1CB8
100
AcDbEntity
  8
AM_0
100
AcDbVertex
100
AcDb2dVertex
 10
-32.38683335449634
 20
-2.256287990800019
 30
0.0
 42
-0.0414110700152503
 70
     1
  0
VERTEX
  5
1CBD
330
1CB8
100
AcDbEntity
  8
AM_0
100
AcDbVertex
100
AcDb2dVertex
 10
-32.5999888743741
 20
-2.086829195593078
 30
0.0
 42
-0.0653031023268945
  0
VERTEX
  5
1CBE
330
1CB8
100
AcDbEntity
  8
AM_0
100
AcDbVertex
100
AcDb2dVertex
 10
-32.73729642276165
 20
-1.918277471878282
 30
0.0
 42
-0.1569363594221426
 70
     1
  0
VERTEX
  5
1CBF
330
1CB8
100
AcDbEntity
  8
AM_0
100
AcDbVertex
100
AcDb2dVertex
 10
-32.76334114710138
 20
-1.824981946131414
 30
0.0
 42
-0.1617045000652558
  0
VERTEX
  5
1CC0
330
1CB8
100
AcDbEntity
  8
AM_0
100
AcDbVertex
100
AcDb2dVertex
 10
-32.73684654268253
 20
-1.733785480479737
 30
0.0
 42
-0.0680210806811403
 70
     1
  0
VERTEX
  5
1CC1
330
1CB8
100
AcDbEntity
  8
AM_0
100
AcDbVertex
100
AcDb2dVertex
 10
-32.5999888743741
 20
-1.574463093636388
 30
0.0
 42
-0.0450747416233525
  0
VERTEX
  5
1CC2
330
1CB8
100
AcDbEntity
  8
AM_0
100
AcDbVertex
100
AcDb2dVertex
 10
-32.388839723007
 20
-1.42029828279562
 30
0.0
 42
-0.0231467319857815
 70
     1
  0
VERTEX
  5
1CC3
330
1CB8
100
AcDbEntity
  8
AM_0
100
AcDbVertex
100
AcDb2dVertex
 10
-31.94657978346501
 20
-1.187385492051585
 30
0.0
 42
-0.0364444523572374
  0
VERTEX
  5
1CC4
330
1CB8
100
AcDbEntity
  8
AM_0
100
AcDbVertex
100
AcDb2dVertex
 10
-31.75450823981538
 20
-1.116516503701161
 30
0.0
 42
-0.0242139410122645
 70
     1
  0
VERTEX
  5
1CC5
330
1CB8
100
AcDbEntity
  8
AM_0
100
AcDbVertex
100
AcDb2dVertex
 10
-31.4565229652832
 20
-1.050826742961755
 30
0.0
  0
SEQEND
  5
1CC6
330
1CB8
100
AcDbEntity
  8
AM_0
  0
SPLINE
  5
1CC7
330
1F
100
AcDbEntity
  8
AM_0
100
AcDbSpline
210
0.0
220
0.0
230
1.0
 70
     8
 71
     3
 72
     8
 73
     4
 74
     0
 42
0.0000000001
 43
0.0000000001
 40
0.3581103616548037
 40
0.3581103616548037
 40
0.3581103616548037
 40
0.3581103616548037
 40
12.40023413887867
 40
12.40023413887867
 40
12.40023413887867
 40
12.40023413887867
 10
-19.50223033201297
 20
2.90750725371159
 30
0.0
 10
-17.10565391675425
 20
2.752388570450573
 30
0.0
 10
-14.70018338773764
 20
1.584195368391778
 30
0.0
 10
-12.57993215541535
 20
-0.0000000000000348
 30
0.0
  0
SPLINE
  5
1CC8
330
1F
100
AcDbEntity
  8
AM_0
100
AcDbSpline
210
0.0
220
0.0
230
1.0
 70
     8
 71
     3
 72
     8
 73
     4
 74
     0
 42
0.0000000001
 43
0.0000000001
 40
0.0
 40
0.0
 40
0.0
 40
0.0
 40
7.244998274671977
 40
7.244998274671977
 40
7.244998274671977
 40
7.244998274671977
 10
-20.60141674600362
 20
3.000000000000052
 30
0.0
 10
-18.07664461998157
 20
3.000000000000052
 30
0.0
 10
-15.78448522844714
 20
1.500000000000054
 30
0.0
 10
-13.49232583691271
 20
0.000000000000059
 30
0.0
  0
SPLINE
  5
1CC9
330
1F
100
AcDbEntity
  8
AM_0
100
AcDbSpline
210
0.0
220
0.0
230
1.0
 70
     8
 71
     3
 72
     8
 73
     4
 74
     0
 42
0.0000000001
 43
0.0000000001
 40
0.0
 40
0.0
 40
0.0
 40
0.0
 40
9.068166399416787
 40
9.068166399416787
 40
9.068166399416787
 40
9.068166399416787
 10
-12.49232583691262
 20
-2.999999999999934
 30
0.0
 10
-14.07238513378069
 20
-2.999999999999938
 30
0.0
 10
-15.56134075817995
 20
-2.412519228561241
 30
0.0
 10
-19.87556076473413
 20
0.0000000000000015
 30
0.0
  0
SPLINE
  5
1CCA
330
1F
100
AcDbEntity
  8
AM_0
100
AcDbSpline
210
0.0
220
0.0
230
1.0
 70
     8
 71
     3
 72
     8
 73
     4
 74
     0
 42
0.0000000001
 43
0.0000000001
 40
0.7142832446738512
 40
0.7142832446738512
 40
0.7142832446738512
 40
0.7142832446738512
 40
9.361146747480315
 40
9.361146747480315
 40
9.361146747480315
 40
9.361146747480315
 10
-24.64972406852602
 20
2.760358673894563
 30
0.0
 10
-21.52492880159031
 20
2.35082209232199
 30
0.0
 10
-19.34558169149848
 20
0.966200915649729
 30
0.0
 10
-17.91255431786074
 20
-0.0000000000000007
 30
0.0
  0
SPLINE
  5
1CCB
330
1F
100
AcDbEntity
  8
AM_0
100
AcDbSpline
210
0.0
220
0.0
230
1.0
 70
     8
 71
     3
 72
     8
 73
     4
 74
     0
 42
0.0000000001
 43
0.0000000001
 40
0.3581103616548037
 40
0.3581103616548037
 40
0.3581103616548037
 40
0.3581103616548037
 40
12.40023413887867
 40
12.40023413887867
 40
12.40023413887867
 40
12.40023413887867
 10
-25.88546525983459
 20
2.907507253711594
 30
0.0
 10
-23.48888884457586
 20
2.752388570450577
 30
0.0
 10
-21.08341831555925
 20
1.584195368391783
 30
0.0
 10
-18.96316708323697
 20
-0.0000000000000305
 30
0.0
  0
SPLINE
  5
1CCC
330
1F
100
AcDbEntity
  8
AM_0
100
AcDbSpline
210
0.0
220
0.0
230
1.0
 70
     8
 71
     3
 72
     8
 73
     4
 74
     0
 42
0.0000000001
 43
0.0000000001
 40
0.0
 40
0.0
 40
0.0
 40
0.0
 40
12.79333816032526
 40
12.79333816032526
 40
12.79333816032526
 40
12.79333816032526
 10
-16.91255431786079
 20
-2.770466702281542
 30
0.0
 10
-19.14169657306898
 20
-2.770466702281542
 30
0.0
 10
-21.21272063908798
 20
-1.671380124093925
 30
0.0
 10
-24.29578924568235
 20
0.0000000000000057
 30
0.0
  0
SPLINE
  5
1CCD
330
1F
100
AcDbEntity
  8
AM_0
100
AcDbSpline
210
0.0
220
0.0
230
1.0
 70
     8
 71
     3
 72
     8
 73
     4
 74
     0
 42
0.0000000001
 43
0.0000000001
 40
0.0
 40
0.0
 40
0.0
 40
0.0
 40
11.45610476152127
 40
11.45610476152127
 40
11.45610476152127
 40
11.45610476152127
 10
-17.96316708323705
 20
-2.910170202201161
 30
0.0
 10
-19.9593065492597
 20
-2.910170202201166
 30
0.0
 10
-21.81740274109049
 20
-1.994188056449675
 30
0.0
 10
-25.34640201105863
 20
0.0000000000000057
 30
0.0
  0
SPLINE
  5
1CCE
330
1F
100
AcDbEntity
  8
AM_0
100
AcDbSpline
210
0.0
220
0.0
230
1.0
 70
     8
 71
     3
 72
     8
 73
     4
 74
     0
 42
0.0000000001
 43
0.0000000001
 40
0.0
 40
0.0
 40
0.0
 40
0.0
 40
9.068166399416787
 40
9.068166399416787
 40
9.068166399416787
 40
9.068166399416787
 10
-18.87556076473424
 20
-2.99999999999993
 30
0.0
 10
-20.45562006160231
 20
-2.999999999999934
 30
0.0
 10
-21.94457568600157
 20
-2.412519228561236
 30
0.0
 10
-26.25879569255575
 20
0.0000000000000057
 30
0.0
  0
SPLINE
  5
1CCF
330
1F
100
AcDbEntity
  8
AM_0
100
AcDbSpline
210
0.0
220
0.0
230
1.0
 70
     8
 71
     3
 72
     8
 73
     4
 74
     0
 42
0.0000000001
 43
0.0000000001
 40
0.0
 40
0.0
 40
0.0
 40
0.0
 40
7.244998274671977
 40
7.244998274671977
 40
7.244998274671977
 40
7.244998274671977
 10
-7.109090909090904
 20
3.000000000000056
 30
0.0
 10
-4.584318783068853
 20
3.000000000000056
 30
0.0
 10
-2.29215939153442
 20
1.500000000000061
 30
0.0
 10
0.0
 20
0.0000000000000654
 30
0.0
  0
SPLINE
  5
1CD0
330
1F
100
AcDbEntity
  8
AM_0
100
AcDbSpline
210
0.0
220
0.0
230
1.0
 70
     8
 71
     3
 72
     8
 73
     4
 74
     0
 42
0.0000000001
 43
0.0000000001
 40
0.3581103616548037
 40
0.3581103616548037
 40
0.3581103616548037
 40
0.3581103616548037
 40
12.40023413887867
 40
12.40023413887867
 40
12.40023413887867
 40
12.40023413887867
 10
-6.009904495100252
 20
2.907507253711598
 30
0.0
 10
-3.920614912320411
 20
2.848058362237699
 30
0.0
 10
-1.980069674942052
 20
1.801620677090993
 30
0.0
 10
-0.0610612323887239
 20
0.6122762139653759
 30
0.0
  0
SPLINE
  5
1CD1
330
1F
100
AcDbEntity
  8
AM_0
100
AcDbSpline
210
0.0
220
0.0
230
1.0
 70
     8
 71
     3
 72
     8
 73
     4
 74
     0
 42
0.0000000001
 43
0.0000000001
 40
0.7142832446738512
 40
0.7142832446738512
 40
0.7142832446738512
 40
0.7142832446738512
 40
9.361146747480315
 40
9.361146747480315
 40
9.361146747480315
 40
9.361146747480315
 10
-4.774163303791683
 20
2.760358673894568
 30
0.0
 10
-3.279149744986108
 20
2.679470063382948
 30
0.0
 10
-1.852776160984193
 20
2.121461929679773
 30
0.0
 10
-0.4515554478747533
 20
1.388615069688566
 30
0.0
  0
SPLINE
  5
1CD2
330
1F
100
AcDbEntity
  8
AM_0
100
AcDbSpline
210
0.0
220
0.0
230
1.0
 70
     8
 71
     3
 72
     8
 73
     4
 74
     0
 42
0.0000000001
 43
0.0000000001
 40
0.0
 40
0.0
 40
0.0
 40
0.0
 40
7.244998274671978
 40
7.244998274671978
 40
7.244998274671978
 40
7.244998274671978
 10
0.0
 20
-3.000000000000002
 30
0.0
 10
-2.524772126022051
 20
-3.000000000000006
 30
0.0
 10
-4.816931517556477
 20
-1.500000000000002
 30
0.0
 10
-7.109090909090904
 20
-0.000000000000007
 30
0.0
  0
SPLINE
  5
1CD3
330
1F
100
AcDbEntity
  8
AM_0
100
AcDbSpline
210
0.0
220
0.0
230
1.0
 70
     8
 71
     3
 72
     8
 73
     4
 74
     0
 42
0.0000000001
 43
0.0000000001
 40
1.870660592686466
 40
1.870660592686466
 40
1.870660592686466
 40
1.870660592686466
 40
14.43901837670146
 40
14.43901837670146
 40
14.43901837670146
 40
14.43901837670146
 10
-0.0548863636363564
 20
-2.840064694573063
 30
0.0
 10
-2.19857239996052
 20
-2.533140367260889
 30
0.0
 10
-4.197634813777129
 20
-1.266570183630433
 30
0.0
 10
-6.196697227593739
 20
0.0000000000000271
 30
0.0
  0
SPLINE
  5
1CD4
330
1F
100
AcDbEntity
  8
AM_0
100
AcDbSpline
210
0.0
220
0.0
230
1.0
 70
     8
 71
     3
 72
     8
 73
     4
 74
     0
 42
0.0000000001
 43
0.0000000001
 40
4.542668862435135
 40
4.542668862435135
 40
4.542668862435135
 40
4.542668862435135
 40
14.36247867694493
 40
14.36247867694493
 40
14.36247867694493
 40
14.36247867694493
 10
-0.3580681818174511
 20
-2.398569993273977
 30
0.0
 10
-1.996535823810853
 20
-1.894203411943722
 30
0.0
 10
-3.571310143014153
 20
-0.9471017059718477
 30
0.0
 10
-5.14608446221746
 20
0.0000000000000271
 30
0.0
  0
SPLINE
  5
1CD5
330
1F
100
AcDbEntity
  8
AM_0
100
AcDbSpline
210
0.0
220
0.0
230
1.0
 70
     8
 71
     3
 72
     8
 73
     4
 74
     0
 42
0.0000000001
 43
0.0000000001
 40
0.0
 40
0.0
 40
0.0
 40
0.0
 40
12.79333816032526
 40
12.79333816032526
 40
12.79333816032526
 40
12.79333816032526
 10
-4.146084462217567
 20
-2.770466702281551
 30
0.0
 10
-6.375226717425755
 20
-2.770466702281551
 30
0.0
 10
-8.446250783444762
 20
-1.671380124093934
 30
0.0
 10
-11.52931939003912
 20
-0.0000000000000028
 30
0.0
  0
SPLINE
  5
1CD6
330
1F
100
AcDbEntity
  8
AM_0
100
AcDbSpline
210
0.0
220
0.0
230
1.0
 70
     8
 71
     3
 72
     8
 73
     4
 74
     0
 42
0.0000000001
 43
0.0000000001
 40
0.0
 40
0.0
 40
0.0
 40
0.0
 40
2.764560748519282
 40
2.764560748519282
 40
2.764560748519282
 40
2.764560748519282
 10
-5.196697227593825
 20
-2.910170202201238
 30
0.0
 10
-4.714993460806384
 20
-2.910170202201238
 30
0.0
 10
-4.241328537518407
 20
-2.856828689106039
 30
0.0
 10
-3.774163303846849
 20
-2.760358673905871
 30
0.0
  0
VIEWPORT
  5
110
330
101
100
AcDbEntity
 67
     1
  8
0
100
AcDbViewport
 10
420.5
 20
297.0
 30
0.0
 40
948.9782706766916
 41
628.452
 68
     1
 69
     1
1001
ACAD
1000
MVIEW
1002
{
1070
    16
1010
0.0
1020
0.0
1030
0.0
1010
0.0
1020
0.0
1030
1.0
1040
0.0
1040
628.452
1040
420.5
1040
297.0
1040
50.0
1040
0.0
1040
0.0
1070
     0
1070
   100
1070
     1
1070
     1
1070
     0
1070
     0
1070
     0
1070
     0
1040
0.0
1040
0.0
1040
0.0
1040
10.0
1040
10.0
1040
10.0
1040
10.0
1070
     0
1002
{
1002
}
1002
}
  0
ENDSEC
  0
SECTION
  2
OBJECTS
  0
DICTIONARY
  5
C
330
0
100
AcDbDictionary
  3
ACAD_GROUP
350
D
  3
ACAD_LAYOUT
350
1A
  3
ACAD_MLINESTYLE
350
17
  3
ACAD_PLOTSETTINGS
350
19
  3
ACAD_PLOTSTYLENAME
350
E
  3
ACDBVARIABLEDICTIONARY
350
34
  3
ACMDICTIONARY
350
43
  3
AMG
350
2B
  3
AMGSNAPSETTINGS
350
6E
  3
DWGPROPS
350
1D0B
  3
ACDBHEADERROUNDTRIPXREC
350
1D17
  0
DICTIONARY
  5
74
330
1F
100
AcDbDictionary
280
     1
  3
ACAD_INDEX
360
1D0D
  3
ACAD_LAYOUTSELFREF
360
1D3A
  0
DICTIONARY
  5
1D3F
330
101
100
AcDbDictionary
280
     1
  3
ACAD_LAYOUTSELFREF
360
1D40
  0
DICTIONARY
  5
D
102
{ACAD_REACTORS
330
C
102
}
330
C
100
AcDbDictionary
  0
DICTIONARY
  5
1A
102
{ACAD_REACTORS
330
C
102
}
330
C
100
AcDbDictionary
  0
DICTIONARY
  5
17
102
{ACAD_REACTORS
330
C
102
}
330
C
100
AcDbDictionary
  3
STANDARD
350
18
  0
DICTIONARY
  5
19
102
{ACAD_REACTORS
330
C
102
}
330
C
100
AcDbDictionary
  0
ACDBDICTIONARYWDFLT
  5
E
102
{ACAD_REACTORS
330
C
102
}
330
C
100
AcDbDictionary
281
     1
  3
Normal
350
F
100
AcDbDictionaryWithDefault
340
F
  0
DICTIONARY
  5
34
102
{ACAD_REACTORS
330
C
102
}
330
C
100
AcDbDictionary
  3
INDEXCTL
350
35
  3
SORTENTS
350
B5E
  0
DICTIONARY
  5
43
102
{ACAD_REACTORS
330
C
102
}
330
C
100
AcDbDictionary
  3
ACMSTDDICTIONARY
350
260
  0
DICTIONARY
  5
2B
102
{ACAD_REACTORS
330
C
102
}
330
C
100
AcDbDictionary
  3
ACMGSETTINGS
350
2C
  0
DICTIONARY
  5
6E
102
{ACAD_REACTORS
330
C
102
}
330
C
100
AcDbDictionary
  0
XRECORD
  5
1D0B
102
{ACAD_REACTORS
330
C
102
}
330
C
100
AcDbXrecord
  1
DWGPROPS COOKIE
  2

  3

  4

  6

  7

  8

  9

300
AmdtFileType=82
301
=
302
=
303
=
304
=
305
=
306
=
307
=
308
=
309
=
 40
0.0580467708333333
 41
2452836.771637361
 42
2453045.466653344
  1

 90
        1
  0
DICTIONARY
  5
1D17
102
{ACAD_REACTORS
330
C
102
}
330
C
100
AcDbDictionary
  3
TSTACKALIGN
350
1D18
  3
TSTACKSIZE
350
1D19
  3
HYPERLINKBASE
350
1D1A
  3
STYLESHEET
350
1D1B
  3
LAYOUTDICT
350
1D1C
  3
PLOTSETDICT
350
1D1D
  3
PLOTSTYLNAMDICT
350
1D1E
  3
LWETCUNION
350
1D1F
  3
INSUNITS
350
1D20
  3
CEPSNTYPE
350
1D21
  3
FINGERPRINTGUID
350
1D22
  3
VERSIONGUID
350
1D23
  3
PSVPSCALE
350
1D24
  3
DIMSTYLEDATA
350
1D25
  3
PUCSORTHOREF
350
1D26
  3
PUCSORTHOVIEW
350
1D27
  3
PUCSBASE
350
1D28
  3
PUCSORGTOP
350
1D29
  3
PUCSORGBOTTOM
350
1D2A
  3
PUCSORGLEFT
350
1D2B
  3
PUCSORGRIGHT
350
1D2C
  3
PUCSORGFRONT
350
1D2D
  3
PUCSORGBACK
350
1D2E
  3
UCSORTHOREF
350
1D2F
  3
UCSORTHOVIEW
350
1D30
  3
UCSBASE
350
1D31
  3
UCSORGTOP
350
1D32
  3
UCSORGBOTTOM
350
1D33
  3
UCSORGLEFT
350
1D34
  3
UCSORGRIGHT
350
1D35
  3
UCSORGFRONT
350
1D36
  3
UCSORGBACK
350
1D37
  0
DICTIONARY
  5
1D0D
102
{ACAD_REACTORS
330
74
102
}
330
74
100
AcDbDictionary
  3
*A1
350
1D0E
  0
XRECORD
  5
1D3A
102
{ACAD_REACTORS
330
74
102
}
330
74
100
AcDbXrecord
340
1F
  0
XRECORD
  5
1D40
102
{ACAD_REACTORS
330
1D3F
102
}
330
1D3F
100
AcDbXrecord
340
101
  0
MLINESTYLE
  5
18
102
{ACAD_REACTORS
330
17
102
}
330
17
100
AcDbMlineStyle
  2
STANDARD
 70
     0
  3

 62
   256
 51
90.0
 52
90.0
 71
     2
 49
0.5
 62
   256
  6
BYLAYER
 49
-0.5
 62
   256
  6
BYLAYER
  0
ACDBPLACEHOLDER
  5
F
102
{ACAD_REACTORS
330
E
102
}
330
E
100
AcDbPlaceHolder
280
     0
  0
DICTIONARYVAR
  5
35
102
{ACAD_REACTORS
330
34
102
}
330
34
100
DictionaryVariables
280
     0
  1
1
  0
DICTIONARYVAR
  5
B5E
102
{ACAD_REACTORS
330
34
102
}
330
34
100
DictionaryVariables
280
     0
  1
96
  0
DICTIONARY
  5
260
102
{ACAD_REACTORS
330
43
102
}
330
43
100
AcDbDictionary
  0
DICTIONARY
  5
2C
102
{ACAD_REACTORS
330
2B
102
}
330
2B
100
AcDbDictionary
  3
DWGSETTINGS
350
2D
  0
XRECORD
  5
1D18
102
{ACAD_REACTORS
330
1D17
102
}
330
1D17
100
AcDbXrecord
 90
        1
  0
XRECORD
  5
1D19
102
{ACAD_REACTORS
330
1D17
102
}
330
1D17
100
AcDbXrecord
 90
       70
  0
XRECORD
  5
1D1A
102
{ACAD_REACTORS
330
1D17
102
}
330
1D17
100
AcDbXrecord
  1

  0
XRECORD
  5
1D1B
102
{ACAD_REACTORS
330
1D17
102
}
330
1D17
100
AcDbXrecord
  1
ASAMI.ctb
  0
XRECORD
  5
1D1C
102
{ACAD_REACTORS
330
1D17
102
}
330
1D17
100
AcDbXrecord
340
1A
  0
XRECORD
  5
1D1D
102
{ACAD_REACTORS
330
1D17
102
}
330
1D17
100
AcDbXrecord
340
19
  0
XRECORD
  5
1D1E
102
{ACAD_REACTORS
330
1D17
102
}
330
1D17
100
AcDbXrecord
340
E
  0
XRECORD
  5
1D1F
102
{ACAD_REACTORS
330
1D17
102
}
330
1D17
100
AcDbXrecord
 90
    10781
  0
XRECORD
  5
1D20
102
{ACAD_REACTORS
330
1D17
102
}
330
1D17
100
AcDbXrecord
 90
        4
  0
XRECORD
  5
1D21
102
{ACAD_REACTORS
330
1D17
102
}
330
1D17
100
AcDbXrecord
 90
        0
  0
XRECORD
  5
1D22
102
{ACAD_REACTORS
330
1D17
102
}
330
1D17
100
AcDbXrecord
  1
{AFB28963-8C59-40AE-9337-C84526B81ACE}
  0
XRECORD
  5
1D23
102
{ACAD_REACTORS
330
1D17
102
}
330
1D17
100
AcDbXrecord
  1
{4D4E9D27-6B37-476D-905A-0667DF10649E}
  0
XRECORD
  5
1D24
102
{ACAD_REACTORS
330
1D17
102
}
330
1D17
100
AcDbXrecord
 40
0.0
  0
XRECORD
  5
1D25
102
{ACAD_REACTORS
330
1D17
102
}
330
1D17
100
AcDbXrecord
1000
DSTYLE
1002
{
1070
    79
 70
     2
1070
   341
340
59
1070
   342
340
59
1070
   371
 70
    -1
1070
   372
 70
    -1
1002
}
  0
XRECORD
  5
1D26
102
{ACAD_REACTORS
330
1D17
102
}
330
1D17
100
AcDbXrecord
340
0
  0
XRECORD
  5
1D27
102
{ACAD_REACTORS
330
1D17
102
}
330
1D17
100
AcDbXrecord
 70
     0
  0
XRECORD
  5
1D28
102
{ACAD_REACTORS
330
1D17
102
}
330
1D17
100
AcDbXrecord
340
0
  0
XRECORD
  5
1D29
102
{ACAD_REACTORS
330
1D17
102
}
330
1D17
100
AcDbXrecord
 10
0.0
 20
0.0
 30
0.0
  0
XRECORD
  5
1D2A
102
{ACAD_REACTORS
330
1D17
102
}
330
1D17
100
AcDbXrecord
 10
0.0
 20
0.0
 30
0.0
  0
XRECORD
  5
1D2B
102
{ACAD_REACTORS
330
1D17
102
}
330
1D17
100
AcDbXrecord
 10
0.0
 20
0.0
 30
0.0
  0
XRECORD
  5
1D2C
102
{ACAD_REACTORS
330
1D17
102
}
330
1D17
100
AcDbXrecord
 10
0.0
 20
0.0
 30
0.0
  0
XRECORD
  5
1D2D
102
{ACAD_REACTORS
330
1D17
102
}
330
1D17
100
AcDbXrecord
 10
0.0
 20
0.0
 30
0.0
  0
XRECORD
  5
1D2E
102
{ACAD_REACTORS
330
1D17
102
}
330
1D17
100
AcDbXrecord
 10
0.0
 20
0.0
 30
0.0
  0
XRECORD
  5
1D2F
102
{ACAD_REACTORS
330
1D17
102
}
330
1D17
100
AcDbXrecord
340
0
  0
XRECORD
  5
1D30
102
{ACAD_REACTORS
330
1D17
102
}
330
1D17
100
AcDbXrecord
 70
     0
  0
XRECORD
  5
1D31
102
{ACAD_REACTORS
330
1D17
102
}
330
1D17
100
AcDbXrecord
340
0
  0
XRECORD
  5
1D32
102
{ACAD_REACTORS
330
1D17
102
}
330
1D17
100
AcDbXrecord
 10
0.0
 20
0.0
 30
0.0
  0
XRECORD
  5
1D33
102
{ACAD_REACTORS
330
1D17
102
}
330
1D17
100
AcDbXrecord
 10
0.0
 20
0.0
 30
0.0
  0
XRECORD
  5
1D34
102
{ACAD_REACTORS
330
1D17
102
}
330
1D17
100
AcDbXrecord
 10
0.0
 20
0.0
 30
0.0
  0
XRECORD
  5
1D35
102
{ACAD_REACTORS
330
1D17
102
}
330
1D17
100
AcDbXrecord
 10
0.0
 20
0.0
 30
0.0
  0
XRECORD
  5
1D36
102
{ACAD_REACTORS
330
1D17
102
}
330
1D17
100
AcDbXrecord
 10
0.0
 20
0.0
 30
0.0
  0
XRECORD
  5
1D37
102
{ACAD_REACTORS
330
1D17
102
}
330
1D17
100
AcDbXrecord
 10
0.0
 20
0.0
 30
0.0
  0
LAYER_INDEX
  5
1D0E
102
{ACAD_REACTORS
330
1D0D
102
}
330
1D0D
100
AcDbIndex
 40
2453152.357169653
100
AcDbLayerIndex
  8
0
360
1D0F
 90
        0
  8
AM_0
360
1D10
 90
       90
  8
AM_11
360
1D11
 90
        4
  8
AM_7
360
1D12
 90
        2
  8
AM_5
360
1D13
 90
        4
  8
Defpoints
360
1D14
 90
        0
  8
AM_6
360
1D15
 90
        1
  0
XRECORD
  5
2D
102
{ACAD_REACTORS
330
2C
102
}
330
2C
100
AcDbXrecord
  1
VERSION
140
15.0
  1
PRODUCT
  2
AutoCAD Mechanical 2000
  0
IDBUFFER
  5
1D0F
330
0
100
AcDbIdBuffer
  0
IDBUFFER
  5
1D10
330
0
100
AcDbIdBuffer
330
1C9F
330
1CA0
330
1CA1
330
1CA2
330
1CA3
330
1CA4
330
1CA5
330
1CA6
330
1CA7
330
1CA8
330
1CA9
330
1CAA
330
1CAB
330
1CAC
330
1CAD
330
1CAE
330
1CAF
330
1CB0
330
1CB1
330
1CB2
330
1CB3
330
1CB4
330
1CB5
330
1CB6
330
1CB7
330
1CB8
330
1CC7
330
1CC8
330
1CC9
330
1CCA
330
1CCB
330
1CCC
330
1CCD
330
1CCE
330
1CCF
330
1CD0
330
1CD1
330
1CD2
330
1CD3
330
1CD4
330
1CD5
330
1CD6
330
18A3
330
1A76
330
1A79
330
1A7A
330
1A7B
330
1A94
330
1A97
330
1C75
330
1C76
330
1C77
330
1C78
330
1C79
330
1C7A
330
1C7B
330
1C7D
330
1C7E
330
1C7F
330
1C80
330
1C81
330
1C82
330
1C83
330
1C84
330
1C85
330
1C86
330
1C87
330
1C88
330
1C89
330
1C8A
330
1C8B
330
1C8C
330
1C8D
330
1C8E
330
1C8F
330
1C90
330
1C91
330
1C92
330
1C93
330
1C94
330
1C95
330
1C96
330
1C97
330
1C98
330
1C99
330
1C9A
330
1C9B
330
1C9C
330
1C9D
330
1C9E
  0
IDBUFFER
  5
1D11
330
0
100
AcDbIdBuffer
330
17C1
330
18A7
330
18C2
330
18C3
  0
IDBUFFER
  5
1D12
330
0
100
AcDbIdBuffer
330
F47
330
1BF0
  0
IDBUFFER
  5
1D13
330
0
100
AcDbIdBuffer
330
105F
330
10EF
330
1180
330
1A7C
  0
IDBUFFER
  5
1D14
330
0
100
AcDbIdBuffer
  0
IDBUFFER
  5
1D15
330
0
100
AcDbIdBuffer
330
E5A
  0
ENDSEC
  0
EOF
