  0
SECTION
  2
HEADER
  9
$ACADVER
  1
AC1014
  9
$ACADMAINTVER
 70
     9
  9
$DWGCODEPAGE
  3
ANSI_932
  9
$INSBASE
 10
0.0
 20
0.0
 30
0.0
  9
$EXTMIN
 10
-303.4692914140725
 20
-56.50000120223993
 30
-0.00000001
  9
$EXTMAX
 10
17.65831679456915
 20
9.174763271896463
 30
0.00000001
  9
$LIMMIN
 10
-332.7332382568883
 20
-133.9907108095508
  9
$LIMMAX
 10
41.54157303933106
 20
51.99103399763294
  9
$ORTHOMODE
 70
     0
  9
$REGENMODE
 70
     1
  9
$FILLMODE
 70
     1
  9
$QTEXTMODE
 70
     0
  9
$MIRRTEXT
 70
     0
  9
$DRAGMODE
 70
     2
  9
$LTSCALE
 40
0.3
  9
$OSMODE
 70
    55
  9
$ATTMODE
 70
     1
  9
$TEXTSIZE
 40
2.5
  9
$TRACEWID
 40
1.0
  9
$TEXTSTYLE
  7
STANDARD
  9
$CLAYER
  8
AM_0
  9
$CELTYPE
  6
BYLAYER
  9
$CECOLOR
 62
   256
  9
$CELTSCALE
 40
1.0
  9
$DELOBJ
 70
     1
  9
$DISPSILH
 70
     0
  9
$DIMSCALE
 40
0.5
  9
$DIMASZ
 40
2.5
  9
$DIMEXO
 40
1.0
  9
$DIMDLI
 40
12.0
  9
$DIMRND
 40
0.0
  9
$DIMDLE
 40
0.0
  9
$DIMEXE
 40
1.0
  9
$DIMTP
 40
0.1
  9
$DIMTM
 40
0.1
  9
$DIMTXT
 40
3.2
  9
$DIMCEN
 40
0.0
  9
$DIMTSZ
 40
0.0
  9
$DIMTOL
 70
     0
  9
$DIMLIM
 70
     0
  9
$DIMTIH
 70
     0
  9
$DIMTOH
 70
     0
  9
$DIMSE1
 70
     0
  9
$DIMSE2
 70
     0
  9
$DIMTAD
 70
     3
  9
$DIMZIN
 70
     8
  9
$DIMBLK
  1
OPEN30
  9
$DIMASO
 70
     1
  9
$DIMSHO
 70
     1
  9
$DIMPOST
  1

  9
$DIMAPOST
  1
"
  9
$DIMALT
 70
     0
  9
$DIMALTD
 70
     2
  9
$DIMALTF
 40
0.0393701
  9
$DIMLFAC
 40
1.0
  9
$DIMTOFL
 70
     1
  9
$DIMTVP
 40
0.0
  9
$DIMTIX
 70
     0
  9
$DIMSOXD
 70
     0
  9
$DIMSAH
 70
     0
  9
$DIMBLK1
  1

  9
$DIMBLK2
  1

  9
$DIMSTYLE
  2
AM_JIS
  9
$DIMCLRD
 70
   256
  9
$DIMCLRE
 70
   256
  9
$DIMCLRT
 70
     2
  9
$DIMTFAC
 40
0.71
  9
$DIMGAP
 40
1.5
  9
$DIMJUST
 70
     0
  9
$DIMSD1
 70
     0
  9
$DIMSD2
 70
     0
  9
$DIMTOLJ
 70
     0
  9
$DIMTZIN
 70
     0
  9
$DIMALTZ
 70
     0
  9
$DIMALTTZ
 70
     0
  9
$DIMFIT
 70
     3
  9
$DIMUPT
 70
     0
  9
$DIMUNIT
 70
     2
  9
$DIMDEC
 70
     3
  9
$DIMTDEC
 70
     3
  9
$DIMALTU
 70
     2
  9
$DIMALTTD
 70
     2
  9
$DIMTXSTY
  7
ASAMI
  9
$DIMAUNIT
 70
     0
  9
$LUNITS
 70
     2
  9
$LUPREC
 70
     2
  9
$SKETCHINC
 40
1.0
  9
$FILLETRAD
 40
0.5
  9
$AUNITS
 70
     0
  9
$AUPREC
 70
     0
  9
$MENU
  1
.
  9
$ELEVATION
 40
0.0
  9
$PELEVATION
 40
0.0
  9
$THICKNESS
 40
0.0
  9
$LIMCHECK
 70
     0
  9
$BLIPMODE
 70
     0
  9
$CHAMFERA
 40
2.5
  9
$CHAMFERB
 40
2.5
  9
$CHAMFERC
 40
20.0
  9
$CHAMFERD
 40
0.0
  9
$SKPOLY
 70
     0
  9
$TDCREATE
 40
2452838.620506898
  9
$TDUPDATE
 40
2453152.356619872
  9
$TDINDWG
 40
0.3561362963
  9
$TDUSRTIMER
 40
0.3561362963
  9
$USRTIMER
 70
     1
  9
$ANGBASE
 50
0.0
  9
$ANGDIR
 70
     0
  9
$PDMODE
 70
     0
  9
$PDSIZE
 40
0.0
  9
$PLINEWID
 40
0.0
  9
$COORDS
 70
     1
  9
$SPLFRAME
 70
     0
  9
$SPLINETYPE
 70
     6
  9
$SPLINESEGS
 70
     8
  9
$ATTDIA
 70
     1
  9
$ATTREQ
 70
     1
  9
$HANDLING
 70
 12289
  9
$HANDSEED
  5
308B
  9
$SURFTAB1
 70
     6
  9
$SURFTAB2
 70
     6
  9
$SURFTYPE
 70
     6
  9
$SURFU
 70
     6
  9
$SURFV
 70
     6
  9
$UCSNAME
  2

  9
$UCSORG
 10
-0.0000000000000586
 20
-0.0000000000000036
 30
0.0
  9
$UCSXDIR
 10
1.0
 20
0.0
 30
0.0
  9
$UCSYDIR
 10
0.0
 20
1.0
 30
0.0
  9
$PUCSNAME
  2

  9
$PUCSORG
 10
0.0
 20
0.0
 30
0.0
  9
$PUCSXDIR
 10
1.0
 20
0.0
 30
0.0
  9
$PUCSYDIR
 10
0.0
 20
1.0
 30
0.0
  9
$USERI1
 70
     0
  9
$USERI2
 70
     0
  9
$USERI3
 70
     0
  9
$USERI4
 70
     0
  9
$USERI5
 70
     0
  9
$USERR1
 40
0.0
  9
$USERR2
 40
0.0
  9
$USERR3
 40
0.0
  9
$USERR4
 40
0.0
  9
$USERR5
 40
0.0
  9
$WORLDVIEW
 70
     1
  9
$SHADEDGE
 70
     3
  9
$SHADEDIF
 70
    70
  9
$TILEMODE
 70
     1
  9
$MAXACTVP
 70
    64
  9
$PINSBASE
 10
0.0
 20
0.0
 30
0.0
  9
$PLIMCHECK
 70
     0
  9
$PEXTMIN
 10
1.000000000000000E+20
 20
1.000000000000000E+20
 30
1.000000000000000E+20
  9
$PEXTMAX
 10
-1.000000000000000E+20
 20
-1.000000000000000E+20
 30
-1.000000000000000E+20
  9
$PLIMMIN
 10
0.0
 20
0.0
  9
$PLIMMAX
 10
841.0
 20
594.0
  9
$UNITMODE
 70
     0
  9
$VISRETAIN
 70
     1
  9
$PLINEGEN
 70
     0
  9
$PSLTSCALE
 70
     0
  9
$TREEDEPTH
 70
  3020
  9
$PICKSTYLE
 70
     0
  9
$CMLSTYLE
  2
STANDARD
  9
$CMLJUST
 70
     0
  9
$CMLSCALE
 40
20.0
  9
$PROXYGRAPHICS
 70
     1
  9
$MEASUREMENT
 70
     1
  0
ENDSEC
  0
SECTION
  2
CLASSES
  0
CLASS
  1
ACDBDICTIONARYWDFLT
  2
AcDbDictionaryWithDefault
  3
AutoCAD 2000
 90
        0
280
     0
281
     0
  0
CLASS
  1
ACDBPLACEHOLDER
  2
AcDbPlaceHolder
  3
AutoCAD 2000
 90
        0
280
     0
281
     0
  0
CLASS
  1
LAYOUT
  2
AcDbLayout
  3
AutoCAD 2000
 90
        0
280
     0
281
     0
  0
CLASS
  1
AMGSETTINGSOBJ
  2
AmgSettingsObj
  3
"AcadM|Product Description: AutoCAD Mechanical 2000|Company: Autodesk"
 90
        0
280
     0
281
     0
  0
CLASS
  1
ACME_DOCUMENT
  2
AcMeDbDoc
  3
AcMeServices
 90
        0
280
     0
281
     0
  0
CLASS
  1
ACMESCOPE
  2
AcMeScope
  3
AcMeServices
 90
        0
280
     0
281
     0
  0
CLASS
  1
ACMECOMMANDHISTORY
  2
AcMeCommandHistory
  3
AcMeServices
 90
        0
280
     0
281
     0
  0
CLASS
  1
DICTIONARYVAR
  2
AcDbDictionaryVar
  3
AutoCAD 2000
 90
        0
280
     0
281
     0
  0
CLASS
  1
ACIMSYSVARMAN
  2
AcImSysVarManager
  3
AcMeServices
 90
        0
280
     0
281
     0
  0
CLASS
  1
ACIMREALSYSVAR
  2
AcImRealSysVar
  3
AcMeServices
 90
        0
280
     0
281
     0
  0
CLASS
  1
ACIMINTSYSVAR
  2
AcImIntSysVar
  3
AcMeServices
 90
        0
280
     0
281
     0
  0
CLASS
  1
ACMEDRAWINGMAN
  2
AcMeDrawingMan
  3
AcMeServices
 90
        0
280
     0
281
     0
  0
CLASS
  1
ACMEVIEW
  2
AcMeView
  3
AcMeServices
 90
        0
280
     0
281
     0
  0
CLASS
  1
ACDBENTITYCACHE
  2
AcMeEntityCache
  3
AcMeServices
 90
        0
280
     0
281
     0
  0
CLASS
  1
GSMANAGER
  2
AcMeGSManager
  3
AcMeServices
 90
        0
280
     0
281
     0
  0
CLASS
  1
AmdtInternalReactor
  2
AmdtInternalReactor
  3
AcMeServices
 90
        0
280
     0
281
     0
  0
CLASS
  1
ACMESTATEMGR
  2
AcMeStateMgr
  3
AcMeServices
 90
        0
280
     0
281
     0
  0
CLASS
  1
ACME_DATABASE
  2
AcMeDbDatabase
  3
AcMeServices
 90
        0
280
     0
281
     0
  0
CLASS
  1
ACRFINSADJUSTERMGR
  2
AcRfInsAdjusterMgr
  3
AcMeServices
 90
        0
280
     0
281
     0
  0
CLASS
  1
ACMDATADICTIONARY
  2
AcmDataDictionary
  3
"AcmSymBB|Product Description: AutoCAD Mechanical 2000|Company: Autodesk"
 90
        0
280
     0
281
     0
  0
CLASS
  1
ACMDATAENTRYBLOCK
  2
AcmDataEntryBlock
  3
"AcmSymBB|Product Description: AutoCAD Mechanical 2000|Company: Autodesk"
 90
        0
280
     0
281
     0
  0
CLASS
  1
AMGOBJPROPCFG
  2
AmgObjPropCfg
  3
"AmgLay|Product Description: AutoCAD Mechanical 2000|Company: Autodesk"
 90
        1
280
     0
281
     0
  0
CLASS
  1
ACAMGFILTERDAT
  2
AcAmgFilterDat
  3
"AcadM|Product Description: AutoCAD Mechanical 2000|Company: Autodesk"
 90
        0
280
     0
281
     0
  0
CLASS
  1
LAYER_INDEX
  2
AcDbLayerIndex
  3
AutoCAD 2000
 90
        0
280
     0
281
     0
  0
CLASS
  1
IDBUFFER
  2
AcDbIdBuffer
  3
AutoCAD 2000
 90
        0
280
     0
281
     0
  0
CLASS
  1
ACIMSTRSYSVAR
  2
AcImStrSysVar
  3
AcMeServices
 90
        0
280
     0
281
     0
  0
CLASS
  1
ACMSTANDARDJIS
  2
AcmStandardJIS
  3
"AcmSymBB|Product Description: AutoCAD Mechanical 2000|Company: Autodesk"
 90
        0
280
     0
281
     0
  0
CLASS
  1
ACMSURFSTANDARDJIS
  2
AcmSurfTextStdJIS
  3
"AcmSymBB|Product Description: AutoCAD Mechanical 2000|Company: Autodesk"
 90
        0
280
     0
281
     0
  0
CLASS
  1
ACMFCFSTANDARDJIS
  2
AcmFCFStdJIS
  3
"AcmSymBB|Product Description: AutoCAD Mechanical 2000|Company: Autodesk"
 90
        0
280
     0
281
     0
  0
CLASS
  1
ACMWELDSTANDARDJIS
  2
AcmWeldingStdJIS
  3
"AcmSymBB|Product Description: AutoCAD Mechanical 2000|Company: Autodesk"
 90
        0
280
     0
281
     0
  0
CLASS
  1
ACMIDSTANDARDJIS
  2
AcmIdStdJIS
  3
"AcmSymBB|Product Description: AutoCAD Mechanical 2000|Company: Autodesk"
 90
        0
280
     0
281
     0
  0
CLASS
  1
ACMDATUMSTANDARDJIS
  2
AcmDatumStdJIS
  3
"AcmSymBB|Product Description: AutoCAD Mechanical 2000|Company: Autodesk"
 90
        0
280
     0
281
     0
  0
CLASS
  1
ACMBOMSTANDARDJIS
  2
AcmBOMStdJIS
  3
"AcmSymBB|Product Description: AutoCAD Mechanical 2000|Company: Autodesk"
 90
        0
280
     0
281
     0
  0
CLASS
  1
ACMSTANDARDANSI
  2
AcmStandardANSI
  3
"AcmSymBB|Product Description: AutoCAD Mechanical 2000|Company: Autodesk"
 90
        0
280
     0
281
     0
  0
CLASS
  1
ACMSURFSTANDARDANSI
  2
AcmSurfTextStdANSI
  3
"AcmSymBB|Product Description: AutoCAD Mechanical 2000|Company: Autodesk"
 90
        0
280
     0
281
     0
  0
CLASS
  1
ACMFCFSTANDARDANSI
  2
AcmFCFStdANSI
  3
"AcmSymBB|Product Description: AutoCAD Mechanical 2000|Company: Autodesk"
 90
        0
280
     0
281
     0
  0
CLASS
  1
ACMWELDSTANDARDANSI
  2
AcmWeldingStdANSI
  3
"AcmSymBB|Product Description: AutoCAD Mechanical 2000|Company: Autodesk"
 90
        0
280
     0
281
     0
  0
CLASS
  1
ACMIDSTANDARDANSI
  2
AcmIdStdANSI
  3
"AcmSymBB|Product Description: AutoCAD Mechanical 2000|Company: Autodesk"
 90
        0
280
     0
281
     0
  0
CLASS
  1
ACMDATUMSTANDARDANSI
  2
AcmDatumStdANSI
  3
"AcmSymBB|Product Description: AutoCAD Mechanical 2000|Company: Autodesk"
 90
        0
280
     0
281
     0
  0
CLASS
  1
ACMBOMSTANDARDANSI
  2
AcmBOMStdANSI
  3
"AcmSymBB|Product Description: AutoCAD Mechanical 2000|Company: Autodesk"
 90
        0
280
     0
281
     0
  0
CLASS
  1
ACMSTANDARDBSI
  2
AcmStandardBSI
  3
"AcmSymBB|Product Description: AutoCAD Mechanical 2000|Company: Autodesk"
 90
        0
280
     0
281
     0
  0
CLASS
  1
ACMSURFSTANDARDBSI
  2
AcmSurfTextStdBSI
  3
"AcmSymBB|Product Description: AutoCAD Mechanical 2000|Company: Autodesk"
 90
        0
280
     0
281
     0
  0
CLASS
  1
ACMFCFSTANDARDBSI
  2
AcmFCFStdBSI
  3
"AcmSymBB|Product Description: AutoCAD Mechanical 2000|Company: Autodesk"
 90
        0
280
     0
281
     0
  0
CLASS
  1
ACMWELDSTANDARDBSI
  2
AcmWeldingStdBSI
  3
"AcmSymBB|Product Description: AutoCAD Mechanical 2000|Company: Autodesk"
 90
        0
280
     0
281
     0
  0
CLASS
  1
ACMIDSTANDARDBSI
  2
AcmIdStdBSI
  3
"AcmSymBB|Product Description: AutoCAD Mechanical 2000|Company: Autodesk"
 90
        0
280
     0
281
     0
  0
CLASS
  1
ACMDATUMSTANDARDBSI
  2
AcmDatumStdBSI
  3
"AcmSymBB|Product Description: AutoCAD Mechanical 2000|Company: Autodesk"
 90
        0
280
     0
281
     0
  0
CLASS
  1
ACMBOMSTANDARDBSI
  2
AcmBOMStdBSI
  3
"AcmSymBB|Product Description: AutoCAD Mechanical 2000|Company: Autodesk"
 90
        0
280
     0
281
     0
  0
CLASS
  1
LONG_TRANSACTION
  2
AcDbLongTransaction
  3
AutoCAD 2000
 90
        0
280
     0
281
     0
  0
CLASS
  1
LWPOLYLINE
  2
AcDbPolyline
  3
AutoCAD 2000
 90
        0
280
     0
281
     1
  0
CLASS
  1
HATCH
  2
AcDbHatch
  3
AutoCAD 2000
 90
        0
280
     0
281
     1
  0
CLASS
  1
XRECORD
  2
AcDbXrecord
  3
AutoCAD 2000
 90
        0
280
     0
281
     0
  0
ENDSEC
  0
SECTION
  2
TABLES
  0
TABLE
  2
VPORT
  5
8
330
0
100
AcDbSymbolTable
 70
     3
  0
VPORT
  5
3060
330
8
100
AcDbSymbolTableRecord
100
AcDbViewportTableRecord
  2
*ACTIVE
 70
     0
 10
0.0
 20
0.0
 11
1.0
 21
1.0
 12
-132.1981109286442
 22
-18.42175063967454
 13
0.0
 23
0.0
 14
2.5
 24
2.5
 15
10.0
 25
10.0
 16
0.0
 26
0.0
 36
1.0
 17
0.0
 27
0.0
 37
0.0
 40
370.3541420452375
 41
1.56570841889117
 42
50.0
 43
0.0
 44
0.0
 50
0.0
 51
0.0
 71
     0
 72
   100
 73
     1
 74
     3
 75
     0
 76
     0
 77
     0
 78
     0
  0
ENDTAB
  0
TABLE
  2
LTYPE
  5
5
330
0
100
AcDbSymbolTable
 70
    10
  0
LTYPE
  5
14
330
5
100
AcDbSymbolTableRecord
100
AcDbLinetypeTableRecord
  2
BYBLOCK
 70
     0
  3

 72
    65
 73
     0
 40
0.0
  0
LTYPE
  5
15
330
5
100
AcDbSymbolTableRecord
100
AcDbLinetypeTableRecord
  2
BYLAYER
 70
     0
  3

 72
    65
 73
     0
 40
0.0
  0
LTYPE
  5
16
330
5
100
AcDbSymbolTableRecord
100
AcDbLinetypeTableRecord
  2
CONTINUOUS
 70
     0
  3
Solid line
 72
    65
 73
     0
 40
0.0
  0
LTYPE
  5
4B
330
5
100
AcDbSymbolTableRecord
100
AcDbLinetypeTableRecord
  2
AM_ISO02W050
 70
     0
  3
__ __ __ __ __ __ __ __ __ __ __ __ __ __ __
 72
    65
 73
     2
 40
7.5
 49
6.0
 74
     0
 49
-1.5
 74
     0
  0
LTYPE
  5
4C
330
5
100
AcDbSymbolTableRecord
100
AcDbLinetypeTableRecord
  2
AM_ISO08W050
 70
     0
  3
____ . ____ . ____ . ____ . ____ . ____ . ____
 72
    65
 73
     4
 40
18.0
 49
12.0
 74
     0
 49
-1.5
 74
     0
 49
3.0
 74
     0
 49
-1.5
 74
     0
  0
LTYPE
  5
4D
330
5
100
AcDbSymbolTableRecord
100
AcDbLinetypeTableRecord
  2
AM_ISO09W050
 70
     0
  3
_____ . . _____ . . _____ . . ____ .. ____
 72
    65
 73
     6
 40
22.5
 49
12.0
 74
     0
 49
-1.5
 74
     0
 49
3.0
 74
     0
 49
-1.5
 74
     0
 49
3.0
 74
     0
 49
-1.5
 74
     0
  0
LTYPE
  5
4E
330
5
100
AcDbSymbolTableRecord
100
AcDbLinetypeTableRecord
  2
AMCONSTR
 70
     0
  3
_______________________
 72
    65
 73
     2
 40
9999.0
 49
9999.0
 74
     0
 49
0.0
 74
     0
  0
LTYPE
  5
4F
330
5
100
AcDbSymbolTableRecord
100
AcDbLinetypeTableRecord
  2
AM_ISO02W050X2
 70
     0
  3
 _ _ _ _ _ _ _ _ _ _ _ _
 72
    65
 73
     2
 40
3.75
 49
3.0
 74
     0
 49
-0.75
 74
     0
  0
LTYPE
  5
50
330
5
100
AcDbSymbolTableRecord
100
AcDbLinetypeTableRecord
  2
AM_ISO08W050X2
 70
     0
  3
__ . __ . __ . __ . __ . __
 72
    65
 73
     4
 40
9.0
 49
6.0
 74
     0
 49
-0.75
 74
     0
 49
1.5
 74
     0
 49
-0.75
 74
     0
  0
LTYPE
  5
53
330
5
100
AcDbSymbolTableRecord
100
AcDbLinetypeTableRecord
  2
AMZIGZAG
 70
     0
  3
/\/-/\/-/\/-/\/-/\/-/\/
 72
    65
 73
     2
 40
11.00009999999999
 49
0.0001
 74
     4
 75
   135
340
52
 46
0.04
 50
0.0
 44
0.0
 45
0.0
 49
-11.0
 74
     0
  0
LTYPE
  5
166
330
5
100
AcDbSymbolTableRecord
100
AcDbLinetypeTableRecord
  2
ACJISTGL
 70
     0
  3
_ _ _ _ _
 72
    65
 73
     2
 40
3.0
 49
2.0
 74
     0
 49
-1.0
 74
     0
  0
LTYPE
  5
26A
330
5
100
AcDbSymbolTableRecord
100
AcDbLinetypeTableRecord
  2
ACJISTGB
 70
     0
  3
__ . . __ . .
 72
    65
 73
     6
 40
9.0
 49
4.0
 74
     0
 49
-1.0
 74
     0
 49
1.0
 74
     0
 49
-1.0
 74
     0
 49
1.0
 74
     0
 49
-1.0
 74
     0
  0
ENDTAB
  0
TABLE
  2
LAYER
  5
2
330
0
100
AcDbSymbolTable
 70
     8
  0
LAYER
  5
10
330
2
100
AcDbSymbolTableRecord
100
AcDbLayerTableRecord
  2
0
 70
     0
 62
     7
  6
CONTINUOUS
  0
LAYER
  5
3F9
330
2
100
AcDbSymbolTableRecord
100
AcDbLayerTableRecord
  2
AM_0
 70
     0
 62
     7
  6
CONTINUOUS
  0
LAYER
  5
BD6
330
2
100
AcDbSymbolTableRecord
100
AcDbLayerTableRecord
  2
AM_11
 70
     0
 62
     3
  6
AM_ISO09W050
  0
LAYER
  5
BD7
330
2
100
AcDbSymbolTableRecord
100
AcDbLayerTableRecord
  2
AM_7
 70
     0
 62
     4
  6
AM_ISO08W050
  0
LAYER
  5
BD8
330
2
100
AcDbSymbolTableRecord
100
AcDbLayerTableRecord
  2
AM_5
 70
     0
 62
     3
  6
CONTINUOUS
  0
LAYER
  5
BD9
330
2
100
AcDbSymbolTableRecord
100
AcDbLayerTableRecord
  2
DEFPOINTS
 70
     0
 62
     7
  6
CONTINUOUS
  0
LAYER
  5
BDA
330
2
100
AcDbSymbolTableRecord
100
AcDbLayerTableRecord
  2
AM_6
 70
     0
 62
     2
  6
CONTINUOUS
  0
LAYER
  5
22A6
330
2
100
AcDbSymbolTableRecord
100
AcDbLayerTableRecord
  2
AM_CL
 70
     0
 62
     1
  6
AMCONSTR
  0
ENDTAB
  0
TABLE
  2
STYLE
  5
3
330
0
100
AcDbSymbolTable
 70
     5
  0
STYLE
  5
11
330
3
100
AcDbSymbolTableRecord
100
AcDbTextStyleTableRecord
  2
STANDARD
 70
     0
 40
0.0
 41
1.0
 50
0.0
 71
     0
 42
2.5
  3
simplex.shx
  4
EXTFONT.SHX
  0
STYLE
  5
52
330
3
100
AcDbSymbolTableRecord
100
AcDbTextStyleTableRecord
  2

 70
     1
 40
0.0
 41
1.0
 50
0.0
 71
     0
 42
2.5
  3
ltypeshp.shx
  4

  0
STYLE
  5
6B
330
3
100
AcDbSymbolTableRecord
100
AcDbTextStyleTableRecord
  2
ASAMI
 70
     0
 40
0.0
 41
1.0
 50
0.0
 71
     0
 42
2.5
  3
simplex.shx
  4
EXTFONT.SHX
  0
STYLE
  5
262
330
3
100
AcDbSymbolTableRecord
100
AcDbTextStyleTableRecord
  2
ACJISTS
 70
     0
 40
1.0
 41
1.0
 50
0.0
 71
     0
 42
2.5
  3
simplex.shx
  4
bigfont.shx
  0
STYLE
  5
269
330
3
100
AcDbSymbolTableRecord
100
AcDbTextStyleTableRecord
  2
ACJISGDT
 70
     0
 40
0.0
 41
1.0
 50
0.0
 71
     0
 42
2.5
  3
amgdtans.shx
  4

  0
ENDTAB
  0
TABLE
  2
VIEW
  5
6
330
0
100
AcDbSymbolTable
 70
     0
  0
ENDTAB
  0
TABLE
  2
UCS
  5
7
330
0
100
AcDbSymbolTable
 70
     0
  0
ENDTAB
  0
TABLE
  2
APPID
  5
9
330
0
100
AcDbSymbolTable
 70
    13
  0
APPID
  5
12
330
9
100
AcDbSymbolTableRecord
100
AcDbRegAppTableRecord
  2
ACAD
 70
     0
  0
APPID
  5
30
330
9
100
AcDbSymbolTableRecord
100
AcDbRegAppTableRecord
  2
MCAD_NO_VIS
 70
     0
  0
APPID
  5
31
330
9
100
AcDbSymbolTableRecord
100
AcDbRegAppTableRecord
  2
ACAD_TEMP_GRAPHIC
 70
     0
  0
APPID
  5
2C2
330
9
100
AcDbSymbolTableRecord
100
AcDbRegAppTableRecord
  2
GENIUS_GENDTOL_13
 70
     0
  0
APPID
  5
339
330
9
100
AcDbSymbolTableRecord
100
AcDbRegAppTableRecord
  2
GENIUS_GENODEF_13
 70
     0
  0
APPID
  5
33A
330
9
100
AcDbSymbolTableRecord
100
AcDbRegAppTableRecord
  2
GENIUS_GENOBJ-N-RSBK_13
 70
     0
  0
APPID
  5
33B
330
9
100
AcDbSymbolTableRecord
100
AcDbRegAppTableRecord
  2
GENIUS_GENOBJ-N-LIB_13
 70
     0
  0
APPID
  5
33C
330
9
100
AcDbSymbolTableRecord
100
AcDbRegAppTableRecord
  2
GENIUS_GENSCALE_13
 70
     0
  0
APPID
  5
378
330
9
100
AcDbSymbolTableRecord
100
AcDbRegAppTableRecord
  2
GENIUS_GENDIMSH_14
 70
     0
  0
APPID
  5
BDB
330
9
100
AcDbSymbolTableRecord
100
AcDbRegAppTableRecord
  2
GENIUS_GENOBJ-N-CEN_13
 70
     0
  0
APPID
  5
BDC
330
9
100
AcDbSymbolTableRecord
100
AcDbRegAppTableRecord
  2
GENIUS_GENFIL_13
 70
     0
  0
APPID
  5
BDD
330
9
100
AcDbSymbolTableRecord
100
AcDbRegAppTableRecord
  2
GENIUS_GENOBJ-N-FIL_13
 70
     0
  0
APPID
  5
12AD
330
9
100
AcDbSymbolTableRecord
100
AcDbRegAppTableRecord
  2
GENIUS_GENOREF_13
 70
     0
  0
ENDTAB
  0
TABLE
  2
DIMSTYLE
  5
A
330
0
100
AcDbSymbolTable
 70
     8
  0
DIMSTYLE
105
58
102
{ACAD_REACTORS
330
C4F
330
195B
330
194C
330
2F2C
102
}
330
A
100
AcDbSymbolTableRecord
100
AcDbDimStyleTableRecord
  2
AM_JIS
 70
     0
  3

  4
"
  5
OPEN30
  6

  7

 40
1.0
 41
2.5
 42
1.0
 43
12.0
 44
1.0
 45
0.0
 46
0.0
 47
0.1
 48
0.1
140
3.2
141
0.0
142
0.0
143
0.0393701
144
1.0
145
0.0
146
0.71
147
1.5
 71
     0
 72
     0
 73
     0
 74
     0
 75
     0
 76
     0
 77
     3
 78
     8
170
     0
171
     2
172
     1
173
     0
174
     0
175
     0
176
   256
177
   256
178
     2
270
     2
271
     3
272
     3
273
     2
274
     2
340
6B
275
     0
280
     0
281
     0
282
     0
283
     0
284
     0
285
     0
286
     0
287
     3
288
     0
  0
DIMSTYLE
105
5F
330
A
100
AcDbSymbolTableRecord
100
AcDbDimStyleTableRecord
  2
AM_JIS$3
 70
     0
  3

  4
"
  5
OPEN30
  6

  7

 40
1.0
 41
2.5
 42
1.0
 43
10.0
 44
1.0
 45
0.0
 46
0.0
 47
0.1
 48
0.1
140
3.2
141
0.0
142
0.0
143
0.0393701
144
1.0
145
0.0
146
0.71
147
1.5
 71
     0
 72
     0
 73
     0
 74
     1
 75
     0
 76
     0
 77
     3
 78
     8
170
     0
171
     2
172
     0
173
     0
174
     0
175
     0
176
   256
177
   256
178
     2
270
     2
271
     2
272
     3
273
     2
274
     2
340
6B
275
     0
280
     0
281
     0
282
     0
283
     0
284
     0
285
     0
286
     0
287
     0
288
     1
  0
DIMSTYLE
105
60
102
{ACAD_REACTORS
330
2C05
102
}
330
A
100
AcDbSymbolTableRecord
100
AcDbDimStyleTableRecord
  2
AM_JIS$4
 70
     0
  3

  4
"
  5
OPEN30
  6

  7

 40
1.0
 41
2.5
 42
1.0
 43
10.0
 44
1.0
 45
0.0
 46
0.0
 47
0.1
 48
0.1
140
3.2
141
0.0
142
0.0
143
0.0393701
144
1.0
145
0.0
146
0.71
147
1.5
 71
     0
 72
     0
 73
     0
 74
     1
 75
     0
 76
     0
 77
     3
 78
     8
170
     0
171
     2
172
     0
173
     0
174
     0
175
     0
176
   256
177
   256
178
     2
270
     2
271
     2
272
     3
273
     2
274
     2
340
6B
275
     0
280
     0
281
     0
282
     0
283
     0
284
     0
285
     0
286
     0
287
     0
288
     1
  0
DIMSTYLE
105
61
330
A
100
AcDbSymbolTableRecord
100
AcDbDimStyleTableRecord
  2
AM_JIS$6
 70
     0
  3

  4
"
  5
OPEN30
  6

  7

 40
1.0
 41
2.5
 42
1.0
 43
10.0
 44
1.0
 45
0.0
 46
0.0
 47
0.1
 48
0.1
140
3.2
141
0.0
142
0.0
143
0.0393701
144
1.0
145
0.0
146
0.71
147
1.5
 71
     0
 72
     0
 73
     0
 74
     0
 75
     0
 76
     0
 77
     0
 78
     8
170
     0
171
     2
172
     1
173
     0
174
     0
175
     0
176
   256
177
   256
178
     2
270
     2
271
     2
272
     2
273
     2
274
     2
340
6B
275
     0
280
     0
281
     0
282
     0
283
     0
284
     0
285
     0
286
     0
287
     3
288
     0
  0
DIMSTYLE
105
62
330
A
100
AcDbSymbolTableRecord
100
AcDbDimStyleTableRecord
  2
AM_JIS$7
 70
     0
  3

  4
"
  5
OPEN30
  6

  7

 40
1.0
 41
2.5
 42
1.0
 43
10.0
 44
1.0
 45
0.0
 46
0.0
 47
0.1
 48
0.1
140
3.2
141
0.0
142
0.0
143
0.0393701
144
1.0
145
0.0
146
0.71
147
1.5
 71
     0
 72
     0
 73
     0
 74
     0
 75
     0
 76
     0
 77
     3
 78
     8
170
     0
171
     2
172
     1
173
     0
174
     0
175
     0
176
   256
177
   256
178
     2
270
     2
271
     2
272
     3
273
     2
274
     2
340
6B
275
     0
280
     0
281
     0
282
     0
283
     0
284
     0
285
     0
286
     0
287
     3
288
     0
  0
DIMSTYLE
105
63
330
A
100
AcDbSymbolTableRecord
100
AcDbDimStyleTableRecord
  2
AM_JIS$SF
 70
     0
  3

  4
"
  5
OPEN30
  6

  7

 40
1.0
 41
2.5
 42
1.0
 43
10.0
 44
1.0
 45
0.0
 46
0.0
 47
0.1
 48
0.1
140
3.2
141
0.0
142
0.0
143
0.0393701
144
1.0
145
0.0
146
0.71
147
1.5
 71
     0
 72
     0
 73
     0
 74
     0
 75
     1
 76
     1
 77
     3
 78
     8
170
     0
171
     2
172
     1
173
     0
174
     0
175
     0
176
   256
177
   256
178
     2
270
     2
271
     2
272
     2
273
     2
274
     2
340
6B
275
     0
280
     0
281
     0
282
     0
283
     0
284
     0
285
     0
286
     0
287
     3
288
     0
  0
DIMSTYLE
105
68
330
A
100
AcDbSymbolTableRecord
100
AcDbDimStyleTableRecord
  2
AM_JIS$SH
 70
     0
  3

  4
"
  5

  6
GENAXEH
  7
OPEN30
 40
1.0
 41
2.5
 42
1.0
 43
10.0
 44
1.0
 45
0.0
 46
0.0
 47
0.1
 48
0.1
140
3.2
141
0.0
142
0.0
143
0.0393701
144
2.0
145
0.0
146
0.71
147
1.5
 71
     0
 72
     0
 73
     0
 74
     0
 75
     1
 76
     1
 77
     3
 78
     8
170
     0
171
     2
172
     1
173
     1
174
     0
175
     0
176
   256
177
   256
178
     2
270
     2
271
     2
272
     2
273
     2
274
     2
340
6B
275
     0
280
     0
281
     0
282
     0
283
     0
284
     0
285
     0
286
     0
287
     3
288
     0
  0
DIMSTYLE
105
B34
330
A
100
AcDbSymbolTableRecord
100
AcDbDimStyleTableRecord
  2
AM_JIS$2
 70
     0
  3

  4
"
  5
OPEN30
  6

  7

 40
1.0
 41
2.5
 42
1.0
 43
12.0
 44
1.0
 45
0.0
 46
0.0
 47
0.1
 48
0.1
140
3.2
141
0.0
142
0.0
143
0.0393701
144
1.0
145
0.0
146
0.71
147
1.5
 71
     0
 72
     0
 73
     0
 74
     0
 75
     0
 76
     0
 77
     3
 78
     8
170
     0
171
     2
172
     1
173
     0
174
     0
175
     0
176
   256
177
   256
178
     2
270
     2
271
     3
272
     3
273
     2
274
     2
340
6B
275
     0
280
     0
281
     0
282
     0
283
     0
284
     0
285
     0
286
     0
287
     3
288
     0
  0
ENDTAB
  0
TABLE
  2
BLOCK_RECORD
  5
1
330
0
100
AcDbSymbolTable
 70
    10
  0
BLOCK_RECORD
  5
1F
102
{ACAD_XDICTIONARY
360
74
102
}
330
1
100
AcDbSymbolTableRecord
100
AcDbBlockTableRecord
  2
*MODEL_SPACE
  0
BLOCK_RECORD
  5
101
102
{ACAD_XDICTIONARY
360
3089
102
}
330
1
100
AcDbSymbolTableRecord
100
AcDbBlockTableRecord
  2
*PAPER_SPACE
  0
BLOCK_RECORD
  5
59
330
1
100
AcDbSymbolTableRecord
100
AcDbBlockTableRecord
  2
_OPEN30
  0
BLOCK_RECORD
  5
64
330
1
100
AcDbSymbolTableRecord
100
AcDbBlockTableRecord
  2
GENAXEH
  0
BLOCK_RECORD
  5
C75
330
1
100
AcDbSymbolTableRecord
100
AcDbBlockTableRecord
  2
*D5
  0
BLOCK_RECORD
  5
194D
330
1
100
AcDbSymbolTableRecord
100
AcDbBlockTableRecord
  2
*D6
  0
BLOCK_RECORD
  5
195C
330
1
100
AcDbSymbolTableRecord
100
AcDbBlockTableRecord
  2
*D7
  0
BLOCK_RECORD
  5
2C06
330
1
100
AcDbSymbolTableRecord
100
AcDbBlockTableRecord
  2
*D8
  0
BLOCK_RECORD
  5
2F2D
330
1
100
AcDbSymbolTableRecord
100
AcDbBlockTableRecord
  2
*D9
  0
ENDTAB
  0
ENDSEC
  0
SECTION
  2
BLOCKS
  0
BLOCK
  5
20
330
1F
100
AcDbEntity
  8
0
100
AcDbBlockBegin
  2
*MODEL_SPACE
 70
     0
 10
0.0
 20
0.0
 30
0.0
  3
*MODEL_SPACE
  1

  0
ENDBLK
  5
21
330
1F
100
AcDbEntity
  8
0
100
AcDbBlockEnd
  0
BLOCK
  5
103
330
101
100
AcDbEntity
 67
     1
  8
0
100
AcDbBlockBegin
  2
*PAPER_SPACE
 70
     0
 10
0.0
 20
0.0
 30
0.0
  3
*PAPER_SPACE
  1

  0
ENDBLK
  5
104
330
101
100
AcDbEntity
 67
     1
  8
0
100
AcDbBlockEnd
  0
BLOCK
  5
5D
330
59
100
AcDbEntity
  8
0
100
AcDbBlockBegin
  2
_OPEN30
 70
     0
 10
0.0
 20
0.0
 30
0.0
  3
_OPEN30
  1

  0
LINE
  5
5A
330
59
100
AcDbEntity
  8
0
 62
     0
100
AcDbLine
 10
-1.0
 20
0.26794919
 30
0.0
 11
0.0
 21
0.0
 31
0.0
  0
LINE
  5
5B
330
59
100
AcDbEntity
  8
0
 62
     0
100
AcDbLine
 10
0.0
 20
0.0
 30
0.0
 11
-1.0
 21
-0.26794919
 31
0.0
  0
LINE
  5
5C
330
59
100
AcDbEntity
  8
0
 62
     0
100
AcDbLine
 10
0.0
 20
0.0
 30
0.0
 11
-1.0
 21
0.0
 31
0.0
  0
ENDBLK
  5
5E
330
59
100
AcDbEntity
  8
0
100
AcDbBlockEnd
  0
BLOCK
  5
66
330
64
100
AcDbEntity
  8
0
100
AcDbBlockBegin
  2
GENAXEH
 70
     0
 10
0.0
 20
0.0
 30
0.0
  3
GENAXEH
  1

  0
LINE
  5
65
330
64
100
AcDbEntity
  8
0
100
AcDbLine
 10
-1.0
 20
0.0
 30
0.0
 11
1.0
 21
0.0
 31
0.0
  0
ENDBLK
  5
67
330
64
100
AcDbEntity
  8
0
100
AcDbBlockEnd
  0
BLOCK
  5
C7F
330
C75
100
AcDbEntity
  8
0
100
AcDbBlockBegin
  2
*D5
 70
     1
 10
0.0
 20
0.0
 30
0.0
  3
*D5
  1

  0
LINE
  5
3031
330
C75
100
AcDbEntity
  8
AM_5
100
AcDbLine
 10
-279.9995439835799
 20
-7.500000000000008
 30
0.0
 11
-279.9995439835799
 21
-35.00000120223985
 31
0.0
  0
LINE
  5
3032
330
C75
100
AcDbEntity
  8
AM_5
100
AcDbLine
 10
-0.0000000000000587
 20
-1.000000000000003
 30
0.0
 11
-0.0000000000000608
 21
-35.00000120223985
 31
0.0
  0
LINE
  5
3033
330
C75
100
AcDbEntity
  8
AM_5
100
AcDbLine
 10
-277.4995439835799
 20
-34.00000120223985
 30
0.0
 11
-2.50000000000006
 21
-34.00000120223985
 31
0.0
  0
INSERT
  5
3034
330
C75
100
AcDbEntity
  8
AM_5
100
AcDbBlockReference
  2
_OPEN30
 10
-279.9995439835799
 20
-34.00000120223985
 30
0.0
 41
2.5
 42
2.5
 43
2.5
 50
180.0
  0
INSERT
  5
3035
330
C75
100
AcDbEntity
  8
AM_5
100
AcDbBlockReference
  2
_OPEN30
 10
-0.0000000000000607
 20
-34.00000120223985
 30
0.0
 41
2.5
 42
2.5
 43
2.5
  0
MTEXT
  5
3036
330
C75
100
AcDbEntity
  8
AM_5
 62
     2
100
AcDbMText
 10
-139.99977199179
 20
-30.90000120223985
 30
0.0
 40
3.2
 41
0.0
 71
     5
 72
     1
  1
280
  7
ASAMI
1001
ACAD
1000
MTEXTBEGIN
1070
    73
1070
     1
1070
    44
1040
1.0
1070
    74
1070
     0
1000
MTEXTEND
  0
POINT
  5
3037
330
C75
100
AcDbEntity
  8
DEFPOINTS
 62
     0
100
AcDbPoint
 10
-279.9995439835799
 20
-6.500000000000008
 30
0.0
  0
POINT
  5
3038
330
C75
100
AcDbEntity
  8
DEFPOINTS
 62
     0
100
AcDbPoint
 10
-0.0000000000000586
 20
-0.0000000000000036
 30
0.0
  0
POINT
  5
3039
330
C75
100
AcDbEntity
  8
DEFPOINTS
 62
     0
100
AcDbPoint
 10
-0.0000000000000607
 20
-34.00000120223985
 30
0.0
  0
ENDBLK
  5
C80
330
C75
100
AcDbEntity
  8
0
100
AcDbBlockEnd
  0
BLOCK
  5
1959
330
194D
100
AcDbEntity
  8
0
100
AcDbBlockBegin
  2
*D6
 70
     1
 10
0.0
 20
0.0
 30
0.0
  3
*D6
  1

  0
LINE
  5
2F60
330
194D
100
AcDbEntity
  8
AM_5
100
AcDbLine
 10
-6.999990009112493
 20
-7.987356675518516
 30
0.0
 11
17.65831679456914
 21
-7.987356675518523
 31
0.0
  0
LINE
  5
2F61
330
194D
100
AcDbEntity
  8
AM_5
100
AcDbLine
 10
-6.99999000911249
 20
8.012643324425479
 30
0.0
 11
17.65831679456915
 21
8.012643324425472
 31
0.0
  0
LINE
  5
2F62
330
194D
100
AcDbEntity
  8
AM_5
100
AcDbLine
 10
16.65831679456914
 20
-5.487356675518523
 30
0.0
 11
16.65831679456914
 21
5.512643324425472
 31
0.0
  0
INSERT
  5
2F63
330
194D
100
AcDbEntity
  8
AM_5
100
AcDbBlockReference
  2
_OPEN30
 10
16.65831679456914
 20
-7.987356675518523
 30
0.0
 41
2.5
 42
2.5
 43
2.5
 50
270.0
  0
INSERT
  5
2F64
330
194D
100
AcDbEntity
  8
AM_5
100
AcDbBlockReference
  2
_OPEN30
 10
16.65831679456915
 20
8.012643324425472
 30
0.0
 41
2.5
 42
2.5
 43
2.5
 50
90.0
  0
MTEXT
  5
2F65
330
194D
100
AcDbEntity
  8
AM_5
 62
     2
100
AcDbMText
 10
13.55831679456914
 20
0.012643324453477
 30
0.0
 40
3.2
 41
0.0
 71
     5
 72
     1
  1
%%c16
  7
ASAMI
 11
0.0000000000000001
 21
1.0
 31
0.0
1001
ACAD
1000
MTEXTBEGIN
1070
    73
1070
     1
1070
    44
1040
1.0
1070
    74
1070
     0
1000
MTEXTEND
  0
POINT
  5
2F66
330
194D
100
AcDbEntity
  8
DEFPOINTS
 62
     0
100
AcDbPoint
 10
-7.999990009112493
 20
-7.987356675518516
 30
0.0
  0
POINT
  5
2F67
330
194D
100
AcDbEntity
  8
DEFPOINTS
 62
     0
100
AcDbPoint
 10
-7.99999000911249
 20
8.012643324425479
 30
0.0
  0
POINT
  5
2F68
330
194D
100
AcDbEntity
  8
DEFPOINTS
 62
     0
100
AcDbPoint
 10
16.65831679456915
 20
8.012643324425472
 30
0.0
  0
ENDBLK
  5
195A
330
194D
100
AcDbEntity
  8
0
100
AcDbBlockEnd
  0
BLOCK
  5
1968
330
195C
100
AcDbEntity
  8
0
100
AcDbBlockBegin
  2
*D7
 70
     1
 10
0.0
 20
0.0
 30
0.0
  3
*D7
  1

  0
LINE
  5
2F57
330
195C
100
AcDbEntity
  8
AM_5
100
AcDbLine
 10
-23.99956539650543
 20
-8.987356675518523
 30
0.0
 11
-23.99956539650543
 21
-23.00000120224042
 31
0.0
  0
LINE
  5
2F58
330
195C
100
AcDbEntity
  8
AM_5
100
AcDbLine
 10
-0.0000000000000587
 20
-1.000000000000003
 30
0.0
 11
-0.00000000000006
 21
-23.00000120224042
 31
0.0
  0
LINE
  5
2F59
330
195C
100
AcDbEntity
  8
AM_5
100
AcDbLine
 10
-21.49956539650543
 20
-22.00000120224042
 30
0.0
 11
-2.500000000000059
 21
-22.00000120224042
 31
0.0
  0
INSERT
  5
2F5A
330
195C
100
AcDbEntity
  8
AM_5
100
AcDbBlockReference
  2
_OPEN30
 10
-23.99956539650543
 20
-22.00000120224042
 30
0.0
 41
2.5
 42
2.5
 43
2.5
 50
180.0
  0
INSERT
  5
2F5B
330
195C
100
AcDbEntity
  8
AM_5
100
AcDbBlockReference
  2
_OPEN30
 10
-0.00000000000006
 20
-22.00000120224042
 30
0.0
 41
2.5
 42
2.5
 43
2.5
  0
MTEXT
  5
2F5C
330
195C
100
AcDbEntity
  8
AM_5
 62
     2
100
AcDbMText
 10
-11.99978269825274
 20
-18.90000120224041
 30
0.0
 40
3.2
 41
0.0
 71
     5
 72
     1
  1
24
  7
ASAMI
1001
ACAD
1000
MTEXTBEGIN
1070
    73
1070
     1
1070
    44
1040
1.0
1070
    74
1070
     0
1000
MTEXTEND
  0
POINT
  5
2F5D
330
195C
100
AcDbEntity
  8
DEFPOINTS
 62
     0
100
AcDbPoint
 10
-23.99956539650543
 20
-7.987356675518523
 30
0.0
  0
POINT
  5
2F5E
330
195C
100
AcDbEntity
  8
DEFPOINTS
 62
     0
100
AcDbPoint
 10
-0.0000000000000586
 20
-0.0000000000000036
 30
0.0
  0
POINT
  5
2F5F
330
195C
100
AcDbEntity
  8
DEFPOINTS
 62
     0
100
AcDbPoint
 10
-0.00000000000006
 20
-22.00000120224042
 30
0.0
  0
ENDBLK
  5
1969
330
195C
100
AcDbEntity
  8
0
100
AcDbBlockEnd
  0
BLOCK
  5
2C0D
330
2C06
100
AcDbEntity
  8
0
100
AcDbBlockBegin
  2
*D8
 70
     1
 10
0.0
 20
0.0
 30
0.0
  3
*D8
  1

  0
LINE
  5
2F75
330
2C06
100
AcDbEntity
  8
AM_5
100
AcDbLine
 10
-0.7226964042454665
 20
-7.580107603738978
 30
0.0
 11
14.55667978977429
 21
-23.47886928267065
 31
0.0
  0
INSERT
  5
2F76
330
2C06
100
AcDbEntity
  8
AM_5
100
AcDbBlockReference
  2
_OPEN30
 10
-2.455003063780028
 20
-5.777577815543451
 30
0.0
 41
2.5
 42
2.5
 43
2.5
 50
133.8619106485944
  0
MTEXT
  5
2F77
330
2C06
100
AcDbEntity
  8
AM_5
 62
     2
100
AcDbMText
 10
12.32081572967135
 20
-16.67856547626696
 30
0.0
 40
3.2
 41
0.0
 71
     5
 72
     1
  1
R8.0
  7
ASAMI
 11
0.6929226638138245
 21
-0.7210119152782108
 31
0.0
1001
ACAD
1000
MTEXTBEGIN
1070
    73
1070
     1
1070
    44
1040
1.0
1070
    74
1070
     0
1000
MTEXTEND
  0
POINT
  5
2F78
330
2C06
100
AcDbEntity
  8
DEFPOINTS
 62
     0
100
AcDbPoint
 10
-2.455003063780028
 20
-5.777577815543451
 30
0.0
  0
POINT
  5
2F79
330
2C06
100
AcDbEntity
  8
DEFPOINTS
 62
     0
100
AcDbPoint
 10
-7.998384374271218
 20
-0.0094824933379565
 30
0.0
  0
ENDBLK
  5
2C0E
330
2C06
100
AcDbEntity
  8
0
100
AcDbBlockEnd
  0
BLOCK
  5
2F37
330
2F2D
100
AcDbEntity
  8
0
100
AcDbBlockBegin
  2
*D9
 70
     1
 10
0.0
 20
0.0
 30
0.0
  3
*D9
  1

  0
LINE
  5
2FF2
330
2F2D
100
AcDbEntity
  8
AM_5
100
AcDbLine
 10
-279.99954398358
 20
-8.000000000000008
 30
0.0
 11
-299.7692914140725
 21
-8.000000000000003
 31
0.0
  0
LINE
  5
2FF3
330
2F2D
100
AcDbEntity
  8
AM_5
100
AcDbLine
 10
-279.99954398358
 20
8.0
 30
0.0
 11
-299.7692914140725
 21
8.000000000000005
 31
0.0
  0
LINE
  5
2FF4
330
2F2D
100
AcDbEntity
  8
AM_5
100
AcDbLine
 10
-298.7692914140725
 20
-5.500000000000002
 30
0.0
 11
-298.7692914140725
 21
5.500000000000005
 31
0.0
  0
INSERT
  5
2FF5
330
2F2D
100
AcDbEntity
  8
AM_5
100
AcDbBlockReference
  2
_OPEN30
 10
-298.7692914140725
 20
-8.000000000000003
 30
0.0
 41
2.5
 42
2.5
 43
2.5
 50
270.0
  0
INSERT
  5
2FF6
330
2F2D
100
AcDbEntity
  8
AM_5
100
AcDbBlockReference
  2
_OPEN30
 10
-298.7692914140725
 20
8.000000000000005
 30
0.0
 41
2.5
 42
2.5
 43
2.5
 50
90.0
  0
MTEXT
  5
2FF7
330
2F2D
100
AcDbEntity
  8
AM_5
 62
     2
100
AcDbMText
 10
-301.8692914140725
 20
-0.0000000000000387
 30
0.0
 40
3.2
 41
0.0
 71
     5
 72
     1
  1
%%c16
  7
ASAMI
 11
0.0000000000000001
 21
1.0
 31
0.0
1001
ACAD
1000
MTEXTBEGIN
1070
    73
1070
     1
1070
    44
1040
1.0
1070
    74
1070
     0
1000
MTEXTEND
  0
POINT
  5
2FF8
330
2F2D
100
AcDbEntity
  8
DEFPOINTS
 62
     0
100
AcDbPoint
 10
-278.99954398358
 20
-8.000000000000008
 30
0.0
  0
POINT
  5
2FF9
330
2F2D
100
AcDbEntity
  8
DEFPOINTS
 62
     0
100
AcDbPoint
 10
-278.99954398358
 20
8.0
 30
0.0
  0
POINT
  5
2FFA
330
2F2D
100
AcDbEntity
  8
DEFPOINTS
 62
     0
100
AcDbPoint
 10
-298.7692914140725
 20
8.000000000000005
 30
0.0
  0
ENDBLK
  5
2F38
330
2F2D
100
AcDbEntity
  8
0
100
AcDbBlockEnd
  0
ENDSEC
  0
SECTION
  2
ENTITIES
  0
DIMENSION
  5
C4F
330
1F
100
AcDbEntity
  8
AM_5
100
AcDbDimension
  2
*D5
 10
-0.0000000000000607
 20
-34.00000120223985
 30
0.0
 11
-139.99977199179
 21
-30.90000120223985
 31
0.0
 70
    32
  1
<>
  3
AM_JIS
100
AcDbAlignedDimension
 13
-279.9995439835799
 23
-6.500000000000008
 33
0.0
 14
-0.0000000000000586
 24
-0.0000000000000036
 34
0.0
 50
0.0000000000002036
100
AcDbRotatedDimension
1001
GENIUS_GENDTOL_13
1000

1000
H7
1000

1040
0.0
  0
LINE
  5
C50
330
1F
100
AcDbEntity
  8
AM_7
100
AcDbLine
 10
-284.7692904140726
 20
-0.0000000000000036
 30
0.0
 11
2.658315794569177
 21
-0.0000000000000036
 31
0.0
1001
GENIUS_GENODEF_13
1002
{
1000
HIER
1070
     0
1002
}
1002
{
1000
MANEDIT
1070
     0
1002
}
1002
{
1000
NOSEL
1070
     0
1002
}
1002
{
1000
BEHIND
1070
     0
1002
}
1002
{
1000
REACTOR
1002
}
1001
GENIUS_GENOBJ-N-CEN_13
1002
{
1000
OWNER
1000
GEN
1002
}
  0
TEXT
  5
C58
330
1F
100
AcDbEntity
  8
AM_6
100
AcDbText
 10
-162.8569148489328
 20
-56.50000120223993
 30
0.0
 40
5.0
  1
ESNB2160ZX
 50
0.0000000000002036
 72
     4
 11
-139.99977199179
 21
-54.00000120223985
 31
0.0
100
AcDbText
  0
DIMENSION
  5
194C
330
1F
100
AcDbEntity
  8
AM_5
100
AcDbDimension
  2
*D6
 10
16.65831679456915
 20
8.012643324425472
 30
0.0
 11
13.55831679456914
 21
0.012643324453477
 31
0.0
 70
    32
  1
%%c<>
  3
AM_JIS
100
AcDbAlignedDimension
 13
-7.999990009112493
 23
-7.987356675518516
 33
0.0
 14
-7.99999000911249
 24
8.012643324425479
 34
0.0
 50
90.0
100
AcDbRotatedDimension
1001
GENIUS_GENDTOL_13
1000

1000
H7
1000

1040
0.0
  0
DIMENSION
  5
195B
330
1F
100
AcDbEntity
  8
AM_5
100
AcDbDimension
  2
*D7
 10
-0.00000000000006
 20
-22.00000120224042
 30
0.0
 11
-11.99978269825274
 21
-18.90000120224041
 31
0.0
 70
    32
  1
<>
  3
AM_JIS
100
AcDbAlignedDimension
 13
-23.99956539650543
 23
-7.987356675518523
 33
0.0
 14
-0.0000000000000586
 24
-0.0000000000000036
 34
0.0
 50
359.9999999999988
100
AcDbRotatedDimension
1001
GENIUS_GENDTOL_13
1000

1000
H7
1000

1040
0.0
  0
ARC
  5
1C9A
330
1F
100
AcDbEntity
  8
AM_5
100
AcDbCircle
 10
-7.999990009112491
 20
0.0126433244534816
 30
0.0
 40
7.999999999971998
100
AcDbArc
 50
270.0
 51
90.0
  0
LINE
  5
1CA1
330
1F
100
AcDbEntity
  8
AM_11
 48
0.5
100
AcDbLine
 10
-23.99956539650543
 20
-7.987356675518523
 30
0.0
 11
-7.999990301114443
 21
-7.987356675518523
 31
0.0
1001
GENIUS_GENODEF_13
1002
{
1000
HIER
1070
     0
1002
}
1002
{
1000
MANEDIT
1070
     0
1002
}
1002
{
1000
NOSEL
1070
     0
1002
}
1002
{
1000
BEHIND
1070
     0
1002
}
1002
{
1000
REACTOR
1002
}
1001
GENIUS_GENOBJ-N-CEN_13
1002
{
1000
OWNER
1000
GEN
1002
}
  0
LINE
  5
1CB1
330
1F
100
AcDbEntity
  8
AM_11
 48
0.5
100
AcDbLine
 10
-23.99956539650543
 20
8.012643324481476
 30
0.0
 11
-7.999990009112491
 21
8.012643324481476
 31
0.0
1001
GENIUS_GENODEF_13
1002
{
1000
HIER
1070
     0
1002
}
1002
{
1000
MANEDIT
1070
     0
1002
}
1002
{
1000
NOSEL
1070
     0
1002
}
1002
{
1000
BEHIND
1070
     0
1002
}
1002
{
1000
REACTOR
1002
}
1001
GENIUS_GENOBJ-N-CEN_13
1002
{
1000
OWNER
1000
GEN
1002
}
  0
LINE
  5
1E67
330
1F
100
AcDbEntity
  8
AM_0
100
AcDbLine
 10
-279.9995439835799
 20
-6.500000000000008
 30
0.0
 11
-278.99954398358
 21
-8.000000000000008
 31
0.0
1001
GENIUS_GENFIL_13
1070
     0
1040
0.5
1040
0.5
1040
0.4999999999999716
1040
45.00000000000036
1002
{
1002
}
  0
DIMENSION
  5
2C05
330
1F
100
AcDbEntity
  8
AM_5
100
AcDbDimension
  2
*D8
 10
-7.998384374271218
 20
-0.0094824933379565
 30
0.0
 11
10.08567879230889
 21
-18.82662573408981
 31
0.0
 70
   164
  1
<>
  3
AM_JIS$4
100
AcDbRadialDimension
 15
-2.455003063780028
 25
-5.777577815543451
 35
0.0
 40
0.0
1001
GENIUS_GENDTOL_13
1000

1000
h7
1000

1040
0.0
1001
ACAD
1000
DSTYLE
1002
{
1070
    78
1070
     0
1070
   271
1070
     1
1070
   288
1070
     1
1070
   289
1070
     0
1070
    74
1070
     0
1002
}
  0
LINE
  5
2CE5
330
1F
100
AcDbEntity
  8
AM_0
100
AcDbLine
 10
-0.3154200078338187
 20
-0.4150786929153263
 30
0.0
 11
-1.106734293545285
 21
-0.5560481309505825
 31
0.0
  0
LINE
  5
2CE6
330
1F
100
AcDbEntity
  8
AM_0
100
AcDbLine
 10
0.0000085635935303
 20
0.0126433244534816
 30
0.0
 11
-0.3154200078338187
 21
-0.4150786929153263
 31
0.0
  0
SPLINE
  5
2CE7
330
1F
100
AcDbEntity
  8
AM_0
100
AcDbSpline
210
0.0
220
0.0
230
1.0
 70
     8
 71
     3
 72
     8
 73
     4
 74
     0
 42
0.0000000001
 43
0.0000000001
 40
3.790408995970492
 40
3.790408995970492
 40
3.790408995970492
 40
3.790408995970492
 40
5.485524909568358
 40
5.485524909568358
 40
5.485524909568358
 40
5.485524909568358
 10
-6.857134293506913
 20
7.263104096331487
 30
0.0
 10
-7.599578099355087
 20
7.05030899924125
 30
0.0
 10
-8.335854641581429
 20
6.797091605581185
 30
0.0
 10
-9.066940988381412
 20
6.509855945210771
 30
0.0
  0
SPLINE
  5
2CE8
330
1F
100
AcDbEntity
  8
AM_0
100
AcDbSpline
210
0.0
220
0.0
230
1.0
 70
     8
 71
     3
 72
     8
 73
     4
 74
     0
 42
0.0000000001
 43
0.0000000001
 40
0.0
 40
0.0
 40
0.0
 40
0.0
 40
2.400427856148001
 40
2.400427856148001
 40
2.400427856148001
 40
2.400427856148001
 10
-6.85713429350628
 20
7.263104096331487
 30
0.0
 10
-6.30481338950276
 20
6.412830532684654
 30
0.0
 10
-7.914748608553809
 20
6.464393695796965
 30
0.0
 10
-9.524683827604857
 20
6.515956858909275
 30
0.0
  0
ELLIPSE
  5
2CE9
330
1F
100
AcDbEntity
  8
AM_0
100
AcDbEllipse
 10
-6.82697727896018
 20
-0.7368185372409037
 30
0.0
 11
0.0000000000000014
 21
7.999999999972005
 31
0.0
210
0.0
220
0.0
230
1.0
 40
0.8571428571428572
 41
-1.476976016331602
 42
0.0043979121318491
  0
SPLINE
  5
2CEA
330
1F
100
AcDbEntity
  8
AM_0
100
AcDbSpline
210
0.0
220
0.0
230
1.0
 70
     8
 71
     3
 72
     8
 73
     4
 74
     0
 42
0.0000000001
 43
0.0000000001
 40
0.0
 40
0.0
 40
0.0
 40
0.0
 40
1.293721832890842
 40
1.293721832890842
 40
1.293721832890842
 40
1.293721832890842
 10
-37.80369005864573
 20
-8.000000000000012
 30
0.0
 10
-33.82715660931026
 20
-8.000000202239981
 30
0.0
 10
-32.40096307539064
 20
-7.87746291552576
 30
0.0
 10
-30.99404424774556
 20
-7.653835630602771
 30
0.0
  0
SPLINE
  5
2CEB
330
1F
100
AcDbEntity
  8
AM_0
100
AcDbSpline
210
0.0
220
0.0
230
1.0
 70
     8
 71
     3
 72
     8
 73
     4
 74
     0
 42
0.0000000001
 43
0.0000000001
 40
0.3950956770951979
 40
0.3950956770951979
 40
0.3950956770951979
 40
0.3950956770951979
 40
1.389839699216864
 40
1.389839699216864
 40
1.389839699216864
 40
1.389839699216864
 10
-30.99404424774553
 20
-7.653835630602848
 30
0.0
 10
-29.88945000329104
 20
-7.599530829709409
 30
0.0
 10
-28.7970628496939
 20
-7.478749743501747
 30
0.0
 10
-27.71513876403922
 20
-7.300989816230868
 30
0.0
  0
SPLINE
  5
2CEC
330
1F
100
AcDbEntity
  8
AM_0
100
AcDbSpline
210
0.0
220
0.0
230
1.0
 70
     8
 71
     3
 72
     8
 73
     4
 74
     0
 42
0.0000000001
 43
0.0000000001
 40
0.3443266156513821
 40
0.3443266156513821
 40
0.3443266156513821
 40
0.3443266156513821
 40
1.748655602797241
 40
1.748655602797241
 40
1.748655602797241
 40
1.748655602797241
 10
-27.71513876474615
 20
-7.300989816259678
 30
0.0
 10
-26.15297566915192
 20
-7.236443829995251
 30
0.0
 10
-24.61335042521844
 20
-7.043443376335907
 30
0.0
 10
-20.13727905001596
 20
-6.307304612790812
 30
0.0
  0
SPLINE
  5
2CED
330
1F
100
AcDbEntity
  8
AM_0
100
AcDbSpline
210
0.0
220
0.0
230
1.0
 70
     8
 71
     3
 72
     8
 73
     4
 74
     0
 42
0.0000000001
 43
0.0000000001
 40
0.0
 40
0.0
 40
0.0
 40
0.0
 40
2.238610194515266
 40
2.238610194515266
 40
2.238610194515266
 40
2.238610194515266
 10
-19.96447714949723
 20
-6.246992928233196
 30
0.0
 10
-17.45621434695789
 20
-6.246992928233196
 30
0.0
 10
-14.99340045442578
 20
-5.946023357935046
 30
0.0
 10
-12.56194176542223
 20
-5.437414877677695
 30
0.0
  0
LINE
  5
2CEE
330
1F
100
AcDbEntity
  8
AM_0
100
AcDbLine
 10
-17.88058816643887
 20
-6.179073757437119
 30
0.0
 11
-22.39396993359306
 21
-6.435535468144504
 31
0.0
  0
LINE
  5
2CEF
330
1F
100
AcDbEntity
  8
AM_0
100
AcDbLine
 10
-29.54241833674247
 20
6.782758347035651
 30
0.0
 11
-9.524683827604858
 21
6.51595685890928
 31
0.0
  0
ELLIPSE
  5
2CF0
330
1F
100
AcDbEntity
  8
AM_0
100
AcDbEllipse
 10
-14.33997661807752
 20
-16.25144515656543
 30
0.0
 11
0.0000000000000127
 21
23.38023190420236
 31
0.0
210
0.0
220
0.0
230
1.0
 40
0.8571428571428571
 41
-0.7969676180332665
 42
-0.2298599996611264
  0
SPLINE
  5
2CF1
330
1F
100
AcDbEntity
  8
AM_0
100
AcDbSpline
210
0.0
220
0.0
230
1.0
 70
     8
 71
     3
 72
     8
 73
     4
 74
     0
 42
0.0000000001
 43
0.0000000001
 40
0.0
 40
0.0
 40
0.0
 40
0.0
 40
4.664065259525107
 40
4.664065259525107
 40
4.664065259525107
 40
4.664065259525107
 10
-5.841987889540762
 20
2.020051053354081
 30
0.0
 10
-7.452303571047319
 20
2.896104010076611
 30
0.0
 10
-11.28375518917681
 20
6.807948040217863
 30
0.0
 10
-9.524683827605478
 20
6.515956858909275
 30
0.0
  0
LINE
  5
2CF2
330
1F
100
AcDbEntity
  8
AM_0
100
AcDbLine
 10
-5.766720106159659
 20
1.979103452250942
 30
0.0
 11
-1.106734293545285
 21
-0.5560481309505825
 31
0.0
  0
ELLIPSE
  5
2CF3
330
1F
100
AcDbEntity
  8
AM_0
100
AcDbEllipse
 10
-5.871909401000198
 20
2.287240613837557
 30
0.0
 11
0.000000000000013
 21
6.244269079936679
 31
0.0
210
0.0
220
0.0
230
1.0
 40
0.8571428571428569
 41
3.292905900158553
 42
4.239630733081948
  0
ELLIPSE
  5
2CF4
330
1F
100
AcDbEntity
  8
AM_0
100
AcDbEllipse
 10
-5.814073961342328
 20
-7.333441229787094
 30
0.0
 11
0.0000000000000106
 21
1.220654977330009
 31
0.0
210
0.0
220
0.0
230
1.0
 40
0.8571428571428556
 41
0.6393902535358365
 42
1.492377887395503
  0
ELLIPSE
  5
2CF5
330
1F
100
AcDbEntity
  8
AM_0
100
AcDbEllipse
 10
-6.7537508207164
 20
1.354273242314181
 30
0.0
 11
0.0000000000000086
 21
7.716963466025424
 31
0.0
210
0.0
220
0.0
230
1.0
 40
0.8571428571428571
 41
3.189287156089243
 42
4.481050195177781
  0
ELLIPSE
  5
2CF6
330
1F
100
AcDbEntity
  8
AM_0
100
AcDbEllipse
 10
-6.82697727896018
 20
0.7621051861474691
 30
0.0
 11
0.0000000000000014
 21
7.999999999972005
 31
0.0
210
0.0
220
0.0
230
1.0
 40
0.8571428571428572
 41
3.137194741457943
 42
4.618568669921396
  0
SPLINE
  5
2CF7
330
1F
100
AcDbEntity
  8
AM_0
100
AcDbSpline
210
0.0
220
0.0
230
1.0
 70
     8
 71
     3
 72
     8
 73
     4
 74
     0
 42
0.0000000001
 43
0.0000000001
 40
0.0
 40
0.0
 40
0.0
 40
0.0
 40
1.299592567846441
 40
1.299592567846441
 40
1.299592567846441
 40
1.299592567846441
 10
-6.438393213237851
 20
-6.353914746020078
 30
0.0
 10
-6.438393213237851
 20
-5.776318049199438
 30
0.0
 10
-6.246187894711812
 20
-5.228243047650182
 30
0.0
 10
-6.053982576185773
 20
-4.680168046100928
 30
0.0
  0
SPLINE
  5
2CF8
330
1F
100
AcDbEntity
  8
AM_0
100
AcDbSpline
210
0.0
220
0.0
230
1.0
 70
     8
 71
     3
 72
     8
 73
     4
 74
     0
 42
0.0000000001
 43
0.0000000001
 40
0.0
 40
0.0
 40
0.0
 40
0.0
 40
1.050571974683377
 40
1.050571974683377
 40
1.050571974683377
 40
1.050571974683377
 10
-5.065132868601208
 20
-3.885681299304705
 30
0.0
 10
-5.065132868601208
 20
-4.352602176941761
 30
0.0
 10
-5.653764681068295
 20
-4.680168046100928
 30
0.0
 10
-6.053982576185773
 20
-4.680168046100928
 30
0.0
  0
ELLIPSE
  5
2CF9
330
1F
100
AcDbEntity
  8
AM_0
100
AcDbEllipse
 10
-0.7873675367253014
 20
-0.1996401762630419
 30
0.0
 11
0.000000000000003
 21
6.204373245458267
 31
0.0
210
0.0
220
0.0
230
1.0
 40
0.8571428571428578
 41
1.211983871441737
 42
2.20694725810919
  0
SPLINE
  5
2CFA
330
1F
100
AcDbEntity
  8
AM_0
100
AcDbSpline
210
0.0
220
0.0
230
1.0
 70
     8
 71
     3
 72
     8
 73
     4
 74
     0
 42
0.0000000001
 43
0.0000000001
 40
7.981245920543044
 40
7.981245920543044
 40
7.981245920543044
 40
7.981245920543044
 40
14.43905044399483
 40
14.43905044399483
 40
14.43905044399483
 40
14.43905044399483
 10
-5.854045378824703
 20
-4.680168046100928
 30
0.0
 10
-9.174804339967112
 20
-3.071740432057109
 30
0.0
 10
-12.40543468673294
 20
-1.121207507646457
 30
0.0
 10
-15.66757028844013
 20
0.6674954330278542
 30
0.0
  0
SPLINE
  5
2CFB
330
1F
100
AcDbEntity
  8
AM_0
100
AcDbSpline
210
0.0
220
0.0
230
1.0
 70
     8
 71
     3
 72
     8
 73
     4
 74
     0
 42
0.0000000001
 43
0.0000000001
 40
3.7904089959839
 40
3.7904089959839
 40
3.7904089959839
 40
3.7904089959839
 40
14.48999654934396
 40
14.48999654934396
 40
14.48999654934396
 40
14.48999654934396
 10
-6.851061711633818
 20
-7.175823721048858
 30
0.0
 10
-12.80321857946604
 20
-5.331853287030243
 30
0.0
 10
-17.44850830779297
 20
-2.383608162176029
 30
0.0
 10
-22.49721045172669
 20
1.318475759773194
 30
0.0
  0
LINE
  5
2CFC
330
1F
100
AcDbEntity
  8
AM_11
 48
0.5
100
AcDbLine
 10
-23.99967404737909
 20
8.012643324481476
 30
0.0
 11
-23.99967404737909
 21
-7.987356675518523
 31
0.0
  0
SPLINE
  5
2CFD
330
1F
100
AcDbEntity
  8
AM_0
100
AcDbSpline
210
0.0
220
0.0
230
1.0
 70
     8
 71
     3
 72
     8
 73
     4
 74
     0
 42
0.0000000001
 43
0.0000000001
 40
4.071346735624547
 40
4.071346735624547
 40
4.071346735624547
 40
4.071346735624547
 40
6.91280490763674
 40
6.91280490763674
 40
6.91280490763674
 40
6.91280490763674
 10
-37.80369005864576
 20
-8.000000000000012
 30
0.0
 10
-42.47152269114642
 20
-8.000000000000012
 30
0.0
 10
-45.36111020084688
 20
-7.358639838689509
 30
0.0
 10
-45.87433843625369
 20
-4.697644950760866
 30
0.0
  0
ELLIPSE
  5
2CFE
330
1F
100
AcDbEntity
  8
AM_0
100
AcDbEllipse
 10
-37.40542175671473
 20
-12.8133840952946
 30
0.0
 11
-12.13812612581995
 21
0.0000000000000412
 31
0.0
210
0.0
220
0.0
230
1.0
 40
0.9333273478091301
 41
-1.5379790867995
 42
-0.798597612771535
  0
SPLINE
  5
2CFF
330
1F
100
AcDbEntity
  8
AM_0
100
AcDbSpline
210
0.0
220
0.0
230
1.0
 70
     8
 71
     3
 72
     8
 73
     4
 74
     0
 42
0.0000000001
 43
0.0000000001
 40
0.0
 40
0.0
 40
0.0
 40
0.0
 40
17.64836150091755
 40
17.64836150091755
 40
17.64836150091755
 40
17.64836150091755
 10
-22.39396993359306
 20
-6.435535468144499
 30
0.0
 10
-30.79288598489943
 20
-6.161793719697469
 30
0.0
 10
-38.10640592575252
 20
-1.506419980627503
 30
0.0
 10
-45.41992586660559
 20
3.148953758442462
 30
0.0
  0
ELLIPSE
  5
2D00
330
1F
100
AcDbEntity
  8
AM_0
100
AcDbEllipse
 10
-37.69510524341402
 20
0.217823314085205
 30
0.0
 11
8.338806927277325
 21
0.0000000000000301
 31
0.0
210
0.0
220
0.0
230
1.0
 40
0.9333273478091308
 41
1.55777433395239
 42
2.755453484347745
  0
SPLINE
  5
2D01
330
1F
100
AcDbEntity
  8
AM_0
100
AcDbSpline
210
0.0
220
0.0
230
1.0
 70
     8
 71
     3
 72
     8
 73
     4
 74
     0
 42
0.0000000001
 43
0.0000000001
 40
0.0
 40
0.0
 40
0.0
 40
0.0
 40
11.51199025993078
 40
11.51199025993078
 40
11.51199025993078
 40
11.51199025993078
 10
-34.62676559963098
 20
7.503314398559688
 30
0.0
 10
-29.16569073864655
 20
7.057387260067209
 30
0.0
 10
-24.37715912619342
 20
4.173655661642263
 30
0.0
 10
-19.58325514207444
 20
1.077787357355419
 30
0.0
  0
SPLINE
  5
2D02
330
1F
100
AcDbEntity
  8
AM_0
100
AcDbSpline
210
0.0
220
0.0
230
1.0
 70
     8
 71
     3
 72
     8
 73
     4
 74
     0
 42
0.0000000001
 43
0.0000000001
 40
0.0
 40
0.0
 40
0.0
 40
0.0
 40
11.69088918922736
 40
11.69088918922736
 40
11.69088918922736
 40
11.69088918922736
 10
-37.58652042818212
 20
7.999999999999986
 30
0.0
 10
-32.04057923015438
 20
7.547143053036569
 30
0.0
 10
-27.26889484094054
 20
4.432809406404881
 30
0.0
 10
-22.49721045172669
 20
1.318475759773193
 30
0.0
  0
SPLINE
  5
2D03
330
1F
100
AcDbEntity
  8
AM_0
100
AcDbSpline
210
0.0
220
0.0
230
1.0
 70
     8
 71
     3
 72
     8
 73
     4
 74
     0
 42
0.0000000001
 43
0.0000000001
 40
5.336187364352841
 40
5.336187364352841
 40
5.336187364352841
 40
5.336187364352841
 40
14.43905044399483
 40
14.43905044399483
 40
14.43905044399483
 40
14.43905044399483
 10
-6.334126310037862
 20
-6.311201370596633
 30
0.0
 10
-11.26110109971477
 20
-4.439150907352964
 30
0.0
 10
-15.762862574314
 20
-1.615938950791518
 30
0.0
 10
-19.58325514207444
 20
1.077787357355419
 30
0.0
  0
SPLINE
  5
2D04
330
1F
100
AcDbEntity
  8
AM_0
100
AcDbSpline
210
0.0
220
0.0
230
1.0
 70
     8
 71
     3
 72
     8
 73
     4
 74
     0
 42
0.0000000001
 43
0.0000000001
 40
0.0
 40
0.0
 40
0.0
 40
0.0
 40
12.33082961416466
 40
12.33082961416466
 40
12.33082961416466
 40
12.33082961416466
 10
-31.82506168662096
 20
7.059967784645683
 30
0.0
 10
-25.9675039631851
 20
6.677676588101784
 30
0.0
 10
-20.74315123893866
 20
3.758776603962568
 30
0.0
 10
-15.66757028844013
 20
0.6674954330278537
 30
0.0
  0
LINE
  5
2F28
330
1F
100
AcDbEntity
  8
AM_0
100
AcDbLine
 10
-278.99954398358
 20
-8.000000000000008
 30
0.0
 11
-37.80368021414001
 21
-8.000000000000008
 31
0.0
1001
GENIUS_GENODEF_13
1002
{
1000
HIER
1070
     0
1002
}
1002
{
1000
MANEDIT
1070
     0
1002
}
1002
{
1000
NOSEL
1070
     0
1002
}
1002
{
1000
BEHIND
1070
     0
1002
}
1002
{
1000
REACTOR
1002
}
1001
GENIUS_GENOBJ-N-CEN_13
1002
{
1000
OWNER
1000
GEN
1002
}
  0
LINE
  5
2F29
330
1F
100
AcDbEntity
  8
0
100
AcDbLine
 10
-278.99954398358
 20
-8.000000000000008
 30
0.0
 11
-278.99954398358
 21
7.999999999999984
 31
0.0
  0
LINE
  5
2F2A
330
1F
100
AcDbEntity
  8
AM_0
100
AcDbLine
 10
-279.9995439835799
 20
-6.500000000000008
 30
0.0
 11
-279.9995439835799
 21
5.999999999999987
 31
0.0
  0
LINE
  5
2F2B
330
1F
100
AcDbEntity
  8
AM_0
100
AcDbLine
 10
-279.9995439835799
 20
5.999999999999987
 30
0.0
 11
-278.99954398358
 21
7.999999999999984
 31
0.0
1001
GENIUS_GENFIL_13
1070
     0
1040
0.5
1040
0.5
1040
0.4999999999999716
1040
45.0
1002
{
1002
}
  0
DIMENSION
  5
2F2C
330
1F
100
AcDbEntity
  8
AM_5
100
AcDbDimension
  2
*D9
 10
-298.7692914140725
 20
8.000000000000005
 30
0.0
 11
-298.7692914140725
 21
-0.0000000000000391
 31
0.0
 70
   160
  1
%%c<>
  3
AM_JIS
100
AcDbAlignedDimension
 13
-278.99954398358
 23
-8.000000000000008
 33
0.0
 14
-278.99954398358
 24
8.0
 34
0.0
 50
270.0
100
AcDbRotatedDimension
1001
ACAD
1000
DSTYLE
1002
{
1070
    48
1040
0.1
1070
    47
1040
0.1
1070
   274
1070
     2
1070
   272
1070
     3
1002
}
1001
GENIUS_GENDTOL_13
1000

1000
h6
1000

1040
0.0
  0
LINE
  5
2F39
330
1F
100
AcDbEntity
  8
AM_0
100
AcDbLine
 10
-278.99954398358
 20
7.999999999999984
 30
0.0
 11
-37.69510524341404
 21
7.999999999999984
 31
0.0
1001
GENIUS_GENODEF_13
1002
{
1000
HIER
1070
     0
1002
}
1002
{
1000
MANEDIT
1070
     0
1002
}
1002
{
1000
NOSEL
1070
     0
1002
}
1002
{
1000
BEHIND
1070
     0
1002
}
1002
{
1000
REACTOR
1002
}
1001
GENIUS_GENOBJ-N-CEN_13
1002
{
1000
OWNER
1000
GEN
1002
}
  0
VIEWPORT
  5
110
330
101
100
AcDbEntity
 67
     1
  8
0
100
AcDbViewport
 10
420.5
 20
297.0
 30
0.0
 40
948.9782706766916
 41
628.452
 68
     1
 69
     1
1001
ACAD
1000
MVIEW
1002
{
1070
    16
1010
0.0
1020
0.0
1030
0.0
1010
0.0
1020
0.0
1030
1.0
1040
0.0
1040
628.452
1040
420.5
1040
297.0
1040
50.0
1040
0.0
1040
0.0
1070
     0
1070
   100
1070
     1
1070
     1
1070
     0
1070
     0
1070
     0
1070
     0
1040
0.0
1040
0.0
1040
0.0
1040
10.0
1040
10.0
1040
10.0
1040
10.0
1070
     0
1002
{
1002
}
1002
}
  0
ENDSEC
  0
SECTION
  2
OBJECTS
  0
DICTIONARY
  5
C
330
0
100
AcDbDictionary
  3
ACAD_GROUP
350
D
  3
ACAD_LAYOUT
350
1A
  3
ACAD_MLINESTYLE
350
17
  3
ACAD_PLOTSETTINGS
350
19
  3
ACAD_PLOTSTYLENAME
350
E
  3
ACDBVARIABLEDICTIONARY
350
34
  3
ACMDICTIONARY
350
43
  3
AMG
350
2B
  3
AMGSNAPSETTINGS
350
6E
  3
DWGPROPS
350
3054
  3
ACDBHEADERROUNDTRIPXREC
350
3061
  0
DICTIONARY
  5
74
330
1F
100
AcDbDictionary
280
     1
  3
ACAD_INDEX
360
3056
  3
ACAD_LAYOUTSELFREF
360
3084
  0
DICTIONARY
  5
3089
330
101
100
AcDbDictionary
280
     1
  3
ACAD_LAYOUTSELFREF
360
308A
  0
DICTIONARY
  5
D
102
{ACAD_REACTORS
330
C
102
}
330
C
100
AcDbDictionary
  0
DICTIONARY
  5
1A
102
{ACAD_REACTORS
330
C
102
}
330
C
100
AcDbDictionary
  0
DICTIONARY
  5
17
102
{ACAD_REACTORS
330
C
102
}
330
C
100
AcDbDictionary
  3
STANDARD
350
18
  0
DICTIONARY
  5
19
102
{ACAD_REACTORS
330
C
102
}
330
C
100
AcDbDictionary
  0
ACDBDICTIONARYWDFLT
  5
E
102
{ACAD_REACTORS
330
C
102
}
330
C
100
AcDbDictionary
281
     1
  3
Normal
350
F
100
AcDbDictionaryWithDefault
340
F
  0
DICTIONARY
  5
34
102
{ACAD_REACTORS
330
C
102
}
330
C
100
AcDbDictionary
  3
INDEXCTL
350
35
  3
SORTENTS
350
B5E
  0
DICTIONARY
  5
43
102
{ACAD_REACTORS
330
C
102
}
330
C
100
AcDbDictionary
  3
ACMSTDDICTIONARY
350
260
  0
DICTIONARY
  5
2B
102
{ACAD_REACTORS
330
C
102
}
330
C
100
AcDbDictionary
  3
ACMGSETTINGS
350
2C
  0
DICTIONARY
  5
6E
102
{ACAD_REACTORS
330
C
102
}
330
C
100
AcDbDictionary
  0
XRECORD
  5
3054
102
{ACAD_REACTORS
330
C
102
}
330
C
100
AcDbXrecord
  1
DWGPROPS COOKIE
  2

  3

  4

  6

  7

  8

  9

300
AmdtFileType=82
301
=
302
=
303
=
304
=
305
=
306
=
307
=
308
=
309
=
 40
0.3560930671296296
 41
2452838.620506898
 42
2452850.656455741
  1

 90
        1
  0
DICTIONARY
  5
3061
102
{ACAD_REACTORS
330
C
102
}
330
C
100
AcDbDictionary
  3
TSTACKALIGN
350
3062
  3
TSTACKSIZE
350
3063
  3
HYPERLINKBASE
350
3064
  3
STYLESHEET
350
3065
  3
LAYOUTDICT
350
3066
  3
PLOTSETDICT
350
3067
  3
PLOTSTYLNAMDICT
350
3068
  3
LWETCUNION
350
3069
  3
INSUNITS
350
306A
  3
CEPSNTYPE
350
306B
  3
FINGERPRINTGUID
350
306C
  3
VERSIONGUID
350
306D
  3
PSVPSCALE
350
306E
  3
DIMSTYLEDATA
350
306F
  3
PUCSORTHOREF
350
3070
  3
PUCSORTHOVIEW
350
3071
  3
PUCSBASE
350
3072
  3
PUCSORGTOP
350
3073
  3
PUCSORGBOTTOM
350
3074
  3
PUCSORGLEFT
350
3075
  3
PUCSORGRIGHT
350
3076
  3
PUCSORGFRONT
350
3077
  3
PUCSORGBACK
350
3078
  3
UCSORTHOREF
350
3079
  3
UCSORTHOVIEW
350
307A
  3
UCSBASE
350
307B
  3
UCSORGTOP
350
307C
  3
UCSORGBOTTOM
350
307D
  3
UCSORGLEFT
350
307E
  3
UCSORGRIGHT
350
307F
  3
UCSORGFRONT
350
3080
  3
UCSORGBACK
350
3081
  0
DICTIONARY
  5
3056
102
{ACAD_REACTORS
330
74
102
}
330
74
100
AcDbDictionary
  3
*A1
350
3057
  0
XRECORD
  5
3084
102
{ACAD_REACTORS
330
74
102
}
330
74
100
AcDbXrecord
340
1F
  0
XRECORD
  5
308A
102
{ACAD_REACTORS
330
3089
102
}
330
3089
100
AcDbXrecord
340
101
  0
MLINESTYLE
  5
18
102
{ACAD_REACTORS
330
17
102
}
330
17
100
AcDbMlineStyle
  2
STANDARD
 70
     0
  3

 62
   256
 51
90.0
 52
90.0
 71
     2
 49
0.5
 62
   256
  6
BYLAYER
 49
-0.5
 62
   256
  6
BYLAYER
  0
ACDBPLACEHOLDER
  5
F
102
{ACAD_REACTORS
330
E
102
}
330
E
100
AcDbPlaceHolder
280
     0
  0
DICTIONARYVAR
  5
35
102
{ACAD_REACTORS
330
34
102
}
330
34
100
DictionaryVariables
280
     0
  1
1
  0
DICTIONARYVAR
  5
B5E
102
{ACAD_REACTORS
330
34
102
}
330
34
100
DictionaryVariables
280
     0
  1
96
  0
DICTIONARY
  5
260
102
{ACAD_REACTORS
330
43
102
}
330
43
100
AcDbDictionary
  0
DICTIONARY
  5
2C
102
{ACAD_REACTORS
330
2B
102
}
330
2B
100
AcDbDictionary
  3
DWGSETTINGS
350
2D
  0
XRECORD
  5
3062
102
{ACAD_REACTORS
330
3061
102
}
330
3061
100
AcDbXrecord
 90
        1
  0
XRECORD
  5
3063
102
{ACAD_REACTORS
330
3061
102
}
330
3061
100
AcDbXrecord
 90
       70
  0
XRECORD
  5
3064
102
{ACAD_REACTORS
330
3061
102
}
330
3061
100
AcDbXrecord
  1

  0
XRECORD
  5
3065
102
{ACAD_REACTORS
330
3061
102
}
330
3061
100
AcDbXrecord
  1
ASAMI.ctb
  0
XRECORD
  5
3066
102
{ACAD_REACTORS
330
3061
102
}
330
3061
100
AcDbXrecord
340
1A
  0
XRECORD
  5
3067
102
{ACAD_REACTORS
330
3061
102
}
330
3061
100
AcDbXrecord
340
19
  0
XRECORD
  5
3068
102
{ACAD_REACTORS
330
3061
102
}
330
3061
100
AcDbXrecord
340
E
  0
XRECORD
  5
3069
102
{ACAD_REACTORS
330
3061
102
}
330
3061
100
AcDbXrecord
 90
    10781
  0
XRECORD
  5
306A
102
{ACAD_REACTORS
330
3061
102
}
330
3061
100
AcDbXrecord
 90
        4
  0
XRECORD
  5
306B
102
{ACAD_REACTORS
330
3061
102
}
330
3061
100
AcDbXrecord
 90
        0
  0
XRECORD
  5
306C
102
{ACAD_REACTORS
330
3061
102
}
330
3061
100
AcDbXrecord
  1
{AFB28963-8C59-40AE-9337-C84526B81ACE}
  0
XRECORD
  5
306D
102
{ACAD_REACTORS
330
3061
102
}
330
3061
100
AcDbXrecord
  1
{13242102-7F28-4A59-963A-25E5F092F1F8}
  0
XRECORD
  5
306E
102
{ACAD_REACTORS
330
3061
102
}
330
3061
100
AcDbXrecord
 40
0.0
  0
XRECORD
  5
306F
102
{ACAD_REACTORS
330
3061
102
}
330
3061
100
AcDbXrecord
1000
DSTYLE
1002
{
1070
    79
 70
     2
1070
   341
340
59
1070
   342
340
59
1070
   371
 70
    -1
1070
   372
 70
    -1
1002
}
  0
XRECORD
  5
3070
102
{ACAD_REACTORS
330
3061
102
}
330
3061
100
AcDbXrecord
340
0
  0
XRECORD
  5
3071
102
{ACAD_REACTORS
330
3061
102
}
330
3061
100
AcDbXrecord
 70
     0
  0
XRECORD
  5
3072
102
{ACAD_REACTORS
330
3061
102
}
330
3061
100
AcDbXrecord
340
0
  0
XRECORD
  5
3073
102
{ACAD_REACTORS
330
3061
102
}
330
3061
100
AcDbXrecord
 10
0.0
 20
0.0
 30
0.0
  0
XRECORD
  5
3074
102
{ACAD_REACTORS
330
3061
102
}
330
3061
100
AcDbXrecord
 10
0.0
 20
0.0
 30
0.0
  0
XRECORD
  5
3075
102
{ACAD_REACTORS
330
3061
102
}
330
3061
100
AcDbXrecord
 10
0.0
 20
0.0
 30
0.0
  0
XRECORD
  5
3076
102
{ACAD_REACTORS
330
3061
102
}
330
3061
100
AcDbXrecord
 10
0.0
 20
0.0
 30
0.0
  0
XRECORD
  5
3077
102
{ACAD_REACTORS
330
3061
102
}
330
3061
100
AcDbXrecord
 10
0.0
 20
0.0
 30
0.0
  0
XRECORD
  5
3078
102
{ACAD_REACTORS
330
3061
102
}
330
3061
100
AcDbXrecord
 10
0.0
 20
0.0
 30
0.0
  0
XRECORD
  5
3079
102
{ACAD_REACTORS
330
3061
102
}
330
3061
100
AcDbXrecord
340
0
  0
XRECORD
  5
307A
102
{ACAD_REACTORS
330
3061
102
}
330
3061
100
AcDbXrecord
 70
     0
  0
XRECORD
  5
307B
102
{ACAD_REACTORS
330
3061
102
}
330
3061
100
AcDbXrecord
340
0
  0
XRECORD
  5
307C
102
{ACAD_REACTORS
330
3061
102
}
330
3061
100
AcDbXrecord
 10
0.0
 20
0.0
 30
0.0
  0
XRECORD
  5
307D
102
{ACAD_REACTORS
330
3061
102
}
330
3061
100
AcDbXrecord
 10
0.0
 20
0.0
 30
0.0
  0
XRECORD
  5
307E
102
{ACAD_REACTORS
330
3061
102
}
330
3061
100
AcDbXrecord
 10
0.0
 20
0.0
 30
0.0
  0
XRECORD
  5
307F
102
{ACAD_REACTORS
330
3061
102
}
330
3061
100
AcDbXrecord
 10
0.0
 20
0.0
 30
0.0
  0
XRECORD
  5
3080
102
{ACAD_REACTORS
330
3061
102
}
330
3061
100
AcDbXrecord
 10
0.0
 20
0.0
 30
0.0
  0
XRECORD
  5
3081
102
{ACAD_REACTORS
330
3061
102
}
330
3061
100
AcDbXrecord
 10
0.0
 20
0.0
 30
0.0
  0
LAYER_INDEX
  5
3057
102
{ACAD_REACTORS
330
3056
102
}
330
3056
100
AcDbIndex
 40
2453152.356619872
100
AcDbLayerIndex
  8
0
360
3058
 90
        1
  8
AM_0
360
3059
 90
       36
  8
AM_11
360
305A
 90
        3
  8
AM_7
360
305B
 90
        1
  8
AM_5
360
305C
 90
        6
  8
Defpoints
360
305D
 90
        0
  8
AM_6
360
305E
 90
        1
  8
AM_CL
360
305F
 90
        0
  0
XRECORD
  5
2D
102
{ACAD_REACTORS
330
2C
102
}
330
2C
100
AcDbXrecord
  1
VERSION
140
15.0
  1
PRODUCT
  2
AutoCAD Mechanical 2000
  0
IDBUFFER
  5
3058
330
0
100
AcDbIdBuffer
330
2F29
  0
IDBUFFER
  5
3059
330
0
100
AcDbIdBuffer
330
2CF4
330
2CF5
330
2CF6
330
2CF7
330
2CF8
330
2CF9
330
2CFA
330
2CFB
330
2CFD
330
2CFE
330
2CFF
330
2D00
330
2D01
330
2D02
330
2D03
330
2D04
330
2F28
330
2F2A
330
2F2B
330
2F39
330
1E67
330
2CE5
330
2CE6
330
2CE7
330
2CE8
330
2CE9
330
2CEA
330
2CEB
330
2CEC
330
2CED
330
2CEE
330
2CEF
330
2CF0
330
2CF1
330
2CF2
330
2CF3
  0
IDBUFFER
  5
305A
330
0
100
AcDbIdBuffer
330
1CA1
330
1CB1
330
2CFC
  0
IDBUFFER
  5
305B
330
0
100
AcDbIdBuffer
330
C50
  0
IDBUFFER
  5
305C
330
0
100
AcDbIdBuffer
330
C4F
330
194C
330
195B
330
1C9A
330
2C05
330
2F2C
  0
IDBUFFER
  5
305D
330
0
100
AcDbIdBuffer
  0
IDBUFFER
  5
305E
330
0
100
AcDbIdBuffer
330
C58
  0
IDBUFFER
  5
305F
330
0
100
AcDbIdBuffer
  0
ENDSEC
  0
EOF
