  0
SECTION
  2
HEADER
  9
$ACADVER
  1
AC1014
  9
$ACADMAINTVER
 70
     9
  9
$DWGCODEPAGE
  3
ANSI_932
  9
$INSBASE
 10
0.0
 20
0.0
 30
0.0
  9
$EXTMIN
 10
-79.34999999999999
 20
-32.250001
 30
0.0
  9
$EXTMAX
 10
7.499999999999997
 20
17.35
 30
0.0
  9
$LIMMIN
 10
-90.82350663640045
 20
-45.23121598316982
  9
$LIMMAX
 10
26.19106364504011
 20
25.31518771181561
  9
$ORTHOMODE
 70
     0
  9
$REGENMODE
 70
     1
  9
$FILLMODE
 70
     1
  9
$QTEXTMODE
 70
     0
  9
$MIRRTEXT
 70
     0
  9
$DRAGMODE
 70
     2
  9
$LTSCALE
 40
1.0
  9
$OSMODE
 70
    55
  9
$ATTMODE
 70
     1
  9
$TEXTSIZE
 40
2.5
  9
$TRACEWID
 40
1.0
  9
$TEXTSTYLE
  7
ACJISGDT
  9
$CLAYER
  8
AM_0
  9
$CELTYPE
  6
BYLAYER
  9
$CECOLOR
 62
   256
  9
$CELTSCALE
 40
1.0
  9
$DELOBJ
 70
     1
  9
$DISPSILH
 70
     0
  9
$DIMSCALE
 40
0.5
  9
$DIMASZ
 40
2.5
  9
$DIMEXO
 40
1.0
  9
$DIMDLI
 40
12.0
  9
$DIMRND
 40
0.0
  9
$DIMDLE
 40
0.0
  9
$DIMEXE
 40
1.0
  9
$DIMTP
 40
0.1
  9
$DIMTM
 40
0.1
  9
$DIMTXT
 40
3.2
  9
$DIMCEN
 40
0.0
  9
$DIMTSZ
 40
0.0
  9
$DIMTOL
 70
     0
  9
$DIMLIM
 70
     0
  9
$DIMTIH
 70
     0
  9
$DIMTOH
 70
     0
  9
$DIMSE1
 70
     0
  9
$DIMSE2
 70
     0
  9
$DIMTAD
 70
     3
  9
$DIMZIN
 70
     8
  9
$DIMBLK
  1
OPEN30
  9
$DIMASO
 70
     1
  9
$DIMSHO
 70
     1
  9
$DIMPOST
  1

  9
$DIMAPOST
  1
"
  9
$DIMALT
 70
     0
  9
$DIMALTD
 70
     2
  9
$DIMALTF
 40
0.0393701
  9
$DIMLFAC
 40
1.0
  9
$DIMTOFL
 70
     1
  9
$DIMTVP
 40
0.0
  9
$DIMTIX
 70
     0
  9
$DIMSOXD
 70
     0
  9
$DIMSAH
 70
     0
  9
$DIMBLK1
  1

  9
$DIMBLK2
  1

  9
$DIMSTYLE
  2
AM_JIS
  9
$DIMCLRD
 70
   256
  9
$DIMCLRE
 70
   256
  9
$DIMCLRT
 70
     2
  9
$DIMTFAC
 40
0.71
  9
$DIMGAP
 40
1.5
  9
$DIMJUST
 70
     0
  9
$DIMSD1
 70
     0
  9
$DIMSD2
 70
     0
  9
$DIMTOLJ
 70
     0
  9
$DIMTZIN
 70
     0
  9
$DIMALTZ
 70
     0
  9
$DIMALTTZ
 70
     0
  9
$DIMFIT
 70
     3
  9
$DIMUPT
 70
     0
  9
$DIMUNIT
 70
     2
  9
$DIMDEC
 70
     3
  9
$DIMTDEC
 70
     3
  9
$DIMALTU
 70
     2
  9
$DIMALTTD
 70
     2
  9
$DIMTXSTY
  7
ASAMI
  9
$DIMAUNIT
 70
     0
  9
$LUNITS
 70
     2
  9
$LUPREC
 70
     2
  9
$SKETCHINC
 40
1.0
  9
$FILLETRAD
 40
2.5
  9
$AUNITS
 70
     0
  9
$AUPREC
 70
     0
  9
$MENU
  1
.
  9
$ELEVATION
 40
0.0
  9
$PELEVATION
 40
0.0
  9
$THICKNESS
 40
0.0
  9
$LIMCHECK
 70
     0
  9
$BLIPMODE
 70
     0
  9
$CHAMFERA
 40
1.0
  9
$CHAMFERB
 40
1.0
  9
$CHAMFERC
 40
20.0
  9
$CHAMFERD
 40
0.0
  9
$SKPOLY
 70
     0
  9
$TDCREATE
 40
2452856.481552905
  9
$TDUPDATE
 40
2453152.422436446
  9
$TDINDWG
 40
0.0093218287
  9
$TDUSRTIMER
 40
0.0092889236
  9
$USRTIMER
 70
     1
  9
$ANGBASE
 50
0.0
  9
$ANGDIR
 70
     0
  9
$PDMODE
 70
     0
  9
$PDSIZE
 40
0.0
  9
$PLINEWID
 40
0.0
  9
$COORDS
 70
     1
  9
$SPLFRAME
 70
     0
  9
$SPLINETYPE
 70
     6
  9
$SPLINESEGS
 70
     8
  9
$ATTDIA
 70
     1
  9
$ATTREQ
 70
     1
  9
$HANDLING
 70
 12289
  9
$HANDSEED
  5
11C7
  9
$SURFTAB1
 70
     6
  9
$SURFTAB2
 70
     6
  9
$SURFTYPE
 70
     6
  9
$SURFU
 70
     6
  9
$SURFV
 70
     6
  9
$UCSNAME
  2

  9
$UCSORG
 10
0.0
 20
0.0
 30
0.0
  9
$UCSXDIR
 10
1.0
 20
0.0
 30
0.0
  9
$UCSYDIR
 10
0.0
 20
1.0
 30
0.0
  9
$PUCSNAME
  2

  9
$PUCSORG
 10
0.0
 20
0.0
 30
0.0
  9
$PUCSXDIR
 10
1.0
 20
0.0
 30
0.0
  9
$PUCSYDIR
 10
0.0
 20
1.0
 30
0.0
  9
$USERI1
 70
     0
  9
$USERI2
 70
     0
  9
$USERI3
 70
     0
  9
$USERI4
 70
     0
  9
$USERI5
 70
     0
  9
$USERR1
 40
0.0
  9
$USERR2
 40
0.0
  9
$USERR3
 40
0.0
  9
$USERR4
 40
0.0
  9
$USERR5
 40
0.0
  9
$WORLDVIEW
 70
     1
  9
$SHADEDGE
 70
     3
  9
$SHADEDIF
 70
    70
  9
$TILEMODE
 70
     1
  9
$MAXACTVP
 70
    64
  9
$PINSBASE
 10
0.0
 20
0.0
 30
0.0
  9
$PLIMCHECK
 70
     0
  9
$PEXTMIN
 10
1.000000000000000E+20
 20
1.000000000000000E+20
 30
1.000000000000000E+20
  9
$PEXTMAX
 10
-1.000000000000000E+20
 20
-1.000000000000000E+20
 30
-1.000000000000000E+20
  9
$PLIMMIN
 10
0.0
 20
0.0
  9
$PLIMMAX
 10
841.0
 20
594.0
  9
$UNITMODE
 70
     0
  9
$VISRETAIN
 70
     1
  9
$PLINEGEN
 70
     0
  9
$PSLTSCALE
 70
     0
  9
$TREEDEPTH
 70
  3020
  9
$PICKSTYLE
 70
     0
  9
$CMLSTYLE
  2
STANDARD
  9
$CMLJUST
 70
     0
  9
$CMLSCALE
 40
20.0
  9
$PROXYGRAPHICS
 70
     1
  9
$MEASUREMENT
 70
     1
  0
ENDSEC
  0
SECTION
  2
CLASSES
  0
CLASS
  1
ACDBDICTIONARYWDFLT
  2
AcDbDictionaryWithDefault
  3
AutoCAD 2000
 90
        0
280
     0
281
     0
  0
CLASS
  1
ACDBPLACEHOLDER
  2
AcDbPlaceHolder
  3
AutoCAD 2000
 90
        0
280
     0
281
     0
  0
CLASS
  1
LAYOUT
  2
AcDbLayout
  3
AutoCAD 2000
 90
        0
280
     0
281
     0
  0
CLASS
  1
AMGSETTINGSOBJ
  2
AmgSettingsObj
  3
"AcadM|Product Description: AutoCAD Mechanical 2000|Company: Autodesk"
 90
        0
280
     0
281
     0
  0
CLASS
  1
ACME_DOCUMENT
  2
AcMeDbDoc
  3
AcMeServices
 90
        0
280
     0
281
     0
  0
CLASS
  1
ACMESCOPE
  2
AcMeScope
  3
AcMeServices
 90
        0
280
     0
281
     0
  0
CLASS
  1
ACMECOMMANDHISTORY
  2
AcMeCommandHistory
  3
AcMeServices
 90
        0
280
     0
281
     0
  0
CLASS
  1
DICTIONARYVAR
  2
AcDbDictionaryVar
  3
AutoCAD 2000
 90
        0
280
     0
281
     0
  0
CLASS
  1
ACIMSYSVARMAN
  2
AcImSysVarManager
  3
AcMeServices
 90
        0
280
     0
281
     0
  0
CLASS
  1
ACIMREALSYSVAR
  2
AcImRealSysVar
  3
AcMeServices
 90
        0
280
     0
281
     0
  0
CLASS
  1
ACIMINTSYSVAR
  2
AcImIntSysVar
  3
AcMeServices
 90
        0
280
     0
281
     0
  0
CLASS
  1
ACMEDRAWINGMAN
  2
AcMeDrawingMan
  3
AcMeServices
 90
        0
280
     0
281
     0
  0
CLASS
  1
ACMEVIEW
  2
AcMeView
  3
AcMeServices
 90
        0
280
     0
281
     0
  0
CLASS
  1
ACDBENTITYCACHE
  2
AcMeEntityCache
  3
AcMeServices
 90
        0
280
     0
281
     0
  0
CLASS
  1
GSMANAGER
  2
AcMeGSManager
  3
AcMeServices
 90
        0
280
     0
281
     0
  0
CLASS
  1
AmdtInternalReactor
  2
AmdtInternalReactor
  3
AcMeServices
 90
        0
280
     0
281
     0
  0
CLASS
  1
ACMESTATEMGR
  2
AcMeStateMgr
  3
AcMeServices
 90
        0
280
     0
281
     0
  0
CLASS
  1
ACME_DATABASE
  2
AcMeDbDatabase
  3
AcMeServices
 90
        0
280
     0
281
     0
  0
CLASS
  1
ACRFINSADJUSTERMGR
  2
AcRfInsAdjusterMgr
  3
AcMeServices
 90
        0
280
     0
281
     0
  0
CLASS
  1
ACMDATADICTIONARY
  2
AcmDataDictionary
  3
"AcmSymBB|Product Description: AutoCAD Mechanical 2000|Company: Autodesk"
 90
        0
280
     0
281
     0
  0
CLASS
  1
ACMDATAENTRYBLOCK
  2
AcmDataEntryBlock
  3
"AcmSymBB|Product Description: AutoCAD Mechanical 2000|Company: Autodesk"
 90
        0
280
     0
281
     0
  0
CLASS
  1
AMGOBJPROPCFG
  2
AmgObjPropCfg
  3
"AmgLay|Product Description: AutoCAD Mechanical 2000|Company: Autodesk"
 90
        1
280
     0
281
     0
  0
CLASS
  1
ACAMGFILTERDAT
  2
AcAmgFilterDat
  3
"AcadM|Product Description: AutoCAD Mechanical 2000|Company: Autodesk"
 90
        0
280
     0
281
     0
  0
CLASS
  1
LAYER_INDEX
  2
AcDbLayerIndex
  3
AutoCAD 2000
 90
        0
280
     0
281
     0
  0
CLASS
  1
IDBUFFER
  2
AcDbIdBuffer
  3
AutoCAD 2000
 90
        0
280
     0
281
     0
  0
CLASS
  1
ACIMSTRSYSVAR
  2
AcImStrSysVar
  3
AcMeServices
 90
        0
280
     0
281
     0
  0
CLASS
  1
ACMSTANDARDJIS
  2
AcmStandardJIS
  3
"AcmSymBB|Product Description: AutoCAD Mechanical 2000|Company: Autodesk"
 90
        0
280
     0
281
     0
  0
CLASS
  1
ACMSURFSTANDARDJIS
  2
AcmSurfTextStdJIS
  3
"AcmSymBB|Product Description: AutoCAD Mechanical 2000|Company: Autodesk"
 90
        0
280
     0
281
     0
  0
CLASS
  1
ACMFCFSTANDARDJIS
  2
AcmFCFStdJIS
  3
"AcmSymBB|Product Description: AutoCAD Mechanical 2000|Company: Autodesk"
 90
        0
280
     0
281
     0
  0
CLASS
  1
ACMWELDSTANDARDJIS
  2
AcmWeldingStdJIS
  3
"AcmSymBB|Product Description: AutoCAD Mechanical 2000|Company: Autodesk"
 90
        0
280
     0
281
     0
  0
CLASS
  1
ACMIDSTANDARDJIS
  2
AcmIdStdJIS
  3
"AcmSymBB|Product Description: AutoCAD Mechanical 2000|Company: Autodesk"
 90
        0
280
     0
281
     0
  0
CLASS
  1
ACMDATUMSTANDARDJIS
  2
AcmDatumStdJIS
  3
"AcmSymBB|Product Description: AutoCAD Mechanical 2000|Company: Autodesk"
 90
        0
280
     0
281
     0
  0
CLASS
  1
ACMBOMSTANDARDJIS
  2
AcmBOMStdJIS
  3
"AcmSymBB|Product Description: AutoCAD Mechanical 2000|Company: Autodesk"
 90
        0
280
     0
281
     0
  0
CLASS
  1
ACMSTANDARDANSI
  2
AcmStandardANSI
  3
"AcmSymBB|Product Description: AutoCAD Mechanical 2000|Company: Autodesk"
 90
        0
280
     0
281
     0
  0
CLASS
  1
ACMSURFSTANDARDANSI
  2
AcmSurfTextStdANSI
  3
"AcmSymBB|Product Description: AutoCAD Mechanical 2000|Company: Autodesk"
 90
        0
280
     0
281
     0
  0
CLASS
  1
ACMFCFSTANDARDANSI
  2
AcmFCFStdANSI
  3
"AcmSymBB|Product Description: AutoCAD Mechanical 2000|Company: Autodesk"
 90
        0
280
     0
281
     0
  0
CLASS
  1
ACMWELDSTANDARDANSI
  2
AcmWeldingStdANSI
  3
"AcmSymBB|Product Description: AutoCAD Mechanical 2000|Company: Autodesk"
 90
        0
280
     0
281
     0
  0
CLASS
  1
ACMIDSTANDARDANSI
  2
AcmIdStdANSI
  3
"AcmSymBB|Product Description: AutoCAD Mechanical 2000|Company: Autodesk"
 90
        0
280
     0
281
     0
  0
CLASS
  1
ACMDATUMSTANDARDANSI
  2
AcmDatumStdANSI
  3
"AcmSymBB|Product Description: AutoCAD Mechanical 2000|Company: Autodesk"
 90
        0
280
     0
281
     0
  0
CLASS
  1
ACMBOMSTANDARDANSI
  2
AcmBOMStdANSI
  3
"AcmSymBB|Product Description: AutoCAD Mechanical 2000|Company: Autodesk"
 90
        0
280
     0
281
     0
  0
CLASS
  1
ACMSTANDARDBSI
  2
AcmStandardBSI
  3
"AcmSymBB|Product Description: AutoCAD Mechanical 2000|Company: Autodesk"
 90
        0
280
     0
281
     0
  0
CLASS
  1
ACMSURFSTANDARDBSI
  2
AcmSurfTextStdBSI
  3
"AcmSymBB|Product Description: AutoCAD Mechanical 2000|Company: Autodesk"
 90
        0
280
     0
281
     0
  0
CLASS
  1
ACMFCFSTANDARDBSI
  2
AcmFCFStdBSI
  3
"AcmSymBB|Product Description: AutoCAD Mechanical 2000|Company: Autodesk"
 90
        0
280
     0
281
     0
  0
CLASS
  1
ACMWELDSTANDARDBSI
  2
AcmWeldingStdBSI
  3
"AcmSymBB|Product Description: AutoCAD Mechanical 2000|Company: Autodesk"
 90
        0
280
     0
281
     0
  0
CLASS
  1
ACMIDSTANDARDBSI
  2
AcmIdStdBSI
  3
"AcmSymBB|Product Description: AutoCAD Mechanical 2000|Company: Autodesk"
 90
        0
280
     0
281
     0
  0
CLASS
  1
ACMDATUMSTANDARDBSI
  2
AcmDatumStdBSI
  3
"AcmSymBB|Product Description: AutoCAD Mechanical 2000|Company: Autodesk"
 90
        0
280
     0
281
     0
  0
CLASS
  1
ACMBOMSTANDARDBSI
  2
AcmBOMStdBSI
  3
"AcmSymBB|Product Description: AutoCAD Mechanical 2000|Company: Autodesk"
 90
        0
280
     0
281
     0
  0
CLASS
  1
LONG_TRANSACTION
  2
AcDbLongTransaction
  3
AutoCAD 2000
 90
        0
280
     0
281
     0
  0
CLASS
  1
LWPOLYLINE
  2
AcDbPolyline
  3
AutoCAD 2000
 90
        0
280
     0
281
     1
  0
CLASS
  1
HATCH
  2
AcDbHatch
  3
AutoCAD 2000
 90
        0
280
     0
281
     1
  0
CLASS
  1
XRECORD
  2
AcDbXrecord
  3
AutoCAD 2000
 90
        0
280
     0
281
     0
  0
ENDSEC
  0
SECTION
  2
TABLES
  0
TABLE
  2
VPORT
  5
8
330
0
100
AcDbSymbolTable
 70
     3
  0
VPORT
  5
119C
330
8
100
AcDbSymbolTableRecord
100
AcDbViewportTableRecord
  2
*ACTIVE
 70
     0
 10
0.0
 20
0.0
 11
1.0
 21
1.0
 12
-35.92739628228172
 22
-7.449879193581196
 13
0.0
 23
0.0
 14
2.5
 24
2.5
 15
10.0
 25
10.0
 16
0.0
 26
0.0
 36
1.0
 17
0.0
 27
0.0
 37
0.0
 40
55.69175880281195
 41
1.56570841889117
 42
50.0
 43
0.0
 44
0.0
 50
0.0
 51
0.0
 71
     0
 72
   100
 73
     1
 74
     3
 75
     0
 76
     0
 77
     0
 78
     0
  0
ENDTAB
  0
TABLE
  2
LTYPE
  5
5
330
0
100
AcDbSymbolTable
 70
    10
  0
LTYPE
  5
14
330
5
100
AcDbSymbolTableRecord
100
AcDbLinetypeTableRecord
  2
BYBLOCK
 70
     0
  3

 72
    65
 73
     0
 40
0.0
  0
LTYPE
  5
15
330
5
100
AcDbSymbolTableRecord
100
AcDbLinetypeTableRecord
  2
BYLAYER
 70
     0
  3

 72
    65
 73
     0
 40
0.0
  0
LTYPE
  5
16
330
5
100
AcDbSymbolTableRecord
100
AcDbLinetypeTableRecord
  2
CONTINUOUS
 70
     0
  3
Solid line
 72
    65
 73
     0
 40
0.0
  0
LTYPE
  5
4B
330
5
100
AcDbSymbolTableRecord
100
AcDbLinetypeTableRecord
  2
AM_ISO02W050
 70
     0
  3
__ __ __ __ __ __ __ __ __ __ __ __ __ __ __
 72
    65
 73
     2
 40
7.5
 49
6.0
 74
     0
 49
-1.5
 74
     0
  0
LTYPE
  5
4C
330
5
100
AcDbSymbolTableRecord
100
AcDbLinetypeTableRecord
  2
AM_ISO08W050
 70
     0
  3
____ . ____ . ____ . ____ . ____ . ____ . ____
 72
    65
 73
     4
 40
18.0
 49
12.0
 74
     0
 49
-1.5
 74
     0
 49
3.0
 74
     0
 49
-1.5
 74
     0
  0
LTYPE
  5
4D
330
5
100
AcDbSymbolTableRecord
100
AcDbLinetypeTableRecord
  2
AM_ISO09W050
 70
     0
  3
_____ . . _____ . . _____ . . ____ .. ____
 72
    65
 73
     6
 40
22.5
 49
12.0
 74
     0
 49
-1.5
 74
     0
 49
3.0
 74
     0
 49
-1.5
 74
     0
 49
3.0
 74
     0
 49
-1.5
 74
     0
  0
LTYPE
  5
4E
330
5
100
AcDbSymbolTableRecord
100
AcDbLinetypeTableRecord
  2
AMCONSTR
 70
     0
  3
_______________________
 72
    65
 73
     2
 40
9999.0
 49
9999.0
 74
     0
 49
0.0
 74
     0
  0
LTYPE
  5
4F
330
5
100
AcDbSymbolTableRecord
100
AcDbLinetypeTableRecord
  2
AM_ISO02W050X2
 70
     0
  3
 _ _ _ _ _ _ _ _ _ _ _ _
 72
    65
 73
     2
 40
3.75
 49
3.0
 74
     0
 49
-0.75
 74
     0
  0
LTYPE
  5
50
330
5
100
AcDbSymbolTableRecord
100
AcDbLinetypeTableRecord
  2
AM_ISO08W050X2
 70
     0
  3
__ . __ . __ . __ . __ . __
 72
    65
 73
     4
 40
9.0
 49
6.0
 74
     0
 49
-0.75
 74
     0
 49
1.5
 74
     0
 49
-0.75
 74
     0
  0
LTYPE
  5
53
330
5
100
AcDbSymbolTableRecord
100
AcDbLinetypeTableRecord
  2
AMZIGZAG
 70
     0
  3
/\/-/\/-/\/-/\/-/\/-/\/
 72
    65
 73
     2
 40
11.00009999999999
 49
0.0001
 74
     4
 75
   135
340
52
 46
0.04
 50
0.0
 44
0.0
 45
0.0
 49
-11.0
 74
     0
  0
LTYPE
  5
166
330
5
100
AcDbSymbolTableRecord
100
AcDbLinetypeTableRecord
  2
ACJISTGL
 70
     0
  3
_ _ _ _ _
 72
    65
 73
     2
 40
3.0
 49
2.0
 74
     0
 49
-1.0
 74
     0
  0
LTYPE
  5
26A
330
5
100
AcDbSymbolTableRecord
100
AcDbLinetypeTableRecord
  2
ACJISTGB
 70
     0
  3
__ . . __ . .
 72
    65
 73
     6
 40
9.0
 49
4.0
 74
     0
 49
-1.0
 74
     0
 49
1.0
 74
     0
 49
-1.0
 74
     0
 49
1.0
 74
     0
 49
-1.0
 74
     0
  0
ENDTAB
  0
TABLE
  2
LAYER
  5
2
330
0
100
AcDbSymbolTable
 70
     9
  0
LAYER
  5
10
330
2
100
AcDbSymbolTableRecord
100
AcDbLayerTableRecord
  2
0
 70
     0
 62
     7
  6
CONTINUOUS
  0
LAYER
  5
3F9
330
2
100
AcDbSymbolTableRecord
100
AcDbLayerTableRecord
  2
AM_0
 70
     0
 62
     7
  6
CONTINUOUS
  0
LAYER
  5
BC8
330
2
100
AcDbSymbolTableRecord
100
AcDbLayerTableRecord
  2
AM_7
 70
     0
 62
     4
  6
AM_ISO08W050
  0
LAYER
  5
BE9
330
2
100
AcDbSymbolTableRecord
100
AcDbLayerTableRecord
  2
AM_11
 70
     0
 62
     3
  6
AM_ISO09W050
  0
LAYER
  5
C06
330
2
100
AcDbSymbolTableRecord
100
AcDbLayerTableRecord
  2
AM_4
 70
     0
 62
     3
  6
CONTINUOUS
  0
LAYER
  5
CAB
330
2
100
AcDbSymbolTableRecord
100
AcDbLayerTableRecord
  2
AM_CL
 70
     0
 62
     1
  6
AMCONSTR
  0
LAYER
  5
CFD
330
2
100
AcDbSymbolTableRecord
100
AcDbLayerTableRecord
  2
AM_5
 70
     0
 62
     3
  6
CONTINUOUS
  0
LAYER
  5
D11
330
2
100
AcDbSymbolTableRecord
100
AcDbLayerTableRecord
  2
DEFPOINTS
 70
     0
 62
     7
  6
CONTINUOUS
  0
LAYER
  5
1000
330
2
100
AcDbSymbolTableRecord
100
AcDbLayerTableRecord
  2
AM_6
 70
     0
 62
     2
  6
CONTINUOUS
  0
ENDTAB
  0
TABLE
  2
STYLE
  5
3
330
0
100
AcDbSymbolTable
 70
     5
  0
STYLE
  5
11
330
3
100
AcDbSymbolTableRecord
100
AcDbTextStyleTableRecord
  2
STANDARD
 70
     0
 40
0.0
 41
1.0
 50
0.0
 71
     0
 42
2.5
  3
simplex.shx
  4
EXTFONT.SHX
  0
STYLE
  5
52
330
3
100
AcDbSymbolTableRecord
100
AcDbTextStyleTableRecord
  2

 70
     1
 40
0.0
 41
1.0
 50
0.0
 71
     0
 42
2.5
  3
ltypeshp.shx
  4

  0
STYLE
  5
6B
330
3
100
AcDbSymbolTableRecord
100
AcDbTextStyleTableRecord
  2
ASAMI
 70
     0
 40
0.0
 41
1.0
 50
0.0
 71
     0
 42
2.5
  3
simplex.shx
  4
EXTFONT.SHX
  0
STYLE
  5
262
330
3
100
AcDbSymbolTableRecord
100
AcDbTextStyleTableRecord
  2
ACJISTS
 70
     0
 40
1.0
 41
1.0
 50
0.0
 71
     0
 42
2.5
  3
simplex.shx
  4
bigfont.shx
  0
STYLE
  5
269
330
3
100
AcDbSymbolTableRecord
100
AcDbTextStyleTableRecord
  2
ACJISGDT
 70
     0
 40
0.0
 41
1.0
 50
0.0
 71
     0
 42
2.5
  3
amgdtans.shx
  4

  0
ENDTAB
  0
TABLE
  2
VIEW
  5
6
330
0
100
AcDbSymbolTable
 70
     0
  0
ENDTAB
  0
TABLE
  2
UCS
  5
7
330
0
100
AcDbSymbolTable
 70
     0
  0
ENDTAB
  0
TABLE
  2
APPID
  5
9
330
0
100
AcDbSymbolTable
 70
    14
  0
APPID
  5
12
330
9
100
AcDbSymbolTableRecord
100
AcDbRegAppTableRecord
  2
ACAD
 70
     0
  0
APPID
  5
30
330
9
100
AcDbSymbolTableRecord
100
AcDbRegAppTableRecord
  2
MCAD_NO_VIS
 70
     0
  0
APPID
  5
31
330
9
100
AcDbSymbolTableRecord
100
AcDbRegAppTableRecord
  2
ACAD_TEMP_GRAPHIC
 70
     0
  0
APPID
  5
2C2
330
9
100
AcDbSymbolTableRecord
100
AcDbRegAppTableRecord
  2
GENIUS_GENDTOL_13
 70
     0
  0
APPID
  5
339
330
9
100
AcDbSymbolTableRecord
100
AcDbRegAppTableRecord
  2
GENIUS_GENODEF_13
 70
     0
  0
APPID
  5
33A
330
9
100
AcDbSymbolTableRecord
100
AcDbRegAppTableRecord
  2
GENIUS_GENOBJ-N-RSBK_13
 70
     0
  0
APPID
  5
33B
330
9
100
AcDbSymbolTableRecord
100
AcDbRegAppTableRecord
  2
GENIUS_GENOBJ-N-LIB_13
 70
     0
  0
APPID
  5
33C
330
9
100
AcDbSymbolTableRecord
100
AcDbRegAppTableRecord
  2
GENIUS_GENSCALE_13
 70
     0
  0
APPID
  5
378
330
9
100
AcDbSymbolTableRecord
100
AcDbRegAppTableRecord
  2
GENIUS_GENDIMSH_14
 70
     0
  0
APPID
  5
BCA
330
9
100
AcDbSymbolTableRecord
100
AcDbRegAppTableRecord
  2
GENIUS_GENOBJ-N-CEN_13
 70
     0
  0
APPID
  5
BED
330
9
100
AcDbSymbolTableRecord
100
AcDbRegAppTableRecord
  2
GENIUS_GENFIL_13
 70
     0
  0
APPID
  5
BEE
330
9
100
AcDbSymbolTableRecord
100
AcDbRegAppTableRecord
  2
GENIUS_GENOBJ-N-CHA_13
 70
     0
  0
APPID
  5
C07
330
9
100
AcDbSymbolTableRecord
100
AcDbRegAppTableRecord
  2
GENIUS_GENOREF_13
 70
     0
  0
APPID
  5
C08
330
9
100
AcDbSymbolTableRecord
100
AcDbRegAppTableRecord
  2
GENIUS_GENOBJ-N-FIL_13
 70
     0
  0
ENDTAB
  0
TABLE
  2
DIMSTYLE
  5
A
330
0
100
AcDbSymbolTable
 70
     8
  0
DIMSTYLE
105
58
102
{ACAD_REACTORS
330
D10
330
D99
330
E47
330
EEF
330
F78
102
}
330
A
100
AcDbSymbolTableRecord
100
AcDbDimStyleTableRecord
  2
AM_JIS
 70
     0
  3

  4
"
  5
OPEN30
  6

  7

 40
0.5
 41
2.5
 42
1.0
 43
12.0
 44
1.0
 45
0.0
 46
0.0
 47
0.1
 48
0.1
140
3.2
141
0.0
142
0.0
143
0.0393701
144
1.0
145
0.0
146
0.71
147
1.5
 71
     0
 72
     0
 73
     0
 74
     0
 75
     0
 76
     0
 77
     3
 78
     8
170
     0
171
     2
172
     1
173
     0
174
     0
175
     0
176
   256
177
   256
178
     2
270
     2
271
     3
272
     3
273
     2
274
     2
340
6B
275
     0
280
     0
281
     0
282
     0
283
     0
284
     0
285
     0
286
     0
287
     3
288
     0
  0
DIMSTYLE
105
5F
330
A
100
AcDbSymbolTableRecord
100
AcDbDimStyleTableRecord
  2
AM_JIS$3
 70
     0
  3

  4
"
  5
OPEN30
  6

  7

 40
0.5
 41
2.5
 42
1.0
 43
10.0
 44
1.0
 45
0.0
 46
0.0
 47
0.1
 48
0.1
140
3.2
141
0.0
142
0.0
143
0.0393701
144
1.0
145
0.0
146
0.71
147
1.5
 71
     0
 72
     0
 73
     0
 74
     1
 75
     0
 76
     0
 77
     3
 78
     8
170
     0
171
     2
172
     0
173
     0
174
     0
175
     0
176
   256
177
   256
178
     2
270
     2
271
     2
272
     3
273
     2
274
     2
340
6B
275
     0
280
     0
281
     0
282
     0
283
     0
284
     0
285
     0
286
     0
287
     0
288
     1
  0
DIMSTYLE
105
60
330
A
100
AcDbSymbolTableRecord
100
AcDbDimStyleTableRecord
  2
AM_JIS$4
 70
     0
  3

  4
"
  5
OPEN30
  6

  7

 40
0.5
 41
2.5
 42
1.0
 43
10.0
 44
1.0
 45
0.0
 46
0.0
 47
0.1
 48
0.1
140
3.2
141
0.0
142
0.0
143
0.0393701
144
1.0
145
0.0
146
0.71
147
1.5
 71
     0
 72
     0
 73
     0
 74
     1
 75
     0
 76
     0
 77
     3
 78
     8
170
     0
171
     2
172
     0
173
     0
174
     0
175
     0
176
   256
177
   256
178
     2
270
     2
271
     2
272
     3
273
     2
274
     2
340
6B
275
     0
280
     0
281
     0
282
     0
283
     0
284
     0
285
     0
286
     0
287
     0
288
     1
  0
DIMSTYLE
105
61
330
A
100
AcDbSymbolTableRecord
100
AcDbDimStyleTableRecord
  2
AM_JIS$6
 70
     0
  3

  4
"
  5
OPEN30
  6

  7

 40
0.5
 41
2.5
 42
1.0
 43
10.0
 44
1.0
 45
0.0
 46
0.0
 47
0.1
 48
0.1
140
3.2
141
0.0
142
0.0
143
0.0393701
144
1.0
145
0.0
146
0.71
147
1.5
 71
     0
 72
     0
 73
     0
 74
     0
 75
     0
 76
     0
 77
     0
 78
     8
170
     0
171
     2
172
     1
173
     0
174
     0
175
     0
176
   256
177
   256
178
     2
270
     2
271
     2
272
     2
273
     2
274
     2
340
6B
275
     0
280
     0
281
     0
282
     0
283
     0
284
     0
285
     0
286
     0
287
     3
288
     0
  0
DIMSTYLE
105
62
330
A
100
AcDbSymbolTableRecord
100
AcDbDimStyleTableRecord
  2
AM_JIS$7
 70
     0
  3

  4
"
  5
OPEN30
  6

  7

 40
0.5
 41
2.5
 42
1.0
 43
10.0
 44
1.0
 45
0.0
 46
0.0
 47
0.1
 48
0.1
140
3.2
141
0.0
142
0.0
143
0.0393701
144
1.0
145
0.0
146
0.71
147
1.5
 71
     0
 72
     0
 73
     0
 74
     0
 75
     0
 76
     0
 77
     3
 78
     8
170
     0
171
     2
172
     1
173
     0
174
     0
175
     0
176
   256
177
   256
178
     2
270
     2
271
     2
272
     3
273
     2
274
     2
340
6B
275
     0
280
     0
281
     0
282
     0
283
     0
284
     0
285
     0
286
     0
287
     3
288
     0
  0
DIMSTYLE
105
63
330
A
100
AcDbSymbolTableRecord
100
AcDbDimStyleTableRecord
  2
AM_JIS$SF
 70
     0
  3

  4
"
  5
OPEN30
  6

  7

 40
0.5
 41
2.5
 42
1.0
 43
10.0
 44
1.0
 45
0.0
 46
0.0
 47
0.1
 48
0.1
140
3.2
141
0.0
142
0.0
143
0.0393701
144
1.0
145
0.0
146
0.71
147
1.5
 71
     0
 72
     0
 73
     0
 74
     0
 75
     1
 76
     1
 77
     3
 78
     8
170
     0
171
     2
172
     1
173
     0
174
     0
175
     0
176
   256
177
   256
178
     2
270
     2
271
     2
272
     2
273
     2
274
     2
340
6B
275
     0
280
     0
281
     0
282
     0
283
     0
284
     0
285
     0
286
     0
287
     3
288
     0
  0
DIMSTYLE
105
68
330
A
100
AcDbSymbolTableRecord
100
AcDbDimStyleTableRecord
  2
AM_JIS$SH
 70
     0
  3

  4
"
  5

  6
GENAXEH
  7
OPEN30
 40
0.5
 41
2.5
 42
1.0
 43
10.0
 44
1.0
 45
0.0
 46
0.0
 47
0.1
 48
0.1
140
3.2
141
0.0
142
0.0
143
0.0393701
144
2.0
145
0.0
146
0.71
147
1.5
 71
     0
 72
     0
 73
     0
 74
     0
 75
     1
 76
     1
 77
     3
 78
     8
170
     0
171
     2
172
     1
173
     1
174
     0
175
     0
176
   256
177
   256
178
     2
270
     2
271
     2
272
     2
273
     2
274
     2
340
6B
275
     0
280
     0
281
     0
282
     0
283
     0
284
     0
285
     0
286
     0
287
     3
288
     0
  0
DIMSTYLE
105
B34
330
A
100
AcDbSymbolTableRecord
100
AcDbDimStyleTableRecord
  2
AM_JIS$2
 70
     0
  3

  4
"
  5
OPEN30
  6

  7

 40
0.5
 41
2.5
 42
1.0
 43
12.0
 44
1.0
 45
0.0
 46
0.0
 47
0.1
 48
0.1
140
3.2
141
0.0
142
0.0
143
0.0393701
144
1.0
145
0.0
146
0.71
147
1.5
 71
     0
 72
     0
 73
     0
 74
     0
 75
     0
 76
     0
 77
     3
 78
     8
170
     0
171
     2
172
     1
173
     0
174
     0
175
     0
176
   256
177
   256
178
     2
270
     2
271
     3
272
     3
273
     2
274
     2
340
6B
275
     0
280
     0
281
     0
282
     0
283
     0
284
     0
285
     0
286
     0
287
     3
288
     0
  0
ENDTAB
  0
TABLE
  2
BLOCK_RECORD
  5
1
330
0
100
AcDbSymbolTable
 70
    12
  0
BLOCK_RECORD
  5
1F
102
{ACAD_XDICTIONARY
360
74
102
}
330
1
100
AcDbSymbolTableRecord
100
AcDbBlockTableRecord
  2
*MODEL_SPACE
  0
BLOCK_RECORD
  5
101
102
{ACAD_XDICTIONARY
360
11C5
102
}
330
1
100
AcDbSymbolTableRecord
100
AcDbBlockTableRecord
  2
*PAPER_SPACE
  0
BLOCK_RECORD
  5
59
330
1
100
AcDbSymbolTableRecord
100
AcDbBlockTableRecord
  2
_OPEN30
  0
BLOCK_RECORD
  5
64
330
1
100
AcDbSymbolTableRecord
100
AcDbBlockTableRecord
  2
GENAXEH
  0
BLOCK_RECORD
  5
C09
330
1
100
AcDbSymbolTableRecord
100
AcDbBlockTableRecord
  2
A$C0F382C1E
  0
BLOCK_RECORD
  5
CC3
330
1
100
AcDbSymbolTableRecord
100
AcDbBlockTableRecord
  2
A$C7DD93793
  0
BLOCK_RECORD
  5
D12
330
1
100
AcDbSymbolTableRecord
100
AcDbBlockTableRecord
  2
*D7
  0
BLOCK_RECORD
  5
D9A
330
1
100
AcDbSymbolTableRecord
100
AcDbBlockTableRecord
  2
*D8
  0
BLOCK_RECORD
  5
E48
330
1
100
AcDbSymbolTableRecord
100
AcDbBlockTableRecord
  2
*D9
  0
BLOCK_RECORD
  5
EF0
330
1
100
AcDbSymbolTableRecord
100
AcDbBlockTableRecord
  2
*D10
  0
BLOCK_RECORD
  5
F79
330
1
100
AcDbSymbolTableRecord
100
AcDbBlockTableRecord
  2
*D11
  0
ENDTAB
  0
ENDSEC
  0
SECTION
  2
BLOCKS
  0
BLOCK
  5
20
330
1F
100
AcDbEntity
  8
0
100
AcDbBlockBegin
  2
*MODEL_SPACE
 70
     0
 10
0.0
 20
0.0
 30
0.0
  3
*MODEL_SPACE
  1

  0
ENDBLK
  5
21
330
1F
100
AcDbEntity
  8
0
100
AcDbBlockEnd
  0
BLOCK
  5
103
330
101
100
AcDbEntity
 67
     1
  8
0
100
AcDbBlockBegin
  2
*PAPER_SPACE
 70
     0
 10
0.0
 20
0.0
 30
0.0
  3
*PAPER_SPACE
  1

  0
ENDBLK
  5
104
330
101
100
AcDbEntity
 67
     1
  8
0
100
AcDbBlockEnd
  0
BLOCK
  5
5D
330
59
100
AcDbEntity
  8
0
100
AcDbBlockBegin
  2
_OPEN30
 70
     0
 10
0.0
 20
0.0
 30
0.0
  3
_OPEN30
  1

  0
LINE
  5
5A
330
59
100
AcDbEntity
  8
0
 62
     0
100
AcDbLine
 10
-1.0
 20
0.26794919
 30
0.0
 11
0.0
 21
0.0
 31
0.0
  0
LINE
  5
5B
330
59
100
AcDbEntity
  8
0
 62
     0
100
AcDbLine
 10
0.0
 20
0.0
 30
0.0
 11
-1.0
 21
-0.26794919
 31
0.0
  0
LINE
  5
5C
330
59
100
AcDbEntity
  8
0
 62
     0
100
AcDbLine
 10
0.0
 20
0.0
 30
0.0
 11
-1.0
 21
0.0
 31
0.0
  0
ENDBLK
  5
5E
330
59
100
AcDbEntity
  8
0
100
AcDbBlockEnd
  0
BLOCK
  5
66
330
64
100
AcDbEntity
  8
0
100
AcDbBlockBegin
  2
GENAXEH
 70
     0
 10
0.0
 20
0.0
 30
0.0
  3
GENAXEH
  1

  0
LINE
  5
65
330
64
100
AcDbEntity
  8
0
100
AcDbLine
 10
-1.0
 20
0.0
 30
0.0
 11
1.0
 21
0.0
 31
0.0
  0
ENDBLK
  5
67
330
64
100
AcDbEntity
  8
0
100
AcDbBlockEnd
  0
BLOCK
  5
C22
330
C09
100
AcDbEntity
  8
0
100
AcDbBlockBegin
  2
A$C0F382C1E
 70
     0
 10
0.0
 20
0.0
 30
0.0
  3
A$C0F382C1E
  1

  0
LINE
  5
C0A
330
C09
100
AcDbEntity
  8
AM_0
100
AcDbLine
 10
-5.067411112952456
 20
2.818843290270126
 30
0.0
 11
-4.633290668784932
 21
0.3568239077396429
 31
0.0
  0
ARC
  5
C0B
330
C09
100
AcDbEntity
  8
AM_0
100
AcDbCircle
 10
-13.71362066797847
 20
0.0250000000017749
 30
0.0
 40
3.399999999999999
100
AcDbArc
 50
85.93315296000534
 51
265.9331529600053
  0
ARC
  5
C0C
330
C09
100
AcDbEntity
  8
AM_4
100
AcDbCircle
 10
-13.71362066797841
 20
0.0250000000015334
 30
0.0
 40
2.5
100
AcDbArc
 50
280.0000000000053
 51
279.9900000000222
1001
GENIUS_GENOREF_13
1005
0
  0
CIRCLE
  5
C0D
330
C09
100
AcDbEntity
  8
AM_0
100
AcDbCircle
 10
-13.71362066797841
 20
0.0250000000015334
 30
0.0
 40
2.066987298107815
1001
GENIUS_GENOREF_13
1005
0
  0
ARC
  5
C0E
330
C09
100
AcDbEntity
  8
AM_0
100
AcDbCircle
 10
-17.2589285788223
 20
-0.6001334395996869
 30
0.0
 40
1.399999999999998
100
AcDbArc
 50
100.0000000000052
 51
280.0000000000053
  0
LINE
  5
C0F
330
C09
100
AcDbEntity
  8
AM_0
100
AcDbLine
 10
-17.01582113008849
 20
-1.978864293816761
 30
0.0
 11
-16.5218284405504
 21
-1.89176005437813
 31
0.0
  0
LINE
  5
C10
330
C09
100
AcDbEntity
  8
AM_0
100
AcDbLine
 10
-17.5020360275561
 20
0.7785974146173871
 30
0.0
 11
-17.00804333801801
 21
0.8657016540560116
 31
0.0
  0
LINE
  5
C11
330
C09
100
AcDbEntity
  8
AM_0
100
AcDbLine
 10
-4.633290668784932
 20
0.3568239077396429
 30
0.0
 11
-12.32709318676115
 21
-3.079439006296965
 31
0.0
  0
ARC
  5
C12
330
C09
100
AcDbEntity
  8
AM_0
100
AcDbCircle
 10
-13.71362066797847
 20
0.0250000000017749
 30
0.0
 40
3.399999999999999
100
AcDbArc
 50
265.9331529600053
 51
294.0668470400026
  0
LINE
  5
C13
330
C09
100
AcDbEntity
  8
AM_0
100
AcDbLine
 10
-5.606440991004237
 20
-2.324999999999832
 30
0.0
 11
-6.637886721696652
 21
-0.5384835891905766
 31
0.0
  0
ARC
  5
C14
330
C09
100
AcDbEntity
  8
AM_0
100
AcDbCircle
 10
-4.913620667977033
 20
-1.774999999999625
 30
0.0
 40
1.5
100
AcDbArc
 50
155.6853347126433
 51
24.3146652873292
  0
ARC
  5
C15
330
C09
100
AcDbEntity
  8
AM_0
100
AcDbCircle
 10
-4.913620667976691
 20
-1.92499999999983
 30
0.0
 40
0.8
100
AcDbArc
 50
209.9999999999994
 51
330.0000000000004
1001
GENIUS_GENODEF_13
1002
{
1000
HIER
1070
     0
1002
}
1002
{
1000
MANEDIT
1070
     0
1002
}
1002
{
1000
NOSEL
1070
     0
1002
}
1002
{
1000
BEHIND
1070
     0
1002
}
1002
{
1000
REACTOR
1002
}
1001
GENIUS_GENOBJ-N-FIL_13
1002
{
1000
OWNER
1000
GEN
1002
}
  0
ARC
  5
C16
330
C09
100
AcDbEntity
  8
AM_0
100
AcDbCircle
 10
-4.913620667976701
 20
2.825000000000148
 30
0.0
 40
3.174999999999999
100
AcDbArc
 50
252.2953145732036
 51
252.2953145732052
  0
LINE
  5
C17
330
C09
100
AcDbEntity
  8
AM_0
100
AcDbLine
 10
-5.067411112952456
 20
2.818843290270126
 30
0.0
 11
-13.47249169924232
 21
3.416438753751621
 31
0.0
  0
LINE
  5
C18
330
C09
100
AcDbEntity
  8
AM_0
100
AcDbLine
 10
-8.726440560378465
 20
3.078997773749289
 30
0.0
 11
-9.720061658980361
 21
4.800000000000141
 31
0.0
  0
ARC
  5
C19
330
C09
100
AcDbEntity
  8
AM_0
100
AcDbCircle
 10
-0.8000000000006554
 20
5.200000000000163
 30
0.0
 40
0.8
100
AcDbArc
 50
330.0000000000004
 51
90.0000000000001
1001
GENIUS_GENODEF_13
1002
{
1000
HIER
1070
     0
1002
}
1002
{
1000
MANEDIT
1070
     0
1002
}
1002
{
1000
NOSEL
1070
     0
1002
}
1002
{
1000
BEHIND
1070
     0
1002
}
1002
{
1000
REACTOR
1002
}
1001
GENIUS_GENOBJ-N-FIL_13
1002
{
1000
OWNER
1000
GEN
1002
}
  0
LINE
  5
C1A
330
C09
100
AcDbEntity
  8
AM_7
  6
AM_ISO08W050X2
100
AcDbLine
 10
-0.0000000000006393
 20
2.82500000000018
 30
0.0
 11
-10.79519548743447
 21
2.825000000000123
 31
0.0
1001
GENIUS_GENOREF_13
1005
0
  0
ARC
  5
C1B
330
C09
100
AcDbEntity
  8
AM_0
100
AcDbCircle
 10
-4.913620667976672
 20
2.825000000000148
 30
0.0
 40
3.174999999999999
100
AcDbArc
 50
252.2953145732036
 51
72.29531457320523
  0
LINE
  5
C1C
330
C09
100
AcDbEntity
  8
AM_0
100
AcDbLine
 10
-0.1071796769731075
 20
4.800000000000166
 30
0.0
 11
-4.220800344949143
 21
-2.324999999999814
 31
0.0
  0
ARC
  5
C1D
330
C09
100
AcDbEntity
  8
AM_0
100
AcDbCircle
 10
-4.913620667976701
 20
2.825000000000148
 30
0.0
 40
3.174999999999999
100
AcDbArc
 50
72.29531457320367
 51
176.2408024432386
  0
LINE
  5
C1E
330
C09
100
AcDbEntity
  8
AM_0
100
AcDbLine
 10
-9.027241335952815
 20
6.000000000000137
 30
0.0
 11
-0.8000000000006568
 21
6.00000000000016
 31
0.0
  0
ARC
  5
C1F
330
C09
100
AcDbEntity
  8
AM_0
100
AcDbCircle
 10
-9.027241335952814
 20
5.200000000000133
 30
0.0
 40
0.8
100
AcDbArc
 50
90.0000000000001
 51
209.9999999999994
1001
GENIUS_GENODEF_13
1002
{
1000
HIER
1070
     0
1002
}
1002
{
1000
MANEDIT
1070
     0
1002
}
1002
{
1000
NOSEL
1070
     0
1002
}
1002
{
1000
BEHIND
1070
     0
1002
}
1002
{
1000
REACTOR
1002
}
1001
GENIUS_GENOBJ-N-FIL_13
1002
{
1000
OWNER
1000
GEN
1002
}
  0
LINE
  5
C20
330
C09
100
AcDbEntity
  8
AM_7
  6
AM_ISO08W050X2
100
AcDbLine
 10
-14.43456336699596
 20
4.113669221923983
 30
0.0
 11
-13.01902795731035
 21
-3.914231012047238
 31
0.0
1001
GENIUS_GENOREF_13
1005
0
  0
LINE
  5
C21
330
C09
100
AcDbEntity
  8
AM_7
  6
AM_ISO08W050X2
100
AcDbLine
 10
-19.10643339523705
 20
-0.9258983857223581
 30
0.0
 11
-3.980812230128931
 21
1.741156725662476
 31
0.0
1001
GENIUS_GENOREF_13
1005
0
  0
ENDBLK
  5
C23
330
C09
100
AcDbEntity
  8
0
100
AcDbBlockEnd
  0
BLOCK
  5
CDB
330
CC3
100
AcDbEntity
  8
0
100
AcDbBlockBegin
  2
A$C7DD93793
 70
     0
 10
0.0
 20
0.0
 30
0.0
  3
A$C7DD93793
  1

  0
LINE
  5
CC4
330
CC3
100
AcDbEntity
  8
AM_0
100
AcDbLine
 10
-9.027241335952169
 20
-0.0000000000000284
 30
0.0
 11
-0.8000000000000113
 21
0.0
 31
0.0
  0
LINE
  5
CC5
330
CC3
100
AcDbEntity
  8
AM_0
100
AcDbLine
 10
-0.1071796769724642
 20
-1.200000000000017
 30
0.0
 11
-4.220800344948486
 21
-8.324999999999988
 31
0.0
  0
LINE
  5
CC6
330
CC3
100
AcDbEntity
  8
AM_7
  6
AM_ISO08W050X2
100
AcDbLine
 10
0.0000000000000284
 20
-3.174999999999982
 30
0.0
 11
-10.7951954874338
 21
-3.175000000000039
 31
0.0
1001
GENIUS_GENOREF_13
1005
0
  0
ARC
  5
CC7
330
CC3
100
AcDbEntity
  8
AM_0
100
AcDbCircle
 10
-16.51436034204516
 20
-8.584513750280933
 30
0.0
 40
1.399999999999998
100
AcDbArc
 50
115.0
 51
295.0
  0
LINE
  5
CC8
330
CC3
100
AcDbEntity
  8
AM_7
  6
AM_ISO08W050X2
100
AcDbLine
 10
-18.21459878613032
 20
-9.377347957447085
 30
0.0
 11
-4.294655321251724
 21
-2.886371718689616
 31
0.0
1001
GENIUS_GENOREF_13
1005
0
  0
ARC
  5
CC9
330
CC3
100
AcDbEntity
  8
AM_0
100
AcDbCircle
 10
-13.25165230871337
 20
-7.063088008014204
 30
0.0
 40
3.399999999999999
100
AcDbArc
 50
100.9331529600002
 51
280.9331529600002
  0
ARC
  5
CCA
330
CC3
100
AcDbEntity
  8
AM_4
100
AcDbCircle
 10
-13.25165230871323
 20
-7.063088008014432
 30
0.0
 40
2.5
100
AcDbArc
 50
295.0
 51
294.9900000000167
1001
GENIUS_GENOREF_13
1005
0
  0
CIRCLE
  5
CCB
330
CC3
100
AcDbEntity
  8
AM_0
100
AcDbCircle
 10
-13.25165230871323
 20
-7.063088008014432
 30
0.0
 40
2.066987298107815
1001
GENIUS_GENOREF_13
1005
0
  0
LINE
  5
CCC
330
CC3
100
AcDbEntity
  8
AM_7
  6
AM_ISO08W050X2
100
AcDbLine
 10
-14.94212535567618
 20
-3.437856859867622
 30
0.0
 11
-11.56117926175042
 21
-10.68831915616104
 31
0.0
1001
GENIUS_GENOREF_13
1005
0
  0
LINE
  5
CCD
330
CC3
100
AcDbEntity
  8
AM_0
100
AcDbLine
 10
-4.566609398207589
 20
-4.392408386143699
 30
0.0
 11
-11.10888166655695
 21
-9.702886101640416
 31
0.0
  0
LINE
  5
CCE
330
CC3
100
AcDbEntity
  8
AM_7
  6
AM_ISO08W050X2
100
AcDbLine
 10
-4.913620667976033
 20
-11.72500000000002
 30
0.0
 11
-4.913620667976061
 21
3.0
 31
0.0
1001
GENIUS_GENODEF_13
1002
{
1000
HIER
1070
     0
1002
}
1002
{
1000
MANEDIT
1070
     0
1002
}
1002
{
1000
NOSEL
1070
     0
1002
}
1002
{
1000
BEHIND
1070
     0
1002
}
1002
{
1000
REACTOR
1002
}
1001
GENIUS_GENOBJ-N-CEN_13
1002
{
1000
OWNER
1000
GEN
1002
}
  0
LINE
  5
CCF
330
CC3
100
AcDbEntity
  8
AM_0
100
AcDbLine
 10
-15.92269477560816
 20
-9.85334465213225
 30
0.0
 11
-15.4680787148612
 21
-9.641353701485371
 31
0.0
  0
LINE
  5
CD0
330
CC3
100
AcDbEntity
  8
AM_0
100
AcDbLine
 10
-17.1060259084821
 20
-7.315682848429588
 30
0.0
 11
-16.65140984773518
 21
-7.103691897782738
 31
0.0
  0
ARC
  5
CD1
330
CC3
100
AcDbEntity
  8
AM_0
100
AcDbCircle
 10
-13.25165230871337
 20
-7.063088008014204
 30
0.0
 40
3.399999999999999
100
AcDbArc
 50
280.9331529600002
 51
309.0668470399975
  0
ARC
  5
CD2
330
CC3
100
AcDbEntity
  8
AM_0
100
AcDbCircle
 10
-4.913620667976033
 20
-7.925000000000011
 30
0.0
 40
0.8
100
AcDbArc
 50
209.9999999999997
 51
330.0000000000002
1001
GENIUS_GENODEF_13
1002
{
1000
HIER
1070
     0
1002
}
1002
{
1000
MANEDIT
1070
     0
1002
}
1002
{
1000
NOSEL
1070
     0
1002
}
1002
{
1000
BEHIND
1070
     0
1002
}
1002
{
1000
REACTOR
1002
}
1001
GENIUS_GENOBJ-N-FIL_13
1002
{
1000
OWNER
1000
GEN
1002
}
  0
ARC
  5
CD3
330
CC3
100
AcDbEntity
  8
AM_0
100
AcDbCircle
 10
-4.913620667976374
 20
-7.774999999999806
 30
0.0
 40
1.5
100
AcDbArc
 50
155.6853347126428
 51
24.31466528732872
  0
LINE
  5
CD4
330
CC3
100
AcDbEntity
  8
AM_0
100
AcDbLine
 10
-5.60644099100358
 20
-8.324999999999988
 30
0.0
 11
-6.820601030394499
 21
-6.222013123255095
 31
0.0
  0
ARC
  5
CD5
330
CC3
100
AcDbEntity
  8
AM_0
100
AcDbCircle
 10
-4.913620667976061
 20
-3.175000000000011
 30
0.0
 40
3.174999999999999
100
AcDbArc
 50
252.2953145732033
 51
252.2953145732053
  0
LINE
  5
CD6
330
CC3
100
AcDbEntity
  8
AM_0
100
AcDbLine
 10
-8.827676889561132
 20
-2.745655760533651
 30
0.0
 11
-9.720061658979716
 21
-1.200000000000017
 31
0.0
  0
LINE
  5
CD7
330
CC3
100
AcDbEntity
  8
AM_0
100
AcDbLine
 10
-5.623155052559326
 20
-2.12663891855206
 30
0.0
 11
-13.89650855011362
 21
-3.724800958054714
 31
0.0
  0
ARC
  5
CD8
330
CC3
100
AcDbEntity
  8
AM_0
100
AcDbCircle
 10
-9.027241335952169
 20
-0.8000000000000397
 30
0.0
 40
0.8
100
AcDbArc
 50
90.0
 51
209.9999999999997
1001
GENIUS_GENODEF_13
1002
{
1000
HIER
1070
     0
1002
}
1002
{
1000
MANEDIT
1070
     0
1002
}
1002
{
1000
NOSEL
1070
     0
1002
}
1002
{
1000
BEHIND
1070
     0
1002
}
1002
{
1000
REACTOR
1002
}
1001
GENIUS_GENOBJ-N-FIL_13
1002
{
1000
OWNER
1000
GEN
1002
}
  0
LINE
  5
CD9
330
CC3
100
AcDbEntity
  8
AM_0
100
AcDbLine
 10
-5.623155052559326
 20
-2.12663891855206
 30
0.0
 11
-4.566609398207589
 21
-4.392408386143699
 31
0.0
  0
ARC
  5
CDA
330
CC3
100
AcDbEntity
  8
AM_0
100
AcDbCircle
 10
-0.8000000000000113
 20
-0.8000000000000113
 30
0.0
 40
0.8
100
AcDbArc
 50
330.0000000000002
 51
90.0
1001
GENIUS_GENODEF_13
1002
{
1000
HIER
1070
     0
1002
}
1002
{
1000
MANEDIT
1070
     0
1002
}
1002
{
1000
NOSEL
1070
     0
1002
}
1002
{
1000
BEHIND
1070
     0
1002
}
1002
{
1000
REACTOR
1002
}
1001
GENIUS_GENOBJ-N-FIL_13
1002
{
1000
OWNER
1000
GEN
1002
}
  0
ENDBLK
  5
CDC
330
CC3
100
AcDbEntity
  8
0
100
AcDbBlockEnd
  0
BLOCK
  5
D1C
330
D12
100
AcDbEntity
  8
0
100
AcDbBlockBegin
  2
*D7
 70
     1
 10
0.0
 20
0.0
 30
0.0
  3
*D7
  1

  0
LINE
  5
10EA
330
D12
100
AcDbEntity
  8
AM_5
100
AcDbLine
 10
-70.0
 20
-7.5
 30
0.0
 11
-70.0
 21
-21.49999999999991
 31
0.0
  0
LINE
  5
10EB
330
D12
100
AcDbEntity
  8
AM_5
100
AcDbLine
 10
0.0
 20
-8.5
 30
0.0
 11
-0.0000000000000008
 21
-21.49999999999991
 31
0.0
  0
LINE
  5
10EC
330
D12
100
AcDbEntity
  8
AM_5
100
AcDbLine
 10
-68.75
 20
-20.99999999999991
 30
0.0
 11
-1.25
 21
-20.99999999999991
 31
0.0
  0
INSERT
  5
10ED
330
D12
100
AcDbEntity
  8
AM_5
100
AcDbBlockReference
  2
_OPEN30
 10
-70.0
 20
-20.99999999999991
 30
0.0
 41
1.25
 42
1.25
 43
1.25
 50
180.0
  0
INSERT
  5
10EE
330
D12
100
AcDbEntity
  8
AM_5
100
AcDbBlockReference
  2
_OPEN30
 10
-0.0000000000000008
 20
-20.99999999999991
 30
0.0
 41
1.25
 42
1.25
 43
1.25
  0
MTEXT
  5
10EF
330
D12
100
AcDbEntity
  8
AM_5
 62
     2
100
AcDbMText
 10
-35.0
 20
-19.44999999999991
 30
0.0
 40
1.6
 41
0.0
 71
     5
 72
     1
  1
70
  7
ASAMI
1001
ACAD
1000
MTEXTBEGIN
1070
    73
1070
     1
1070
    44
1040
1.0
1070
    74
1070
     0
1000
MTEXTEND
  0
POINT
  5
10F0
330
D12
100
AcDbEntity
  8
DEFPOINTS
 62
     0
100
AcDbPoint
 10
-70.0
 20
-7.0
 30
0.0
  0
POINT
  5
10F1
330
D12
100
AcDbEntity
  8
DEFPOINTS
 62
     0
100
AcDbPoint
 10
0.0
 20
-8.0
 30
0.0
  0
POINT
  5
10F2
330
D12
100
AcDbEntity
  8
DEFPOINTS
 62
     0
100
AcDbPoint
 10
-0.0000000000000008
 20
-20.99999999999991
 30
0.0
  0
ENDBLK
  5
D1D
330
D12
100
AcDbEntity
  8
0
100
AcDbBlockEnd
  0
BLOCK
  5
DA4
330
D9A
100
AcDbEntity
  8
0
100
AcDbBlockBegin
  2
*D8
 70
     1
 10
0.0
 20
0.0
 30
0.0
  3
*D8
  1

  0
LINE
  5
10E1
330
D9A
100
AcDbEntity
  8
AM_5
100
AcDbLine
 10
-70.0
 20
-7.5
 30
0.0
 11
-70.0
 21
-15.49999999999995
 31
0.0
  0
LINE
  5
10E2
330
D9A
100
AcDbEntity
  8
AM_5
100
AcDbLine
 10
-20.0
 20
-8.0
 30
0.0
 11
-20.0
 21
-15.49999999999995
 31
0.0
  0
LINE
  5
10E3
330
D9A
100
AcDbEntity
  8
AM_5
100
AcDbLine
 10
-68.75
 20
-14.99999999999995
 30
0.0
 11
-21.25
 21
-14.99999999999995
 31
0.0
  0
INSERT
  5
10E4
330
D9A
100
AcDbEntity
  8
AM_5
100
AcDbBlockReference
  2
_OPEN30
 10
-70.0
 20
-14.99999999999995
 30
0.0
 41
1.25
 42
1.25
 43
1.25
 50
180.0
  0
INSERT
  5
10E5
330
D9A
100
AcDbEntity
  8
AM_5
100
AcDbBlockReference
  2
_OPEN30
 10
-20.0
 20
-14.99999999999995
 30
0.0
 41
1.25
 42
1.25
 43
1.25
  0
MTEXT
  5
10E6
330
D9A
100
AcDbEntity
  8
AM_5
 62
     2
100
AcDbMText
 10
-45.0
 20
-13.44999999999995
 30
0.0
 40
1.6
 41
0.0
 71
     5
 72
     1
  1
50
  7
ASAMI
1001
ACAD
1000
MTEXTBEGIN
1070
    73
1070
     1
1070
    44
1040
1.0
1070
    74
1070
     0
1000
MTEXTEND
  0
POINT
  5
10E7
330
D9A
100
AcDbEntity
  8
DEFPOINTS
 62
     0
100
AcDbPoint
 10
-70.0
 20
-7.0
 30
0.0
  0
POINT
  5
10E8
330
D9A
100
AcDbEntity
  8
DEFPOINTS
 62
     0
100
AcDbPoint
 10
-20.0
 20
-7.5
 30
0.0
  0
POINT
  5
10E9
330
D9A
100
AcDbEntity
  8
DEFPOINTS
 62
     0
100
AcDbPoint
 10
-20.0
 20
-14.99999999999995
 30
0.0
  0
ENDBLK
  5
DA5
330
D9A
100
AcDbEntity
  8
0
100
AcDbBlockEnd
  0
BLOCK
  5
E54
330
E48
100
AcDbEntity
  8
0
100
AcDbBlockBegin
  2
*D9
 70
     1
 10
0.0
 20
0.0
 30
0.0
  3
*D9
  1

  0
LINE
  5
10C3
330
E48
100
AcDbEntity
  8
AM_5
100
AcDbLine
 10
-8.0
 20
8.5
 30
0.0
 11
-8.000000000000005
 21
15.49999999999999
 31
0.0
  0
LINE
  5
10C4
330
E48
100
AcDbEntity
  8
AM_5
100
AcDbLine
 10
-0.0000000000000004
 20
8.5
 30
0.0
 11
-0.0000000000000062
 21
15.5
 31
0.0
  0
LINE
  5
10C5
330
E48
100
AcDbEntity
  8
AM_5
100
AcDbLine
 10
-6.750000000000006
 20
15.0
 30
0.0
 11
-1.250000000000005
 21
15.0
 31
0.0
  0
INSERT
  5
10C6
330
E48
100
AcDbEntity
  8
AM_5
100
AcDbBlockReference
  2
_OPEN30
 10
-8.000000000000007
 20
14.99999999999999
 30
0.0
 41
1.25
 42
1.25
 43
1.25
 50
180.0
  0
INSERT
  5
10C7
330
E48
100
AcDbEntity
  8
AM_5
100
AcDbBlockReference
  2
_OPEN30
 10
-0.0000000000000058
 20
15.0
 30
0.0
 41
1.25
 42
1.25
 43
1.25
 50
0.0000000000000509
  0
MTEXT
  5
10C8
330
E48
100
AcDbEntity
  8
AM_5
 62
     2
100
AcDbMText
 10
-4.000000000000007
 20
16.55
 30
0.0
 40
1.6
 41
0.0
 71
     5
 72
     1
  1
8
  7
ASAMI
1001
ACAD
1000
MTEXTBEGIN
1070
    73
1070
     1
1070
    44
1040
1.0
1070
    74
1070
     0
1000
MTEXTEND
  0
POINT
  5
10C9
330
E48
100
AcDbEntity
  8
DEFPOINTS
 62
     0
100
AcDbPoint
 10
-8.0
 20
8.0
 30
0.0
  0
POINT
  5
10CA
330
E48
100
AcDbEntity
  8
DEFPOINTS
 62
     0
100
AcDbPoint
 10
0.0
 20
8.0
 30
0.0
  0
POINT
  5
10CB
330
E48
100
AcDbEntity
  8
DEFPOINTS
 62
     0
100
AcDbPoint
 10
-0.0000000000000058
 20
15.0
 30
0.0
  0
ENDBLK
  5
E55
330
E48
100
AcDbEntity
  8
0
100
AcDbBlockEnd
  0
BLOCK
  5
EFA
330
EF0
100
AcDbEntity
  8
0
100
AcDbBlockBegin
  2
*D10
 70
     1
 10
0.0
 20
0.0
 30
0.0
  3
*D10
  1

  0
LINE
  5
10CD
330
EF0
100
AcDbEntity
  8
AM_5
100
AcDbLine
 10
0.5
 20
-8.0
 30
0.0
 11
7.499999999999993
 21
-8.000000000000001
 31
0.0
  0
LINE
  5
10CE
330
EF0
100
AcDbEntity
  8
AM_5
100
AcDbLine
 10
0.5000000000000018
 20
8.0
 30
0.0
 11
7.499999999999997
 21
7.999999999999997
 31
0.0
  0
LINE
  5
10CF
330
EF0
100
AcDbEntity
  8
AM_5
100
AcDbLine
 10
6.999999999999993
 20
-6.750000000000001
 30
0.0
 11
6.999999999999997
 21
6.749999999999998
 31
0.0
  0
INSERT
  5
10D0
330
EF0
100
AcDbEntity
  8
AM_5
100
AcDbBlockReference
  2
_OPEN30
 10
6.999999999999993
 20
-8.000000000000001
 30
0.0
 41
1.25
 42
1.25
 43
1.25
 50
270.0
  0
INSERT
  5
10D1
330
EF0
100
AcDbEntity
  8
AM_5
100
AcDbBlockReference
  2
_OPEN30
 10
6.999999999999997
 20
7.999999999999998
 30
0.0
 41
1.25
 42
1.25
 43
1.25
 50
90.0
  0
MTEXT
  5
10D2
330
EF0
100
AcDbEntity
  8
AM_5
 62
     2
100
AcDbMText
 10
5.449999999999995
 20
-0.0000000000000002
 30
0.0
 40
1.6
 41
0.0
 71
     5
 72
     1
  1
%%c16
  7
ASAMI
 11
0.0000000000000001
 21
1.0
 31
0.0
1001
ACAD
1000
MTEXTBEGIN
1070
    73
1070
     1
1070
    44
1040
1.0
1070
    74
1070
     0
1000
MTEXTEND
  0
POINT
  5
10D3
330
EF0
100
AcDbEntity
  8
DEFPOINTS
 62
     0
100
AcDbPoint
 10
0.0
 20
-8.0
 30
0.0
  0
POINT
  5
10D4
330
EF0
100
AcDbEntity
  8
DEFPOINTS
 62
     0
100
AcDbPoint
 10
0.0000000000000018
 20
8.0
 30
0.0
  0
POINT
  5
10D5
330
EF0
100
AcDbEntity
  8
DEFPOINTS
 62
     0
100
AcDbPoint
 10
6.999999999999997
 20
7.999999999999998
 30
0.0
  0
ENDBLK
  5
EFB
330
EF0
100
AcDbEntity
  8
0
100
AcDbBlockEnd
  0
BLOCK
  5
F83
330
F79
100
AcDbEntity
  8
0
100
AcDbBlockBegin
  2
*D11
 70
     1
 10
0.0
 20
0.0
 30
0.0
  3
*D11
  1

  0
LINE
  5
10D7
330
F79
100
AcDbEntity
  8
AM_5
100
AcDbLine
 10
-69.5
 20
-8.0
 30
0.0
 11
-77.5
 21
-7.999999999999999
 31
0.0
  0
LINE
  5
10D8
330
F79
100
AcDbEntity
  8
AM_5
100
AcDbLine
 10
-69.5
 20
8.0
 30
0.0
 11
-77.5
 21
8.000000000000003
 31
0.0
  0
LINE
  5
10D9
330
F79
100
AcDbEntity
  8
AM_5
100
AcDbLine
 10
-77.0
 20
-6.749999999999999
 30
0.0
 11
-77.0
 21
6.750000000000002
 31
0.0
  0
INSERT
  5
10DA
330
F79
100
AcDbEntity
  8
AM_5
100
AcDbBlockReference
  2
_OPEN30
 10
-77.0
 20
-7.999999999999999
 30
0.0
 41
1.25
 42
1.25
 43
1.25
 50
270.0
  0
INSERT
  5
10DB
330
F79
100
AcDbEntity
  8
AM_5
100
AcDbBlockReference
  2
_OPEN30
 10
-77.0
 20
8.000000000000003
 30
0.0
 41
1.25
 42
1.25
 43
1.25
 50
90.0
  0
MTEXT
  5
10DC
330
F79
100
AcDbEntity
  8
AM_5
 62
     2
100
AcDbMText
 10
-78.55
 20
-0.0000000000000102
 30
0.0
 40
1.6
 41
0.0
 71
     5
 72
     1
  1
%%c16
  7
ASAMI
 11
0.0000000000000001
 21
1.0
 31
0.0
1001
ACAD
1000
MTEXTBEGIN
1070
    73
1070
     1
1070
    44
1040
1.0
1070
    74
1070
     0
1000
MTEXTEND
  0
POINT
  5
10DD
330
F79
100
AcDbEntity
  8
DEFPOINTS
 62
     0
100
AcDbPoint
 10
-69.0
 20
-8.0
 30
0.0
  0
POINT
  5
10DE
330
F79
100
AcDbEntity
  8
DEFPOINTS
 62
     0
100
AcDbPoint
 10
-69.0
 20
8.0
 30
0.0
  0
POINT
  5
10DF
330
F79
100
AcDbEntity
  8
DEFPOINTS
 62
     0
100
AcDbPoint
 10
-77.0
 20
8.000000000000003
 30
0.0
  0
ENDBLK
  5
F84
330
F79
100
AcDbEntity
  8
0
100
AcDbBlockEnd
  0
ENDSEC
  0
SECTION
  2
ENTITIES
  0
LINE
  5
BA4
330
1F
100
AcDbEntity
  8
AM_0
100
AcDbLine
 10
-69.0
 20
8.0
 30
0.0
 11
-20.50000000000002
 21
8.0
 31
0.0
  0
LINE
  5
BA5
330
1F
100
AcDbEntity
  8
AM_0
100
AcDbLine
 10
-20.00000000000003
 20
7.5
 30
0.0
 11
-20.0
 21
-7.5
 31
0.0
  0
LINE
  5
BA6
330
1F
100
AcDbEntity
  8
AM_0
100
AcDbLine
 10
-20.50000000000002
 20
-8.0
 30
0.0
 11
-69.0
 21
-8.0
 31
0.0
  0
LINE
  5
BA7
330
1F
100
AcDbEntity
  8
AM_0
100
AcDbLine
 10
-70.0
 20
-7.0
 30
0.0
 11
-70.0
 21
7.0
 31
0.0
  0
LINE
  5
BB0
330
1F
100
AcDbEntity
  8
AM_0
100
AcDbLine
 10
-20.0
 20
-7.5
 30
0.0
 11
-4.400000000000005
 21
-7.5
 31
0.0
  0
LINE
  5
BB4
330
1F
100
AcDbEntity
  8
AM_0
100
AcDbLine
 10
-20.0
 20
7.5
 30
0.0
 11
-9.768861184661716
 21
7.5
 31
0.0
  0
LINE
  5
BB5
330
1F
100
AcDbEntity
  8
AM_11
100
AcDbLine
 10
0.0
 20
8.0
 30
0.0
 11
0.0
 21
-8.0
 31
0.0
  0
LINE
  5
BBD
330
1F
100
AcDbEntity
  8
AM_0
100
AcDbLine
 10
-0.8999999999999772
 20
5.426794919243093
 30
0.0
 11
-0.9000000000000056
 21
-4.000000000000028
 31
0.0
  0
LINE
  5
BC9
330
1F
100
AcDbEntity
  8
AM_7
100
AcDbLine
 10
-73.0
 20
0.0
 30
0.0
 11
3.0
 21
0.0
 31
0.0
1001
GENIUS_GENODEF_13
1002
{
1000
HIER
1070
     0
1002
}
1002
{
1000
MANEDIT
1070
     0
1002
}
1002
{
1000
NOSEL
1070
     0
1002
}
1002
{
1000
BEHIND
1070
     0
1002
}
1002
{
1000
REACTOR
1002
}
1001
GENIUS_GENOBJ-N-CEN_13
1002
{
1000
OWNER
1000
GEN
1002
}
  0
LINE
  5
BD2
330
1F
100
AcDbEntity
  8
AM_11
100
AcDbLine
 10
-8.0
 20
8.0
 30
0.0
 11
0.0
 21
8.0
 31
0.0
1001
GENIUS_GENODEF_13
1002
{
1000
HIER
1070
     0
1002
}
1002
{
1000
MANEDIT
1070
     0
1002
}
1002
{
1000
NOSEL
1070
     0
1002
}
1002
{
1000
BEHIND
1070
     0
1002
}
1002
{
1000
REACTOR
1002
}
1001
GENIUS_GENOBJ-N-CEN_13
1002
{
1000
OWNER
1000
GEN
1002
}
  0
LINE
  5
BD6
330
1F
100
AcDbEntity
  8
AM_11
100
AcDbLine
 10
-8.0
 20
-8.0
 30
0.0
 11
0.0
 21
-8.0
 31
0.0
1001
GENIUS_GENODEF_13
1002
{
1000
HIER
1070
     0
1002
}
1002
{
1000
MANEDIT
1070
     0
1002
}
1002
{
1000
NOSEL
1070
     0
1002
}
1002
{
1000
BEHIND
1070
     0
1002
}
1002
{
1000
REACTOR
1002
}
1001
GENIUS_GENOBJ-N-CEN_13
1002
{
1000
OWNER
1000
GEN
1002
}
  0
LINE
  5
BE0
330
1F
100
AcDbEntity
  8
AM_11
100
AcDbLine
 10
-8.0
 20
8.0
 30
0.0
 11
-8.0
 21
-8.0
 31
0.0
  0
LINE
  5
BEC
330
1F
100
AcDbEntity
  8
AM_0
100
AcDbLine
 10
-70.0
 20
7.0
 30
0.0
 11
-69.0
 21
8.0
 31
0.0
1001
GENIUS_GENFIL_13
1070
     0
1040
1.0
1040
1.0
1040
20.0
1040
0.0
1002
{
1002
}
1001
GENIUS_GENODEF_13
1002
{
1000
HIER
1070
     0
1002
}
1002
{
1000
MANEDIT
1070
     0
1002
}
1002
{
1000
NOSEL
1070
     0
1002
}
1002
{
1000
BEHIND
1070
     0
1002
}
1002
{
1000
REACTOR
1002
}
1001
GENIUS_GENOBJ-N-CHA_13
1002
{
1000
OWNER
1000
GEN
1002
}
  0
LINE
  5
BF0
330
1F
100
AcDbEntity
  8
AM_0
100
AcDbLine
 10
-70.0
 20
-7.0
 30
0.0
 11
-69.0
 21
-8.0
 31
0.0
1001
GENIUS_GENFIL_13
1070
     0
1040
1.0
1040
1.0
1040
20.0
1040
0.0
1002
{
1002
}
1001
GENIUS_GENODEF_13
1002
{
1000
HIER
1070
     0
1002
}
1002
{
1000
MANEDIT
1070
     0
1002
}
1002
{
1000
NOSEL
1070
     0
1002
}
1002
{
1000
BEHIND
1070
     0
1002
}
1002
{
1000
REACTOR
1002
}
1001
GENIUS_GENOBJ-N-CHA_13
1002
{
1000
OWNER
1000
GEN
1002
}
  0
LINE
  5
BF1
330
1F
100
AcDbEntity
  8
AM_0
100
AcDbLine
 10
-69.0
 20
-8.0
 30
0.0
 11
-69.0
 21
8.0
 31
0.0
  0
LINE
  5
BF2
330
1F
100
AcDbEntity
  8
AM_0
100
AcDbLine
 10
-20.0
 20
7.5
 30
0.0
 11
-20.5
 21
8.0
 31
0.0
  0
LINE
  5
BF3
330
1F
100
AcDbEntity
  8
AM_0
100
AcDbLine
 10
-20.0
 20
-7.5
 30
0.0
 11
-20.5
 21
-8.0
 31
0.0
  0
LINE
  5
BF4
330
1F
100
AcDbEntity
  8
AM_0
100
AcDbLine
 10
-20.5
 20
-8.0
 30
0.0
 11
-20.5
 21
8.0
 31
0.0
  0
LINE
  5
BFD
330
1F
100
AcDbEntity
  8
AM_0
100
AcDbLine
 10
-0.9000000000000056
 20
-4.0
 30
0.0
 11
-4.400000000000005
 21
-7.5
 31
0.0
  0
LINE
  5
CDF
330
1F
100
AcDbEntity
  8
AM_0
100
AcDbLine
 10
-9.027241335952169
 20
7.999999999999971
 30
0.0
 11
-0.8000000000000113
 21
8.0
 31
0.0
  0
LINE
  5
CE0
330
1F
100
AcDbEntity
  8
AM_0
100
AcDbLine
 10
-0.1071796769724642
 20
6.799999999999982
 30
0.0
 11
-4.220800344948486
 21
-0.3249999999999886
 31
0.0
  0
LINE
  5
CE1
330
1F
100
AcDbEntity
  8
AM_7
  6
AM_ISO08W050X2
100
AcDbLine
 10
0.0000000000000284
 20
4.825000000000017
 30
0.0
 11
-10.7951954874338
 21
4.82499999999996
 31
0.0
1001
GENIUS_GENOREF_13
1005
0
  0
ARC
  5
CE2
330
1F
100
AcDbEntity
  8
AM_0
100
AcDbCircle
 10
-16.51436034204516
 20
-0.5845137502809337
 30
0.0
 40
1.399999999999998
100
AcDbArc
 50
115.0
 51
295.0
  0
LINE
  5
CE3
330
1F
100
AcDbEntity
  8
AM_7
  6
AM_ISO08W050X2
100
AcDbLine
 10
-18.21459878613032
 20
-1.377347957447085
 30
0.0
 11
-4.294655321251724
 21
5.113628281310383
 31
0.0
1001
GENIUS_GENOREF_13
1005
0
  0
ARC
  5
CE4
330
1F
100
AcDbEntity
  8
AM_0
100
AcDbCircle
 10
-13.25165230871337
 20
0.9369119919857951
 30
0.0
 40
3.399999999999999
100
AcDbArc
 50
100.9331529599999
 51
280.9331529599999
  0
ARC
  5
CE5
330
1F
100
AcDbEntity
  8
AM_4
100
AcDbCircle
 10
-13.25165230871323
 20
0.9369119919855677
 30
0.0
 40
2.5
100
AcDbArc
 50
295.0
 51
294.9900000000167
1001
GENIUS_GENOREF_13
1005
0
  0
CIRCLE
  5
CE6
330
1F
100
AcDbEntity
  8
AM_0
100
AcDbCircle
 10
-13.25165230871323
 20
0.9369119919855677
 30
0.0
 40
2.066987298107815
1001
GENIUS_GENOREF_13
1005
0
  0
LINE
  5
CE7
330
1F
100
AcDbEntity
  8
AM_7
  6
AM_ISO08W050X2
100
AcDbLine
 10
-14.94212535567618
 20
4.562143140132377
 30
0.0
 11
-11.56117926175042
 21
-2.688319156161043
 31
0.0
1001
GENIUS_GENOREF_13
1005
0
  0
LINE
  5
CE8
330
1F
100
AcDbEntity
  8
AM_0
100
AcDbLine
 10
-4.566609398207589
 20
3.6075916138563
 30
0.0
 11
-11.10888166655695
 21
-1.702886101640416
 31
0.0
  0
LINE
  5
CE9
330
1F
100
AcDbEntity
  8
AM_7
  6
AM_ISO08W050X2
100
AcDbLine
 10
-4.913620667976033
 20
-3.725000000000022
 30
0.0
 11
-4.913620667976061
 21
11.0
 31
0.0
1001
GENIUS_GENODEF_13
1002
{
1000
HIER
1070
     0
1002
}
1002
{
1000
MANEDIT
1070
     0
1002
}
1002
{
1000
NOSEL
1070
     0
1002
}
1002
{
1000
BEHIND
1070
     0
1002
}
1002
{
1000
REACTOR
1002
}
1001
GENIUS_GENOBJ-N-CEN_13
1002
{
1000
OWNER
1000
GEN
1002
}
  0
LINE
  5
CEA
330
1F
100
AcDbEntity
  8
AM_0
100
AcDbLine
 10
-15.92269477560816
 20
-1.85334465213225
 30
0.0
 11
-15.4680787148612
 21
-1.641353701485371
 31
0.0
  0
LINE
  5
CEB
330
1F
100
AcDbEntity
  8
AM_0
100
AcDbLine
 10
-17.1060259084821
 20
0.6843171515704114
 30
0.0
 11
-16.65140984773518
 21
0.8963081022172616
 31
0.0
  0
ARC
  5
CEC
330
1F
100
AcDbEntity
  8
AM_0
100
AcDbCircle
 10
-13.25165230871337
 20
0.9369119919857951
 30
0.0
 40
3.399999999999999
100
AcDbArc
 50
280.9331529599999
 51
309.0668470399975
  0
ARC
  5
CED
330
1F
100
AcDbEntity
  8
AM_0
100
AcDbCircle
 10
-4.913620667976033
 20
0.0749999999999886
 30
0.0
 40
0.8
100
AcDbArc
 50
209.9999999999997
 51
330.0000000000002
1001
GENIUS_GENODEF_13
1002
{
1000
HIER
1070
     0
1002
}
1002
{
1000
MANEDIT
1070
     0
1002
}
1002
{
1000
NOSEL
1070
     0
1002
}
1002
{
1000
BEHIND
1070
     0
1002
}
1002
{
1000
REACTOR
1002
}
1001
GENIUS_GENOBJ-N-FIL_13
1002
{
1000
OWNER
1000
GEN
1002
}
  0
ARC
  5
CEE
330
1F
100
AcDbEntity
  8
AM_0
100
AcDbCircle
 10
-4.913620667976374
 20
0.2250000000001933
 30
0.0
 40
1.5
100
AcDbArc
 50
155.6853347126428
 51
24.31466528732872
  0
LINE
  5
CEF
330
1F
100
AcDbEntity
  8
AM_0
100
AcDbLine
 10
-5.60644099100358
 20
-0.3249999999999886
 30
0.0
 11
-6.820601030394499
 21
1.777986876744904
 31
0.0
  0
LINE
  5
CF1
330
1F
100
AcDbEntity
  8
AM_0
100
AcDbLine
 10
-8.827676889561132
 20
5.254344239466348
 30
0.0
 11
-9.720061658979716
 21
6.799999999999982
 31
0.0
  0
LINE
  5
CF2
330
1F
100
AcDbEntity
  8
AM_0
100
AcDbLine
 10
-5.623155052559326
 20
5.873361081447939
 30
0.0
 11
-13.89650855011362
 21
4.275199041945285
 31
0.0
  0
ARC
  5
CF3
330
1F
100
AcDbEntity
  8
AM_0
100
AcDbCircle
 10
-9.027241335952169
 20
7.19999999999996
 30
0.0
 40
0.8
100
AcDbArc
 50
90.0
 51
209.9999999999997
1001
GENIUS_GENODEF_13
1002
{
1000
HIER
1070
     0
1002
}
1002
{
1000
MANEDIT
1070
     0
1002
}
1002
{
1000
NOSEL
1070
     0
1002
}
1002
{
1000
BEHIND
1070
     0
1002
}
1002
{
1000
REACTOR
1002
}
1001
GENIUS_GENOBJ-N-FIL_13
1002
{
1000
OWNER
1000
GEN
1002
}
  0
LINE
  5
CF4
330
1F
100
AcDbEntity
  8
AM_0
100
AcDbLine
 10
-5.623155052559326
 20
5.873361081447939
 30
0.0
 11
-4.566609398207589
 21
3.6075916138563
 31
0.0
  0
ARC
  5
CF5
330
1F
100
AcDbEntity
  8
AM_0
100
AcDbCircle
 10
-0.8000000000000113
 20
7.199999999999988
 30
0.0
 40
0.8
100
AcDbArc
 50
330.0000000000002
 51
90.0
1001
GENIUS_GENODEF_13
1002
{
1000
HIER
1070
     0
1002
}
1002
{
1000
MANEDIT
1070
     0
1002
}
1002
{
1000
NOSEL
1070
     0
1002
}
1002
{
1000
BEHIND
1070
     0
1002
}
1002
{
1000
REACTOR
1002
}
1001
GENIUS_GENOBJ-N-FIL_13
1002
{
1000
OWNER
1000
GEN
1002
}
  0
DIMENSION
  5
D10
330
1F
100
AcDbEntity
  8
AM_5
100
AcDbDimension
  2
*D7
 10
-0.0000000000000008
 20
-20.99999999999991
 30
0.0
 11
-35.0
 21
-19.44999999999991
 31
0.0
 70
    32
  1
<>
  3
AM_JIS
100
AcDbAlignedDimension
 13
-70.0
 23
-7.0
 33
0.0
 14
0.0
 24
-8.0
 34
0.0
 50
0.0000000000001132
100
AcDbRotatedDimension
1001
GENIUS_GENDTOL_13
1000

1000
h7
1000

1040
0.0
  0
DIMENSION
  5
D99
330
1F
100
AcDbEntity
  8
AM_5
100
AcDbDimension
  2
*D8
 10
-20.0
 20
-14.99999999999995
 30
0.0
 11
-45.0
 21
-13.44999999999995
 31
0.0
 70
    32
  1
<>
  3
AM_JIS
100
AcDbAlignedDimension
 13
-70.0
 23
-7.0
 33
0.0
 14
-20.0
 24
-7.5
 34
0.0
 50
0.0000000000001132
100
AcDbRotatedDimension
1001
GENIUS_GENDTOL_13
1000

1000
h7
1000

1040
0.0
  0
DIMENSION
  5
E47
330
1F
100
AcDbEntity
  8
AM_5
100
AcDbDimension
  2
*D9
 10
-0.0000000000000058
 20
15.0
 30
0.0
 11
-4.000000000000007
 21
16.55
 31
0.0
 70
    32
  1
<>
  3
AM_JIS
100
AcDbAlignedDimension
 13
-8.0
 23
8.0
 33
0.0
 14
0.0
 24
8.0
 34
0.0
 50
180.0
100
AcDbRotatedDimension
1001
GENIUS_GENDTOL_13
1000

1000
h7
1000

1040
0.0
  0
DIMENSION
  5
EEF
330
1F
100
AcDbEntity
  8
AM_5
100
AcDbDimension
  2
*D10
 10
6.999999999999997
 20
7.999999999999998
 30
0.0
 11
5.449999999999995
 21
-0.0000000000000002
 31
0.0
 70
    32
  1
%%c<>
  3
AM_JIS
100
AcDbAlignedDimension
 13
0.0
 23
-8.0
 33
0.0
 14
0.0000000000000018
 24
8.0
 34
0.0
 50
90.00000000000003
100
AcDbRotatedDimension
1001
GENIUS_GENDTOL_13
1000

1000
h7
1000

1040
0.0
  0
DIMENSION
  5
F78
330
1F
100
AcDbEntity
  8
AM_5
100
AcDbDimension
  2
*D11
 10
-77.0
 20
8.000000000000003
 30
0.0
 11
-78.55
 21
-0.0000000000000102
 31
0.0
 70
    32
  1
%%c<>
  3
AM_JIS
100
AcDbAlignedDimension
 13
-69.0
 23
-8.0
 33
0.0
 14
-69.0
 24
8.0
 34
0.0
 50
270.0
100
AcDbRotatedDimension
1001
GENIUS_GENDTOL_13
1000

1000
h7
1000

1040
0.0
  0
TEXT
  5
1006
330
1F
100
AcDbEntity
  8
AM_6
100
AcDbText
 10
-41.60714285714285
 20
-32.25000099999999
 30
0.0
 40
2.5
  1
FMS216
 72
     4
 11
-35.0
 21
-31.000001
 31
0.0
100
AcDbText
  0
VIEWPORT
  5
110
330
101
100
AcDbEntity
 67
     1
  8
0
100
AcDbViewport
 10
420.5
 20
297.0
 30
0.0
 40
948.9782706766916
 41
628.452
 68
     1
 69
     1
1001
ACAD
1000
MVIEW
1002
{
1070
    16
1010
0.0
1020
0.0
1030
0.0
1010
0.0
1020
0.0
1030
1.0
1040
0.0
1040
628.452
1040
420.5
1040
297.0
1040
50.0
1040
0.0
1040
0.0
1070
     0
1070
   100
1070
     1
1070
     1
1070
     0
1070
     0
1070
     0
1070
     0
1040
0.0
1040
0.0
1040
0.0
1040
10.0
1040
10.0
1040
10.0
1040
10.0
1070
     0
1002
{
1002
}
1002
}
  0
ENDSEC
  0
SECTION
  2
OBJECTS
  0
DICTIONARY
  5
C
330
0
100
AcDbDictionary
  3
ACAD_GROUP
350
D
  3
ACAD_LAYOUT
350
1A
  3
ACAD_MLINESTYLE
350
17
  3
ACAD_PLOTSETTINGS
350
19
  3
ACAD_PLOTSTYLENAME
350
E
  3
ACDBVARIABLEDICTIONARY
350
34
  3
ACMDICTIONARY
350
43
  3
AMG
350
2B
  3
AMGSNAPSETTINGS
350
6E
  3
DWGPROPS
350
118F
  3
ACDBHEADERROUNDTRIPXREC
350
119D
  0
DICTIONARY
  5
74
330
1F
100
AcDbDictionary
280
     1
  3
ACAD_INDEX
360
1191
  3
ACAD_LAYOUTSELFREF
360
11C0
  0
DICTIONARY
  5
11C5
330
101
100
AcDbDictionary
280
     1
  3
ACAD_LAYOUTSELFREF
360
11C6
  0
DICTIONARY
  5
D
102
{ACAD_REACTORS
330
C
102
}
330
C
100
AcDbDictionary
  0
DICTIONARY
  5
1A
102
{ACAD_REACTORS
330
C
102
}
330
C
100
AcDbDictionary
  0
DICTIONARY
  5
17
102
{ACAD_REACTORS
330
C
102
}
330
C
100
AcDbDictionary
  3
STANDARD
350
18
  0
DICTIONARY
  5
19
102
{ACAD_REACTORS
330
C
102
}
330
C
100
AcDbDictionary
  0
ACDBDICTIONARYWDFLT
  5
E
102
{ACAD_REACTORS
330
C
102
}
330
C
100
AcDbDictionary
281
     1
  3
Normal
350
F
100
AcDbDictionaryWithDefault
340
F
  0
DICTIONARY
  5
34
102
{ACAD_REACTORS
330
C
102
}
330
C
100
AcDbDictionary
  3
INDEXCTL
350
35
  3
SORTENTS
350
B5E
  0
DICTIONARY
  5
43
102
{ACAD_REACTORS
330
C
102
}
330
C
100
AcDbDictionary
  3
ACMSTDDICTIONARY
350
260
  0
DICTIONARY
  5
2B
102
{ACAD_REACTORS
330
C
102
}
330
C
100
AcDbDictionary
  3
ACMGSETTINGS
350
2C
  0
DICTIONARY
  5
6E
102
{ACAD_REACTORS
330
C
102
}
330
C
100
AcDbDictionary
  0
XRECORD
  5
118F
102
{ACAD_REACTORS
330
C
102
}
330
C
100
AcDbXrecord
  1
DWGPROPS COOKIE
  2

  3

  4

  6

  7

  8

  9

300
AmdtFileType=82
301
=
302
=
303
=
304
=
305
=
306
=
307
=
308
=
309
=
 40
0.0092127777777778
 41
2452856.481552905
 42
2452856.496453263
  1

 90
        1
  0
DICTIONARY
  5
119D
102
{ACAD_REACTORS
330
C
102
}
330
C
100
AcDbDictionary
  3
TSTACKALIGN
350
119E
  3
TSTACKSIZE
350
119F
  3
HYPERLINKBASE
350
11A0
  3
STYLESHEET
350
11A1
  3
LAYOUTDICT
350
11A2
  3
PLOTSETDICT
350
11A3
  3
PLOTSTYLNAMDICT
350
11A4
  3
LWETCUNION
350
11A5
  3
INSUNITS
350
11A6
  3
CEPSNTYPE
350
11A7
  3
FINGERPRINTGUID
350
11A8
  3
VERSIONGUID
350
11A9
  3
PSVPSCALE
350
11AA
  3
DIMSTYLEDATA
350
11AB
  3
PUCSORTHOREF
350
11AC
  3
PUCSORTHOVIEW
350
11AD
  3
PUCSBASE
350
11AE
  3
PUCSORGTOP
350
11AF
  3
PUCSORGBOTTOM
350
11B0
  3
PUCSORGLEFT
350
11B1
  3
PUCSORGRIGHT
350
11B2
  3
PUCSORGFRONT
350
11B3
  3
PUCSORGBACK
350
11B4
  3
UCSORTHOREF
350
11B5
  3
UCSORTHOVIEW
350
11B6
  3
UCSBASE
350
11B7
  3
UCSORGTOP
350
11B8
  3
UCSORGBOTTOM
350
11B9
  3
UCSORGLEFT
350
11BA
  3
UCSORGRIGHT
350
11BB
  3
UCSORGFRONT
350
11BC
  3
UCSORGBACK
350
11BD
  0
DICTIONARY
  5
1191
102
{ACAD_REACTORS
330
74
102
}
330
74
100
AcDbDictionary
  3
*A1
350
1192
  0
XRECORD
  5
11C0
102
{ACAD_REACTORS
330
74
102
}
330
74
100
AcDbXrecord
340
1F
  0
XRECORD
  5
11C6
102
{ACAD_REACTORS
330
11C5
102
}
330
11C5
100
AcDbXrecord
340
101
  0
MLINESTYLE
  5
18
102
{ACAD_REACTORS
330
17
102
}
330
17
100
AcDbMlineStyle
  2
STANDARD
 70
     0
  3

 62
   256
 51
90.0
 52
90.0
 71
     2
 49
0.5
 62
   256
  6
BYLAYER
 49
-0.5
 62
   256
  6
BYLAYER
  0
ACDBPLACEHOLDER
  5
F
102
{ACAD_REACTORS
330
E
102
}
330
E
100
AcDbPlaceHolder
280
     0
  0
DICTIONARYVAR
  5
35
102
{ACAD_REACTORS
330
34
102
}
330
34
100
DictionaryVariables
280
     0
  1
1
  0
DICTIONARYVAR
  5
B5E
102
{ACAD_REACTORS
330
34
102
}
330
34
100
DictionaryVariables
280
     0
  1
96
  0
DICTIONARY
  5
260
102
{ACAD_REACTORS
330
43
102
}
330
43
100
AcDbDictionary
  0
DICTIONARY
  5
2C
102
{ACAD_REACTORS
330
2B
102
}
330
2B
100
AcDbDictionary
  3
DWGSETTINGS
350
2D
  0
XRECORD
  5
119E
102
{ACAD_REACTORS
330
119D
102
}
330
119D
100
AcDbXrecord
 90
        1
  0
XRECORD
  5
119F
102
{ACAD_REACTORS
330
119D
102
}
330
119D
100
AcDbXrecord
 90
       70
  0
XRECORD
  5
11A0
102
{ACAD_REACTORS
330
119D
102
}
330
119D
100
AcDbXrecord
  1

  0
XRECORD
  5
11A1
102
{ACAD_REACTORS
330
119D
102
}
330
119D
100
AcDbXrecord
  1
ASAMI.ctb
  0
XRECORD
  5
11A2
102
{ACAD_REACTORS
330
119D
102
}
330
119D
100
AcDbXrecord
340
1A
  0
XRECORD
  5
11A3
102
{ACAD_REACTORS
330
119D
102
}
330
119D
100
AcDbXrecord
340
19
  0
XRECORD
  5
11A4
102
{ACAD_REACTORS
330
119D
102
}
330
119D
100
AcDbXrecord
340
E
  0
XRECORD
  5
11A5
102
{ACAD_REACTORS
330
119D
102
}
330
119D
100
AcDbXrecord
 90
    10781
  0
XRECORD
  5
11A6
102
{ACAD_REACTORS
330
119D
102
}
330
119D
100
AcDbXrecord
 90
        4
  0
XRECORD
  5
11A7
102
{ACAD_REACTORS
330
119D
102
}
330
119D
100
AcDbXrecord
 90
        0
  0
XRECORD
  5
11A8
102
{ACAD_REACTORS
330
119D
102
}
330
119D
100
AcDbXrecord
  1
{AFB28963-8C59-40AE-9337-C84526B81ACE}
  0
XRECORD
  5
11A9
102
{ACAD_REACTORS
330
119D
102
}
330
119D
100
AcDbXrecord
  1
{E6DA13EA-145C-4188-9BC2-D7D280F59DCF}
  0
XRECORD
  5
11AA
102
{ACAD_REACTORS
330
119D
102
}
330
119D
100
AcDbXrecord
 40
0.0
  0
XRECORD
  5
11AB
102
{ACAD_REACTORS
330
119D
102
}
330
119D
100
AcDbXrecord
1000
DSTYLE
1002
{
1070
    79
 70
     2
1070
   341
340
59
1070
   342
340
59
1070
   371
 70
    -1
1070
   372
 70
    -1
1002
}
  0
XRECORD
  5
11AC
102
{ACAD_REACTORS
330
119D
102
}
330
119D
100
AcDbXrecord
340
0
  0
XRECORD
  5
11AD
102
{ACAD_REACTORS
330
119D
102
}
330
119D
100
AcDbXrecord
 70
     0
  0
XRECORD
  5
11AE
102
{ACAD_REACTORS
330
119D
102
}
330
119D
100
AcDbXrecord
340
0
  0
XRECORD
  5
11AF
102
{ACAD_REACTORS
330
119D
102
}
330
119D
100
AcDbXrecord
 10
0.0
 20
0.0
 30
0.0
  0
XRECORD
  5
11B0
102
{ACAD_REACTORS
330
119D
102
}
330
119D
100
AcDbXrecord
 10
0.0
 20
0.0
 30
0.0
  0
XRECORD
  5
11B1
102
{ACAD_REACTORS
330
119D
102
}
330
119D
100
AcDbXrecord
 10
0.0
 20
0.0
 30
0.0
  0
XRECORD
  5
11B2
102
{ACAD_REACTORS
330
119D
102
}
330
119D
100
AcDbXrecord
 10
0.0
 20
0.0
 30
0.0
  0
XRECORD
  5
11B3
102
{ACAD_REACTORS
330
119D
102
}
330
119D
100
AcDbXrecord
 10
0.0
 20
0.0
 30
0.0
  0
XRECORD
  5
11B4
102
{ACAD_REACTORS
330
119D
102
}
330
119D
100
AcDbXrecord
 10
0.0
 20
0.0
 30
0.0
  0
XRECORD
  5
11B5
102
{ACAD_REACTORS
330
119D
102
}
330
119D
100
AcDbXrecord
340
0
  0
XRECORD
  5
11B6
102
{ACAD_REACTORS
330
119D
102
}
330
119D
100
AcDbXrecord
 70
     0
  0
XRECORD
  5
11B7
102
{ACAD_REACTORS
330
119D
102
}
330
119D
100
AcDbXrecord
340
0
  0
XRECORD
  5
11B8
102
{ACAD_REACTORS
330
119D
102
}
330
119D
100
AcDbXrecord
 10
0.0
 20
0.0
 30
0.0
  0
XRECORD
  5
11B9
102
{ACAD_REACTORS
330
119D
102
}
330
119D
100
AcDbXrecord
 10
0.0
 20
0.0
 30
0.0
  0
XRECORD
  5
11BA
102
{ACAD_REACTORS
330
119D
102
}
330
119D
100
AcDbXrecord
 10
0.0
 20
0.0
 30
0.0
  0
XRECORD
  5
11BB
102
{ACAD_REACTORS
330
119D
102
}
330
119D
100
AcDbXrecord
 10
0.0
 20
0.0
 30
0.0
  0
XRECORD
  5
11BC
102
{ACAD_REACTORS
330
119D
102
}
330
119D
100
AcDbXrecord
 10
0.0
 20
0.0
 30
0.0
  0
XRECORD
  5
11BD
102
{ACAD_REACTORS
330
119D
102
}
330
119D
100
AcDbXrecord
 10
0.0
 20
0.0
 30
0.0
  0
LAYER_INDEX
  5
1192
102
{ACAD_REACTORS
330
1191
102
}
330
1191
100
AcDbIndex
 40
2453152.422436446
100
AcDbLayerIndex
  8
0
360
1193
 90
        0
  8
AM_0
360
1194
 90
       31
  8
AM_7
360
1195
 90
        5
  8
AM_11
360
1196
 90
        4
  8
AM_4
360
1197
 90
        1
  8
AM_CL
360
1198
 90
        0
  8
AM_5
360
1199
 90
        5
  8
Defpoints
360
119A
 90
        0
  8
AM_6
360
119B
 90
        1
  0
XRECORD
  5
2D
102
{ACAD_REACTORS
330
2C
102
}
330
2C
100
AcDbXrecord
  1
VERSION
140
15.0
  1
PRODUCT
  2
AutoCAD Mechanical 2000
  0
IDBUFFER
  5
1193
330
0
100
AcDbIdBuffer
  0
IDBUFFER
  5
1194
330
0
100
AcDbIdBuffer
330
CE2
330
CE4
330
CE6
330
CE8
330
CEA
330
CEB
330
CEC
330
CED
330
CEE
330
CEF
330
CF1
330
CF2
330
CF3
330
CF4
330
CF5
330
BA4
330
BA5
330
BA6
330
BA7
330
BB0
330
BB4
330
BBD
330
BEC
330
BF0
330
BF1
330
BF2
330
BF3
330
BF4
330
BFD
330
CDF
330
CE0
  0
IDBUFFER
  5
1195
330
0
100
AcDbIdBuffer
330
BC9
330
CE1
330
CE3
330
CE7
330
CE9
  0
IDBUFFER
  5
1196
330
0
100
AcDbIdBuffer
330
BB5
330
BD2
330
BD6
330
BE0
  0
IDBUFFER
  5
1197
330
0
100
AcDbIdBuffer
330
CE5
  0
IDBUFFER
  5
1198
330
0
100
AcDbIdBuffer
  0
IDBUFFER
  5
1199
330
0
100
AcDbIdBuffer
330
D10
330
D99
330
E47
330
EEF
330
F78
  0
IDBUFFER
  5
119A
330
0
100
AcDbIdBuffer
  0
IDBUFFER
  5
119B
330
0
100
AcDbIdBuffer
330
1006
  0
ENDSEC
  0
EOF
